osu file format v14

[General]
AudioFilename: audio.mp3
AudioLeadIn: 0
PreviewTime: 58566
Countdown: 0
SampleSet: Normal
StackLeniency: 0.7
Mode: 1
LetterboxInBreaks: 0
WidescreenStoryboard: 1

[Editor]
Bookmarks: 58,58566,88235,140777,170444,201771,247350
DistanceSpacing: 1.5
BeatDivisor: 12
GridSize: 32
TimelineZoom: 2.149999

[Metadata]
Title:Ryuuseigun ni Aeta Natsu
TitleUnicode:流星群に会えた夏
Artist:Chroma
ArtistUnicode:黒魔
Creator:Fynbi
Version:Oni
Source:
Tags:Eyenine kuroma summer met with a meteor shower electronic instrumental chiptune osu! philippines nationals 2022 osu!taiko phnt qf tb quarterfinals tiebreaker
BeatmapID:3746905
BeatmapSetID:1817514

[Difficulty]
HPDrainRate:5
CircleSize:7
OverallDifficulty:5.5
ApproachRate:10
SliderMultiplier:1.4
SliderTickRate:1

[Events]
//Background and Video events
0,0,"bg.png",0,-100
//Break Periods
2,193649,201771
//Storyboard Layer 0 (Background)
//Storyboard Layer 1 (Fail)
//Storyboard Layer 2 (Pass)
//Storyboard Layer 3 (Foreground)
//Storyboard Layer 4 (Overlay)
//Storyboard Sound Samples

[TimingPoints]
-1930,331.491712707182,4,1,0,10,1,0
3042,-100,4,1,0,100,0,0
3373,-100,4,1,0,100,0,1
7987,-90.74447,4,1,0,100,0,1
8070,-89.74529,4,1,0,100,0,1
8153,-88.767876,4,1,0,100,0,1
8236,-87.81153,4,1,0,100,0,1
8319,-86.875565,4,1,0,100,0,1
8402,-85.95934,4,1,0,100,0,1
8484,-85.072945,4,1,0,100,0,1
8567,-84.194145,4,1,0,100,0,1
8677,-83.333336,4,1,0,90,0,0
8760,-125.000006,4,1,0,70,0,0
12628,-125,4,1,0,75,0,0
13290,-125,4,1,0,80,0,0
13953,-83.3333333333333,4,1,0,85,0,0
14616,-83.3333333333333,4,1,0,90,0,0
15279,-62.5,4,1,0,95,0,0
15942,-62.5,4,1,0,45,0,0
16467,-111.111111111111,4,1,0,90,0,0
16633,331.491712707182,4,1,0,90,1,0
16633,-111.111111111111,4,1,0,90,0,0
25971,-110.08718,4,1,0,90,0,0
26054,-109.33377,4,1,0,90,0,0
26136,-108.59951,4,1,0,90,0,0
26219,-107.86627,4,1,0,90,0,0
26385,-106.42909,4,1,0,90,0,0
26551,-105.0297,4,1,0,90,0,0
26634,-104.34373,4,1,0,90,0,0
26717,-103.66664,4,1,0,90,0,0
26799,-103.006294,4,1,0,90,0,0
26882,-102.346405,4,1,0,90,0,0
26965,-101.694916,4,1,0,90,0,0
27048,-101.051674,4,1,0,90,0,0
27213,-100,4,1,0,90,0,0
37987,-100.733086,4,1,0,90,0,0
38153,-101.37228,4,1,0,90,0,0
38319,-102.019615,4,1,0,90,0,0
38484,-102.67131,4,1,0,90,0,0
38650,-103.33542,4,1,0,90,0,0
38816,-104.008156,4,1,0,90,0,0
38982,-104.68972,4,1,0,90,0,0
39147,-105.37609,4,1,0,90,0,0
39313,-106.07576,4,1,0,90,0,0
39479,-106.78478,4,1,0,90,0,0
39645,-107.50334,4,1,0,90,0,0
39810,-108.22723,4,1,0,90,0,0
39976,-108.965416,4,1,0,90,0,0
40142,-109.71372,4,1,0,90,0,0
40308,-110.4724,4,1,0,90,0,0
40473,-110.860306,4,1,0,90,0,0
40805,-107.86627,4,1,0,90,0,0
40971,-106.42909,4,1,0,90,0,0
41302,-103.67475,4,1,0,90,0,0
41468,-102.346405,4,1,0,90,0,0
41634,-101.051674,4,1,0,90,0,0
41799,-100,4,1,0,90,0,0
41965,-95.83359,4,1,0,90,0,0
42047,-96.1305,4,1,0,90,0,0
42130,-96.43292,4,1,0,90,0,0
42213,-96.737236,4,1,0,90,0,0
42296,-97.04349,4,1,0,90,0,0
42462,-97.66184,4,1,0,90,0,0
42545,-97.973976,4,1,0,90,0,0
42628,-98.288124,4,1,0,90,0,0
42710,-98.600464,4,1,0,90,0,0
42793,-98.91865,4,1,0,90,0,0
43125,-100.1057,4,1,0,90,0,0
43290,-100.733086,4,1,0,90,0,0
43456,-101.37228,4,1,0,90,0,0
43622,-102.019615,4,1,0,90,0,0
43787,-102.67131,4,1,0,90,0,0
43953,-103.33542,4,1,0,90,0,0
44119,-104.008156,4,1,0,90,0,0
44285,-104.68972,4,1,0,90,0,0
44450,-105.37609,4,1,0,90,0,0
44616,-106.07576,4,1,0,90,0,0
44782,-106.78478,4,1,0,90,0,0
44948,-107.50334,4,1,0,90,0,0
45113,-108.22723,4,1,0,90,0,0
45279,-108.965416,4,1,0,90,0,0
45445,-109.71372,4,1,0,90,0,0
45611,-110.4724,4,1,0,90,0,0
45776,-110.860306,4,1,0,90,0,0
46108,-107.86627,4,1,0,90,0,0
46274,-106.42909,4,1,0,90,0,0
46605,-103.67475,4,1,0,90,0,0
46771,-102.346405,4,1,0,90,0,0
46937,-101.051674,4,1,0,90,0,0
47102,-100,4,1,0,90,0,0
47268,-95.83359,4,1,0,90,0,0
47350,-96.1305,4,1,0,90,0,0
47433,-96.43292,4,1,0,90,0,0
47516,-96.737236,4,1,0,90,0,0
47599,-97.04349,4,1,0,90,0,0
47765,-97.66184,4,1,0,90,0,0
47848,-97.973976,4,1,0,90,0,0
47931,-98.288124,4,1,0,90,0,0
48013,-98.600464,4,1,0,90,0,0
48096,-98.91865,4,1,0,90,0,0
48428,-125.165199904075,4,1,0,90,0,0
53732,-62.5,4,1,0,90,0,0
54064,-125,4,1,0,45,0,0
56053,-125,4,1,0,50,0,0
56219,-125,4,1,0,55,0,0
56384,-125,4,1,0,60,0,0
56550,-125,4,1,0,65,0,0
56716,-125,4,1,0,70,0,0
56882,-125,4,1,0,75,0,0
57047,-125,4,1,0,80,0,0
57213,-125,4,1,0,85,0,0
57379,-125,4,1,0,90,0,0
57545,-125,4,1,0,95,0,0
57710,-25,4,1,0,100,0,0
57766,-125,4,1,0,70,0,0
58539,-125,4,1,0,100,0,0
59063,-90.9090909090909,4,1,0,100,0,1
68345,-86.9565217391304,4,1,0,100,0,0
69147,-100,4,1,0,100,0,0
69671,-90.90909,4,1,0,100,0,1
76301,-90.9090909090909,4,1,0,100,0,0
77628,331.491712707182,4,1,0,100,1,8
77655,-90.9090909090909,4,1,0,100,0,0
78926,-125.106143023085,4,1,0,80,0,0
86882,-124.98704,4,1,0,90,0,0
87048,-124.34145,4,1,0,90,0,0
87214,-122.75061,4,1,0,90,0,0
87380,-120.286026,4,1,0,90,0,0
87545,-117.07473,4,1,0,90,0,0
87711,-113.20577,4,1,0,90,0,0
87877,-108.8367,4,1,0,90,0,0
87960,-106.50887,4,1,0,90,0,0
88042,-104.13769,4,1,0,90,0,0
88208,-86.9565217391304,4,1,0,90,0,0
88705,-100,4,1,0,90,0,0
89036,-86.9565217391304,4,1,0,90,0,0
89534,-100,4,1,0,90,0,0
89672,-86.9565217391304,4,1,0,90,0,0
90031,-100,4,1,0,90,0,0
90362,-86.9565217391304,4,1,0,90,0,0
90694,-100,4,1,0,90,0,0
90860,-86.9565217391304,4,1,0,90,0,0
91357,-100,4,1,0,90,0,0
91688,-86.9565217391304,4,1,0,90,0,0
92186,-100,4,1,0,90,0,0
92324,-86.9565217391304,4,1,0,90,0,0
92876,-100,4,1,0,90,0,1
93208,-100,4,1,0,90,0,0
93511,-86.9565217391304,4,1,0,90,0,0
94009,-100,4,1,0,90,0,0
94339,-86.9565217391304,4,1,0,90,0,0
94837,-100,4,1,0,90,0,0
94975,-86.9565217391304,4,1,0,90,0,0
95335,-100,4,1,0,90,0,0
95665,-86.9565217391304,4,1,0,90,0,0
95998,-100,4,1,0,90,0,0
96163,-86.9565217391304,4,1,0,90,0,0
96661,-100,4,1,0,90,0,0
96991,-86.9565217391304,4,1,0,90,0,0
97489,-100,4,1,0,90,0,0
97627,-86.9565217391304,4,1,0,90,0,0
98180,-100,4,1,0,90,0,1
98346,-100,4,1,0,90,0,0
98815,-100,4,1,0,90,0,0
109589,-83.3333333333333,4,1,0,90,0,0
109976,-100,4,1,0,90,0,0
118539,-71.4285714285714,4,1,0,90,0,0
118705,-100,4,1,0,90,0,0
120031,-125,4,1,0,85,0,0
129479,-120.61145,4,1,0,90,0,0
129562,-118.817505,4,1,0,90,0,0
129645,-117.07613,4,1,0,90,0,0
129728,-115.38507,4,1,0,90,0,0
129810,-113.76168,4,1,0,90,0,0
129893,-112.16436,4,1,0,90,0,0
129976,-110.611275,4,1,0,90,0,0
130059,-109.10061,4,1,0,90,0,0
130142,-107.630646,4,1,0,90,0,0
130308,-104.80644,4,1,0,90,0,0
130639,-100.10293,4,1,0,90,0,0
130805,-100.733986,4,1,0,90,0,0
130971,-101.37303,4,1,0,90,0,0
131136,-102.01633,4,1,0,90,0,0
131302,-102.67182,4,1,0,90,0,0
131468,-103.33578,4,1,0,90,0,0
131634,-104.008385,4,1,0,90,0,0
131799,-104.68568,4,1,0,90,0,0
131965,-105.37602,4,1,0,90,0,0
132131,-106.07554,4,1,0,90,0,0
132297,-106.78441,4,1,0,90,0,0
132462,-107.49845,4,1,0,90,0,0
132628,-108.22653,4,1,0,90,0,0
132794,-108.96454,4,1,0,90,0,0
132960,-109.71268,4,1,0,90,0,0
133125,-110.46657,4,1,0,90,0,0
133291,-110.85886,4,1,0,90,0,0
133457,-109.3409,4,1,0,90,0,0
133623,-107.86397,4,1,0,90,0,0
133788,-106.43493,4,1,0,90,0,0
133954,-105.03495,4,1,0,90,0,0
134120,-103.67132,4,1,0,90,0,0
134286,-102.34264,4,1,0,90,0,0
134451,-101.05529,4,1,0,90,0,0
134617,-99.79241,4,1,0,90,0,0
134783,-98.560715,4,1,0,90,0,0
134866,-97.95619,4,1,0,90,0,0
134949,-97.35904,4,1,0,90,0,0
135114,-96.1933,4,1,0,90,0,0
135280,-95.04834,4,1,0,90,0,0
135446,-93.93031,4,1,0,90,0,0
135612,-92.83827,4,1,0,90,0,0
135777,-91.77769,4,1,0,90,0,0
135942,-62.5,4,1,0,90,0,0
136274,-125,4,1,0,45,0,0
138263,-125,4,1,0,50,0,0
138429,-125,4,1,0,55,0,0
138594,-125,4,1,0,60,0,0
138760,-125,4,1,0,65,0,0
138926,-125,4,1,0,70,0,0
139092,-125,4,1,0,75,0,0
139257,-125,4,1,0,80,0,0
139423,-125,4,1,0,85,0,0
139589,-125,4,1,0,90,0,0
139755,-125,4,1,0,95,0,0
139917,-25,4,1,0,100,0,0
139976,-125,4,1,0,70,0,0
140749,-125,4,1,0,100,0,0
141274,-90.9090909090909,4,1,0,100,0,1
150556,-86.9565217391304,4,1,0,100,0,0
151357,-100,4,1,0,100,0,0
151882,-90.9090909090909,4,1,0,100,0,1
158511,-90.9090909090909,4,1,0,100,0,0
159837,331.491712707182,4,1,0,100,1,0
159837,-90.9090909090909,4,1,0,100,0,0
162462,-100,4,1,0,90,0,0
181026,-111.634950554311,4,1,0,90,0,0
181688,-100,4,1,0,90,0,0
187739,-98.353355,4,1,0,90,0,0
187822,-97.15709,4,1,0,90,0,0
187904,-96.00348,4,1,0,90,0,0
187987,-94.86336,4,1,0,90,0,0
188070,-93.75001,4,1,0,90,0,0
188153,-92.662476,4,1,0,90,0,0
188236,-91.59989,4,1,0,90,0,0
188319,-90.56139,4,1,0,90,0,0
188540,-87.907715,4,1,0,90,0,0
188761,-85.40513,4,1,0,90,0,0
188981,-83.3333333333333,4,1,0,90,0,0
189009,331.491712707182,40,1,0,90,1,8
189478,-111.111111111111,4,1,0,90,0,0
191633,-100,64,1,0,60,0,0
193622,-100,64,1,0,30,0,0
201743,-100,64,1,0,90,0,0
202268,331.491712707182,4,1,0,90,1,0
202268,-125,4,1,0,90,0,0
211522,-100,4,1,0,90,0,0
212848,-124.5257,4,1,0,90,0,0
213180,-121.69399,4,1,0,90,0,0
213345,-120.33403,4,1,0,90,0,0
213511,-118.99617,4,1,0,90,0,0
213677,-117.68771,4,1,0,90,0,0
213843,-116.40774,4,1,0,90,0,0
214008,-115.162766,4,1,0,90,0,0
214091,-114.54652,4,1,0,90,0,0
214174,-113.93684,4,1,0,90,0,0
214506,-111.56163,4,1,0,90,0,0
214671,-110.417656,4,1,0,90,0,0
214837,-109.29017,4,1,0,90,0,0
215003,-108.18547,4,1,0,90,0,0
215169,-107.10289,4,1,0,90,0,0
215334,-106.048096,4,1,0,90,0,0
215417,-105.525314,4,1,0,90,0,0
215500,-105.00766,4,1,0,90,0,0
215832,-102.986855,4,1,0,90,0,0
215997,-102.01119,4,1,0,90,0,0
216163,-101.0481,4,1,0,90,0,0
216329,-100.103035,4,1,0,90,0,0
216412,-99.63709,4,1,0,90,0,0
216495,-99.17547,4,1,0,90,0,0
216660,-98.27038,4,1,0,90,0,0
216826,-97.37632,4,1,0,90,0,0
216992,-96.49838,4,1,0,90,0,0
217075,-96.065315,4,1,0,90,0,0
217158,-95.63612,4,1,0,90,0,0
217323,-94.7942,4,1,0,90,0,0
217489,-93.96201,4,1,0,90,0,0
217655,-93.144295,4,1,0,90,0,0
217738,-92.74075,4,1,0,90,0,0
217821,-92.340706,4,1,0,90,0,0
217986,-91.555565,4,1,0,90,0,0
218151,-83.3333333333333,4,1,0,90,0,0
218317,-88.8888888888889,4,1,0,90,0,0
218483,-90.9090909090909,4,1,0,90,0,0
218649,-83.3333333333333,4,1,0,90,0,0
218814,-88.8888888888889,4,1,0,90,0,0
218980,-90.9090909090909,4,1,0,90,0,0
219146,-93.0232558139535,4,1,0,90,0,0
219312,-95.2380952380952,4,1,0,90,0,0
219477,-62.5,4,1,0,90,0,0
219809,-125,4,1,0,40,0,0
220832,331.491712707182,4,1,0,45,1,8
221798,-125,4,1,0,50,0,0
222129,-125,4,1,0,55,0,0
222461,-125,4,1,0,60,0,0
222792,-125,4,1,0,45,0,0
223124,-125,4,1,0,65,0,0
223455,-125,4,1,0,70,0,0
223787,-125,4,1,0,75,0,0
224118,-125,4,1,0,80,0,0
224450,-125,4,1,0,85,0,0
224754,-12.5,4,1,0,45,0,0
225610,-125,4,1,0,100,0,0
226135,-86.9565217391304,4,1,0,100,0,1
235417,-83.3333333333333,4,1,0,100,0,0
236218,-100,4,1,0,100,0,0
236743,-86.9565217391304,4,1,0,100,0,1
243373,-86.9565217391304,4,1,0,100,0,0
244699,331.491712707182,4,1,0,100,1,1
244699,-86.9565217391304,4,1,0,100,0,1
247323,-86.9565217391304,4,1,0,100,0,1
253980,-83.3333333333333,4,1,0,100,0,0
254782,-100,4,1,0,100,0,0
255306,-86.9565217391304,4,1,0,100,0,1
260582,-86.9565217391304,4,1,0,100,0,1
261936,-86.9565217391304,4,1,0,100,0,0
264589,331.491712707182,4,1,0,100,1,9
264589,-86.9565217391304,4,1,0,100,0,1
265886,-100,4,1,0,100,0,1
267240,-100,4,1,0,100,0,0
269201,-90.74447,4,1,0,100,0,0
269284,-89.74529,4,1,0,100,0,0
269367,-88.767876,4,1,0,100,0,0
269450,-87.81153,4,1,0,100,0,0
269533,-86.875565,4,1,0,100,0,0
269616,-85.95934,4,1,0,100,0,0
269698,-85.072945,4,1,0,100,0,0
269781,-84.194145,4,1,0,100,0,0
269864,-83.3333333333333,4,1,0,100,0,0
270030,-100,4,1,0,70,0,0
272185,-71.4285714285714,4,1,0,70,0,0

[HitObjects]
228,221,3373,5,12,0:0:0:0:
222,227,8014,5,0,0:0:0:0:
222,227,8097,5,0,0:0:0:0:
222,227,8180,5,0,0:0:0:0:
222,227,8263,5,0,0:0:0:0:
222,227,8346,5,8,0:0:0:0:
222,227,8429,5,8,0:0:0:0:
222,227,8511,5,8,0:0:0:0:
222,227,8594,5,8,0:0:0:0:
222,227,8677,5,0,0:0:0:0:
204,236,9174,5,0,0:0:0:0:
204,236,9672,5,8,0:0:0:0:
225,213,11329,5,8,0:0:0:0:
230,215,11826,5,0,0:0:0:0:
218,219,12324,5,8,0:0:0:0:
256,192,13152,12,0,15970,0:0:0:0:
233,222,16633,5,12,0:0:0:0:
217,221,17130,5,0,0:0:0:0:
217,221,17627,5,8,0:0:0:0:
227,227,17958,5,0,0:0:0:0:
217,221,18290,5,8,0:0:0:0:
229,224,18456,5,0,0:0:0:0:
219,224,18787,5,0,0:0:0:0:
219,224,18953,5,8,0:0:0:0:
227,220,19284,5,0,0:0:0:0:
231,226,19782,5,0,0:0:0:0:
217,221,20279,5,8,0:0:0:0:
227,220,20610,5,0,0:0:0:0:
217,221,20942,5,0,0:0:0:0:
226,215,21108,5,0,0:0:0:0:
217,221,21439,5,8,0:0:0:0:
220,212,21605,5,8,0:0:0:0:
226,223,21936,5,0,0:0:0:0:
220,212,22434,5,0,0:0:0:0:
222,218,22765,5,8,0:0:0:0:
226,223,22931,5,8,0:0:0:0:
217,221,23262,5,0,0:0:0:0:
217,221,23760,5,0,0:0:0:0:
217,221,23925,5,0,0:0:0:0:
217,221,24257,5,8,0:0:0:0:
217,221,24588,5,0,0:0:0:0:
214,230,24920,5,0,0:0:0:0:
217,221,25086,5,0,0:0:0:0:
217,221,25251,5,0,0:0:0:0:
217,221,25583,5,8,0:0:0:0:
217,210,25749,5,8,0:0:0:0:
217,221,25914,5,0,0:0:0:0:
217,221,25997,5,0,0:0:0:0:
217,221,26080,5,0,0:0:0:0:
217,221,26163,5,0,0:0:0:0:
217,221,26246,5,8,0:0:0:0:
217,221,26412,5,0,0:0:0:0:
217,221,26577,5,8,0:0:0:0:
217,221,26660,5,8,0:0:0:0:
217,221,26743,5,8,0:0:0:0:
210,211,26826,5,8,0:0:0:0:
217,221,26909,5,0,0:0:0:0:
217,221,26992,5,0,0:0:0:0:
217,221,27074,5,0,0:0:0:0:
217,221,27240,5,12,0:0:0:0:
222,221,27406,5,0,0:0:0:0:
214,218,27572,5,8,0:0:0:0:
222,221,27737,5,0,0:0:0:0:
222,221,28069,5,0,0:0:0:0:
222,221,28235,5,8,0:0:0:0:
222,221,28400,5,0,0:0:0:0:
217,221,28566,5,12,0:0:0:0:
217,221,28732,5,0,0:0:0:0:
222,221,28898,5,8,0:0:0:0:
217,221,29063,5,8,0:0:0:0:
222,221,29395,5,0,0:0:0:0:
217,221,29561,5,8,0:0:0:0:
249,221,29726,5,8,0:0:0:0:
217,221,29892,5,4,0:0:0:0:
222,221,30224,5,8,0:0:0:0:
216,226,30555,5,0,0:0:0:0:
216,226,30638,5,0,0:0:0:0:
216,226,30721,5,0,0:0:0:0:
216,226,30887,5,8,0:0:0:0:
216,226,31052,5,8,0:0:0:0:
216,226,31218,5,4,0:0:0:0:
216,226,31384,5,8,0:0:0:0:
216,226,31467,5,8,0:0:0:0:
216,226,31550,5,8,0:0:0:0:
226,229,31715,5,0,0:0:0:0:
216,226,32047,5,0,0:0:0:0:
216,226,32213,5,0,0:0:0:0:
216,226,32378,5,0,0:0:0:0:
217,221,32544,5,12,0:0:0:0:
217,221,32710,5,0,0:0:0:0:
217,221,32793,5,0,0:0:0:0:
217,221,32876,5,0,0:0:0:0:
217,221,33041,5,0,0:0:0:0:
217,221,33124,5,0,0:0:0:0:
217,221,33207,5,0,0:0:0:0:
217,221,33373,5,8,0:0:0:0:
217,221,33539,5,0,0:0:0:0:
217,221,33704,5,8,0:0:0:0:
217,221,34036,5,0,0:0:0:0:
217,221,34119,5,0,0:0:0:0:
217,221,34202,5,8,0:0:0:0:
217,221,34367,5,0,0:0:0:0:
217,221,34450,5,0,0:0:0:0:
217,221,34533,5,8,0:0:0:0:
217,221,34699,5,0,0:0:0:0:
217,221,34865,5,0,0:0:0:0:
217,221,35030,5,8,0:0:0:0:
217,221,35362,5,8,0:0:0:0:
217,221,35445,5,0,0:0:0:0:
217,221,35528,5,8,0:0:0:0:
217,221,35693,5,8,0:0:0:0:
217,221,35776,5,0,0:0:0:0:
217,221,35859,5,8,0:0:0:0:
217,221,36025,5,0,0:0:0:0:
217,221,36191,5,8,0:0:0:0:
217,221,36356,5,8,0:0:0:0:
217,221,36522,5,0,0:0:0:0:
217,221,36688,5,0,0:0:0:0:
230,223,36853,5,8,0:0:0:0:
217,221,37019,5,0,0:0:0:0:
217,221,37102,5,0,0:0:0:0:
217,221,37185,5,8,0:0:0:0:
217,221,37848,5,8,0:0:0:0:
217,221,38014,5,0,0:0:0:0:
217,221,38179,5,8,0:0:0:0:
217,221,38345,5,0,0:0:0:0:
217,221,38511,5,8,0:0:0:0:
217,221,38677,5,0,0:0:0:0:
217,221,38842,5,8,0:0:0:0:
217,221,39008,5,0,0:0:0:0:
217,221,39174,5,8,0:0:0:0:
217,221,39340,5,0,0:0:0:0:
217,221,39505,5,8,0:0:0:0:
217,221,39671,5,0,0:0:0:0:
217,221,39837,5,8,0:0:0:0:
217,221,40003,5,0,0:0:0:0:
217,221,40168,5,0,0:0:0:0:
217,221,40334,5,0,0:0:0:0:
217,221,40500,5,8,0:0:0:0:
217,221,40831,5,8,0:0:0:0:
217,221,40997,5,8,0:0:0:0:
217,221,41329,5,0,0:0:0:0:
217,221,41494,5,8,0:0:0:0:
217,221,41660,5,0,0:0:0:0:
217,221,41826,5,0,0:0:0:0:
217,221,41992,5,8,0:0:0:0:
217,221,42074,5,8,0:0:0:0:
217,221,42157,5,0,0:0:0:0:
217,221,42240,5,0,0:0:0:0:
217,221,42323,5,8,0:0:0:0:
217,221,42489,5,0,0:0:0:0:
217,221,42572,5,0,0:0:0:0:
210,213,42655,5,8,0:0:0:0:
210,213,42737,5,8,0:0:0:0:
210,213,42820,5,0,0:0:0:0:
217,221,43152,5,8,0:0:0:0:
212,222,43318,5,0,0:0:0:0:
212,222,43483,5,8,0:0:0:0:
212,222,43649,5,0,0:0:0:0:
212,222,43815,5,8,0:0:0:0:
212,222,43981,5,0,0:0:0:0:
212,222,44146,5,8,0:0:0:0:
212,222,44312,5,0,0:0:0:0:
212,222,44478,5,8,0:0:0:0:
212,222,44644,5,0,0:0:0:0:
212,222,44809,5,8,0:0:0:0:
219,236,44975,5,0,0:0:0:0:
219,236,45141,5,8,0:0:0:0:
219,204,45307,5,0,0:0:0:0:
219,204,45472,5,0,0:0:0:0:
219,204,45638,5,0,0:0:0:0:
219,204,45804,5,8,0:0:0:0:
219,204,46135,5,8,0:0:0:0:
219,204,46301,5,8,0:0:0:0:
212,217,46632,5,0,0:0:0:0:
205,223,46798,5,8,0:0:0:0:
217,221,46964,5,0,0:0:0:0:
217,221,47130,5,0,0:0:0:0:
217,221,47295,5,8,0:0:0:0:
217,221,47378,5,8,0:0:0:0:
217,221,47461,5,0,0:0:0:0:
217,221,47544,5,0,0:0:0:0:
217,221,47627,5,8,0:0:0:0:
217,221,47793,5,0,0:0:0:0:
217,221,47876,5,0,0:0:0:0:
217,221,47958,5,8,0:0:0:0:
217,221,48041,5,8,0:0:0:0:
217,221,48124,5,0,0:0:0:0:
217,221,48456,5,8,0:0:0:0:
211,213,48787,5,8,0:0:0:0:
217,221,49119,5,8,0:0:0:0:
211,213,49450,5,8,0:0:0:0:
215,210,49782,5,8,0:0:0:0:
214,218,50113,5,8,0:0:0:0:
214,226,50445,5,8,0:0:0:0:
213,211,50776,5,0,0:0:0:0:
215,216,50942,5,0,0:0:0:0:
217,221,51108,5,8,0:0:0:0:
217,221,51439,5,8,0:0:0:0:
217,221,51605,5,8,0:0:0:0:
217,221,51936,5,0,0:0:0:0:
217,221,52102,5,8,0:0:0:0:
217,221,52268,5,8,0:0:0:0:
217,221,52599,5,8,0:0:0:0:
213,211,52682,5,8,0:0:0:0:
213,211,52765,5,0,0:0:0:0:
217,189,53760,5,4,0:0:0:0:
217,189,53925,5,4,0:0:0:0:
256,192,55914,12,0,57737,0:0:0:0:
218,209,58566,5,8,0:0:0:0:
218,209,58732,5,0,0:0:0:0:
218,209,58898,5,0,0:0:0:0:
233,229,59063,5,12,0:0:0:0:
233,248,59395,5,0,0:0:0:0:
223,247,59561,5,8,0:0:0:0:
222,245,59644,5,8,0:0:0:0:
222,245,59726,5,0,0:0:0:0:
230,206,59809,5,0,0:0:0:0:
223,243,59892,5,8,0:0:0:0:
223,243,60058,5,0,0:0:0:0:
223,243,60224,5,0,0:0:0:0:
223,243,60389,5,8,0:0:0:0:
224,252,60555,5,0,0:0:0:0:
224,252,60721,5,8,0:0:0:0:
223,247,60887,5,8,0:0:0:0:
222,245,60970,5,8,0:0:0:0:
222,245,61052,5,0,0:0:0:0:
230,206,61135,5,0,0:0:0:0:
223,243,61218,5,8,0:0:0:0:
223,243,61384,5,0,0:0:0:0:
223,243,61550,5,0,0:0:0:0:
223,243,61715,5,8,0:0:0:0:
224,252,61881,5,0,0:0:0:0:
224,252,62047,5,8,0:0:0:0:
244,221,62213,5,8,0:0:0:0:
244,221,62295,5,8,0:0:0:0:
230,216,62378,5,8,0:0:0:0:
230,217,62544,5,0,0:0:0:0:
230,217,62627,5,0,0:0:0:0:
230,216,62710,5,8,0:0:0:0:
230,216,62876,5,8,0:0:0:0:
230,216,62958,5,8,0:0:0:0:
230,216,63041,5,0,0:0:0:0:
229,215,63207,5,0,0:0:0:0:
230,216,63373,5,8,0:0:0:0:
224,250,63456,5,0,0:0:0:0:
230,217,63539,5,8,0:0:0:0:
230,216,63704,5,8,0:0:0:0:
265,213,63870,5,0,0:0:0:0:
265,213,64036,5,0,0:0:0:0:
264,212,64202,5,0,0:0:0:0:
265,213,64367,5,12,0:0:0:0:
265,213,64699,5,0,0:0:0:0:
267,218,64865,5,8,0:0:0:0:
267,207,64947,5,8,0:0:0:0:
267,218,65030,5,0,0:0:0:0:
230,206,65113,5,0,0:0:0:0:
267,218,65196,5,8,0:0:0:0:
267,218,65362,5,0,0:0:0:0:
267,218,65528,5,0,0:0:0:0:
267,218,65693,5,8,0:0:0:0:
267,218,65859,5,0,0:0:0:0:
269,186,65942,5,0,0:0:0:0:
267,218,66025,5,8,0:0:0:0:
267,218,66191,5,0,0:0:0:0:
267,218,66273,5,0,0:0:0:0:
267,218,66356,5,8,0:0:0:0:
217,237,66522,5,8,0:0:0:0:
267,218,66688,5,8,0:0:0:0:
267,218,66853,5,0,0:0:0:0:
267,218,66936,5,8,0:0:0:0:
269,214,67019,5,0,0:0:0:0:
269,214,67185,5,0,0:0:0:0:
269,214,67351,5,8,0:0:0:0:
269,214,67434,5,0,0:0:0:0:
269,214,67516,5,8,0:0:0:0:
269,214,67682,5,8,0:0:0:0:
269,214,67848,5,0,0:0:0:0:
269,214,68014,5,0,0:0:0:0:
269,214,68097,5,0,0:0:0:0:
269,214,68179,5,8,0:0:0:0:
233,227,68345,5,4,0:0:0:0:
233,227,68511,5,4,0:0:0:0:
233,227,68842,5,12,0:0:0:0:
233,227,69174,5,0,0:0:0:0:
233,227,69340,5,0,0:0:0:0:
233,227,69423,5,0,0:0:0:0:
233,227,69505,5,0,0:0:0:0:
233,227,69671,5,12,0:0:0:0:
233,248,70003,5,0,0:0:0:0:
223,247,70168,5,8,0:0:0:0:
222,245,70251,5,8,0:0:0:0:
222,245,70334,5,0,0:0:0:0:
230,210,70417,5,0,0:0:0:0:
223,243,70500,5,8,0:0:0:0:
223,243,70666,5,0,0:0:0:0:
223,243,70831,5,0,0:0:0:0:
223,243,70997,5,8,0:0:0:0:
230,232,71163,5,0,0:0:0:0:
230,232,71329,5,8,0:0:0:0:
223,247,71494,5,8,0:0:0:0:
222,245,71577,5,8,0:0:0:0:
222,245,71660,5,0,0:0:0:0:
230,210,71743,5,0,0:0:0:0:
223,243,71826,5,8,0:0:0:0:
223,243,71992,5,0,0:0:0:0:
223,243,72157,5,0,0:0:0:0:
223,243,72323,5,8,0:0:0:0:
229,232,72489,5,0,0:0:0:0:
229,232,72655,5,8,0:0:0:0:
279,218,72820,5,8,0:0:0:0:
279,218,72903,5,8,0:0:0:0:
265,213,72986,5,8,0:0:0:0:
265,214,73152,5,0,0:0:0:0:
265,214,73235,5,0,0:0:0:0:
265,213,73318,5,8,0:0:0:0:
265,213,73483,5,8,0:0:0:0:
265,213,73649,5,0,0:0:0:0:
264,212,73815,5,0,0:0:0:0:
281,214,73898,5,8,0:0:0:0:
281,214,73981,5,0,0:0:0:0:
276,210,74146,5,8,0:0:0:0:
274,209,74312,5,0,0:0:0:0:
274,209,74478,5,8,0:0:0:0:
274,209,74644,5,0,0:0:0:0:
274,209,74726,5,0,0:0:0:0:
267,206,74809,5,0,0:0:0:0:
267,206,74975,5,12,0:0:0:0:
266,217,75307,5,0,0:0:0:0:
262,214,75472,5,8,0:0:0:0:
266,217,75555,5,8,0:0:0:0:
230,176,75638,5,0,0:0:0:0:
230,210,75721,5,0,0:0:0:0:
262,214,75804,5,8,0:0:0:0:
262,214,75970,5,0,0:0:0:0:
262,214,76135,5,0,0:0:0:0:
197,172,76301,6,0,L|241:171,8,38.5000011749268
209,212,77130,5,8,0:0:0:0:
209,212,77295,5,0,0:0:0:0:
209,212,77461,5,8,0:0:0:0:
209,212,77627,5,12,0:0:0:0:
209,212,77959,5,0,0:0:0:0:
209,212,78125,5,0,0:0:0:0:
209,238,80279,5,0,0:0:0:0:
268,198,80942,5,8,0:0:0:0:
268,198,81605,5,0,0:0:0:0:
202,227,82268,5,8,0:0:0:0:
276,197,82766,5,8,0:0:0:0:
202,227,82931,5,0,0:0:0:0:
279,192,83594,5,8,0:0:0:0:
279,192,84257,5,0,0:0:0:0:
202,227,84920,5,8,0:0:0:0:
277,190,85583,5,0,0:0:0:0:
277,190,86246,5,8,0:0:0:0:
202,227,86909,5,0,0:0:0:0:
202,227,87075,5,0,0:0:0:0:
202,227,87241,5,0,0:0:0:0:
202,227,87407,5,8,0:0:0:0:
202,227,87572,5,8,0:0:0:0:
202,227,87738,5,8,0:0:0:0:
202,227,87904,5,0,0:0:0:0:
202,227,87987,5,0,0:0:0:0:
202,227,88069,5,0,0:0:0:0:
352,256,88235,5,12,0:0:0:0:
248,176,88401,5,12,0:0:0:0:
248,176,88567,5,12,0:0:0:0:
242,179,88898,5,0,0:0:0:0:
248,176,89064,5,12,0:0:0:0:
248,176,89395,5,4,0:0:0:0:
248,176,89727,5,4,0:0:0:0:
248,176,89893,5,4,0:0:0:0:
248,176,90224,5,8,0:0:0:0:
248,176,90390,5,4,0:0:0:0:
240,182,90721,5,0,0:0:0:0:
248,176,90887,5,12,0:0:0:0:
248,176,91053,5,12,0:0:0:0:
248,176,91219,5,12,0:0:0:0:
240,182,91550,5,0,0:0:0:0:
248,176,91716,5,12,0:0:0:0:
248,176,92047,5,4,0:0:0:0:
248,176,92379,5,4,0:0:0:0:
248,176,92545,5,4,0:0:0:0:
248,176,92876,5,8,0:0:0:0:
248,176,93539,5,12,0:0:0:0:
248,176,93705,5,12,0:0:0:0:
248,176,93871,5,12,0:0:0:0:
240,182,94202,5,0,0:0:0:0:
248,176,94368,5,12,0:0:0:0:
248,176,94699,5,4,0:0:0:0:
248,176,95031,5,4,0:0:0:0:
248,176,95197,5,4,0:0:0:0:
248,176,95528,5,8,0:0:0:0:
248,176,95694,5,4,0:0:0:0:
240,182,96025,5,0,0:0:0:0:
248,176,96191,5,12,0:0:0:0:
248,176,96357,5,12,0:0:0:0:
248,176,96523,5,12,0:0:0:0:
240,182,96854,5,0,0:0:0:0:
248,176,97020,5,12,0:0:0:0:
248,176,97351,5,4,0:0:0:0:
248,176,97683,5,4,0:0:0:0:
248,176,97848,5,4,0:0:0:0:
248,176,98180,5,8,0:0:0:0:
255,190,98843,5,12,0:0:0:0:
255,190,99009,5,0,0:0:0:0:
255,190,99174,5,8,0:0:0:0:
255,190,99340,5,0,0:0:0:0:
255,190,99672,5,0,0:0:0:0:
255,190,99837,5,8,0:0:0:0:
255,190,100003,5,0,0:0:0:0:
255,190,100335,5,0,0:0:0:0:
255,190,100500,5,8,0:0:0:0:
255,190,100666,5,8,0:0:0:0:
255,190,100998,5,0,0:0:0:0:
255,190,101163,5,8,0:0:0:0:
255,190,101329,5,8,0:0:0:0:
228,204,101495,5,0,0:0:0:0:
260,197,101826,5,8,0:0:0:0:
260,197,102158,5,0,0:0:0:0:
260,197,102241,5,0,0:0:0:0:
260,197,102324,5,0,0:0:0:0:
260,197,102489,5,8,0:0:0:0:
260,197,102655,5,8,0:0:0:0:
260,197,102987,5,0,0:0:0:0:
260,197,103152,5,8,0:0:0:0:
91,333,103318,5,0,0:0:0:0:
280,186,103484,5,8,0:0:0:0:
265,200,104147,5,0,0:0:0:0:
260,197,104313,5,0,0:0:0:0:
260,197,104395,5,0,0:0:0:0:
260,197,104478,5,0,0:0:0:0:
260,197,104644,5,0,0:0:0:0:
260,197,104727,5,0,0:0:0:0:
280,208,104810,5,0,0:0:0:0:
248,208,104976,5,8,0:0:0:0:
248,208,105141,5,8,0:0:0:0:
248,208,105307,5,0,0:0:0:0:
280,208,105639,5,0,0:0:0:0:
280,208,105804,5,0,0:0:0:0:
280,208,106136,5,8,0:0:0:0:
268,200,106302,5,0,0:0:0:0:
267,196,106467,5,8,0:0:0:0:
267,196,106633,5,0,0:0:0:0:
266,194,106965,5,0,0:0:0:0:
266,194,107130,5,8,0:0:0:0:
266,194,107296,5,0,0:0:0:0:
267,196,107379,5,0,0:0:0:0:
267,196,107462,5,8,0:0:0:0:
267,196,107627,5,0,0:0:0:0:
266,194,107793,5,8,0:0:0:0:
266,194,107959,5,8,0:0:0:0:
266,194,108290,5,8,0:0:0:0:
267,196,108456,5,0,0:0:0:0:
266,194,108788,5,0,0:0:0:0:
256,192,108912,5,0,0:0:0:0:
268,179,109036,5,0,0:0:0:0:
266,194,109161,5,8,0:0:0:0:
266,194,109285,5,0,0:0:0:0:
253,195,109616,5,4,0:0:0:0:
253,195,109782,5,12,0:0:0:0:
253,195,109948,5,4,0:0:0:0:
253,195,110279,5,0,0:0:0:0:
253,195,110445,5,8,0:0:0:0:
253,195,110611,5,0,0:0:0:0:
248,208,110942,5,0,0:0:0:0:
246,211,111108,5,8,0:0:0:0:
248,208,111274,5,8,0:0:0:0:
246,211,111605,5,0,0:0:0:0:
248,208,111771,5,8,0:0:0:0:
248,208,111937,5,8,0:0:0:0:
246,211,112103,5,0,0:0:0:0:
248,208,112434,5,8,0:0:0:0:
248,208,112766,5,0,0:0:0:0:
248,208,112848,5,0,0:0:0:0:
248,208,112931,5,0,0:0:0:0:
248,208,113097,5,8,0:0:0:0:
248,208,113263,5,8,0:0:0:0:
248,208,113594,5,8,0:0:0:0:
248,208,113677,5,8,0:0:0:0:
248,208,113760,5,8,0:0:0:0:
248,208,113926,5,0,0:0:0:0:
268,197,114092,5,8,0:0:0:0:
244,209,114755,5,0,0:0:0:0:
244,209,114920,5,0,0:0:0:0:
244,209,115003,5,0,0:0:0:0:
244,209,115086,5,0,0:0:0:0:
244,209,115252,5,0,0:0:0:0:
244,209,115335,5,0,0:0:0:0:
244,209,115418,5,0,0:0:0:0:
248,208,115583,5,8,0:0:0:0:
248,208,115749,5,0,0:0:0:0:
248,208,115915,5,8,0:0:0:0:
244,209,116246,5,0,0:0:0:0:
244,209,116329,5,0,0:0:0:0:
244,209,116412,5,8,0:0:0:0:
244,209,116578,5,0,0:0:0:0:
244,209,116661,5,0,0:0:0:0:
244,209,116744,5,8,0:0:0:0:
244,209,116909,5,0,0:0:0:0:
244,209,117075,5,0,0:0:0:0:
244,209,117241,5,8,0:0:0:0:
244,209,117572,5,8,0:0:0:0:
244,209,117655,5,0,0:0:0:0:
244,209,117738,5,8,0:0:0:0:
244,209,117904,5,8,0:0:0:0:
244,209,117987,5,0,0:0:0:0:
244,209,118069,5,8,0:0:0:0:
248,208,118235,5,0,0:0:0:0:
248,208,118401,5,8,0:0:0:0:
248,208,118567,5,12,0:0:0:0:
248,208,118953,5,8,0:0:0:0:
248,208,119064,5,8,0:0:0:0:
248,208,119174,5,0,0:0:0:0:
248,208,119285,5,0,0:0:0:0:
248,208,119395,5,8,0:0:0:0:
248,208,120058,5,8,0:0:0:0:
270,193,120390,5,8,0:0:0:0:
270,193,120721,5,8,0:0:0:0:
270,193,121053,5,8,0:0:0:0:
270,193,121384,5,8,0:0:0:0:
270,193,121716,5,8,0:0:0:0:
270,193,122047,5,8,0:0:0:0:
270,193,122379,5,0,0:0:0:0:
270,193,122545,5,0,0:0:0:0:
269,217,122627,5,0,0:0:0:0:
270,193,122710,5,8,0:0:0:0:
270,193,123042,5,8,0:0:0:0:
270,193,123208,5,8,0:0:0:0:
270,193,123539,5,0,0:0:0:0:
270,193,123705,5,8,0:0:0:0:
270,193,123871,5,0,0:0:0:0:
280,208,125362,5,8,0:0:0:0:
280,208,125694,5,8,0:0:0:0:
280,208,126025,5,8,0:0:0:0:
280,208,126357,5,8,0:0:0:0:
280,208,126688,5,8,0:0:0:0:
280,208,127020,5,8,0:0:0:0:
280,208,127351,5,8,0:0:0:0:
280,208,127683,5,0,0:0:0:0:
280,208,127848,5,0,0:0:0:0:
268,216,127931,5,0,0:0:0:0:
280,208,128014,5,8,0:0:0:0:
280,208,128346,5,8,0:0:0:0:
280,208,128511,5,8,0:0:0:0:
280,208,128843,5,0,0:0:0:0:
280,208,129009,5,8,0:0:0:0:
280,208,129174,5,0,0:0:0:0:
280,208,129506,5,8,0:0:0:0:
280,208,129589,5,8,0:0:0:0:
280,208,129672,5,8,0:0:0:0:
280,208,129755,5,8,0:0:0:0:
280,208,129837,5,0,0:0:0:0:
280,208,129920,5,0,0:0:0:0:
280,208,130003,5,0,0:0:0:0:
280,208,130086,5,0,0:0:0:0:
280,208,130169,5,8,0:0:0:0:
280,208,130335,5,0,0:0:0:0:
280,208,130666,5,8,0:0:0:0:
280,208,130832,5,0,0:0:0:0:
280,208,130998,5,8,0:0:0:0:
280,208,131163,5,0,0:0:0:0:
280,208,131329,5,8,0:0:0:0:
280,208,131495,5,0,0:0:0:0:
280,208,131661,5,8,0:0:0:0:
280,208,131826,5,0,0:0:0:0:
280,208,131992,5,8,0:0:0:0:
280,208,132158,5,0,0:0:0:0:
280,208,132324,5,8,0:0:0:0:
280,208,132489,5,0,0:0:0:0:
280,208,132655,5,8,0:0:0:0:
280,208,132821,5,0,0:0:0:0:
280,208,132987,5,0,0:0:0:0:
280,208,133152,5,0,0:0:0:0:
280,208,133318,5,8,0:0:0:0:
280,208,133484,5,0,0:0:0:0:
280,208,133650,5,8,0:0:0:0:
280,208,133815,5,8,0:0:0:0:
249,192,133981,5,8,0:0:0:0:
280,208,134147,5,0,0:0:0:0:
280,208,134313,5,8,0:0:0:0:
248,208,134478,5,8,0:0:0:0:
248,208,134644,5,0,0:0:0:0:
248,208,134810,5,8,0:0:0:0:
248,208,134893,5,8,0:0:0:0:
248,208,134976,5,0,0:0:0:0:
248,208,135141,5,8,0:0:0:0:
248,208,135307,5,0,0:0:0:0:
248,208,135473,5,0,0:0:0:0:
248,208,135639,5,8,0:0:0:0:
248,208,135804,5,8,0:0:0:0:
248,208,135970,5,4,0:0:0:0:
248,208,136136,5,4,0:0:0:0:
256,192,138125,12,0,139948,0:0:0:0:
218,209,140777,5,8,0:0:0:0:
218,209,140942,5,0,0:0:0:0:
218,209,141108,5,0,0:0:0:0:
233,229,141274,5,12,0:0:0:0:
233,248,141605,5,0,0:0:0:0:
223,247,141771,5,8,0:0:0:0:
222,245,141854,5,8,0:0:0:0:
224,230,141937,5,0,0:0:0:0:
224,230,142020,5,0,0:0:0:0:
223,243,142103,5,8,0:0:0:0:
223,243,142268,5,0,0:0:0:0:
223,243,142434,5,0,0:0:0:0:
223,243,142600,5,8,0:0:0:0:
235,235,142766,5,0,0:0:0:0:
235,235,142931,5,8,0:0:0:0:
223,247,143097,5,8,0:0:0:0:
222,245,143180,5,8,0:0:0:0:
222,245,143263,5,0,0:0:0:0:
224,230,143346,5,0,0:0:0:0:
223,243,143429,5,8,0:0:0:0:
235,235,143594,5,0,0:0:0:0:
223,243,143760,5,0,0:0:0:0:
223,243,143926,5,8,0:0:0:0:
227,242,144092,5,0,0:0:0:0:
227,242,144257,5,8,0:0:0:0:
194,254,144423,5,8,0:0:0:0:
194,254,144506,5,8,0:0:0:0:
180,249,144589,5,8,0:0:0:0:
180,250,144755,5,0,0:0:0:0:
180,250,144837,5,0,0:0:0:0:
180,249,144920,5,8,0:0:0:0:
180,249,145086,5,8,0:0:0:0:
180,249,145169,5,8,0:0:0:0:
180,249,145252,5,0,0:0:0:0:
179,248,145418,5,0,0:0:0:0:
180,249,145583,5,8,0:0:0:0:
169,268,145666,5,8,0:0:0:0:
180,250,145749,5,8,0:0:0:0:
180,249,145915,5,8,0:0:0:0:
180,249,146081,5,0,0:0:0:0:
180,249,146246,5,0,0:0:0:0:
179,248,146412,5,0,0:0:0:0:
180,249,146578,5,12,0:0:0:0:
180,249,146909,5,0,0:0:0:0:
182,254,147075,5,8,0:0:0:0:
182,243,147158,5,8,0:0:0:0:
182,254,147241,5,0,0:0:0:0:
187,245,147324,5,0,0:0:0:0:
182,254,147407,5,8,0:0:0:0:
182,254,147572,5,0,0:0:0:0:
182,254,147738,5,0,0:0:0:0:
182,254,147904,5,8,0:0:0:0:
182,254,148069,5,0,0:0:0:0:
159,231,148152,5,0,0:0:0:0:
182,254,148235,5,8,0:0:0:0:
182,254,148401,5,0,0:0:0:0:
182,254,148484,5,0,0:0:0:0:
182,254,148567,5,8,0:0:0:0:
226,243,148732,5,8,0:0:0:0:
182,254,148898,5,8,0:0:0:0:
182,254,149064,5,0,0:0:0:0:
182,254,149147,5,8,0:0:0:0:
184,250,149230,5,0,0:0:0:0:
184,250,149395,5,0,0:0:0:0:
184,250,149561,5,8,0:0:0:0:
184,250,149644,5,0,0:0:0:0:
184,250,149727,5,8,0:0:0:0:
184,250,149893,5,8,0:0:0:0:
184,250,150058,5,0,0:0:0:0:
184,250,150224,5,0,0:0:0:0:
184,250,150307,5,0,0:0:0:0:
184,250,150390,5,8,0:0:0:0:
233,227,150556,5,4,0:0:0:0:
233,227,150721,5,4,0:0:0:0:
233,227,151053,5,12,0:0:0:0:
233,227,151384,5,0,0:0:0:0:
233,227,151550,5,0,0:0:0:0:
233,227,151633,5,0,0:0:0:0:
233,227,151716,5,0,0:0:0:0:
233,227,151882,5,12,0:0:0:0:
233,248,152213,5,0,0:0:0:0:
223,247,152379,5,8,0:0:0:0:
222,245,152462,5,8,0:0:0:0:
222,245,152545,5,0,0:0:0:0:
187,245,152627,5,0,0:0:0:0:
223,243,152710,5,8,0:0:0:0:
223,243,152876,5,0,0:0:0:0:
223,243,153042,5,0,0:0:0:0:
223,243,153208,5,8,0:0:0:0:
170,261,153373,5,0,0:0:0:0:
170,261,153539,5,8,0:0:0:0:
223,247,153705,5,8,0:0:0:0:
222,245,153788,5,8,0:0:0:0:
187,245,153871,5,0,0:0:0:0:
187,245,153953,5,0,0:0:0:0:
223,243,154036,5,8,0:0:0:0:
170,261,154202,5,0,0:0:0:0:
223,243,154368,5,0,0:0:0:0:
223,243,154534,5,8,0:0:0:0:
170,261,154699,5,0,0:0:0:0:
170,261,154865,5,8,0:0:0:0:
194,254,155031,5,8,0:0:0:0:
194,254,155114,5,8,0:0:0:0:
180,249,155197,5,8,0:0:0:0:
180,250,155362,5,0,0:0:0:0:
180,250,155445,5,0,0:0:0:0:
180,249,155528,5,8,0:0:0:0:
180,249,155694,5,8,0:0:0:0:
180,249,155860,5,0,0:0:0:0:
179,248,156025,5,0,0:0:0:0:
196,250,156108,5,8,0:0:0:0:
196,250,156191,5,0,0:0:0:0:
191,246,156357,5,8,0:0:0:0:
189,245,156523,5,0,0:0:0:0:
189,245,156688,5,8,0:0:0:0:
189,245,156854,5,0,0:0:0:0:
189,245,156937,5,0,0:0:0:0:
182,242,157020,5,0,0:0:0:0:
182,242,157186,5,12,0:0:0:0:
181,253,157517,5,0,0:0:0:0:
177,250,157683,5,8,0:0:0:0:
181,253,157766,5,8,0:0:0:0:
189,245,157848,5,0,0:0:0:0:
189,245,157931,5,0,0:0:0:0:
177,250,158014,5,8,0:0:0:0:
177,250,158180,5,0,0:0:0:0:
177,250,158346,5,0,0:0:0:0:
197,172,158511,6,0,L|254:170,8,38.5000011749268
209,212,159340,5,0,0:0:0:0:
209,212,159506,5,8,0:0:0:0:
209,212,159672,5,0,0:0:0:0:
210,227,159837,5,12,0:0:0:0:
233,240,160168,5,0,0:0:0:0:
233,240,160334,5,0,0:0:0:0:
199,248,160499,5,8,0:0:0:0:
192,243,160997,5,0,0:0:0:0:
192,242,161328,5,0,0:0:0:0:
192,243,161660,5,0,0:0:0:0:
192,243,161825,5,8,0:0:0:0:
216,229,162488,5,0,0:0:0:0:
185,238,162654,5,0,0:0:0:0:
216,229,162986,5,0,0:0:0:0:
216,229,163151,5,8,0:0:0:0:
216,229,163649,5,0,0:0:0:0:
200,245,163980,5,8,0:0:0:0:
212,248,164146,5,0,0:0:0:0:
200,245,164312,5,0,0:0:0:0:
212,248,164477,5,8,0:0:0:0:
212,248,164588,5,8,0:0:0:0:
212,248,164698,5,0,0:0:0:0:
217,263,164809,5,8,0:0:0:0:
208,250,165140,5,0,0:0:0:0:
208,250,165306,5,0,0:0:0:0:
208,250,165638,5,0,0:0:0:0:
208,250,165803,5,8,0:0:0:0:
208,250,166301,5,0,0:0:0:0:
208,250,166632,5,0,0:0:0:0:
208,250,166964,5,0,0:0:0:0:
203,250,167129,5,8,0:0:0:0:
203,250,167792,5,0,0:0:0:0:
203,250,167958,5,0,0:0:0:0:
203,250,168290,5,0,0:0:0:0:
203,250,168455,5,8,0:0:0:0:
203,250,168953,5,0,0:0:0:0:
186,259,169284,5,8,0:0:0:0:
194,282,169450,5,0,0:0:0:0:
194,282,169616,5,0,0:0:0:0:
194,282,169781,5,8,0:0:0:0:
194,282,169892,5,8,0:0:0:0:
194,282,170002,5,0,0:0:0:0:
194,282,170113,5,8,0:0:0:0:
69,306,170444,5,4,0:0:0:0:
84,296,170610,5,0,0:0:0:0:
84,296,170776,5,8,0:0:0:0:
84,296,170941,5,0,0:0:0:0:
84,296,171273,5,0,0:0:0:0:
84,296,171439,5,8,0:0:0:0:
84,296,171604,5,0,0:0:0:0:
84,296,171936,5,0,0:0:0:0:
84,296,172102,5,8,0:0:0:0:
84,296,172267,5,8,0:0:0:0:
84,296,172599,5,0,0:0:0:0:
84,296,172765,5,8,0:0:0:0:
84,296,172930,5,8,0:0:0:0:
84,296,173096,5,0,0:0:0:0:
84,296,173262,5,0,0:0:0:0:
84,296,173593,5,0,0:0:0:0:
84,296,173759,5,8,0:0:0:0:
88,293,174256,5,0,0:0:0:0:
89,293,174588,5,8,0:0:0:0:
89,293,174754,5,0,0:0:0:0:
87,293,174919,5,0,0:0:0:0:
87,318,175085,5,8,0:0:0:0:
87,318,175196,5,8,0:0:0:0:
87,318,175306,5,0,0:0:0:0:
87,318,175417,5,8,0:0:0:0:
109,309,175748,5,0,0:0:0:0:
109,309,175914,5,0,0:0:0:0:
109,309,176080,5,8,0:0:0:0:
106,305,176245,5,0,0:0:0:0:
105,305,176577,5,0,0:0:0:0:
105,305,176743,5,8,0:0:0:0:
98,300,176908,5,0,0:0:0:0:
97,300,177240,5,0,0:0:0:0:
97,300,177406,5,8,0:0:0:0:
97,300,177571,5,8,0:0:0:0:
98,300,177903,5,0,0:0:0:0:
97,300,178069,5,8,0:0:0:0:
97,300,178234,5,8,0:0:0:0:
97,300,178400,5,0,0:0:0:0:
97,300,178566,5,0,0:0:0:0:
98,300,178897,5,0,0:0:0:0:
97,300,179063,5,8,0:0:0:0:
83,308,179560,5,0,0:0:0:0:
74,322,179892,5,8,0:0:0:0:
75,313,180057,5,0,0:0:0:0:
72,315,180223,5,0,0:0:0:0:
87,318,180389,5,8,0:0:0:0:
87,318,180499,5,8,0:0:0:0:
87,318,180610,5,0,0:0:0:0:
87,318,180720,5,8,0:0:0:0:
67,319,181052,5,0,0:0:0:0:
69,330,181162,5,0,0:0:0:0:
71,314,181273,5,8,0:0:0:0:
71,331,181383,5,8,0:0:0:0:
71,331,181494,5,0,0:0:0:0:
68,332,181715,5,12,0:0:0:0:
61,326,181964,5,0,0:0:0:0:
61,326,182212,5,0,0:0:0:0:
71,318,182378,5,8,0:0:0:0:
80,316,182544,5,0,0:0:0:0:
73,315,182709,5,8,0:0:0:0:
80,316,182875,5,8,0:0:0:0:
73,314,183207,5,0,0:0:0:0:
73,314,183372,5,8,0:0:0:0:
72,314,183538,5,8,0:0:0:0:
73,315,183704,5,0,0:0:0:0:
76,310,183870,5,0,0:0:0:0:
79,323,184201,5,0,0:0:0:0:
72,312,184367,5,8,0:0:0:0:
72,312,184864,5,0,0:0:0:0:
63,325,185196,5,8,0:0:0:0:
78,320,185361,5,0,0:0:0:0:
90,321,185527,5,0,0:0:0:0:
87,318,185693,5,8,0:0:0:0:
87,318,185803,5,8,0:0:0:0:
87,318,185914,5,0,0:0:0:0:
87,318,186024,5,8,0:0:0:0:
89,330,186356,5,0,0:0:0:0:
84,324,186522,5,0,0:0:0:0:
84,324,186687,5,8,0:0:0:0:
95,319,186853,5,0,0:0:0:0:
90,310,187185,5,0,0:0:0:0:
78,321,187350,5,8,0:0:0:0:
102,331,187516,5,0,0:0:0:0:
95,326,187682,5,8,0:0:0:0:
88,328,187765,5,8,0:0:0:0:
103,327,187848,5,8,0:0:0:0:
95,326,187930,5,8,0:0:0:0:
98,324,188013,5,0,0:0:0:0:
102,320,188096,5,0,0:0:0:0:
102,320,188179,5,0,0:0:0:0:
102,320,188262,5,0,0:0:0:0:
95,319,188345,5,8,0:0:0:0:
105,333,188566,5,0,0:0:0:0:
105,329,188787,5,8,0:0:0:0:
113,330,189008,5,12,0:0:0:0:
104,335,189506,5,8,0:0:0:0:
103,333,189589,5,8,0:0:0:0:
101,333,189671,5,8,0:0:0:0:
225,218,202268,5,8,0:0:0:0:
203,216,202433,5,0,0:0:0:0:
225,218,202599,5,8,0:0:0:0:
225,218,202765,5,8,0:0:0:0:
220,229,203262,5,8,0:0:0:0:
202,216,203759,5,0,0:0:0:0:
220,229,203925,5,8,0:0:0:0:
220,229,204091,5,8,0:0:0:0:
220,229,204588,5,8,0:0:0:0:
201,216,205085,5,0,0:0:0:0:
235,256,205251,5,8,0:0:0:0:
235,256,205417,5,8,0:0:0:0:
235,256,205914,5,8,0:0:0:0:
235,256,206577,5,8,0:0:0:0:
235,256,206743,5,8,0:0:0:0:
230,255,207240,5,8,0:0:0:0:
201,216,207737,5,0,0:0:0:0:
230,255,207903,5,8,0:0:0:0:
230,255,208069,5,8,0:0:0:0:
230,255,208566,5,8,0:0:0:0:
230,255,209229,5,8,0:0:0:0:
226,252,209395,5,8,0:0:0:0:
223,250,209892,5,8,0:0:0:0:
219,250,210389,5,0,0:0:0:0:
223,250,210555,5,8,0:0:0:0:
223,250,210721,5,8,0:0:0:0:
201,216,211218,5,8,0:0:0:0:
201,216,211384,5,8,0:0:0:0:
201,216,211549,5,4,0:0:0:0:
201,216,211715,5,4,0:0:0:0:
201,216,212047,5,12,0:0:0:0:
237,236,212875,5,8,0:0:0:0:
237,236,213207,5,8,0:0:0:0:
237,236,213372,5,8,0:0:0:0:
237,236,213538,5,0,0:0:0:0:
237,236,213704,5,0,0:0:0:0:
237,236,213870,5,8,0:0:0:0:
237,236,214035,5,0,0:0:0:0:
237,236,214118,5,0,0:0:0:0:
237,236,214201,5,8,0:0:0:0:
237,236,214533,5,8,0:0:0:0:
219,237,214698,5,8,0:0:0:0:
219,237,214864,5,0,0:0:0:0:
219,237,215030,5,8,0:0:0:0:
219,237,215196,5,0,0:0:0:0:
237,236,215361,5,0,0:0:0:0:
237,236,215444,5,0,0:0:0:0:
237,236,215527,5,8,0:0:0:0:
237,236,215859,5,8,0:0:0:0:
208,247,216024,5,8,0:0:0:0:
208,247,216190,5,0,0:0:0:0:
237,236,216356,5,0,0:0:0:0:
208,247,216439,5,0,0:0:0:0:
208,247,216522,5,8,0:0:0:0:
237,236,216687,5,8,0:0:0:0:
208,247,216853,5,0,0:0:0:0:
208,247,217019,5,0,0:0:0:0:
208,247,217102,5,8,0:0:0:0:
208,247,217185,5,0,0:0:0:0:
208,247,217350,5,8,0:0:0:0:
208,247,217516,5,0,0:0:0:0:
208,247,217682,5,0,0:0:0:0:
208,247,217765,5,0,0:0:0:0:
208,247,217848,5,8,0:0:0:0:
208,247,218013,5,0,0:0:0:0:
230,203,218179,5,12,0:0:0:0:
230,203,218345,5,0,0:0:0:0:
230,203,218511,5,0,0:0:0:0:
230,203,218676,5,12,0:0:0:0:
226,211,218842,5,0,0:0:0:0:
226,211,219008,5,0,0:0:0:0:
226,211,219174,5,8,0:0:0:0:
226,211,219339,5,8,0:0:0:0:
226,211,219505,5,4,0:0:0:0:
226,211,219671,5,4,0:0:0:0:
256,192,221826,12,0,224809,0:0:0:0:
218,209,225638,5,0,0:0:0:0:
218,209,225804,5,8,0:0:0:0:
218,209,225970,5,0,0:0:0:0:
233,229,226135,5,12,0:0:0:0:
233,248,226467,5,0,0:0:0:0:
223,247,226633,5,8,0:0:0:0:
222,245,226715,5,8,0:0:0:0:
222,245,226798,5,8,0:0:0:0:
218,264,226881,5,8,0:0:0:0:
223,243,226964,5,0,0:0:0:0:
223,243,227130,5,8,0:0:0:0:
223,243,227296,5,0,0:0:0:0:
223,243,227461,5,8,0:0:0:0:
212,261,227627,5,8,0:0:0:0:
212,261,227793,5,0,0:0:0:0:
223,247,227959,5,8,0:0:0:0:
222,245,228041,5,8,0:0:0:0:
218,262,228124,5,8,0:0:0:0:
218,262,228207,5,8,0:0:0:0:
223,243,228290,5,0,0:0:0:0:
212,261,228456,5,8,0:0:0:0:
223,243,228622,5,0,0:0:0:0:
223,243,228787,5,8,0:0:0:0:
212,261,228953,5,0,0:0:0:0:
194,254,229119,5,8,0:0:0:0:
194,254,229285,5,8,0:0:0:0:
194,254,229367,5,8,0:0:0:0:
180,249,229450,5,8,0:0:0:0:
180,250,229616,5,0,0:0:0:0:
180,250,229699,5,8,0:0:0:0:
180,249,229782,5,8,0:0:0:0:
180,249,229948,5,8,0:0:0:0:
180,249,230030,5,8,0:0:0:0:
180,249,230113,5,0,0:0:0:0:
179,248,230279,5,0,0:0:0:0:
180,249,230445,5,8,0:0:0:0:
169,268,230528,5,8,0:0:0:0:
180,250,230611,5,8,0:0:0:0:
180,249,230776,5,8,0:0:0:0:
180,249,230942,5,0,0:0:0:0:
180,249,231108,5,8,0:0:0:0:
179,248,231273,5,0,0:0:0:0:
180,249,231439,5,12,0:0:0:0:
212,261,231771,5,0,0:0:0:0:
182,254,231936,5,8,0:0:0:0:
182,243,232019,5,8,0:0:0:0:
182,254,232102,5,8,0:0:0:0:
209,264,232185,5,8,0:0:0:0:
182,254,232268,5,0,0:0:0:0:
182,254,232434,5,8,0:0:0:0:
182,254,232599,5,0,0:0:0:0:
182,254,232765,5,8,0:0:0:0:
209,264,232931,5,8,0:0:0:0:
209,264,233014,5,0,0:0:0:0:
182,254,233097,5,8,0:0:0:0:
182,254,233262,5,8,0:0:0:0:
182,254,233345,5,0,0:0:0:0:
182,254,233428,5,8,0:0:0:0:
182,254,233594,5,8,0:0:0:0:
182,254,233760,5,8,0:0:0:0:
182,254,233925,5,8,0:0:0:0:
182,254,234008,5,8,0:0:0:0:
184,250,234091,5,0,0:0:0:0:
184,250,234257,5,0,0:0:0:0:
184,250,234423,5,8,0:0:0:0:
184,250,234506,5,8,0:0:0:0:
184,250,234588,5,8,0:0:0:0:
184,250,234754,5,8,0:0:0:0:
184,250,234920,5,0,0:0:0:0:
184,250,235086,5,8,0:0:0:0:
184,250,235169,5,0,0:0:0:0:
184,250,235251,5,0,0:0:0:0:
233,227,235417,5,12,0:0:0:0:
233,227,235583,5,12,0:0:0:0:
233,227,235914,5,12,0:0:0:0:
233,227,236246,5,0,0:0:0:0:
233,227,236412,5,8,0:0:0:0:
233,227,236494,5,0,0:0:0:0:
233,227,236577,5,0,0:0:0:0:
233,227,236743,5,12,0:0:0:0:
195,259,237075,5,0,0:0:0:0:
223,247,237240,5,8,0:0:0:0:
222,245,237323,5,8,0:0:0:0:
222,245,237406,5,8,0:0:0:0:
170,233,237489,5,8,0:0:0:0:
223,243,237572,5,0,0:0:0:0:
223,243,237738,5,8,0:0:0:0:
223,243,237903,5,0,0:0:0:0:
223,243,238069,5,8,0:0:0:0:
195,259,238235,5,8,0:0:0:0:
195,259,238401,5,0,0:0:0:0:
223,247,238566,5,8,0:0:0:0:
222,245,238649,5,8,0:0:0:0:
222,245,238732,5,8,0:0:0:0:
219,254,238815,5,8,0:0:0:0:
223,243,238898,5,0,0:0:0:0:
195,259,239064,5,8,0:0:0:0:
223,243,239229,5,0,0:0:0:0:
223,243,239395,5,8,0:0:0:0:
195,259,239561,5,0,0:0:0:0:
194,254,239727,5,8,0:0:0:0:
194,254,239892,5,8,0:0:0:0:
194,254,239975,5,8,0:0:0:0:
180,249,240058,5,8,0:0:0:0:
180,250,240224,5,0,0:0:0:0:
180,250,240307,5,0,0:0:0:0:
180,249,240390,5,8,0:0:0:0:
180,249,240555,5,8,0:0:0:0:
180,249,240721,5,0,0:0:0:0:
179,248,240887,5,8,0:0:0:0:
196,250,240970,5,8,0:0:0:0:
196,250,241052,5,0,0:0:0:0:
191,246,241218,5,8,0:0:0:0:
189,245,241384,5,0,0:0:0:0:
200,252,241467,5,8,0:0:0:0:
200,252,241550,5,0,0:0:0:0:
189,245,241715,5,8,0:0:0:0:
189,245,241798,5,0,0:0:0:0:
182,242,241881,5,0,0:0:0:0:
182,242,242047,5,12,0:0:0:0:
181,253,242378,5,0,0:0:0:0:
177,250,242544,5,8,0:0:0:0:
181,253,242627,5,8,0:0:0:0:
177,250,242710,5,8,0:0:0:0:
219,259,242793,5,8,0:0:0:0:
177,250,242876,5,0,0:0:0:0:
177,250,243041,5,8,0:0:0:0:
177,250,243207,5,0,0:0:0:0:
197,172,243373,6,0,L|256:160,8,40.2500007677078
209,212,244202,5,8,0:0:0:0:
209,212,244367,5,0,0:0:0:0:
209,212,244533,5,0,0:0:0:0:
209,212,244699,5,12,0:0:0:0:
228,236,245030,5,8,0:0:0:0:
228,236,245196,5,8,0:0:0:0:
228,236,245361,5,0,0:0:0:0:
228,236,245527,5,0,0:0:0:0:
228,236,245693,5,8,0:0:0:0:
228,236,245859,5,0,0:0:0:0:
228,236,246024,5,8,0:0:0:0:
215,241,246190,5,0,0:0:0:0:
215,241,246356,5,8,0:0:0:0:
215,241,246522,5,0,0:0:0:0:
215,241,246605,5,8,0:0:0:0:
214,241,246687,5,0,0:0:0:0:
214,241,246853,5,0,0:0:0:0:
214,241,247019,5,8,0:0:0:0:
103,332,247350,5,0,0:0:0:0:
103,332,247516,5,8,0:0:0:0:
103,332,247599,5,8,0:0:0:0:
103,332,247682,5,0,0:0:0:0:
103,332,247765,5,8,0:0:0:0:
103,332,247848,5,0,0:0:0:0:
103,332,248013,5,8,0:0:0:0:
99,338,248179,5,0,0:0:0:0:
103,336,248262,5,0,0:0:0:0:
103,332,248345,5,8,0:0:0:0:
103,332,248428,5,0,0:0:0:0:
103,332,248511,5,8,0:0:0:0:
103,332,248676,5,0,0:0:0:0:
86,334,248842,5,0,0:0:0:0:
71,332,249008,5,8,0:0:0:0:
83,332,249091,5,0,0:0:0:0:
91,337,249174,5,0,0:0:0:0:
71,332,249339,5,8,0:0:0:0:
71,332,249505,5,0,0:0:0:0:
71,332,249588,5,8,0:0:0:0:
71,332,249671,5,8,0:0:0:0:
74,336,250002,5,4,0:0:0:0:
74,336,250168,5,8,0:0:0:0:
71,347,250334,5,0,0:0:0:0:
110,309,250417,5,8,0:0:0:0:
173,269,250500,5,0,0:0:0:0:
67,334,250665,5,8,0:0:0:0:
67,334,250914,5,8,0:0:0:0:
79,338,250997,5,0,0:0:0:0:
59,334,251163,5,8,0:0:0:0:
59,334,251328,5,8,0:0:0:0:
71,332,251494,5,0,0:0:0:0:
71,332,251577,5,8,0:0:0:0:
64,339,251826,5,8,0:0:0:0:
67,334,251908,5,0,0:0:0:0:
59,334,251991,5,8,0:0:0:0:
59,334,252157,5,0,0:0:0:0:
71,337,252323,5,8,0:0:0:0:
132,274,252489,5,0,0:0:0:0:
132,274,252571,5,8,0:0:0:0:
80,327,252654,5,8,0:0:0:0:
63,332,252820,5,0,0:0:0:0:
50,335,252903,5,0,0:0:0:0:
57,338,252986,5,8,0:0:0:0:
57,338,253152,5,0,0:0:0:0:
57,338,253317,5,8,0:0:0:0:
150,316,253400,5,8,0:0:0:0:
57,338,253483,5,0,0:0:0:0:
55,335,253649,5,8,0:0:0:0:
55,335,253732,5,8,0:0:0:0:
55,335,253815,5,8,0:0:0:0:
55,335,253980,5,12,0:0:0:0:
57,338,254146,5,12,0:0:0:0:
63,340,254478,5,12,0:0:0:0:
53,324,254809,5,0,0:0:0:0:
53,324,254975,5,8,0:0:0:0:
53,324,255058,5,0,0:0:0:0:
53,324,255140,5,0,0:0:0:0:
53,324,255306,5,12,0:0:0:0:
80,333,255638,5,8,0:0:0:0:
76,330,255803,5,0,0:0:0:0:
74,328,255886,5,8,0:0:0:0:
74,323,255969,5,0,0:0:0:0:
69,319,256135,5,0,0:0:0:0:
68,318,256301,5,8,0:0:0:0:
66,317,256466,5,0,0:0:0:0:
64,316,256632,5,8,0:0:0:0:
64,315,256798,5,8,0:0:0:0:
62,314,256964,5,0,0:0:0:0:
62,314,257129,5,8,0:0:0:0:
62,314,257212,5,8,0:0:0:0:
65,314,257295,5,0,0:0:0:0:
66,317,257461,5,0,0:0:0:0:
64,316,257627,5,8,0:0:0:0:
72,344,257958,5,8,0:0:0:0:
72,344,258124,5,8,0:0:0:0:
83,338,258207,5,8,0:0:0:0:
84,341,258290,5,0,0:0:0:0:
136,289,258373,5,0,0:0:0:0:
84,341,258455,5,8,0:0:0:0:
84,338,258621,5,0,0:0:0:0:
84,341,258704,5,0,0:0:0:0:
84,337,258787,5,8,0:0:0:0:
84,337,258870,5,0,0:0:0:0:
84,337,258953,5,8,0:0:0:0:
84,337,259118,5,0,0:0:0:0:
90,333,259284,5,8,0:0:0:0:
90,333,259450,5,0,0:0:0:0:
90,333,259616,5,8,0:0:0:0:
91,333,259781,5,8,0:0:0:0:
91,333,259947,5,0,0:0:0:0:
83,330,260113,5,0,0:0:0:0:
100,344,260279,5,8,0:0:0:0:
96,329,260361,5,0,0:0:0:0:
96,329,260444,5,0,0:0:0:0:
96,328,260610,5,12,0:0:0:0:
70,313,260942,5,0,0:0:0:0:
84,315,261107,5,8,0:0:0:0:
84,315,261190,5,8,0:0:0:0:
84,315,261273,5,8,0:0:0:0:
82,322,261356,5,8,0:0:0:0:
84,315,261439,5,0,0:0:0:0:
84,315,261605,5,8,0:0:0:0:
84,315,261770,5,0,0:0:0:0:
260,182,261936,6,0,L|320:192,24,40.2500007677078
89,330,264091,5,8,0:0:0:0:
93,331,264257,5,8,0:0:0:0:
93,331,264422,5,8,0:0:0:0:
91,337,264588,5,12,0:0:0:0:
91,335,264920,5,8,0:0:0:0:
93,335,265086,5,8,0:0:0:0:
107,296,269229,5,0,0:0:0:0:
103,289,269312,5,0,0:0:0:0:
107,296,269395,5,0,0:0:0:0:
103,289,269478,5,0,0:0:0:0:
103,288,269561,5,8,0:0:0:0:
104,287,269644,5,8,0:0:0:0:
105,288,269727,5,8,0:0:0:0:
104,287,269809,5,8,0:0:0:0:
104,287,269892,5,0,0:0:0:0:
77,301,270224,5,0,0:0:0:0:
77,301,270334,5,0,0:0:0:0:
77,301,270445,5,0,0:0:0:0:
77,301,270555,5,8,0:0:0:0:
80,303,272213,5,8,0:0:0:0:
80,303,272379,5,8,0:0:0:0:
