osu file format v14

[General]
AudioFilename: audio.mp3
AudioLeadIn: 0
PreviewTime: 140776
Countdown: 0
SampleSet: Soft
StackLeniency: 0.7
Mode: 3
LetterboxInBreaks: 0
SpecialStyle: 0
WidescreenStoryboard: 0

[Editor]
Bookmarks: 58566,77958,140776,160168
DistanceSpacing: 1
BeatDivisor: 4
GridSize: 32
TimelineZoom: 2.999999

[Metadata]
Title:Ryuuseigun ni Aeta Natsu
TitleUnicode:流星群に会えた夏
Artist:Chroma
ArtistUnicode:黒魔
Creator:Alsty-
Version:Sparkling Summer Night
Source:
Tags:electronic instrumental 8bit chiptune rock fa featured artist gorogoro ごろごろ
BeatmapID:3551072
BeatmapSetID:1737377

[Difficulty]
HPDrainRate:8.5
CircleSize:7
OverallDifficulty:8.3
ApproachRate:5
SliderMultiplier:1.4
SliderTickRate:1

[Events]
//Background and Video events
0,0,"bXRYkmt.jpg",0,0
//Break Periods
2,191860,200570
//Storyboard Layer 0 (Background)
//Storyboard Layer 1 (Fail)
//Storyboard Layer 2 (Pass)
//Storyboard Layer 3 (Foreground)
//Storyboard Layer 4 (Overlay)
//Storyboard Sound Samples

[TimingPoints]
3373,331.491712707182,4,2,1,70,1,0
8013,-100,4,2,1,20,0,0
8179,-100,4,2,1,35,0,0
8345,-100,4,2,1,50,0,0
8511,-100,4,2,1,70,0,0
8676,-125,4,2,1,70,0,0
12654,-100,4,2,1,70,0,0
41826,-100,4,2,2,70,0,0
43152,-100,4,2,1,70,0,0
47129,-100,4,2,2,70,0,0
48455,-100,4,2,1,70,0,0
58566,-100,4,2,1,80,0,1
76301,-100,4,2,1,70,0,0
77958,-100,4,2,1,30,0,0
87903,-100,4,2,1,70,0,0
140776,-100,4,2,1,80,0,1
158511,-100,4,2,1,70,0,0
224809,-10,4,2,0,9,0,0
224975,-666.666666666658,4,2,0,9,0,0
225223,-200,4,2,0,9,0,0
225306,-166.666666666667,4,2,0,9,0,0
225389,-142.857142857143,4,2,0,9,0,0
225472,-125,4,2,0,9,0,0
225555,-111.111111111111,4,2,0,9,0,0
225638,-100,4,2,1,80,0,1
243372,-100,4,2,1,70,0,0
244698,-100,4,2,1,80,0,1
253980,-100,4,2,1,70,0,0
255306,-100,4,2,1,80,0,1
259947,-100,4,2,1,70,0,0
269063,-100,4,2,1,40,0,0
269229,-100,4,2,1,50,0,0
269395,-100,4,2,1,60,0,0
269560,-100,4,2,1,70,0,0

[HitObjects]
36,192,3041,128,0,3290:0:0:0:0:
109,192,3124,128,0,3290:0:0:0:0:
329,192,3207,1,0,0:0:0:0:
182,192,3290,1,0,0:0:0:0:
36,192,3373,128,2,8013:0:0:0:0:
256,192,3373,1,4,0:0:0:0:
329,192,3373,1,0,0:0:0:0:
402,192,3373,1,0,0:0:0:0:
475,192,3373,128,0,8676:0:0:0:0:
109,192,8013,1,8,0:0:0:0:
182,192,8096,1,8,0:0:0:0:
256,192,8179,1,8,0:0:0:0:
329,192,8262,1,8,0:0:0:0:
36,192,8345,1,8,0:0:0:0:
402,192,8345,1,0,0:0:0:0:
109,192,8428,1,8,0:0:0:0:
182,192,8428,1,0,0:0:0:0:
256,192,8511,1,8,0:0:0:0:
329,192,8511,1,0,0:0:0:0:
109,192,8593,1,8,0:0:0:0:
182,192,8593,1,0,0:0:0:0:
256,192,8676,1,8,0:0:0:0:
329,192,8676,1,2,0:0:0:0:
402,192,8676,128,0,8759:0:0:0:0:
109,192,9174,128,0,9256:0:0:0:0:
329,192,9671,128,0,9754:0:0:0:0:
36,192,11328,128,0,15969:0:0:0:0:
329,192,11328,128,0,11411:0:0:0:0:
182,192,11826,128,0,11908:0:0:0:0:
475,192,12323,128,0,12406:0:0:0:0:
109,192,12654,128,0,14643:0:0:0:0:
329,192,14643,1,0,0:0:0:0:
402,192,14698,1,0,0:0:0:0:
475,192,14754,1,0,0:0:0:0:
256,192,14809,1,0,0:0:0:0:
182,192,14864,1,0,0:0:0:0:
109,192,14919,1,0,0:0:0:0:
329,192,14975,1,0,0:0:0:0:
402,192,15030,1,0,0:0:0:0:
475,192,15085,1,0,0:0:0:0:
256,192,15140,1,0,0:0:0:0:
182,192,15196,1,0,0:0:0:0:
109,192,15251,1,0,0:0:0:0:
329,192,15306,1,0,0:0:0:0:
402,192,15361,1,0,0:0:0:0:
475,192,15417,1,0,0:0:0:0:
256,192,15472,1,0,0:0:0:0:
182,192,15527,1,0,0:0:0:0:
109,192,15582,1,0,0:0:0:0:
329,192,15638,1,0,0:0:0:0:
402,192,15693,1,0,0:0:0:0:
475,192,15748,1,0,0:0:0:0:
329,192,15803,1,0,0:0:0:0:
256,192,15859,1,0,0:0:0:0:
182,192,15914,1,0,0:0:0:0:
109,192,15969,1,0,0:0:0:0:
402,192,16052,1,0,0:0:0:0:
475,192,16052,1,0,0:0:0:0:
402,192,16190,1,0,0:0:0:0:
182,192,16466,1,2,2:3:0:0:
182,192,16549,1,2,2:3:0:0:
36,192,16632,1,2,0:0:0:0:
329,192,16632,1,4,0:0:0:0:
402,192,16632,1,0,0:0:0:0:
475,192,16632,1,0,0:0:0:0:
109,192,16798,128,0,17129:0:0:0:0:
402,192,16964,128,2,17295:2:3:0:0:
475,192,16964,1,0,0:0:0:0:
36,192,17129,1,2,0:0:0:0:
256,192,17129,128,0,17461:0:0:0:0:
329,192,17129,1,0,0:0:0:0:
182,192,17295,1,2,0:3:0:0:
109,192,17461,128,2,17792:2:3:0:0:
182,192,17461,1,0,0:0:0:0:
402,192,17627,128,2,17958:2:3:0:0:
475,192,17627,1,0,0:0:0:0:
256,192,17792,128,2,18124:2:3:0:0:
329,192,17792,1,0,0:0:0:0:
109,192,17958,1,2,0:0:0:0:
182,192,17958,1,2,0:3:0:0:
475,192,17958,1,0,0:0:0:0:
36,192,18124,128,0,18621:0:0:0:0:
402,192,18290,1,2,2:3:0:0:
475,192,18290,128,0,18621:0:0:0:0:
109,192,18455,1,2,0:0:0:0:
256,192,18455,1,0,0:0:0:0:
329,192,18455,128,0,18787:0:0:0:0:
182,192,18621,1,2,2:3:0:0:
109,192,18787,128,0,19118:0:0:0:0:
36,192,18953,1,8,0:0:0:0:
329,192,18953,1,0,0:0:0:0:
475,192,18953,128,0,19284:0:0:0:0:
256,192,19118,128,2,19616:2:3:0:0:
402,192,19118,1,0,0:0:0:0:
36,192,19284,128,2,19450:0:0:0:0:
182,192,19284,1,2,2:3:0:0:
402,192,19284,1,0,0:0:0:0:
109,192,19450,1,0,0:0:0:0:
329,192,19616,128,2,19781:2:3:0:0:
475,192,19616,128,0,19947:0:0:0:0:
36,192,19781,1,2,0:0:0:0:
182,192,19781,1,0,0:0:0:0:
402,192,19781,1,0,0:0:0:0:
109,192,19947,1,2,0:3:0:0:
109,192,20030,1,0,0:0:0:0:
329,192,20113,128,2,20444:2:3:0:0:
182,192,20279,1,2,2:3:0:0:
402,192,20279,128,0,20610:0:0:0:0:
109,192,20444,128,2,20776:2:3:0:0:
256,192,20444,1,0,0:0:0:0:
36,192,20610,1,2,0:0:0:0:
182,192,20610,1,2,2:3:0:0:
475,192,20610,1,0,0:0:0:0:
329,192,20776,128,0,20859:0:0:0:0:
475,192,20859,1,0,0:0:0:0:
36,192,20942,128,2,21273:2:3:0:0:
329,192,20942,128,0,21107:0:0:0:0:
182,192,21107,1,2,0:0:0:0:
256,192,21107,1,0,0:0:0:0:
402,192,21107,1,0,0:0:0:0:
109,192,21273,1,2,2:3:0:0:
475,192,21273,1,0,0:0:0:0:
182,192,21356,1,2,2:3:0:0:
256,192,21439,1,0,0:0:0:0:
329,192,21439,128,0,21770:0:0:0:0:
36,192,21605,1,8,0:0:0:0:
109,192,21605,128,0,21936:0:0:0:0:
402,192,21605,1,0,0:0:0:0:
256,192,21770,1,2,2:3:0:0:
475,192,21770,128,0,22102:0:0:0:0:
36,192,21936,1,2,0:0:0:0:
182,192,21936,1,2,2:3:0:0:
256,192,21936,1,0,0:0:0:0:
329,192,22102,128,0,22268:0:0:0:0:
402,192,22102,1,0,0:0:0:0:
109,192,22185,128,0,22350:0:0:0:0:
182,192,22268,1,2,2:3:0:0:
475,192,22268,128,0,22433:0:0:0:0:
36,192,22433,1,2,0:0:0:0:
329,192,22433,128,0,22599:0:0:0:0:
402,192,22433,1,0,0:0:0:0:
109,192,22516,128,0,22682:0:0:0:0:
182,192,22599,1,2,2:3:0:0:
475,192,22599,128,0,22765:0:0:0:0:
256,192,22765,128,2,23096:2:3:0:0:
36,192,22931,1,2,2:3:0:0:
402,192,22931,128,0,23096:0:0:0:0:
182,192,23096,1,2,2:3:0:0:
475,192,23096,128,0,23428:0:0:0:0:
329,192,23179,128,0,23428:0:0:0:0:
36,192,23262,1,2,0:0:0:0:
109,192,23262,1,2,2:3:0:0:
182,192,23262,1,0,0:0:0:0:
256,192,23428,128,0,23511:0:0:0:0:
109,192,23511,1,0,0:0:0:0:
36,192,23593,128,2,24091:2:3:0:0:
256,192,23593,128,0,23925:0:0:0:0:
182,192,23759,1,2,0:0:0:0:
402,192,23759,1,0,0:0:0:0:
475,192,23759,1,0,0:0:0:0:
109,192,23925,1,2,2:3:0:0:
329,192,23925,1,0,0:0:0:0:
402,192,23925,1,0,0:0:0:0:
182,192,24091,128,0,24422:0:0:0:0:
256,192,24091,1,0,0:0:0:0:
329,192,24256,1,8,0:0:0:0:
402,192,24256,128,0,24588:0:0:0:0:
475,192,24256,1,0,0:0:0:0:
36,192,24422,128,2,24754:0:3:0:0:
256,192,24422,1,0,0:0:0:0:
109,192,24588,1,2,0:0:0:0:
329,192,24588,1,2,2:3:0:0:
475,192,24588,1,0,0:0:0:0:
182,192,24754,128,0,24919:0:0:0:0:
256,192,24754,1,0,0:0:0:0:
109,192,24837,128,0,25002:0:0:0:0:
402,192,24919,128,2,25085:2:3:0:0:
475,192,24919,1,0,0:0:0:0:
36,192,25085,1,2,0:0:0:0:
182,192,25085,128,0,25251:0:0:0:0:
256,192,25085,1,0,0:0:0:0:
109,192,25168,128,0,25334:0:0:0:0:
402,192,25251,128,2,25417:2:3:0:0:
475,192,25251,1,0,0:0:0:0:
182,192,25417,128,2,25582:2:3:0:0:
329,192,25417,1,0,0:0:0:0:
109,192,25500,128,0,25665:0:0:0:0:
256,192,25582,1,2,2:3:0:0:
475,192,25582,128,0,26080:0:0:0:0:
182,192,25748,1,2,2:3:0:0:
402,192,25748,128,0,26245:0:0:0:0:
109,192,25914,1,2,2:3:0:0:
256,192,25914,1,2,0:0:0:0:
329,192,25914,1,0,0:0:0:0:
36,192,26080,1,0,0:0:0:0:
109,192,26080,1,0,0:0:0:0:
182,192,26163,1,0,0:0:0:0:
36,192,26245,128,2,26908:2:3:0:0:
256,192,26245,1,0,0:0:0:0:
329,192,26328,1,0,0:0:0:0:
109,192,26411,1,2,0:0:0:0:
182,192,26411,1,0,0:0:0:0:
402,192,26411,1,0,0:0:0:0:
256,192,26494,1,0,0:0:0:0:
109,192,26577,1,2,2:3:0:0:
329,192,26577,1,0,0:0:0:0:
475,192,26577,1,0,0:0:0:0:
182,192,26660,1,0,0:0:0:0:
256,192,26743,1,0,0:0:0:0:
329,192,26826,1,0,0:0:0:0:
109,192,26908,1,8,0:0:0:0:
182,192,26908,1,0,0:0:0:0:
402,192,26908,128,0,26991:0:0:0:0:
256,192,26991,1,0,0:0:0:70:LR_Tom Hit.wav
475,192,26991,128,0,27074:0:0:0:0:
109,192,27074,128,0,27157:0:0:0:70:LR_Tom Hit 2.wav
329,192,27074,1,0,0:0:0:0:
182,192,27157,128,0,27240:0:0:0:70:LR_Tom Hit.wav
402,192,27157,1,0,0:0:0:0:
36,192,27240,1,2,0:0:0:0:
256,192,27240,1,4,0:3:0:0:
329,192,27240,1,0,0:0:0:0:
475,192,27240,1,0,0:0:0:0:
36,192,27406,128,4,27737:0:3:0:0:
109,192,27406,1,0,0:0:0:0:
475,192,27406,1,0,0:0:0:0:
329,192,27571,128,0,27903:0:0:0:0:
182,192,27737,128,2,28069:0:0:0:0:
402,192,27737,1,0,0:0:0:0:
475,192,27737,1,0,0:0:0:0:
256,192,27903,1,2,2:3:0:0:
36,192,28069,128,2,28400:2:3:0:0:
109,192,28069,1,0,0:0:0:0:
329,192,28234,128,2,28566:2:3:0:0:
402,192,28234,1,0,0:0:0:0:
182,192,28400,128,2,28732:2:3:0:0:
256,192,28400,1,0,0:0:0:0:
36,192,28566,1,2,0:0:0:0:
109,192,28566,1,4,0:3:0:0:
402,192,28566,1,0,0:0:0:0:
475,192,28566,1,0,0:0:0:0:
36,192,28732,1,4,0:3:0:0:
329,192,28732,128,0,29063:0:0:0:0:
402,192,28732,1,0,0:0:0:0:
475,192,28897,128,2,29229:2:3:0:0:
36,192,29063,1,2,0:0:0:0:
109,192,29063,1,0,0:0:0:0:
182,192,29063,128,0,29395:0:0:0:0:
402,192,29229,1,2,2:3:0:0:
36,192,29395,128,0,29726:0:0:0:0:
256,192,29395,1,0,0:0:0:0:
109,192,29560,1,8,0:0:0:0:
329,192,29560,128,0,29892:0:0:0:0:
475,192,29560,1,0,0:0:0:0:
182,192,29726,128,2,30223:2:3:0:0:
402,192,29726,1,0,0:0:0:0:
36,192,29892,128,2,30058:0:0:0:0:
109,192,29892,1,4,0:3:0:0:
256,192,29892,1,0,0:0:0:0:
475,192,29892,1,0,0:0:0:0:
256,192,30058,1,4,0:3:0:0:
329,192,30058,1,0,0:0:0:0:
475,192,30058,1,0,0:0:0:0:
109,192,30223,128,2,30389:2:3:0:0:
402,192,30223,128,0,30555:0:0:0:0:
36,192,30389,1,2,0:0:0:0:
256,192,30389,1,0,0:0:0:0:
475,192,30389,1,0,0:0:0:0:
182,192,30555,1,2,2:3:0:0:
329,192,30555,128,0,30638:0:0:0:0:
182,192,30638,128,0,30721:0:0:0:0:
109,192,30721,128,2,31052:2:3:0:0:
402,192,30721,128,0,30803:0:0:0:0:
329,192,30886,1,2,2:3:0:0:
475,192,30886,128,0,31052:0:0:0:0:
182,192,31052,128,2,31384:2:3:0:0:
256,192,31052,1,0,0:0:0:0:
36,192,31218,1,2,0:0:0:0:
109,192,31218,1,4,0:3:0:0:
402,192,31218,1,0,0:0:0:0:
475,192,31218,1,0,0:0:0:0:
36,192,31384,1,4,0:3:0:0:
329,192,31384,128,0,31549:0:0:0:0:
402,192,31384,1,0,0:0:0:0:
109,192,31466,128,0,31715:0:0:0:0:
256,192,31549,128,2,31881:2:3:0:0:
475,192,31549,1,0,0:0:0:0:
36,192,31715,1,2,0:0:0:0:
182,192,31715,1,0,0:0:0:0:
402,192,31715,1,0,0:0:0:0:
109,192,31881,1,2,2:3:0:0:
329,192,31881,1,0,0:0:0:0:
182,192,31964,1,2,2:3:0:0:
36,192,32047,128,0,32378:0:0:0:0:
256,192,32047,1,0,0:0:0:0:
109,192,32212,128,8,32378:0:0:0:0:
329,192,32212,1,0,0:0:0:0:
475,192,32212,1,0,0:0:0:0:
256,192,32378,128,2,32710:2:3:0:0:
402,192,32378,1,0,0:0:0:0:
36,192,32544,1,4,0:0:0:0:
109,192,32544,1,2,0:0:0:0:
329,192,32544,1,0,0:0:0:0:
475,192,32544,1,0,0:0:0:0:
182,192,32710,128,2,32875:2:3:0:0:
402,192,32710,1,0,0:0:0:0:
109,192,32792,128,2,32958:2:3:0:0:
36,192,32875,128,8,33041:0:0:0:0:
329,192,32875,1,0,0:0:0:0:
475,192,32875,1,0,0:0:0:0:
182,192,33041,128,2,33207:0:0:0:0:
256,192,33041,1,0,0:0:0:0:
402,192,33041,1,0,0:0:0:0:
109,192,33124,128,0,33290:0:0:0:0:
36,192,33207,128,0,33538:0:0:0:0:
329,192,33207,1,0,0:0:0:0:
182,192,33372,128,2,33704:0:0:0:0:
402,192,33372,1,0,0:0:0:0:
475,192,33372,1,0,0:0:0:0:
109,192,33538,1,8,0:0:0:0:
256,192,33538,1,0,0:0:0:0:
329,192,33538,128,0,33870:0:0:0:0:
36,192,33704,1,0,0:0:0:0:
475,192,33704,128,0,34035:0:0:0:0:
109,192,33870,1,2,0:0:0:0:
256,192,33870,1,0,0:0:0:0:
36,192,34035,1,2,0:0:0:0:
182,192,34035,1,0,0:0:0:0:
329,192,34035,128,0,34201:0:0:0:0:
402,192,34118,128,0,34284:0:0:0:0:
109,192,34201,1,8,0:0:0:0:
256,192,34201,1,0,0:0:0:0:
475,192,34201,128,0,34367:0:0:0:0:
36,192,34367,1,2,0:0:0:0:
182,192,34367,1,0,0:0:0:0:
329,192,34367,128,0,34533:0:0:0:0:
402,192,34450,128,0,34616:0:0:0:0:
256,192,34533,1,0,0:0:0:0:
475,192,34533,128,0,34864:0:0:0:0:
36,192,34698,128,2,35030:0:0:0:0:
109,192,34698,1,0,0:0:0:0:
329,192,34698,1,0,0:0:0:0:
182,192,34864,128,8,35196:0:0:0:0:
256,192,34864,1,0,0:0:0:0:
402,192,34864,1,0,0:0:0:0:
109,192,35030,1,0,0:0:0:0:
329,192,35030,128,0,35361:0:0:0:0:
36,192,35196,1,2,0:0:0:0:
402,192,35196,1,0,0:0:0:0:
475,192,35196,1,0,0:0:0:0:
109,192,35361,128,0,35527:0:0:0:0:
182,192,35361,1,0,0:0:0:0:
256,192,35444,128,0,35610:0:0:0:0:
36,192,35527,1,8,0:0:0:0:
402,192,35527,128,0,35693:0:0:0:0:
475,192,35527,1,0,0:0:0:0:
109,192,35693,128,2,35859:0:0:0:0:
182,192,35693,1,0,0:0:0:0:
329,192,35693,1,0,0:0:0:0:
256,192,35776,128,0,35942:0:0:0:0:
36,192,35859,1,0,0:0:0:0:
402,192,35859,128,0,36024:0:0:0:0:
182,192,36024,128,2,36356:0:0:0:0:
329,192,36024,1,0,0:0:0:0:
475,192,36024,1,0,0:0:0:0:
36,192,36190,1,8,0:0:0:0:
109,192,36190,1,0,0:0:0:0:
329,192,36190,128,0,36356:0:0:0:0:
109,192,36356,1,4,0:0:0:0:
256,192,36356,1,2,0:0:0:0:
402,192,36356,1,0,0:0:0:0:
475,192,36356,128,0,37516:0:0:0:0:
36,192,36522,1,8,0:0:0:0:
182,192,36522,1,0,0:0:0:0:
256,192,36522,1,0,0:0:0:0:
329,192,36687,1,2,0:0:0:0:
402,192,36687,1,0,0:0:0:0:
182,192,36853,1,0,0:0:0:0:
256,192,36853,1,0,0:0:0:0:
36,192,37019,1,2,0:0:0:0:
109,192,37019,1,0,0:0:0:0:
182,192,37102,1,2,0:0:0:0:
329,192,37102,1,0,0:0:0:0:
36,192,37185,128,8,37765:0:0:0:0:
109,192,37185,1,4,0:0:0:0:
402,192,37185,1,0,0:0:0:0:
182,192,37350,128,0,37765:0:0:0:0:
329,192,37516,128,0,37765:0:0:0:0:
475,192,37682,128,0,37765:0:0:0:0:
36,192,37848,1,2,0:0:0:0:
182,192,37848,1,2,2:3:0:0:
329,192,37848,128,0,38013:0:0:0:0:
475,192,37848,128,0,38013:0:0:0:0:
36,192,38013,128,0,38179:0:0:0:0:
109,192,38013,128,0,38179:0:0:0:0:
182,192,38179,1,2,0:0:0:0:
329,192,38179,128,2,38345:2:3:0:0:
475,192,38179,128,0,38345:0:0:0:0:
36,192,38345,128,0,38511:0:0:0:0:
109,192,38345,128,0,38511:0:0:0:0:
182,192,38511,1,2,0:0:0:0:
329,192,38511,128,2,38676:2:3:0:0:
475,192,38511,128,0,38676:0:0:0:0:
36,192,38676,128,0,38842:0:0:0:0:
109,192,38676,128,0,38842:0:0:0:0:
182,192,38842,1,2,0:0:0:0:
329,192,38842,128,2,39008:2:3:0:0:
475,192,38842,128,0,39008:0:0:0:0:
36,192,39008,128,0,39174:0:0:0:0:
109,192,39008,128,0,39174:0:0:0:0:
182,192,39174,1,2,0:0:0:0:
329,192,39174,128,2,39339:2:3:0:0:
475,192,39174,128,0,39339:0:0:0:0:
36,192,39339,128,0,39505:0:0:0:0:
109,192,39339,128,0,39505:0:0:0:0:
182,192,39505,1,2,0:0:0:0:
329,192,39505,128,2,39671:2:3:0:0:
475,192,39505,128,0,39671:0:0:0:0:
36,192,39671,128,0,39837:0:0:0:0:
109,192,39671,128,0,39837:0:0:0:0:
182,192,39837,1,2,0:0:0:0:
329,192,39837,128,2,40002:2:3:0:0:
475,192,39837,128,0,40002:0:0:0:0:
36,192,40002,128,0,40168:0:0:0:0:
256,192,40002,128,0,40334:0:0:0:0:
109,192,40168,128,2,40334:0:0:0:0:
329,192,40168,128,2,40500:2:3:0:0:
475,192,40168,1,0,0:0:0:0:
182,192,40334,128,0,40500:0:0:0:0:
402,192,40334,128,0,40665:0:0:0:0:
36,192,40500,128,2,40831:2:3:0:0:
109,192,40500,1,2,0:0:0:0:
475,192,40500,128,0,40831:0:0:0:0:
182,192,40665,1,0,0:0:0:0:
256,192,40665,1,0,0:0:0:0:
256,192,40831,1,2,2:3:0:0:
329,192,40831,128,2,41163:0:0:0:0:
402,192,40831,1,0,0:0:0:0:
109,192,40997,1,0,0:0:0:0:
182,192,40997,128,0,41328:0:0:0:0:
36,192,41163,1,2,2:3:0:0:
109,192,41163,1,2,0:0:0:0:
475,192,41163,1,0,0:0:0:0:
256,192,41328,128,0,41660:0:0:0:0:
402,192,41328,1,0,0:0:0:0:
109,192,41494,1,2,2:3:0:0:
402,192,41494,128,2,41826:0:0:0:0:
475,192,41494,1,0,0:0:0:0:
36,192,41660,128,0,42820:0:0:0:0:
182,192,41660,1,0,0:0:0:0:
109,192,41826,1,2,0:0:0:0:
256,192,41826,1,0,0:0:0:70:LR3_HiHatSCD.wav
329,192,41826,1,0,0:0:0:0:
182,192,41991,1,8,0:0:0:0:
475,192,41991,1,0,0:0:0:0:
256,192,42074,1,8,0:0:0:0:
109,192,42157,1,2,0:0:0:0:
329,192,42157,1,2,2:3:0:0:
402,192,42157,1,0,0:0:0:0:
182,192,42240,1,8,0:3:0:0:
256,192,42323,1,8,0:0:0:0:
475,192,42323,1,0,0:0:0:0:
329,192,42406,1,8,0:0:0:0:
109,192,42489,1,8,0:0:0:0:
402,192,42489,1,2,2:3:0:0:
475,192,42489,1,0,0:0:0:0:
182,192,42571,1,8,0:3:0:0:
256,192,42654,1,8,0:0:0:0:
329,192,42654,1,0,0:0:0:0:
402,192,42737,1,8,0:0:0:0:
109,192,42820,1,2,0:0:0:0:
182,192,42820,1,0,0:0:0:70:LR3_HiHatSCD.wav
475,192,42820,1,0,0:0:0:0:
256,192,42861,1,0,0:0:0:0:
329,192,42903,1,0,0:0:0:0:
402,192,42944,1,0,0:0:0:0:
36,192,42986,1,8,0:0:0:0:
475,192,42986,1,0,0:0:0:0:
109,192,43069,1,8,0:0:0:0:
182,192,43069,1,0,0:0:0:0:
256,192,43152,1,2,0:0:0:0:
402,192,43152,128,2,43317:2:3:0:0:
475,192,43152,128,0,43317:0:0:0:0:
36,192,43317,128,0,43483:0:0:0:0:
182,192,43317,128,0,43483:0:0:0:0:
256,192,43483,1,2,0:0:0:0:
402,192,43483,128,2,43649:2:3:0:0:
475,192,43483,128,0,43649:0:0:0:0:
36,192,43649,128,0,43814:0:0:0:0:
182,192,43649,128,0,43814:0:0:0:0:
256,192,43814,1,2,0:0:0:0:
402,192,43814,128,2,43980:2:3:0:0:
475,192,43814,128,0,43980:0:0:0:0:
36,192,43980,128,0,44146:0:0:0:0:
182,192,43980,128,0,44146:0:0:0:0:
256,192,44146,1,2,0:0:0:0:
402,192,44146,128,2,44312:2:3:0:0:
475,192,44146,128,0,44312:0:0:0:0:
36,192,44312,128,0,44477:0:0:0:0:
182,192,44312,128,0,44477:0:0:0:0:
256,192,44477,1,2,0:0:0:0:
402,192,44477,128,2,44643:2:3:0:0:
475,192,44477,128,0,44643:0:0:0:0:
36,192,44643,128,0,44809:0:0:0:0:
182,192,44643,128,0,44809:0:0:0:0:
256,192,44809,1,2,0:0:0:0:
402,192,44809,128,2,44975:2:3:0:0:
475,192,44809,128,0,44975:0:0:0:0:
36,192,44975,128,0,45140:0:0:0:0:
182,192,44975,128,0,45140:0:0:0:0:
329,192,45140,1,2,0:0:0:0:
402,192,45140,128,2,45306:2:3:0:0:
475,192,45140,128,0,45306:0:0:0:0:
36,192,45306,128,0,45638:0:0:0:0:
256,192,45306,128,0,45472:0:0:0:0:
109,192,45472,128,2,45803:0:0:0:0:
329,192,45472,128,2,45638:2:3:0:0:
475,192,45472,1,0,0:0:0:0:
182,192,45638,128,0,45969:0:0:0:0:
402,192,45638,128,0,45803:0:0:0:0:
256,192,45803,128,2,46135:2:3:0:0:
329,192,45803,1,2,0:0:0:0:
475,192,45803,128,0,46135:0:0:0:0:
36,192,45969,1,0,0:0:0:0:
109,192,45969,1,0,0:0:0:0:
36,192,46135,1,2,2:3:0:0:
329,192,46135,128,2,46466:0:0:0:0:
402,192,46135,1,0,0:0:0:0:
182,192,46301,128,0,46632:0:0:0:0:
475,192,46301,1,0,0:0:0:0:
36,192,46466,1,2,2:3:0:0:
109,192,46466,1,2,0:0:0:0:
475,192,46466,1,0,0:0:0:0:
256,192,46632,128,0,46964:0:0:0:0:
402,192,46632,1,0,0:0:0:0:
109,192,46798,1,2,2:3:0:0:
402,192,46798,128,2,47129:0:0:0:0:
475,192,46798,1,0,0:0:0:0:
36,192,46964,128,0,48124:0:0:0:0:
182,192,46964,1,0,0:0:0:0:
109,192,47129,1,2,0:0:0:0:
256,192,47129,1,0,0:0:0:70:LR3_HiHatSCD.wav
329,192,47129,1,0,0:0:0:0:
182,192,47295,1,8,0:0:0:0:
402,192,47295,1,0,0:0:0:0:
256,192,47378,1,8,0:0:0:0:
109,192,47461,1,2,0:0:0:0:
329,192,47461,1,2,2:3:0:0:
475,192,47461,1,0,0:0:0:0:
182,192,47544,1,8,0:3:0:0:
256,192,47627,1,8,0:0:0:0:
402,192,47627,1,0,0:0:0:0:
182,192,47710,1,8,0:0:0:0:
109,192,47792,1,8,0:0:0:0:
329,192,47792,1,2,2:3:0:0:
475,192,47792,1,0,0:0:0:0:
256,192,47875,1,8,0:3:0:0:
182,192,47958,1,8,0:0:0:0:
329,192,47958,1,0,0:0:0:0:
402,192,48041,1,8,0:0:0:0:
109,192,48124,1,2,0:0:0:0:
182,192,48124,1,0,0:0:0:70:LR3_HiHatSCD.wav
475,192,48124,1,0,0:0:0:0:
256,192,48165,1,0,0:0:0:0:
329,192,48207,1,0,0:0:0:0:
402,192,48248,1,0,0:0:0:0:
36,192,48290,1,8,0:0:0:0:
475,192,48290,1,0,0:0:0:0:
256,192,48372,1,8,0:0:0:0:
329,192,48372,1,0,0:0:0:0:
109,192,48455,1,8,0:1:0:0:
182,192,48455,1,4,0:0:0:0:
402,192,48455,1,0,0:0:0:0:
475,192,48455,128,0,48621:0:0:0:0:
36,192,48621,1,0,0:0:0:0:
329,192,48621,128,0,48787:0:0:0:0:
182,192,48787,1,0,0:0:0:0:
475,192,48787,128,0,48953:0:0:0:0:
36,192,48953,1,0,0:0:0:0:
329,192,48953,128,0,49118:0:0:0:0:
182,192,49118,1,0,0:0:0:0:
475,192,49118,128,0,49284:0:0:0:0:
36,192,49284,1,0,0:0:0:0:
329,192,49284,128,0,49450:0:0:0:0:
182,192,49450,1,0,0:0:0:0:
475,192,49450,128,0,49616:0:0:0:0:
36,192,49616,1,0,0:0:0:0:
329,192,49616,128,0,49781:0:0:0:0:
109,192,49781,1,0,0:0:0:0:
182,192,49781,1,0,0:0:0:0:
256,192,49781,1,0,0:0:0:0:
475,192,49781,128,0,49947:0:0:0:0:
36,192,49947,1,0,0:0:0:0:
329,192,49947,128,0,50113:0:0:0:0:
182,192,50113,1,0,0:0:0:0:
475,192,50113,128,0,50279:0:0:0:0:
36,192,50279,1,0,0:0:0:0:
329,192,50279,128,0,50444:0:0:0:0:
182,192,50444,1,0,0:0:0:0:
475,192,50444,128,0,50610:0:0:0:0:
36,192,50610,1,0,0:0:0:0:
256,192,50610,128,0,50942:0:0:0:0:
109,192,50776,1,0,0:0:0:0:
329,192,50776,128,0,51107:0:0:0:0:
182,192,50942,1,0,0:0:0:0:
402,192,50942,128,0,51273:0:0:0:0:
36,192,51107,1,0,0:0:0:0:
109,192,51107,1,0,0:0:0:0:
256,192,51107,1,0,0:0:0:0:
475,192,51107,128,0,51439:0:0:0:0:
182,192,51273,1,0,0:0:0:0:
109,192,51439,1,0,0:0:0:0:
329,192,51439,128,0,51770:0:0:0:0:
36,192,51605,1,0,0:0:0:0:
182,192,51605,128,0,51936:0:0:0:0:
475,192,51770,1,0,0:0:0:0:
256,192,51936,128,0,52268:0:0:0:0:
402,192,51936,1,0,0:0:0:0:
109,192,52102,1,0,0:0:0:0:
475,192,52102,128,0,52433:0:0:0:0:
36,192,52268,128,0,52599:0:0:0:0:
182,192,52268,1,0,0:0:0:0:
256,192,52433,1,0,0:0:0:0:
329,192,52433,1,0,0:0:0:0:
402,192,52433,1,0,0:0:0:0:
182,192,52599,1,0,0:0:0:0:
475,192,52599,128,0,53593:0:0:0:0:
402,192,52682,128,0,53593:0:0:0:0:
109,192,52765,1,0,0:0:0:0:
329,192,52765,128,0,53593:0:0:0:0:
182,192,52931,1,0,0:0:0:0:
256,192,52931,1,0,0:0:0:0:
36,192,53096,1,0,0:0:0:0:
109,192,53096,1,0,0:0:0:0:
36,192,53262,1,0,0:0:0:0:
109,192,53262,1,0,0:0:0:0:
36,192,53428,1,0,0:0:0:0:
109,192,53428,1,0,0:0:0:0:
36,192,53593,1,0,0:0:0:0:
109,192,53593,1,0,0:0:0:0:
36,192,53759,1,2,0:0:0:0:
109,192,53759,1,8,0:0:0:0:
182,192,53759,1,0,0:0:0:0:
329,192,53759,1,0,0:0:0:0:
402,192,53759,1,0,0:0:0:0:
475,192,53759,1,0,0:0:0:0:
36,192,53925,1,8,0:0:0:0:
109,192,53925,1,2,0:0:0:0:
182,192,53925,1,0,0:0:0:0:
329,192,53925,1,0,0:0:0:0:
402,192,53925,1,0,0:0:0:0:
475,192,53925,1,0,0:0:0:0:
256,192,54422,1,0,0:0:0:0:
329,192,54505,1,0,0:0:0:0:
402,192,54547,1,0,0:0:0:0:
475,192,54588,1,0,0:0:0:0:
182,192,54629,1,0,0:0:0:0:
36,192,54671,1,0,0:0:0:0:
256,192,54754,1,0,0:0:0:0:
109,192,54795,1,0,0:0:0:0:
329,192,54837,1,0,0:0:0:0:
182,192,54878,1,0,0:0:0:0:
402,192,54919,1,0,0:0:0:0:
256,192,54961,1,0,0:0:0:0:
329,192,55044,1,0,0:0:0:0:
475,192,55085,1,0,0:0:0:0:
36,192,55168,1,0,0:0:0:0:
182,192,55210,1,0,0:0:0:0:
402,192,55251,1,0,0:0:0:0:
329,192,55306,1,0,0:0:0:0:
256,192,55361,1,0,0:0:0:0:
36,192,55748,128,0,56577:0:0:0:0:
109,192,55914,128,0,56743:0:0:0:0:
182,192,56080,128,0,56908:0:0:0:0:
329,192,56245,128,0,57074:0:0:0:0:
402,192,56411,128,0,57240:0:0:0:0:
475,192,56577,128,0,57406:0:0:0:0:
36,192,56743,128,0,57737:0:0:0:0:
109,192,56908,128,0,57737:0:0:0:0:
182,192,57074,128,0,57737:0:0:0:0:
329,192,57240,128,0,57737:0:0:0:0:
402,192,57406,128,0,57737:0:0:0:0:
256,192,57571,128,0,57737:0:0:0:0:
475,192,57737,1,0,0:0:0:0:
329,192,57792,1,0,0:0:0:0:
402,192,57848,1,0,0:0:0:0:
109,192,58566,1,0,0:0:0:0:
256,192,58566,1,0,0:0:0:0:
182,192,58732,1,0,0:0:0:0:
329,192,58732,1,0,0:0:0:0:
256,192,58897,1,0,0:0:0:0:
402,192,58897,1,0,0:0:0:0:
36,192,59063,1,2,0:0:0:0:
109,192,59063,1,4,0:0:0:0:
182,192,59063,1,0,0:0:0:0:
329,192,59063,1,0,0:0:0:0:
475,192,59063,1,0,0:0:0:0:
182,192,59229,1,2,0:0:0:0:
256,192,59229,1,0,0:0:0:0:
329,192,59312,1,0,0:0:0:0:
109,192,59395,1,8,0:0:0:0:
402,192,59395,1,0,0:0:0:0:
475,192,59395,1,0,0:0:0:0:
36,192,59560,128,2,59892:0:0:0:0:
182,192,59560,1,0,0:0:0:0:
256,192,59560,1,0,0:0:0:0:
329,192,59643,1,0,0:0:0:0:
402,192,59726,1,2,0:0:0:0:
475,192,59726,1,0,0:0:0:0:
402,192,59892,1,2,0:0:0:0:
475,192,59892,1,0,0:0:0:0:
36,192,60058,1,8,0:0:0:0:
109,192,60058,1,0,0:0:0:0:
329,192,60058,1,0,0:0:0:0:
182,192,60223,1,2,2:3:0:0:
402,192,60223,1,0,0:0:0:0:
36,192,60389,1,2,0:0:0:0:
256,192,60389,1,0,0:0:0:0:
475,192,60389,1,0,0:0:0:0:
109,192,60555,1,2,0:0:0:0:
329,192,60555,1,0,0:0:0:0:
182,192,60638,1,0,0:0:0:0:
256,192,60721,1,8,0:0:0:0:
402,192,60721,1,0,0:0:0:0:
475,192,60721,1,0,0:0:0:0:
36,192,60886,128,2,61218:0:0:0:0:
109,192,60886,1,0,0:0:0:0:
182,192,60886,1,0,0:0:0:0:
256,192,60969,1,0,0:0:0:0:
329,192,61052,1,2,0:0:0:0:
475,192,61052,1,0,0:0:0:0:
329,192,61218,1,2,0:0:0:0:
475,192,61218,1,0,0:0:0:0:
36,192,61384,1,8,0:0:0:0:
256,192,61384,1,0,0:0:0:0:
402,192,61384,1,0,0:0:0:0:
109,192,61549,1,2,2:3:0:0:
329,192,61549,1,0,0:0:0:0:
182,192,61715,1,2,0:0:0:0:
402,192,61715,1,0,0:0:0:0:
475,192,61715,1,0,0:0:0:0:
36,192,61881,1,2,0:0:0:0:
329,192,61881,1,0,0:0:0:0:
402,192,61964,1,0,0:0:0:0:
109,192,62047,1,8,0:0:0:0:
256,192,62047,1,0,0:0:0:0:
475,192,62047,1,0,0:0:0:0:
182,192,62212,1,2,0:0:0:0:
329,192,62212,128,0,62544:0:0:0:0:
402,192,62212,1,0,0:0:0:0:
109,192,62295,1,0,0:0:0:0:
36,192,62378,1,2,0:0:0:0:
475,192,62378,1,0,0:0:0:0:
182,192,62544,1,2,0:0:0:0:
475,192,62544,1,0,0:0:0:0:
182,192,62627,1,0,0:0:0:0:
36,192,62710,1,8,0:0:0:0:
256,192,62710,1,0,0:0:0:0:
402,192,62710,1,0,0:0:0:0:
109,192,62875,1,2,0:0:0:0:
182,192,62875,128,2,63372:2:3:0:0:
475,192,62875,1,0,0:0:0:0:
402,192,62958,1,0,0:0:0:0:
256,192,63041,1,2,0:0:0:0:
329,192,63041,1,0,0:0:0:0:
256,192,63207,1,2,0:0:0:0:
329,192,63207,1,0,0:0:0:0:
36,192,63372,1,8,0:0:0:0:
109,192,63372,1,0,0:0:0:0:
475,192,63372,1,0,0:0:0:0:
256,192,63538,1,2,0:0:0:0:
402,192,63538,1,0,0:0:0:0:
36,192,63704,1,8,0:0:0:0:
182,192,63704,1,0,0:0:0:0:
329,192,63704,1,0,0:0:0:0:
109,192,63870,1,2,0:0:0:0:
256,192,63870,1,0,0:0:0:0:
182,192,64035,1,8,0:0:0:0:
329,192,64035,1,2,2:3:0:0:
475,192,64035,1,0,0:0:0:0:
109,192,64201,1,2,2:3:0:0:
256,192,64201,1,0,0:0:0:0:
36,192,64367,1,4,0:0:0:0:
182,192,64367,1,2,0:0:0:0:
329,192,64367,1,0,0:0:0:0:
402,192,64367,1,0,0:0:0:0:
475,192,64367,1,0,0:0:0:0:
182,192,64533,1,2,0:0:0:0:
402,192,64533,1,0,0:0:0:0:
256,192,64616,1,0,0:0:0:0:
109,192,64698,1,8,0:0:0:0:
329,192,64698,1,0,0:0:0:0:
475,192,64698,1,0,0:0:0:0:
36,192,64864,128,2,65196:0:0:0:0:
182,192,64864,1,0,0:0:0:0:
402,192,64864,1,0,0:0:0:0:
256,192,64947,1,0,0:0:0:0:
329,192,65030,1,2,0:0:0:0:
475,192,65030,1,0,0:0:0:0:
329,192,65196,1,2,0:0:0:0:
475,192,65196,1,0,0:0:0:0:
36,192,65361,1,8,0:0:0:0:
256,192,65361,1,0,0:0:0:0:
402,192,65361,1,0,0:0:0:0:
182,192,65527,1,2,2:3:0:0:
329,192,65527,1,0,0:0:0:0:
109,192,65693,1,2,0:0:0:0:
256,192,65693,1,0,0:0:0:0:
475,192,65693,128,0,65859:0:0:0:0:
36,192,65859,128,2,66024:0:0:0:0:
329,192,65859,1,0,0:0:0:0:
402,192,65859,1,0,0:0:0:0:
109,192,66024,1,8,0:0:0:0:
256,192,66024,1,0,0:0:0:0:
475,192,66024,128,0,66190:0:0:0:0:
36,192,66190,128,2,66522:0:0:0:0:
329,192,66190,1,0,0:0:0:0:
402,192,66190,1,0,0:0:0:0:
256,192,66273,1,0,0:0:0:0:
109,192,66356,1,2,0:0:0:0:
182,192,66356,1,0,0:0:0:0:
475,192,66356,128,0,66522:0:0:0:0:
256,192,66522,1,2,0:0:0:0:
329,192,66522,128,0,66687:0:0:0:0:
402,192,66522,1,0,0:0:0:0:
109,192,66687,1,8,0:0:0:0:
182,192,66687,128,0,66853:0:0:0:0:
475,192,66687,1,0,0:0:0:0:
36,192,66853,128,2,67019:2:3:0:0:
256,192,66853,1,2,0:0:0:0:
402,192,66853,1,0,0:0:0:0:
329,192,66936,1,0,0:0:0:0:
109,192,67019,1,2,0:0:0:0:
182,192,67019,1,0,0:0:0:0:
475,192,67019,1,0,0:0:0:0:
182,192,67185,1,2,0:0:0:0:
402,192,67185,1,0,0:0:0:0:
36,192,67350,1,8,0:0:0:0:
109,192,67350,1,0,0:0:0:0:
475,192,67350,1,0,0:0:0:0:
256,192,67516,1,2,0:0:0:0:
329,192,67516,1,0,0:0:0:0:
475,192,67516,128,0,68013:0:0:0:0:
182,192,67599,1,0,0:0:0:0:
36,192,67682,1,8,0:0:0:0:
109,192,67682,1,0,0:0:0:0:
402,192,67682,1,0,0:0:0:0:
329,192,67765,1,0,0:0:0:0:
182,192,67848,1,2,0:0:0:0:
256,192,67848,1,0,0:0:0:0:
109,192,67931,1,0,0:0:0:0:
36,192,68013,128,8,68096:0:0:0:0:
256,192,68013,1,0,0:0:0:0:
402,192,68013,1,0,0:0:0:0:
109,192,68096,128,0,68179:0:0:0:70:LR_Tom Hit.wav
329,192,68096,1,0,0:0:0:0:
182,192,68179,128,0,68262:0:0:0:70:LR_Tom Hit 2.wav
402,192,68179,1,0,0:0:0:0:
256,192,68262,128,0,68345:0:0:0:70:LR_Tom Hit 3.wav
475,192,68262,1,0,0:0:0:0:
36,192,68345,1,2,0:0:0:0:
109,192,68345,1,4,0:3:0:0:
329,192,68345,1,0,0:0:0:0:
402,192,68345,1,0,0:0:0:0:
36,192,68511,1,2,0:0:0:0:
109,192,68511,1,4,0:3:0:0:
329,192,68511,1,0,0:0:0:0:
402,192,68511,1,0,0:0:0:0:
36,192,68842,1,2,0:0:0:0:
109,192,68842,1,4,0:0:0:0:
256,192,68842,1,0,0:0:0:0:
402,192,68842,1,0,0:0:0:0:
475,192,68842,1,0,0:0:0:0:
109,192,69174,1,2,0:0:0:0:
256,192,69174,1,0,0:0:0:0:
182,192,69339,1,0,0:0:0:70:LR_Tom Hit.wav
329,192,69339,1,0,0:0:0:0:
109,192,69422,1,0,0:0:0:70:LR_Tom Hit.wav
256,192,69505,1,0,0:0:0:70:LR_Tom Hit 2.wav
402,192,69505,1,0,0:0:0:0:
182,192,69588,1,0,0:0:0:70:LR_Tom Hit 3.wav
36,192,69671,1,4,0:0:0:0:
109,192,69671,1,2,0:0:0:0:
329,192,69671,1,0,0:0:0:0:
402,192,69671,1,0,0:0:0:0:
475,192,69671,1,0,0:0:0:0:
109,192,69837,1,2,0:0:0:0:
182,192,69837,1,0,0:0:0:0:
256,192,69919,1,0,0:0:0:0:
36,192,70002,1,8,0:0:0:0:
329,192,70002,1,0,0:0:0:0:
475,192,70002,1,0,0:0:0:0:
109,192,70168,1,2,0:0:0:0:
182,192,70168,128,0,70500:0:0:0:0:
256,192,70168,1,0,0:0:0:0:
329,192,70251,1,0,0:0:0:0:
402,192,70334,1,2,0:0:0:0:
475,192,70334,1,0,0:0:0:0:
402,192,70500,1,2,0:0:0:0:
475,192,70500,1,0,0:0:0:0:
36,192,70665,1,8,0:0:0:0:
182,192,70665,1,0,0:0:0:0:
329,192,70665,1,0,0:0:0:0:
109,192,70831,1,2,2:3:0:0:
256,192,70831,1,0,0:0:0:0:
36,192,70997,1,2,0:0:0:0:
329,192,70997,1,0,0:0:0:0:
475,192,70997,1,0,0:0:0:0:
182,192,71163,1,2,0:0:0:0:
402,192,71163,1,0,0:0:0:0:
256,192,71245,1,0,0:0:0:0:
109,192,71328,1,8,0:0:0:0:
329,192,71328,1,0,0:0:0:0:
475,192,71328,1,0,0:0:0:0:
36,192,71494,1,2,0:0:0:0:
182,192,71494,128,0,71826:0:0:0:0:
256,192,71494,1,0,0:0:0:0:
329,192,71577,1,0,0:0:0:0:
402,192,71660,1,2,0:0:0:0:
475,192,71660,1,0,0:0:0:0:
402,192,71826,1,2,0:0:0:0:
475,192,71826,1,0,0:0:0:0:
36,192,71991,1,8,0:0:0:0:
109,192,71991,1,0,0:0:0:0:
256,192,71991,1,0,0:0:0:0:
182,192,72157,1,2,2:3:0:0:
329,192,72157,1,0,0:0:0:0:
256,192,72323,1,2,0:0:0:0:
402,192,72323,1,0,0:0:0:0:
475,192,72323,1,0,0:0:0:0:
109,192,72489,1,2,0:0:0:0:
329,192,72489,1,0,0:0:0:0:
182,192,72571,1,0,0:0:0:0:
36,192,72654,1,8,0:0:0:0:
256,192,72654,1,0,0:0:0:0:
475,192,72654,1,0,0:0:0:0:
182,192,72820,1,2,0:0:0:0:
329,192,72820,128,0,73152:0:0:0:0:
402,192,72820,1,0,0:0:0:0:
109,192,72903,1,0,0:0:0:0:
36,192,72986,1,2,0:0:0:0:
475,192,72986,1,0,0:0:0:0:
109,192,73152,1,2,0:0:0:0:
256,192,73152,1,0,0:0:0:0:
256,192,73234,1,0,0:0:0:0:
36,192,73317,1,8,0:0:0:0:
182,192,73317,1,0,0:0:0:0:
475,192,73317,1,0,0:0:0:0:
109,192,73483,1,2,0:0:0:0:
329,192,73483,1,2,2:3:0:0:
402,192,73483,128,0,73980:0:0:0:0:
36,192,73649,1,8,0:0:0:0:
256,192,73649,1,0,0:0:0:0:
475,192,73649,1,0,0:0:0:0:
109,192,73814,128,2,73980:0:0:0:0:
329,192,73814,1,0,0:0:0:0:
256,192,73897,1,0,0:0:0:0:
36,192,73980,128,8,74312:0:0:0:0:
182,192,73980,1,0,0:0:0:0:
475,192,73980,1,0,0:0:0:0:
182,192,74146,1,8,0:0:0:0:
329,192,74146,1,0,0:0:0:0:
475,192,74146,1,0,0:0:0:0:
109,192,74312,1,2,0:0:0:0:
256,192,74312,1,0,0:0:0:0:
329,192,74477,1,2,0:0:0:0:
475,192,74477,1,0,0:0:0:0:
36,192,74643,1,8,0:0:0:0:
256,192,74643,1,0,0:0:0:0:
402,192,74643,1,0,0:0:0:0:
182,192,74726,1,0,0:0:0:70:LR_Tom Hit.wav
109,192,74809,1,0,0:0:0:70:LR_Tom Hit 2.wav
329,192,74809,1,0,0:0:0:0:
256,192,74892,1,0,0:0:0:70:LR_Tom Hit 3.wav
36,192,74975,1,4,0:0:0:0:
109,192,74975,1,2,0:0:0:0:
182,192,74975,1,0,0:0:0:0:
402,192,74975,1,0,0:0:0:0:
475,192,74975,1,0,0:0:0:0:
329,192,75140,1,2,0:0:0:0:
402,192,75140,1,0,0:0:0:0:
256,192,75223,1,0,0:0:0:0:
109,192,75306,1,8,0:0:0:0:
182,192,75306,1,0,0:0:0:0:
475,192,75306,1,0,0:0:0:0:
36,192,75472,128,2,75803:0:0:0:0:
256,192,75472,1,0,0:0:0:0:
329,192,75472,1,0,0:0:0:0:
402,192,75555,1,0,0:0:0:0:
182,192,75638,1,2,0:0:0:0:
475,192,75638,1,0,0:0:0:0:
182,192,75803,1,2,0:0:0:0:
475,192,75803,1,0,0:0:0:0:
36,192,75969,1,8,0:0:0:0:
109,192,75969,1,0,0:0:0:0:
329,192,75969,1,0,0:0:0:0:
256,192,76135,1,2,2:3:0:0:
402,192,76135,1,0,0:0:0:0:
36,192,76301,1,2,0:0:0:0:
109,192,76301,1,0,0:0:0:0:
182,192,76301,1,0,0:0:0:0:
475,192,76301,1,0,0:0:0:0:
329,192,76384,1,0,0:0:0:0:
36,192,76466,1,2,0:0:0:0:
109,192,76466,1,0,0:0:0:0:
182,192,76466,1,0,0:0:0:0:
475,192,76466,1,0,0:0:0:0:
256,192,76549,1,0,0:0:0:0:
329,192,76549,1,0,0:0:0:0:
36,192,76632,1,0,0:0:0:0:
475,192,76632,1,0,0:0:0:0:
109,192,76715,1,0,0:0:0:0:
329,192,76715,1,0,0:0:0:0:
182,192,76798,1,0,0:0:0:0:
475,192,76798,1,0,0:0:0:0:
256,192,76881,1,0,0:0:0:0:
329,192,76881,1,0,0:0:0:0:
36,192,76964,1,0,0:0:0:0:
475,192,76964,128,0,77129:0:0:0:0:
109,192,77047,1,0,0:0:0:0:
182,192,77129,1,0,0:0:0:0:
329,192,77129,128,0,77295:0:0:0:0:
256,192,77212,1,0,0:0:0:0:
36,192,77295,1,0,0:0:0:0:
402,192,77295,128,0,77461:0:0:0:0:
109,192,77461,1,0,0:0:0:0:
182,192,77461,128,0,77627:0:0:0:0:
36,192,77627,128,4,77958:0:0:0:0:
256,192,77627,1,2,0:0:0:0:
329,192,77627,128,0,77792:0:0:0:0:
475,192,77627,1,0,0:0:0:0:
402,192,77792,1,0,0:0:0:0:
109,192,77958,1,2,0:0:0:0:
256,192,77958,1,0,0:0:0:0:
109,192,78124,1,2,0:0:0:0:
256,192,78124,128,0,80279:0:0:0:0:
329,192,78290,1,8,0:0:0:0:
475,192,78290,1,0,0:0:0:0:
36,192,78455,1,0,0:0:0:0:
36,192,78621,1,2,2:3:0:0:
109,192,78787,1,2,0:0:0:0:
182,192,78787,1,0,0:0:0:0:
109,192,78953,1,2,0:0:0:0:
182,192,78953,1,0,0:0:0:0:
329,192,79118,1,0,0:0:0:0:
329,192,79284,1,2,2:3:0:0:
109,192,79450,1,2,0:0:0:0:
402,192,79450,1,0,0:0:0:0:
36,192,79616,1,8,0:0:0:0:
475,192,79616,1,0,0:0:0:0:
402,192,79781,1,0,0:0:0:0:
402,192,79947,1,2,2:3:0:0:
36,192,80113,1,2,0:0:0:0:
182,192,80113,1,0,0:0:0:0:
36,192,80279,1,2,0:0:0:0:
182,192,80279,1,0,0:0:0:0:
256,192,80444,1,0,0:0:0:0:
329,192,80610,1,2,0:0:0:0:
402,192,80610,1,2,2:3:0:0:
329,192,80776,1,2,0:0:0:0:
402,192,80776,1,0,0:0:0:0:
256,192,80942,128,8,81024:0:0:0:0:
475,192,80942,1,0,0:0:0:0:
109,192,81107,1,0,0:0:0:0:
109,192,81273,1,2,2:3:0:0:
36,192,81439,1,2,0:0:0:0:
329,192,81439,1,0,0:0:0:0:
36,192,81605,1,2,0:0:0:0:
329,192,81605,128,2,81687:2:3:0:0:
256,192,81770,1,0,0:0:0:0:
36,192,81936,1,2,0:0:0:0:
182,192,81936,1,2,2:3:0:0:
36,192,82102,1,2,0:0:0:0:
182,192,82102,1,0,0:0:0:0:
329,192,82268,1,8,0:0:0:0:
475,192,82268,128,0,82350:0:0:0:0:
256,192,82433,1,2,2:3:0:0:
109,192,82599,1,2,0:0:0:0:
182,192,82599,1,0,0:0:0:0:
329,192,82765,1,8,0:0:0:0:
402,192,82765,1,0,0:0:0:0:
36,192,82931,1,2,0:0:0:0:
109,192,82931,1,4,0:0:0:0:
256,192,82931,128,0,83013:0:0:0:0:
475,192,83096,1,0,0:0:0:0:
182,192,83262,1,2,0:0:0:0:
329,192,83262,1,0,0:0:0:0:
182,192,83428,1,2,0:0:0:0:
329,192,83428,1,0,0:0:0:0:
109,192,83593,1,8,0:0:0:0:
402,192,83593,1,0,0:0:0:0:
36,192,83759,1,0,0:0:0:0:
36,192,83925,1,2,2:3:0:0:
182,192,84091,1,2,0:0:0:0:
329,192,84091,1,0,0:0:0:0:
182,192,84256,128,2,84339:0:0:0:0:
329,192,84256,1,2,2:3:0:0:
475,192,84422,1,0,0:0:0:0:
475,192,84588,1,0,0:0:0:0:
109,192,84754,1,2,0:0:0:0:
329,192,84754,1,0,0:0:0:0:
36,192,84919,128,8,86908:0:0:0:0:
402,192,84919,128,0,85002:0:0:0:0:
256,192,85085,1,0,0:0:0:0:
256,192,85251,1,2,2:3:0:0:
182,192,85417,1,2,0:0:0:0:
402,192,85417,1,0,0:0:0:0:
182,192,85582,128,2,85665:0:0:0:0:
402,192,85582,1,2,2:3:0:0:
329,192,85748,1,0,0:0:0:0:
109,192,85914,1,2,2:3:0:0:
256,192,85914,1,2,0:0:0:0:
109,192,86080,1,2,0:0:0:0:
256,192,86080,1,0,0:0:0:0:
329,192,86245,1,8,0:0:0:0:
475,192,86245,1,0,0:0:0:0:
182,192,86411,1,0,0:0:0:0:
182,192,86577,1,2,2:3:0:0:
256,192,86743,1,0,0:0:0:0:
256,192,86908,1,2,0:0:0:0:
329,192,86908,1,0,0:0:0:0:
475,192,86908,128,0,87903:0:0:0:0:
36,192,87074,1,0,0:0:0:0:
109,192,87074,1,2,2:3:0:0:
36,192,87240,1,0,0:0:0:0:
109,192,87240,1,2,2:3:0:0:
402,192,87406,1,0,0:0:0:0:
256,192,87406,1,2,2:3:0:0:
36,192,87571,1,0,0:0:0:0:
402,192,87571,1,0,0:0:0:0:
256,192,87571,1,2,2:3:0:0:
109,192,87737,1,0,0:0:0:0:
182,192,87737,1,2,2:3:0:0:
109,192,87903,1,8,0:0:0:0:
182,192,87903,1,0,0:0:0:0:
256,192,87986,1,0,0:0:0:70:LR_Tom Hit 2.wav
329,192,87986,1,0,0:0:0:0:
402,192,88069,1,2,0:0:0:0:
475,192,88069,1,0,0:0:0:0:
36,192,88152,1,0,0:0:0:70:LR_Tom Hit.wav
109,192,88152,1,0,0:0:0:0:
182,192,88234,1,2,0:0:0:0:
256,192,88234,1,4,0:0:0:0:
402,192,88234,1,0,0:0:0:0:
475,192,88234,1,0,0:0:0:0:
182,192,88400,1,2,0:0:0:0:
256,192,88400,1,0,0:0:0:0:
402,192,88400,1,0,0:0:0:0:
475,192,88400,1,0,0:0:0:0:
182,192,88566,128,2,88732:2:3:0:0:
256,192,88566,128,0,88732:0:0:0:0:
402,192,88566,128,0,88732:0:0:0:0:
475,192,88566,128,0,88732:0:0:0:0:
36,192,88732,1,2,0:0:0:0:
109,192,88732,1,0,0:0:0:0:
256,192,88897,1,8,0:0:0:0:
402,192,88897,1,0,0:0:0:0:
475,192,88897,1,0,0:0:0:0:
36,192,89063,128,0,89229:0:0:0:0:
109,192,89063,128,0,89229:0:0:0:0:
182,192,89063,128,0,89229:0:0:0:0:
329,192,89063,128,0,89229:0:0:0:0:
475,192,89229,1,2,2:3:0:0:
36,192,89395,128,2,89560:0:0:0:0:
109,192,89395,128,0,89560:0:0:0:0:
182,192,89395,128,0,89560:0:0:0:0:
256,192,89395,128,0,89560:0:0:0:0:
402,192,89560,1,2,2:3:0:0:
36,192,89726,1,2,0:0:0:0:
109,192,89726,1,0,0:0:0:0:
182,192,89726,1,0,0:0:0:0:
256,192,89726,1,0,0:0:0:0:
36,192,89892,128,2,90058:2:3:0:0:
109,192,89892,128,0,90058:0:0:0:0:
182,192,89892,128,0,90058:0:0:0:0:
256,192,89892,128,0,90058:0:0:0:0:
329,192,90058,1,2,0:0:0:0:
475,192,90058,1,0,0:0:0:0:
36,192,90223,1,8,0:0:0:0:
256,192,90223,1,0,0:0:0:0:
402,192,90223,1,0,0:0:0:0:
109,192,90389,128,0,90555:0:0:0:0:
182,192,90389,128,0,90555:0:0:0:0:
329,192,90389,128,0,90555:0:0:0:0:
402,192,90389,128,0,90555:0:0:0:0:
256,192,90555,1,2,2:3:0:0:
182,192,90721,1,0,0:0:0:0:
36,192,90886,1,2,0:0:0:0:
109,192,90886,1,0,0:0:0:0:
402,192,90886,1,0,0:0:0:0:
475,192,90886,1,0,0:0:0:0:
36,192,91052,1,2,0:0:0:0:
109,192,91052,1,0,0:0:0:0:
402,192,91052,1,0,0:0:0:0:
475,192,91052,1,0,0:0:0:0:
36,192,91218,128,2,91384:2:3:0:0:
109,192,91218,128,0,91384:0:0:0:0:
402,192,91218,128,0,91384:0:0:0:0:
475,192,91218,128,0,91384:0:0:0:0:
182,192,91384,1,2,0:0:0:0:
329,192,91384,1,0,0:0:0:0:
109,192,91549,1,8,0:0:0:0:
256,192,91549,1,0,0:0:0:0:
402,192,91549,1,0,0:0:0:0:
36,192,91715,128,0,91881:0:0:0:0:
182,192,91715,128,0,91881:0:0:0:0:
329,192,91715,128,0,91881:0:0:0:0:
475,192,91715,128,0,91881:0:0:0:0:
256,192,91881,1,2,2:3:0:0:
109,192,92047,128,2,92212:0:0:0:0:
182,192,92047,128,0,92212:0:0:0:0:
329,192,92047,128,0,92212:0:0:0:0:
402,192,92047,128,0,92212:0:0:0:0:
256,192,92212,1,2,2:3:0:0:
109,192,92378,1,2,0:0:0:0:
182,192,92378,1,0,0:0:0:0:
329,192,92378,1,0,0:0:0:0:
402,192,92378,1,0,0:0:0:0:
109,192,92544,128,2,92710:2:3:0:0:
182,192,92544,128,0,92710:0:0:0:70:LR_Tom Hit 2.wav
329,192,92544,128,0,92710:0:0:0:0:
402,192,92544,128,0,92710:0:0:0:0:
36,192,92627,1,0,0:0:0:0:
256,192,92710,1,2,0:0:0:0:
475,192,92792,1,0,0:0:0:0:
36,192,92875,1,2,0:0:0:0:
182,192,92875,1,8,0:0:0:0:
329,192,92875,1,0,0:0:0:70:LR_Tom Hit.wav
109,192,93207,128,0,93538:0:0:0:0:
182,192,93538,1,2,0:0:0:0:
256,192,93538,1,0,0:0:0:0:
402,192,93538,1,0,0:0:0:0:
475,192,93538,1,0,0:0:0:0:
182,192,93704,1,2,0:0:0:0:
256,192,93704,1,0,0:0:0:0:
402,192,93704,1,0,0:0:0:0:
475,192,93704,1,0,0:0:0:0:
182,192,93870,128,2,94035:2:3:0:0:
256,192,93870,128,0,94035:0:0:0:0:
402,192,93870,128,0,94035:0:0:0:0:
475,192,93870,128,0,94035:0:0:0:0:
36,192,94035,1,2,0:0:0:0:
109,192,94035,1,0,0:0:0:0:
256,192,94201,1,8,0:0:0:0:
402,192,94201,1,0,0:0:0:0:
475,192,94201,1,0,0:0:0:0:
36,192,94367,128,0,94533:0:0:0:0:
109,192,94367,128,0,94533:0:0:0:0:
182,192,94367,128,0,94533:0:0:0:0:
329,192,94367,128,0,94533:0:0:0:0:
475,192,94533,1,2,2:3:0:0:
36,192,94698,128,2,94864:0:0:0:0:
109,192,94698,128,0,94864:0:0:0:0:
182,192,94698,128,0,94864:0:0:0:0:
256,192,94698,128,0,94864:0:0:0:0:
402,192,94864,1,2,2:3:0:0:
36,192,95030,1,2,0:0:0:0:
109,192,95030,1,0,0:0:0:0:
182,192,95030,1,0,0:0:0:0:
256,192,95030,1,0,0:0:0:0:
36,192,95196,128,2,95361:2:3:0:0:
109,192,95196,128,0,95361:0:0:0:0:
182,192,95196,128,0,95361:0:0:0:0:
256,192,95196,128,0,95361:0:0:0:0:
329,192,95361,1,2,0:0:0:0:
475,192,95361,1,0,0:0:0:0:
36,192,95527,1,8,0:0:0:0:
256,192,95527,1,0,0:0:0:0:
402,192,95527,1,0,0:0:0:0:
109,192,95693,128,0,95859:0:0:0:0:
182,192,95693,128,0,95859:0:0:0:0:
329,192,95693,128,0,95859:0:0:0:0:
402,192,95693,128,0,95859:0:0:0:0:
256,192,95859,1,2,2:3:0:0:
182,192,96024,1,0,0:0:0:0:
36,192,96190,1,2,0:0:0:0:
109,192,96190,1,0,0:0:0:0:
402,192,96190,1,0,0:0:0:0:
475,192,96190,1,0,0:0:0:0:
36,192,96356,1,2,0:0:0:0:
109,192,96356,1,0,0:0:0:0:
402,192,96356,1,0,0:0:0:0:
475,192,96356,1,0,0:0:0:0:
36,192,96522,128,2,96687:2:3:0:0:
109,192,96522,128,0,96687:0:0:0:0:
402,192,96522,128,0,96687:0:0:0:0:
475,192,96522,128,0,96687:0:0:0:0:
182,192,96687,1,2,0:0:0:0:
329,192,96687,1,0,0:0:0:0:
109,192,96853,1,8,0:0:0:0:
256,192,96853,1,0,0:0:0:0:
402,192,96853,1,0,0:0:0:0:
36,192,97019,128,0,97185:0:0:0:0:
182,192,97019,128,0,97185:0:0:0:0:
329,192,97019,128,0,97185:0:0:0:0:
475,192,97019,128,0,97185:0:0:0:0:
256,192,97185,1,2,2:3:0:0:
109,192,97350,128,2,97516:0:0:0:0:
182,192,97350,128,0,97516:0:0:0:0:
329,192,97350,128,0,97516:0:0:0:0:
402,192,97350,128,0,97516:0:0:0:0:
256,192,97516,1,2,2:3:0:0:
109,192,97682,1,2,0:0:0:0:
182,192,97682,1,0,0:0:0:0:
329,192,97682,1,0,0:0:0:0:
402,192,97682,1,0,0:0:0:0:
109,192,97848,128,2,98013:2:3:0:0:
182,192,97848,128,0,98013:0:0:0:70:LR_Tom Hit 2.wav
329,192,97848,128,0,98013:0:0:0:0:
402,192,97848,128,0,98013:0:0:0:0:
36,192,97931,1,0,0:0:0:0:
256,192,98013,1,2,0:0:0:0:
475,192,98096,1,0,0:0:0:0:
36,192,98179,1,2,0:0:0:0:
182,192,98179,1,8,0:0:0:0:
329,192,98179,1,0,0:0:0:70:LR_Tom Hit.wav
329,192,98511,128,0,98842:0:0:0:0:
36,192,98842,1,4,0:0:0:0:
109,192,98842,1,2,0:0:0:0:
182,192,98842,1,0,0:0:0:0:
402,192,98842,1,0,0:0:0:0:
475,192,98842,1,0,0:0:0:0:
36,192,99008,1,2,0:0:0:0:
109,192,99008,1,0,0:0:0:0:
182,192,99008,1,0,0:0:0:0:
256,192,99008,1,0,0:0:0:0:
36,192,99174,128,2,99339:2:3:0:0:
109,192,99174,128,0,99339:0:0:0:0:
182,192,99174,128,0,99339:0:0:0:0:
329,192,99174,1,0,0:0:0:0:
256,192,99339,1,2,0:0:0:0:
402,192,99339,128,0,99671:0:0:0:0:
475,192,99339,1,0,0:0:0:0:
36,192,99505,1,8,0:0:0:0:
182,192,99505,1,0,0:0:0:0:
329,192,99505,1,0,0:0:0:0:
36,192,99671,128,0,99837:0:0:0:0:
109,192,99671,128,0,99837:0:0:0:0:
182,192,99671,128,0,99837:0:0:0:0:
256,192,99671,1,0,0:0:0:0:
329,192,99837,1,2,2:3:0:0:
36,192,100002,128,2,100168:0:0:0:0:
109,192,100002,128,0,100168:0:0:0:0:
182,192,100002,128,0,100168:0:0:0:0:
402,192,100002,128,0,100334:0:0:0:0:
475,192,100002,1,0,0:0:0:0:
36,192,100334,1,2,0:0:0:0:
109,192,100334,1,0,0:0:0:0:
182,192,100334,1,0,0:0:0:0:
329,192,100334,1,0,0:0:0:0:
36,192,100500,128,2,100665:2:3:0:0:
109,192,100500,128,0,100665:0:0:0:0:
182,192,100500,128,0,100665:0:0:0:0:
402,192,100500,1,0,0:0:0:0:
256,192,100665,1,2,0:0:0:0:
329,192,100665,1,0,0:0:0:0:
475,192,100665,128,0,100997:0:0:0:0:
36,192,100831,1,8,0:0:0:0:
182,192,100831,1,0,0:0:0:0:
402,192,100831,1,0,0:0:0:0:
36,192,100997,128,0,101163:0:0:0:0:
109,192,100997,128,0,101163:0:0:0:0:
182,192,100997,128,0,101163:0:0:0:0:
329,192,100997,1,0,0:0:0:0:
402,192,101163,1,2,2:3:0:0:
256,192,101328,128,0,101660:0:0:0:0:
109,192,101494,1,2,0:0:0:0:
329,192,101494,1,0,0:0:0:0:
402,192,101494,1,0,0:0:0:0:
475,192,101494,1,0,0:0:0:0:
109,192,101660,1,2,0:0:0:0:
329,192,101660,1,0,0:0:0:0:
402,192,101660,1,0,0:0:0:0:
475,192,101660,1,0,0:0:0:0:
36,192,101826,1,2,2:3:0:0:
329,192,101826,128,0,101991:0:0:0:0:
402,192,101826,128,0,101991:0:0:0:0:
475,192,101826,128,0,101991:0:0:0:0:
109,192,101991,1,2,0:0:0:0:
182,192,101991,1,0,0:0:0:0:
256,192,101991,1,0,0:0:0:0:
36,192,102157,1,8,0:0:0:0:
329,192,102157,1,0,0:0:0:0:
475,192,102157,1,0,0:0:0:0:
36,192,102240,1,0,0:0:0:0:
109,192,102323,1,0,0:0:0:0:
329,192,102323,128,0,102489:0:0:0:0:
402,192,102323,128,0,102489:0:0:0:0:
475,192,102323,128,0,102489:0:0:0:0:
182,192,102489,1,2,2:3:0:0:
36,192,102654,1,2,0:0:0:0:
109,192,102654,128,0,102986:0:0:0:0:
329,192,102654,128,0,102820:0:0:0:0:
402,192,102654,128,0,102820:0:0:0:0:
475,192,102654,128,0,102820:0:0:0:0:
182,192,102986,1,2,0:0:0:0:
329,192,102986,1,0,0:0:0:0:
402,192,102986,1,0,0:0:0:0:
475,192,102986,1,0,0:0:0:0:
182,192,103152,128,2,103317:2:3:0:0:
329,192,103152,128,0,103317:0:0:0:70:LR_Tom Hit 2.wav
402,192,103152,128,0,103317:0:0:0:0:
475,192,103152,128,0,103317:0:0:0:0:
36,192,103317,1,2,0:0:0:0:
109,192,103317,1,0,0:0:0:0:
182,192,103483,1,8,0:0:0:0:
329,192,103483,1,2,0:0:0:0:
475,192,103483,1,0,0:0:0:70:LR_Tom Hit.wav
109,192,103649,1,0,0:0:0:0:
256,192,103649,1,0,0:0:0:0:
182,192,103814,1,0,0:0:0:0:
402,192,103814,128,0,104146:0:0:0:0:
109,192,103897,1,0,0:0:0:0:
36,192,103980,1,0,0:0:0:0:
256,192,103980,1,0,0:0:0:0:
329,192,104063,1,0,0:0:0:0:
36,192,104146,1,2,0:0:0:0:
109,192,104146,1,0,0:0:0:0:
182,192,104146,1,0,0:0:0:0:
475,192,104146,1,0,0:0:0:0:
36,192,104312,1,2,0:0:0:0:
109,192,104312,1,0,0:0:0:0:
182,192,104312,1,0,0:0:0:0:
329,192,104312,1,0,0:0:0:0:
402,192,104395,1,0,0:0:0:0:
36,192,104477,128,2,104643:2:3:0:0:
109,192,104477,128,0,104643:0:0:0:0:
182,192,104477,128,0,104643:0:0:0:0:
475,192,104477,128,0,104975:0:0:0:0:
256,192,104643,1,2,0:0:0:0:
402,192,104643,1,0,0:0:0:0:
329,192,104726,1,0,0:0:0:0:
36,192,104809,1,8,0:0:0:0:
182,192,104809,1,0,0:0:0:0:
402,192,104809,128,0,104975:0:0:0:0:
36,192,104975,128,0,105140:0:0:0:0:
109,192,104975,128,0,105140:0:0:0:0:
182,192,104975,128,0,105140:0:0:0:0:
256,192,104975,1,0,0:0:0:0:
475,192,105140,1,2,2:3:0:0:
36,192,105306,128,2,105472:0:0:0:0:
109,192,105306,128,0,105472:0:0:0:0:
182,192,105306,128,0,105472:0:0:0:0:
329,192,105306,1,0,0:0:0:0:
402,192,105306,128,0,105638:0:0:0:0:
36,192,105638,1,2,0:0:0:0:
109,192,105638,1,0,0:0:0:0:
182,192,105638,1,0,0:0:0:0:
329,192,105638,1,0,0:0:0:0:
36,192,105803,128,2,105969:2:3:0:0:
109,192,105803,128,0,105969:0:0:0:0:
182,192,105803,128,0,105969:0:0:0:0:
329,192,105803,128,0,106135:0:0:0:0:
256,192,105969,1,2,0:0:0:0:
475,192,105969,1,0,0:0:0:0:
36,192,106135,1,8,0:0:0:0:
182,192,106135,1,0,0:0:0:0:
402,192,106135,1,0,0:0:0:0:
36,192,106301,128,0,106466:0:0:0:0:
109,192,106301,128,0,106466:0:0:0:0:
182,192,106301,128,0,106466:0:0:0:0:
329,192,106301,1,0,0:0:0:0:
475,192,106466,1,2,2:3:0:0:
256,192,106632,128,0,106798:0:0:0:0:
36,192,106798,1,2,0:0:0:0:
329,192,106798,1,0,0:0:0:0:
402,192,106798,1,0,0:0:0:0:
475,192,106798,1,0,0:0:0:0:
182,192,106964,1,2,0:0:0:0:
329,192,106964,1,0,0:0:0:0:
402,192,106964,1,0,0:0:0:0:
475,192,106964,1,0,0:0:0:0:
109,192,107047,1,0,0:0:0:0:
36,192,107129,128,2,107627:2:3:0:0:
329,192,107129,128,0,107295:0:0:0:0:
402,192,107129,128,0,107295:0:0:0:0:
475,192,107129,128,0,107295:0:0:0:0:
109,192,107295,1,2,0:0:0:0:
256,192,107295,1,0,0:0:0:0:
182,192,107378,1,0,0:0:0:0:
109,192,107461,128,8,107627:0:0:0:0:
329,192,107461,1,0,0:0:0:0:
475,192,107461,1,0,0:0:0:0:
256,192,107627,1,0,0:0:0:0:
329,192,107627,128,0,107792:0:0:0:0:
402,192,107627,128,0,107792:0:0:0:0:
475,192,107627,128,0,107792:0:0:0:0:
182,192,107792,1,2,2:3:0:0:
36,192,107958,1,2,0:0:0:0:
109,192,107958,128,0,108290:0:0:0:0:
329,192,107958,128,0,108124:0:0:0:0:
402,192,107958,128,0,108124:0:0:0:0:
475,192,107958,128,0,108124:0:0:0:0:
182,192,108290,1,2,0:0:0:0:
329,192,108290,1,0,0:0:0:0:
402,192,108290,1,0,0:0:0:0:
475,192,108290,1,0,0:0:0:0:
182,192,108455,128,2,108621:2:3:0:0:
329,192,108455,128,0,108621:0:0:0:70:LR_Tom Hit 2.wav
402,192,108455,128,0,108621:0:0:0:0:
475,192,108455,128,0,108621:0:0:0:0:
36,192,108621,1,2,0:0:0:0:
109,192,108621,1,0,0:0:0:0:
256,192,108676,1,0,0:0:0:0:
329,192,108732,1,0,0:0:0:0:
182,192,108787,1,2,0:0:0:0:
402,192,108787,1,8,0:0:0:0:
475,192,108787,1,0,0:0:0:70:LR_Tom Hit.wav
36,192,108911,1,0,0:0:0:70:LR_Tom Hit 2.wav
109,192,108911,1,0,0:0:0:0:
402,192,108953,1,0,0:0:0:70:LR_Tom Hit 2.wav
475,192,108953,1,0,0:0:0:0:
36,192,108994,1,0,0:0:0:70:LR_Tom Hit 2.wav
109,192,108994,1,0,0:0:0:0:
182,192,109035,1,0,0:0:0:70:LR_Tom Hit 3.wav
329,192,109035,1,0,0:0:0:0:
329,192,109146,1,0,0:0:0:0:
182,192,109146,1,0,0:0:0:70:LR_Tom Hit 3.wav
36,192,109284,1,2,0:0:0:0:
402,192,109284,1,0,0:0:0:0:
475,192,109284,1,0,0:0:0:0:
36,192,109616,1,2,0:0:0:0:
182,192,109616,1,4,0:0:0:0:
256,192,109616,1,0,0:0:0:0:
402,192,109616,1,0,0:0:0:0:
475,192,109616,1,0,0:0:0:0:
36,192,109781,1,2,2:3:0:0:
182,192,109781,1,4,0:0:0:0:
256,192,109781,1,2,0:0:0:0:
402,192,109781,1,0,0:0:0:0:
475,192,109781,1,0,0:0:0:0:
36,192,109947,128,2,110113:0:0:0:0:
109,192,109947,128,0,110113:0:0:0:0:
256,192,109947,128,0,110279:0:0:0:0:
402,192,109947,128,0,110113:0:0:0:0:
182,192,110113,1,8,0:0:0:0:
329,192,110113,1,0,0:0:0:0:
475,192,110113,1,0,0:0:0:0:
36,192,110279,128,0,110444:0:0:0:0:
109,192,110279,1,0,0:0:0:0:
402,192,110279,128,0,110444:0:0:0:0:
475,192,110279,128,0,110444:0:0:0:0:
182,192,110444,1,2,2:3:0:0:
36,192,110610,128,2,110776:0:0:0:0:
256,192,110610,128,0,110942:0:0:0:0:
329,192,110610,1,0,0:0:0:0:
402,192,110610,128,0,110776:0:0:0:0:
475,192,110610,128,0,110776:0:0:0:0:
109,192,110776,1,2,2:3:0:0:
36,192,110942,1,2,0:0:0:0:
182,192,110942,1,0,0:0:0:0:
402,192,110942,1,0,0:0:0:0:
475,192,110942,1,0,0:0:0:0:
36,192,111107,128,2,111273:2:3:0:0:
256,192,111107,1,0,0:0:0:0:
402,192,111107,128,0,111273:0:0:0:0:
475,192,111107,128,0,111273:0:0:0:0:
109,192,111273,1,2,0:0:0:0:
182,192,111273,1,0,0:0:0:0:
329,192,111273,128,0,111605:0:0:0:0:
36,192,111439,1,8,0:0:0:0:
256,192,111439,1,0,0:0:0:0:
475,192,111439,1,0,0:0:0:0:
36,192,111605,128,0,111770:0:0:0:0:
182,192,111605,1,0,0:0:0:0:
402,192,111605,128,0,111770:0:0:0:0:
475,192,111605,128,0,111770:0:0:0:0:
256,192,111770,1,2,2:3:0:0:
329,192,111936,128,0,112268:0:0:0:0:
36,192,112102,1,2,0:0:0:0:
109,192,112102,1,0,0:0:0:0:
182,192,112102,1,0,0:0:0:0:
475,192,112102,1,0,0:0:0:0:
36,192,112268,1,2,0:0:0:0:
109,192,112268,1,0,0:0:0:0:
182,192,112268,1,0,0:0:0:0:
475,192,112268,1,0,0:0:0:0:
36,192,112433,128,2,112599:2:3:0:0:
109,192,112433,128,0,112599:0:0:0:0:
256,192,112433,1,0,0:0:0:0:
475,192,112433,128,0,112599:0:0:0:0:
182,192,112599,1,2,0:0:0:0:
329,192,112599,1,0,0:0:0:0:
402,192,112599,1,0,0:0:0:0:
36,192,112765,1,8,0:0:0:0:
256,192,112765,1,0,0:0:0:0:
475,192,112765,1,0,0:0:0:0:
256,192,112848,1,0,0:0:0:0:
36,192,112931,128,0,113096:0:0:0:0:
109,192,112931,128,0,113096:0:0:0:0:
329,192,112931,1,0,0:0:0:0:
475,192,112931,128,0,113096:0:0:0:0:
402,192,113096,1,2,2:3:0:0:
36,192,113262,128,2,113428:0:0:0:0:
109,192,113262,128,0,113428:0:0:0:0:
182,192,113262,1,0,0:0:0:0:
256,192,113262,128,0,113593:0:0:0:0:
475,192,113262,128,0,113428:0:0:0:0:
36,192,113593,1,2,0:0:0:0:
109,192,113593,1,0,0:0:0:0:
329,192,113593,1,0,0:0:0:0:
475,192,113593,1,0,0:0:0:0:
182,192,113676,1,0,0:0:0:0:
36,192,113759,128,2,113925:2:3:0:0:
109,192,113759,128,0,113925:0:0:0:70:LR_Tom Hit 2.wav
329,192,113759,128,0,113925:0:0:0:0:
475,192,113759,128,0,113925:0:0:0:0:
182,192,113925,1,2,0:0:0:0:
256,192,113925,1,0,0:0:0:0:
36,192,114091,1,8,0:0:0:0:
329,192,114091,1,2,0:0:0:0:
475,192,114091,1,0,0:0:0:70:LR_Tom Hit.wav
256,192,114256,1,0,0:0:0:0:
402,192,114256,1,0,0:0:0:0:
182,192,114422,1,0,0:0:0:0:
475,192,114422,128,0,114754:0:0:0:0:
109,192,114505,1,0,0:0:0:0:
36,192,114588,1,0,0:0:0:0:
256,192,114588,1,0,0:0:0:0:
329,192,114671,1,0,0:0:0:0:
36,192,114754,1,2,0:0:0:0:
109,192,114754,1,0,0:0:0:0:
182,192,114754,1,0,0:0:0:0:
402,192,114754,1,0,0:0:0:0:
36,192,114919,1,2,0:0:0:0:
109,192,114919,1,0,0:0:0:0:
182,192,114919,1,0,0:0:0:0:
329,192,114919,1,0,0:0:0:0:
256,192,115002,1,0,0:0:0:0:
36,192,115085,128,2,115251:2:3:0:0:
109,192,115085,128,0,115251:0:0:0:0:
402,192,115085,128,0,115582:0:0:0:0:
475,192,115085,128,0,115251:0:0:0:0:
182,192,115251,1,2,0:0:0:0:
329,192,115251,1,0,0:0:0:0:
256,192,115334,1,0,0:0:0:0:
36,192,115417,1,8,0:0:0:0:
109,192,115417,1,0,0:0:0:0:
329,192,115417,128,0,115582:0:0:0:0:
36,192,115582,128,0,115748:0:0:0:0:
109,192,115582,128,0,115748:0:0:0:0:
182,192,115582,1,0,0:0:0:0:
475,192,115582,128,0,115748:0:0:0:0:
256,192,115748,1,2,2:3:0:0:
36,192,115914,128,2,116080:0:0:0:0:
109,192,115914,128,0,116080:0:0:0:0:
329,192,115914,128,0,116245:0:0:0:0:
402,192,115914,1,0,0:0:0:0:
475,192,115914,128,0,116080:0:0:0:0:
182,192,116080,1,2,2:3:0:0:
36,192,116245,1,2,0:0:0:0:
109,192,116245,1,0,0:0:0:0:
256,192,116245,1,0,0:0:0:0:
475,192,116245,1,0,0:0:0:0:
402,192,116328,1,0,0:0:0:0:
36,192,116411,128,2,116577:2:3:0:0:
109,192,116411,128,0,116577:0:0:0:0:
256,192,116411,128,0,116743:0:0:0:0:
475,192,116411,128,0,116577:0:0:0:0:
182,192,116577,1,2,0:0:0:0:
329,192,116577,1,0,0:0:0:0:
402,192,116660,1,0,0:0:0:0:
36,192,116743,1,8,0:0:0:0:
109,192,116743,1,0,0:0:0:0:
475,192,116743,1,0,0:0:0:0:
36,192,116908,128,0,117074:0:0:0:0:
109,192,116908,128,0,117074:0:0:0:0:
329,192,116908,1,0,0:0:0:0:
475,192,116908,128,0,117074:0:0:0:0:
256,192,117074,1,2,2:3:0:0:
402,192,117074,1,0,0:0:0:0:
182,192,117240,1,0,0:0:0:0:
329,192,117240,128,0,117571:0:0:0:0:
36,192,117406,1,2,0:0:0:0:
256,192,117406,1,0,0:0:0:0:
402,192,117406,1,0,0:0:0:0:
475,192,117406,1,0,0:0:0:0:
36,192,117571,1,2,0:0:0:0:
256,192,117571,1,0,0:0:0:0:
402,192,117571,1,0,0:0:0:0:
475,192,117571,1,0,0:0:0:0:
182,192,117654,1,0,0:0:0:0:
36,192,117737,128,2,117903:2:3:0:0:
109,192,117737,128,0,118234:0:0:0:0:
402,192,117737,128,0,117903:0:0:0:0:
475,192,117737,128,0,117903:0:0:0:0:
182,192,117903,1,2,0:0:0:0:
329,192,117903,1,0,0:0:0:0:
256,192,117986,1,0,0:0:0:0:
182,192,118069,128,8,118234:0:0:0:0:
402,192,118069,1,0,0:0:0:0:
475,192,118069,1,0,0:0:0:0:
36,192,118234,128,0,118400:0:0:0:70:LR_Tom Hit.wav
256,192,118234,1,0,0:0:0:0:
402,192,118234,128,0,118400:0:0:0:0:
475,192,118234,128,0,118400:0:0:0:0:
182,192,118400,1,2,0:0:0:0:
329,192,118400,1,0,0:0:0:70:LR_Tom Hit 2.wav
36,192,118566,128,8,118732:0:0:0:0:
109,192,118566,1,4,0:0:0:0:
182,192,118566,128,2,118953:0:0:0:0:
256,192,118566,1,0,0:0:0:0:
402,192,118566,128,0,118953:0:0:0:0:
475,192,118566,128,0,118732:0:0:0:0:
36,192,118953,1,2,0:0:0:0:
329,192,118953,1,0,0:0:0:0:
475,192,118953,1,0,0:0:0:0:
109,192,119063,1,8,0:0:0:0:
256,192,119063,1,0,0:0:0:70:LR_Tom Hit.wav
402,192,119063,1,0,0:0:0:0:
182,192,119174,1,0,0:0:0:70:LR_Tom Hit.wav
329,192,119174,1,0,0:0:0:0:
109,192,119284,1,0,0:0:0:70:LR_Tom Hit 2.wav
256,192,119284,1,0,0:0:0:0:
36,192,119395,128,2,119892:0:0:0:0:
329,192,119395,1,0,0:0:0:70:LR_Tom Hit.wav
402,192,119395,1,0,0:0:0:0:
475,192,119395,128,0,119892:0:0:0:0:
256,192,119726,128,0,120058:0:0:0:0:
36,192,120058,1,4,0:0:0:0:
329,192,120058,1,8,0:1:0:0:
402,192,120058,1,0,0:0:0:0:
475,192,120058,1,0,0:0:0:0:
109,192,120223,1,0,0:0:0:0:
182,192,120389,1,0,0:0:0:0:
256,192,120555,1,0,0:0:0:0:
109,192,120721,1,0,0:0:0:0:
329,192,120721,1,0,0:0:0:0:
182,192,120886,1,0,0:0:0:0:
256,192,121052,1,0,0:0:0:0:
329,192,121218,1,0,0:0:0:0:
182,192,121384,1,0,0:0:0:0:
402,192,121384,1,0,0:0:0:0:
256,192,121549,1,0,0:0:0:0:
329,192,121715,1,0,0:0:0:0:
402,192,121881,1,0,0:0:0:0:
36,192,122047,1,0,0:0:0:0:
475,192,122047,1,0,0:0:0:0:
109,192,122212,1,0,0:0:0:0:
182,192,122378,1,0,0:0:0:0:
256,192,122544,1,0,0:0:0:0:
329,192,122627,1,0,0:0:0:0:
36,192,122710,1,0,0:0:0:0:
109,192,122710,1,0,0:0:0:0:
402,192,122710,1,0,0:0:0:0:
475,192,122710,1,0,0:0:0:0:
256,192,122875,1,0,0:0:0:0:
182,192,123041,1,0,0:0:0:0:
109,192,123207,1,0,0:0:0:0:
36,192,123372,1,0,0:0:0:0:
402,192,123372,1,0,0:0:0:0:
329,192,123538,1,0,0:0:0:0:
256,192,123704,1,0,0:0:0:0:
182,192,123870,1,0,0:0:0:0:
109,192,124035,1,0,0:0:0:0:
475,192,124035,1,0,0:0:0:0:
402,192,124201,1,0,0:0:0:0:
329,192,124367,1,0,0:0:0:0:
256,192,124533,1,0,0:0:0:0:
182,192,124698,1,0,0:0:0:0:
475,192,124698,1,0,0:0:0:0:
256,192,124864,1,0,0:0:0:0:
329,192,125030,1,0,0:0:0:0:
109,192,125196,1,0,0:0:0:0:
182,192,125279,1,0,0:0:0:0:
36,192,125361,1,0,0:0:0:0:
256,192,125361,1,0,0:0:0:0:
402,192,125361,1,0,0:0:0:0:
475,192,125361,1,0,0:0:0:0:
109,192,125527,1,0,0:0:0:0:
182,192,125693,1,0,0:0:0:0:
256,192,125859,1,0,0:0:0:0:
109,192,126024,1,0,0:0:0:0:
329,192,126024,1,0,0:0:0:0:
182,192,126190,1,0,0:0:0:0:
256,192,126356,1,0,0:0:0:0:
329,192,126522,1,0,0:0:0:0:
182,192,126687,1,0,0:0:0:0:
402,192,126687,1,0,0:0:0:0:
256,192,126853,1,0,0:0:0:0:
329,192,127019,1,0,0:0:0:0:
402,192,127185,1,0,0:0:0:0:
36,192,127350,1,0,0:0:0:0:
475,192,127350,1,0,0:0:0:0:
109,192,127516,1,0,0:0:0:0:
182,192,127682,1,0,0:0:0:0:
329,192,127848,1,0,0:0:0:0:
402,192,127931,1,0,0:0:0:0:
36,192,128013,1,0,0:0:0:0:
109,192,128013,1,0,0:0:0:0:
256,192,128013,1,0,0:0:0:0:
475,192,128013,1,0,0:0:0:0:
329,192,128179,1,0,0:0:0:0:
256,192,128345,1,0,0:0:0:0:
182,192,128511,1,0,0:0:0:0:
109,192,128676,1,0,0:0:0:0:
329,192,128676,1,0,0:0:0:0:
256,192,128842,1,0,0:0:0:0:
182,192,129008,1,0,0:0:0:0:
109,192,129174,1,0,0:0:0:0:
36,192,129339,1,0,0:0:0:0:
475,192,129339,1,0,0:0:0:0:
329,192,129505,1,0,0:0:0:70:LR_Tom Hit.wav
402,192,129505,1,0,0:0:0:0:
36,192,129588,1,0,0:0:0:70:LR_Tom Hit.wav
109,192,129588,1,0,0:0:0:0:
402,192,129671,1,0,0:0:0:70:LR_Tom Hit 2.wav
475,192,129671,1,0,0:0:0:0:
256,192,129754,1,0,0:0:0:70:LR_Tom Hit 2.wav
329,192,129754,1,0,0:0:0:0:
109,192,129837,1,0,0:0:0:70:LR_Tom Hit 3.wav
182,192,129837,1,0,0:0:0:0:
329,192,129919,1,0,0:0:0:70:LR_Tom Hit 3.wav
402,192,129919,1,0,0:0:0:0:
182,192,130002,1,2,0:0:0:0:
256,192,130002,1,0,0:0:0:0:
36,192,130085,1,2,0:0:0:0:
109,192,130085,1,0,0:0:0:0:
329,192,130168,1,8,0:0:0:0:
402,192,130168,1,0,0:0:0:0:
475,192,130168,1,0,0:0:0:0:
36,192,130334,1,2,0:0:0:0:
109,192,130334,1,4,0:0:0:0:
182,192,130334,1,0,0:0:0:0:
256,192,130334,1,0,0:0:0:0:
36,192,130665,1,2,0:0:0:0:
182,192,130665,1,8,0:1:0:0:
402,192,130665,1,0,0:0:0:0:
475,192,130665,1,0,0:0:0:0:
36,192,130831,1,0,0:0:0:0:
182,192,130831,1,0,0:0:0:0:
36,192,130997,1,2,0:0:0:0:
182,192,130997,1,0,0:0:0:0:
402,192,130997,1,0,0:0:0:0:
36,192,131163,1,0,0:0:0:0:
182,192,131163,1,0,0:0:0:0:
36,192,131328,1,2,0:0:0:0:
182,192,131328,1,0,0:0:0:0:
402,192,131328,1,0,0:0:0:0:
36,192,131494,1,0,0:0:0:0:
182,192,131494,1,0,0:0:0:0:
36,192,131660,1,2,0:0:0:0:
182,192,131660,1,0,0:0:0:0:
402,192,131660,1,0,0:0:0:0:
36,192,131826,1,0,0:0:0:0:
182,192,131826,1,0,0:0:0:0:
109,192,131991,1,2,0:0:0:0:
329,192,131991,1,0,0:0:0:0:
475,192,131991,1,0,0:0:0:0:
329,192,132157,1,0,0:0:0:0:
475,192,132157,1,0,0:0:0:0:
109,192,132323,1,2,0:0:0:0:
329,192,132323,1,0,0:0:0:0:
475,192,132323,1,0,0:0:0:0:
329,192,132489,1,0,0:0:0:0:
475,192,132489,1,0,0:0:0:0:
109,192,132654,1,2,0:0:0:0:
329,192,132654,1,0,0:0:0:0:
475,192,132654,1,0,0:0:0:0:
329,192,132820,1,0,0:0:0:0:
475,192,132820,1,0,0:0:0:0:
109,192,132986,1,2,0:0:0:0:
329,192,132986,1,0,0:0:0:0:
475,192,132986,1,0,0:0:0:0:
329,192,133152,1,0,0:0:0:0:
475,192,133152,1,0,0:0:0:0:
36,192,133317,1,2,0:0:0:0:
109,192,133317,1,0,0:0:0:0:
402,192,133317,1,0,0:0:0:0:
36,192,133483,1,0,0:0:0:0:
109,192,133483,1,0,0:0:0:0:
36,192,133649,1,2,0:0:0:0:
109,192,133649,1,0,0:0:0:0:
402,192,133649,1,0,0:0:0:0:
36,192,133814,1,0,0:0:0:0:
109,192,133814,1,0,0:0:0:0:
36,192,133980,1,2,0:0:0:0:
109,192,133980,1,0,0:0:0:0:
402,192,133980,1,0,0:0:0:0:
36,192,134146,1,0,0:0:0:0:
109,192,134146,1,0,0:0:0:0:
36,192,134312,1,2,0:0:0:0:
109,192,134312,1,0,0:0:0:0:
402,192,134312,1,0,0:0:0:0:
36,192,134477,1,0,0:0:0:0:
109,192,134477,1,0,0:0:0:0:
182,192,134643,1,2,0:0:0:0:
402,192,134643,1,0,0:0:0:0:
475,192,134643,1,0,0:0:0:0:
402,192,134809,1,0,0:0:0:0:
475,192,134809,1,0,0:0:0:0:
36,192,134975,1,2,0:0:0:0:
109,192,134975,1,0,0:0:0:0:
329,192,134975,1,0,0:0:0:0:
36,192,135140,1,0,0:0:0:0:
109,192,135140,1,0,0:0:0:0:
182,192,135306,1,2,0:0:0:0:
402,192,135306,1,0,0:0:0:0:
475,192,135306,1,0,0:0:0:0:
402,192,135472,1,0,0:0:0:0:
475,192,135472,1,0,0:0:0:0:
36,192,135638,1,2,0:0:0:0:
182,192,135638,1,0,0:0:0:0:
329,192,135638,1,0,0:0:0:0:
182,192,135803,1,0,0:0:0:0:
329,192,135803,1,0,0:0:0:0:
36,192,135969,1,2,0:0:0:0:
109,192,135969,1,4,0:0:0:0:
256,192,135969,1,0,0:0:0:0:
402,192,135969,1,0,0:0:0:0:
475,192,135969,1,0,0:0:0:0:
36,192,136135,1,2,0:0:0:0:
109,192,136135,1,4,0:0:0:0:
256,192,136135,1,0,0:0:0:0:
402,192,136135,1,0,0:0:0:0:
475,192,136135,1,0,0:0:0:0:
256,192,136632,1,0,0:0:0:0:
329,192,136715,1,0,0:0:0:0:
402,192,136756,1,0,0:0:0:0:
475,192,136798,1,0,0:0:0:0:
182,192,136839,1,0,0:0:0:0:
36,192,136881,1,0,0:0:0:0:
256,192,136964,1,0,0:0:0:0:
109,192,137005,1,0,0:0:0:0:
329,192,137047,1,0,0:0:0:0:
182,192,137088,1,0,0:0:0:0:
402,192,137129,1,0,0:0:0:0:
256,192,137171,1,0,0:0:0:0:
329,192,137254,1,0,0:0:0:0:
475,192,137295,1,0,0:0:0:0:
36,192,137378,1,0,0:0:0:0:
182,192,137419,1,0,0:0:0:0:
402,192,137461,1,0,0:0:0:0:
329,192,137516,1,0,0:0:0:0:
256,192,137571,1,0,0:0:0:0:
36,192,137958,128,0,138787:0:0:0:0:
109,192,138124,128,0,138953:0:0:0:0:
182,192,138290,128,0,139118:0:0:0:0:
329,192,138455,128,0,139284:0:0:0:0:
402,192,138621,128,0,139450:0:0:0:0:
475,192,138787,128,0,139616:0:0:0:0:
36,192,138953,128,0,139947:0:0:0:0:
109,192,139118,128,0,139947:0:0:0:0:
182,192,139284,128,0,139947:0:0:0:0:
329,192,139450,128,0,139947:0:0:0:0:
402,192,139616,128,0,139947:0:0:0:0:
256,192,139781,128,0,139947:0:0:0:0:
475,192,139947,1,0,0:0:0:0:
329,192,140002,1,0,0:0:0:0:
402,192,140058,1,0,0:0:0:0:
109,192,140776,128,0,140942:0:0:0:0:
182,192,140942,128,0,141107:0:0:0:0:
256,192,141107,128,0,141273:0:0:0:0:
36,192,141273,128,2,141439:0:0:0:0:
109,192,141273,1,4,0:0:0:0:
329,192,141273,1,0,0:0:0:0:
402,192,141273,128,0,141605:0:0:0:0:
475,192,141273,1,0,0:0:0:0:
182,192,141439,1,2,0:0:0:0:
256,192,141439,1,0,0:0:0:0:
109,192,141522,1,0,0:0:0:0:
36,192,141605,1,8,0:0:0:0:
329,192,141605,128,0,141770:0:0:0:0:
475,192,141605,1,0,0:0:0:0:
109,192,141770,1,2,0:0:0:0:
182,192,141770,128,0,142102:0:0:0:0:
475,192,141770,1,0,0:0:0:0:
402,192,141853,1,0,0:0:0:0:
256,192,141936,1,2,0:0:0:0:
329,192,141936,1,0,0:0:0:0:
36,192,142102,128,2,142268:0:0:0:0:
329,192,142102,1,0,0:0:0:0:
475,192,142102,1,0,0:0:0:0:
109,192,142268,128,8,142433:0:0:0:0:
256,192,142268,1,0,0:0:0:0:
402,192,142268,1,0,0:0:0:0:
182,192,142433,128,2,142599:2:3:0:0:
329,192,142433,1,0,0:0:0:0:
36,192,142599,128,2,142765:0:0:0:0:
256,192,142599,1,0,0:0:0:0:
402,192,142599,128,0,142931:0:0:0:0:
475,192,142599,1,0,0:0:0:0:
182,192,142682,1,0,0:0:0:0:
109,192,142765,1,2,0:0:0:0:
329,192,142765,1,0,0:0:0:0:
36,192,142931,1,8,0:0:0:0:
256,192,142931,1,0,0:0:0:0:
329,192,142931,128,0,143096:0:0:0:0:
109,192,143096,1,2,0:0:0:0:
182,192,143096,128,0,143428:0:0:0:0:
475,192,143096,1,0,0:0:0:0:
402,192,143179,1,0,0:0:0:0:
256,192,143262,1,2,0:0:0:0:
329,192,143262,1,0,0:0:0:0:
109,192,143428,128,2,143593:0:0:0:0:
329,192,143428,1,0,0:0:0:0:
475,192,143428,1,0,0:0:0:0:
36,192,143593,1,8,0:0:0:0:
182,192,143593,128,0,143759:0:0:0:0:
402,192,143593,1,0,0:0:0:0:
256,192,143759,128,2,143925:2:3:0:0:
329,192,143759,1,0,0:0:0:0:
109,192,143925,128,2,144091:0:0:0:0:
402,192,143925,128,0,144256:0:0:0:0:
475,192,143925,1,0,0:0:0:0:
36,192,144091,1,2,0:0:0:0:
182,192,144091,1,0,0:0:0:0:
256,192,144174,1,0,0:0:0:0:
109,192,144256,1,8,0:0:0:0:
329,192,144256,1,0,0:0:0:0:
475,192,144256,128,0,144422:0:0:0:0:
36,192,144422,128,2,144754:0:0:0:0:
182,192,144422,1,0,0:0:0:0:
256,192,144422,1,0,0:0:0:0:
329,192,144505,1,0,0:0:0:0:
402,192,144588,1,2,0:0:0:0:
475,192,144588,1,0,0:0:0:0:
109,192,144754,1,2,0:0:0:0:
256,192,144754,1,0,0:0:0:0:
329,192,144754,1,0,0:0:0:0:
109,192,144837,1,0,0:0:0:0:
182,192,144919,1,8,0:0:0:0:
402,192,144919,1,0,0:0:0:0:
475,192,144919,128,0,145085:0:0:0:0:
36,192,145085,128,2,145914:0:0:0:0:
109,192,145085,1,2,2:3:0:0:
329,192,145085,1,0,0:0:0:0:
182,192,145168,1,0,0:0:0:0:
256,192,145168,1,0,0:0:0:0:
402,192,145251,1,2,0:0:0:0:
475,192,145251,1,0,0:0:0:0:
182,192,145417,1,2,0:0:0:0:
256,192,145417,1,0,0:0:0:0:
109,192,145582,1,8,0:0:0:0:
402,192,145582,1,0,0:0:0:0:
475,192,145582,1,0,0:0:0:0:
182,192,145748,1,2,0:0:0:0:
256,192,145748,1,0,0:0:0:0:
109,192,145914,1,8,0:0:0:0:
329,192,145914,1,0,0:0:0:0:
475,192,145914,1,0,0:0:0:0:
36,192,146080,1,2,0:0:0:0:
256,192,146080,128,0,146245:0:0:0:0:
402,192,146080,1,0,0:0:0:0:
109,192,146245,1,8,0:0:0:0:
329,192,146245,128,2,146411:2:3:0:0:
475,192,146245,1,0,0:0:0:0:
182,192,146411,1,2,2:3:0:0:
402,192,146411,128,0,146577:0:0:0:0:
36,192,146577,128,4,146743:0:0:0:0:
109,192,146577,1,2,0:0:0:0:
256,192,146577,1,0,0:0:0:0:
475,192,146577,128,0,146908:0:0:0:0:
182,192,146743,1,2,0:0:0:0:
402,192,146743,1,0,0:0:0:0:
329,192,146826,1,0,0:0:0:0:
109,192,146908,1,8,0:0:0:0:
182,192,146908,128,0,147074:0:0:0:0:
256,192,146908,1,0,0:0:0:0:
36,192,147074,128,2,147406:0:0:0:0:
329,192,147074,1,0,0:0:0:0:
475,192,147074,1,0,0:0:0:0:
256,192,147157,1,0,0:0:0:0:
109,192,147240,1,2,0:0:0:0:
182,192,147240,1,0,0:0:0:0:
109,192,147406,1,2,0:0:0:0:
256,192,147406,128,0,147571:0:0:0:0:
402,192,147406,1,0,0:0:0:0:
36,192,147571,1,8,0:0:0:0:
329,192,147571,128,0,147737:0:0:0:0:
475,192,147571,1,0,0:0:0:0:
109,192,147737,1,2,2:3:0:0:
402,192,147737,128,0,147903:0:0:0:0:
182,192,147903,1,2,0:0:0:0:
256,192,147903,1,0,0:0:0:0:
475,192,147903,128,0,148069:0:0:0:0:
36,192,148069,1,2,0:0:0:0:
109,192,148069,1,0,0:0:0:0:
329,192,148069,128,0,148234:0:0:0:0:
182,192,148234,1,8,0:0:0:0:
256,192,148234,1,0,0:0:0:0:
402,192,148234,128,0,148400:0:0:0:0:
109,192,148400,1,2,0:0:0:0:
329,192,148400,128,0,148732:0:0:0:0:
475,192,148400,1,0,0:0:0:0:
182,192,148483,1,0,0:0:0:0:
36,192,148566,1,2,0:0:0:0:
256,192,148566,1,0,0:0:0:0:
402,192,148566,128,0,148732:0:0:0:0:
36,192,148732,1,2,0:0:0:0:
182,192,148732,128,0,148897:0:0:0:0:
475,192,148732,1,0,0:0:0:0:
109,192,148897,128,8,149063:0:0:0:0:
256,192,148897,1,0,0:0:0:0:
402,192,148897,1,0,0:0:0:0:
36,192,149063,128,2,149229:2:3:0:0:
182,192,149063,1,2,0:0:0:0:
475,192,149063,1,0,0:0:0:0:
256,192,149146,1,0,0:0:0:0:
109,192,149229,1,2,0:0:0:0:
329,192,149229,128,0,149395:0:0:0:0:
402,192,149229,128,0,149560:0:0:0:0:
36,192,149395,1,2,0:0:0:0:
256,192,149395,1,0,0:0:0:0:
109,192,149477,1,0,0:0:0:0:
36,192,149560,1,8,0:0:0:0:
182,192,149560,1,0,0:0:0:0:
475,192,149560,128,0,149643:0:0:0:0:
256,192,149643,1,0,0:0:0:0:
109,192,149726,1,2,0:0:0:0:
329,192,149726,1,0,0:0:0:0:
475,192,149726,128,0,150223:0:0:0:0:
182,192,149809,1,0,0:0:0:0:
36,192,149892,1,8,0:0:0:0:
256,192,149892,1,0,0:0:0:0:
402,192,149892,1,0,0:0:0:0:
182,192,149975,1,0,0:0:0:0:
109,192,150058,1,2,0:0:0:0:
329,192,150058,1,0,0:0:0:0:
256,192,150140,1,0,0:0:0:0:
36,192,150223,1,8,0:0:0:0:
182,192,150223,1,0,0:0:0:0:
402,192,150223,128,0,150306:0:0:0:0:
109,192,150306,1,0,0:0:0:70:LR_Tom Hit.wav
329,192,150306,128,0,150389:0:0:0:0:
36,192,150389,1,0,0:0:0:70:LR_Tom Hit 2.wav
256,192,150389,128,0,150472:0:0:0:0:
182,192,150472,128,0,150555:0:0:0:70:LR_Tom Hit 3.wav
402,192,150472,1,0,0:0:0:0:
36,192,150555,1,2,0:0:0:0:
109,192,150555,1,4,0:3:0:0:
329,192,150555,1,0,0:0:0:0:
475,192,150555,1,0,0:0:0:0:
36,192,150721,1,2,0:0:0:0:
109,192,150721,1,4,0:3:0:0:
329,192,150721,1,0,0:0:0:0:
475,192,150721,1,0,0:0:0:0:
36,192,151052,1,2,0:0:0:0:
109,192,151052,1,4,0:0:0:0:
256,192,151052,1,0,0:0:0:0:
402,192,151052,1,0,0:0:0:0:
475,192,151052,1,0,0:0:0:0:
109,192,151384,1,2,0:0:0:0:
256,192,151384,128,0,151549:0:0:0:0:
402,192,151384,1,0,0:0:0:0:
182,192,151549,1,0,0:0:0:70:LR_Tom Hit.wav
329,192,151549,128,0,151715:0:0:0:0:
475,192,151549,1,0,0:0:0:0:
109,192,151632,1,0,0:0:0:70:LR_Tom Hit.wav
36,192,151715,1,0,0:0:0:70:LR_Tom Hit 2.wav
256,192,151715,1,0,0:0:0:0:
402,192,151715,128,0,151881:0:0:0:0:
182,192,151798,1,0,0:0:0:70:LR_Tom Hit 3.wav
36,192,151881,128,4,152047:0:0:0:0:
109,192,151881,1,2,0:0:0:0:
256,192,151881,1,0,0:0:0:0:
475,192,151881,128,0,152212:0:0:0:0:
182,192,152047,1,2,0:0:0:0:
402,192,152047,1,0,0:0:0:0:
256,192,152129,1,0,0:0:0:0:
36,192,152212,1,8,0:0:0:0:
109,192,152212,1,0,0:0:0:0:
329,192,152212,128,0,152378:0:0:0:0:
36,192,152378,128,2,152710:0:0:0:0:
182,192,152378,1,0,0:0:0:0:
475,192,152378,1,0,0:0:0:0:
256,192,152461,1,0,0:0:0:0:
109,192,152544,1,2,0:0:0:0:
329,192,152544,1,0,0:0:0:0:
182,192,152710,1,2,0:0:0:0:
256,192,152710,128,0,152875:0:0:0:0:
402,192,152710,1,0,0:0:0:0:
36,192,152875,1,8,0:0:0:0:
329,192,152875,128,0,153041:0:0:0:0:
475,192,152875,1,0,0:0:0:0:
109,192,153041,1,2,2:3:0:0:
402,192,153041,128,0,153207:0:0:0:0:
36,192,153207,128,2,153372:0:0:0:0:
182,192,153207,1,0,0:0:0:0:
256,192,153207,1,0,0:0:0:0:
475,192,153207,128,0,153538:0:0:0:0:
329,192,153290,1,0,0:0:0:0:
109,192,153372,1,2,0:0:0:0:
402,192,153372,1,0,0:0:0:0:
182,192,153538,1,8,0:0:0:0:
256,192,153538,1,0,0:0:0:0:
329,192,153538,128,0,153704:0:0:0:0:
36,192,153704,128,2,154035:0:0:0:0:
109,192,153704,1,0,0:0:0:0:
475,192,153704,1,0,0:0:0:0:
402,192,153787,1,0,0:0:0:0:
256,192,153870,1,2,0:0:0:0:
329,192,153870,1,0,0:0:0:0:
109,192,154035,1,2,0:0:0:0:
182,192,154035,128,0,154201:0:0:0:0:
329,192,154035,1,0,0:0:0:0:
36,192,154201,1,8,0:0:0:0:
256,192,154201,128,0,154367:0:0:0:0:
475,192,154201,1,0,0:0:0:0:
109,192,154367,1,2,2:3:0:0:
329,192,154367,128,0,154533:0:0:0:0:
182,192,154533,128,2,154698:0:0:0:0:
402,192,154533,128,0,154864:0:0:0:0:
475,192,154533,1,0,0:0:0:0:
36,192,154698,1,2,0:0:0:0:
109,192,154698,1,0,0:0:0:0:
182,192,154781,1,0,0:0:0:0:
256,192,154864,1,8,0:0:0:0:
329,192,154864,1,0,0:0:0:0:
475,192,154864,128,0,155030:0:0:0:0:
36,192,155030,128,2,155361:0:0:0:0:
109,192,155030,1,0,0:0:0:0:
182,192,155030,1,0,0:0:0:0:
256,192,155113,1,0,0:0:0:0:
329,192,155196,1,2,0:0:0:0:
402,192,155196,1,0,0:0:0:0:
109,192,155361,1,2,0:0:0:0:
329,192,155361,1,0,0:0:0:0:
402,192,155361,1,0,0:0:0:0:
109,192,155444,1,0,0:0:0:0:
182,192,155527,1,8,0:0:0:0:
256,192,155527,1,0,0:0:0:0:
475,192,155527,128,0,155693:0:0:0:0:
36,192,155693,128,2,156024:0:0:0:0:
109,192,155693,1,2,2:3:0:0:
402,192,155693,1,0,0:0:0:0:
256,192,155776,1,0,0:0:0:0:
329,192,155776,1,0,0:0:0:0:
109,192,155859,1,8,0:0:0:0:
182,192,155859,1,0,0:0:0:0:
475,192,155859,1,0,0:0:0:0:
256,192,156024,1,2,0:0:0:0:
329,192,156024,128,0,156107:0:0:0:0:
182,192,156107,128,0,156190:0:0:0:0:
36,192,156190,128,8,156522:0:0:0:0:
109,192,156190,1,0,0:0:0:0:
402,192,156190,1,0,0:0:0:0:
475,192,156190,1,0,0:0:0:0:
109,192,156356,1,8,0:0:0:0:
402,192,156356,1,0,0:0:0:0:
475,192,156356,1,0,0:0:0:0:
182,192,156522,1,2,0:0:0:0:
329,192,156522,1,0,0:0:0:0:
475,192,156522,1,0,0:0:0:0:
109,192,156687,1,2,0:0:0:0:
256,192,156687,128,0,156853:0:0:0:0:
402,192,156687,1,0,0:0:0:0:
36,192,156853,1,8,0:0:0:0:
182,192,156853,128,0,157019:0:0:0:0:
329,192,156853,1,0,0:0:0:0:
402,192,156936,1,0,0:0:0:70:LR_Tom Hit.wav
109,192,157019,128,0,157185:0:0:0:70:LR_Tom Hit 2.wav
256,192,157019,1,0,0:0:0:0:
475,192,157019,1,0,0:0:0:0:
329,192,157102,1,0,0:0:0:70:LR_Tom Hit 3.wav
36,192,157185,128,4,157350:0:0:0:0:
182,192,157185,1,2,0:0:0:0:
402,192,157185,1,0,0:0:0:0:
475,192,157185,128,0,157516:0:0:0:0:
182,192,157350,1,2,0:0:0:0:
256,192,157350,1,0,0:0:0:0:
36,192,157516,1,8,0:0:0:0:
109,192,157516,1,0,0:0:0:0:
329,192,157516,128,0,157682:0:0:0:0:
182,192,157682,128,2,158013:0:0:0:0:
475,192,157682,1,0,0:0:0:0:
402,192,157765,1,0,0:0:0:0:
109,192,157848,1,2,0:0:0:0:
329,192,157848,1,0,0:0:0:0:
36,192,158013,1,2,0:0:0:0:
256,192,158013,128,0,158179:0:0:0:0:
402,192,158013,1,0,0:0:0:0:
109,192,158179,1,8,0:0:0:0:
329,192,158179,128,0,158345:0:0:0:0:
475,192,158179,1,0,0:0:0:0:
182,192,158345,1,2,2:3:0:0:
402,192,158345,128,0,158511:0:0:0:0:
36,192,158511,1,2,0:0:0:0:
109,192,158511,1,0,0:0:0:0:
256,192,158511,1,0,0:0:0:0:
475,192,158511,128,0,158593:0:0:0:0:
329,192,158593,128,0,158676:0:0:0:0:
36,192,158676,1,2,0:0:0:0:
109,192,158676,1,0,0:0:0:0:
256,192,158676,1,0,0:0:0:0:
475,192,158676,128,0,158759:0:0:0:0:
182,192,158759,1,0,0:0:0:0:
329,192,158759,128,0,158842:0:0:0:0:
36,192,158842,1,0,0:0:0:0:
475,192,158842,128,0,158925:0:0:0:0:
109,192,158925,1,0,0:0:0:0:
329,192,158925,128,0,159008:0:0:0:0:
182,192,159008,1,2,0:0:0:0:
256,192,159008,1,0,0:0:0:0:
475,192,159008,128,0,159091:0:0:0:0:
36,192,159091,1,0,0:0:0:0:
329,192,159091,128,0,159174:0:0:0:0:
109,192,159174,1,0,0:0:0:0:
475,192,159174,128,0,159339:0:0:0:0:
182,192,159256,1,0,0:0:0:0:
36,192,159339,128,2,159505:0:0:0:0:
256,192,159339,1,0,0:0:0:0:
402,192,159339,1,0,0:0:0:0:
329,192,159422,1,0,0:0:0:0:
109,192,159505,1,8,0:0:0:0:
182,192,159505,128,4,159671:0:0:0:0:
402,192,159505,1,0,0:0:0:0:
475,192,159505,1,0,0:0:0:0:
475,192,159671,128,0,159837:0:0:0:0:
36,192,159837,1,4,0:0:0:0:
109,192,159837,128,2,160002:0:0:0:0:
256,192,159837,1,0,0:0:0:0:
329,192,159837,128,0,160168:0:0:0:0:
402,192,159837,1,0,0:0:0:0:
182,192,160002,1,2,0:0:0:0:
475,192,160002,1,0,0:0:0:0:
36,192,160168,128,2,160334:2:3:0:0:
256,192,160168,128,0,160251:0:0:0:0:
182,192,160334,1,2,0:0:0:0:
256,192,160334,128,0,162489:0:0:0:0:
402,192,160334,1,0,0:0:0:0:
109,192,160500,1,8,0:0:0:0:
329,192,160500,128,0,160665:0:0:0:0:
475,192,160500,1,0,0:0:0:0:
36,192,160665,1,0,0:0:0:0:
182,192,160831,128,2,160997:2:3:0:0:
402,192,160831,1,0,0:0:0:0:
36,192,160997,1,2,0:0:0:0:
109,192,160997,1,0,0:0:0:0:
329,192,160997,1,0,0:0:0:0:
402,192,161163,1,2,2:3:0:0:
475,192,161163,128,0,161328:0:0:0:0:
36,192,161328,1,2,0:0:0:0:
182,192,161328,1,0,0:0:0:0:
329,192,161328,1,0,0:0:0:0:
109,192,161494,128,2,161660:2:3:0:0:
402,192,161494,1,0,0:0:0:0:
36,192,161660,1,2,0:0:0:0:
329,192,161660,1,0,0:0:0:0:
475,192,161660,1,0,0:0:0:0:
109,192,161826,1,8,0:0:0:0:
182,192,161826,1,0,0:0:0:0:
402,192,161826,128,0,161991:0:0:0:0:
329,192,161991,1,0,0:0:0:0:
36,192,162157,128,2,162323:2:3:0:0:
475,192,162157,1,0,0:0:0:0:
182,192,162323,1,0,0:0:0:0:
109,192,162489,1,2,0:0:0:0:
329,192,162489,128,0,162654:0:0:0:0:
402,192,162489,1,0,0:0:0:0:
36,192,162654,1,2,0:0:0:0:
109,192,162654,1,0,0:0:0:0:
475,192,162654,1,0,0:0:0:0:
182,192,162820,128,2,162986:2:3:0:0:
329,192,162820,1,0,0:0:0:0:
109,192,162986,1,2,0:0:0:0:
256,192,162986,1,0,0:0:0:0:
402,192,162986,1,0,0:0:0:0:
36,192,163152,1,8,0:0:0:0:
109,192,163152,1,2,2:3:0:0:
329,192,163152,1,0,0:0:0:0:
475,192,163152,128,0,163317:0:0:0:0:
182,192,163317,1,0,0:0:0:0:
256,192,163483,128,2,163649:2:3:0:0:
475,192,163483,1,0,0:0:0:0:
36,192,163649,1,2,0:0:0:0:
182,192,163649,1,0,0:0:0:0:
329,192,163649,1,0,0:0:0:0:
36,192,163814,1,2,2:3:0:0:
256,192,163814,1,0,0:0:0:0:
402,192,163814,128,0,163980:0:0:0:0:
182,192,163980,1,0,0:0:0:70:LR_Tom Hit.wav
329,192,163980,1,0,0:0:0:0:
475,192,163980,1,0,0:0:0:0:
109,192,164146,128,2,164312:2:3:0:0:
256,192,164146,1,0,0:0:0:70:LR_Tom Hit 2.wav
402,192,164146,1,0,0:0:0:0:
36,192,164312,1,2,0:0:0:0:
182,192,164312,1,0,0:0:0:70:LR_Tom Hit 3.wav
329,192,164312,1,0,0:0:0:0:
182,192,164477,1,8,0:0:0:0:
402,192,164477,1,0,0:0:0:0:
475,192,164477,1,0,0:0:0:0:
256,192,164588,1,0,0:0:0:0:
36,192,164643,1,2,0:0:0:0:
109,192,164643,1,0,0:0:0:0:
329,192,164643,1,0,0:0:0:0:
182,192,164698,1,0,0:0:0:0:
36,192,164809,1,8,0:0:0:0:
256,192,164809,1,0,0:0:0:0:
402,192,164809,1,0,0:0:0:0:
475,192,164809,1,0,0:0:0:0:
36,192,164975,1,8,0:0:0:0:
182,192,164975,1,0,0:0:0:0:
475,192,164975,1,0,0:0:0:0:
109,192,165140,128,2,165306:2:3:0:0:
329,192,165140,1,2,0:0:0:0:
402,192,165140,1,0,0:0:0:0:
182,192,165306,1,2,0:0:0:0:
329,192,165306,1,0,0:0:0:0:
475,192,165306,1,0,0:0:0:0:
36,192,165472,128,2,165638:2:3:0:0:
182,192,165472,1,0,0:0:0:0:
109,192,165638,1,2,0:0:0:0:
256,192,165638,1,0,0:0:0:0:
329,192,165638,1,0,0:0:0:0:
182,192,165803,1,2,2:3:0:0:
402,192,165803,128,8,165969:0:0:0:0:
475,192,165803,1,0,0:0:0:0:
329,192,165803,1,0,0:0:0:0:
109,192,165969,1,0,0:0:0:0:
256,192,166135,128,2,166301:2:3:0:0:
329,192,166135,1,0,0:0:0:0:
36,192,166301,1,2,0:0:0:0:
109,192,166301,1,0,0:0:0:0:
475,192,166301,1,0,0:0:0:0:
182,192,166466,1,2,2:3:0:0:
329,192,166466,1,0,0:0:0:0:
402,192,166466,128,0,166632:0:0:0:0:
36,192,166632,1,2,0:0:0:0:
256,192,166632,1,0,0:0:0:0:
475,192,166632,1,0,0:0:0:0:
109,192,166798,128,2,166964:2:3:0:0:
329,192,166798,1,0,0:0:0:0:
36,192,166964,1,2,0:0:0:0:
256,192,166964,1,0,0:0:0:0:
402,192,166964,1,0,0:0:0:0:
182,192,167129,1,8,0:0:0:0:
329,192,167129,1,0,0:0:0:0:
475,192,167129,128,0,167295:0:0:0:0:
36,192,167129,1,0,0:0:0:0:
109,192,167295,1,0,0:0:0:0:
36,192,167461,128,2,167627:2:3:0:0:
402,192,167461,1,0,0:0:0:0:
329,192,167627,1,0,0:0:0:0:
182,192,167792,128,2,167958:0:0:0:0:
256,192,167792,1,2,2:3:0:0:
475,192,167792,1,0,0:0:0:0:
36,192,167958,1,2,0:0:0:0:
329,192,167958,1,0,0:0:0:0:
475,192,167958,1,0,0:0:0:0:
109,192,168124,128,2,168290:2:3:0:0:
329,192,168124,1,0,0:0:0:0:
182,192,168290,1,2,0:0:0:0:
256,192,168290,1,0,0:0:0:0:
402,192,168290,1,0,0:0:0:0:
36,192,168455,1,8,0:0:0:0:
329,192,168455,128,0,168621:0:0:0:0:
475,192,168455,1,0,0:0:0:0:
182,192,168455,1,0,0:0:0:0:
109,192,168621,1,0,0:0:0:0:
182,192,168787,128,2,168953:2:3:0:0:
402,192,168787,1,0,0:0:0:0:
109,192,168953,1,2,0:0:0:0:
329,192,168953,1,0,0:0:0:0:
475,192,168953,1,0,0:0:0:0:
36,192,169118,1,2,2:3:0:0:
256,192,169118,128,0,169284:0:0:0:0:
402,192,169118,1,0,0:0:0:0:
182,192,169284,1,0,0:0:0:70:LR_Tom Hit.wav
329,192,169284,1,0,0:0:0:0:
475,192,169284,1,0,0:0:0:0:
109,192,169450,128,2,169616:2:3:0:0:
256,192,169450,1,0,0:0:0:70:LR_Tom Hit 2.wav
402,192,169450,1,0,0:0:0:0:
36,192,169616,1,2,0:0:0:0:
182,192,169616,1,0,0:0:0:70:LR_Tom Hit 3.wav
329,192,169616,1,0,0:0:0:0:
109,192,169781,1,8,0:0:0:0:
256,192,169781,1,0,0:0:0:0:
475,192,169781,1,0,0:0:0:0:
402,192,169892,1,0,0:0:0:0:
36,192,169947,1,2,0:0:0:0:
182,192,169947,1,0,0:0:0:0:
329,192,169947,1,0,0:0:0:0:
256,192,170002,1,0,0:0:0:0:
109,192,170113,1,8,0:0:0:0:
402,192,170113,1,0,0:0:0:0:
475,192,170113,1,0,0:0:0:0:
36,192,170279,1,8,0:0:0:0:
109,192,170279,1,0,0:0:0:0:
475,192,170279,1,0,0:0:0:0:
36,192,170444,1,2,2:3:0:0:
182,192,170444,1,2,0:0:0:0:
256,192,170444,1,4,0:0:0:0:
329,192,170444,1,0,0:0:0:0:
402,192,170444,1,0,0:0:0:0:
109,192,170610,128,2,171107:0:0:0:0:
182,192,170610,1,0,0:0:0:0:
329,192,170610,1,0,0:0:0:0:
402,192,170776,128,2,171273:2:3:0:0:
182,192,170942,1,2,0:0:0:0:
256,192,170942,1,0,0:0:0:0:
329,192,170942,128,0,171273:0:0:0:0:
36,192,171107,1,8,0:0:0:0:
182,192,171107,1,0,0:0:0:0:
475,192,171107,1,0,0:0:0:0:
109,192,171273,128,0,171770:0:0:0:0:
182,192,171439,1,2,2:3:0:0:
402,192,171439,128,0,171936:0:0:0:0:
36,192,171605,1,2,0:0:0:0:
256,192,171605,1,0,0:0:0:0:
329,192,171605,128,0,171936:0:0:0:0:
182,192,171770,1,2,2:3:0:0:
475,192,171770,1,0,0:0:0:0:
36,192,171936,1,2,0:0:0:0:
109,192,171936,128,0,172433:0:0:0:0:
256,192,171936,1,0,0:0:0:0:
475,192,172102,128,2,172599:2:3:0:0:
182,192,172268,1,2,0:0:0:0:
329,192,172268,1,0,0:0:0:0:
402,192,172268,128,0,172599:0:0:0:0:
36,192,172433,1,8,0:0:0:0:
256,192,172433,1,0,0:0:0:0:
329,192,172433,1,0,0:0:0:0:
182,192,172599,128,0,173096:0:0:0:0:
329,192,172765,128,2,173096:2:3:0:0:
36,192,172931,128,0,174422:0:0:0:0:
256,192,173096,1,2,0:0:0:0:
402,192,173096,1,0,0:0:0:0:
475,192,173096,1,0,0:0:0:0:
109,192,173262,1,2,0:0:0:0:
182,192,173262,1,0,0:0:0:0:
329,192,173262,1,0,0:0:0:0:
402,192,173428,1,2,2:3:0:0:
109,192,173593,1,2,0:0:0:0:
182,192,173593,1,0,0:0:0:0:
329,192,173593,1,0,0:0:0:0:
256,192,173759,1,8,0:0:0:0:
402,192,173759,1,2,2:3:0:0:
475,192,173759,1,0,0:0:0:0:
109,192,173925,1,0,0:0:0:0:
182,192,174091,1,2,2:3:0:0:
109,192,174256,1,2,0:0:0:0:
329,192,174256,1,0,0:0:0:0:
475,192,174256,1,0,0:0:0:0:
256,192,174422,1,2,2:3:0:0:
402,192,174422,1,0,0:0:0:0:
182,192,174588,1,0,0:0:0:70:LR_Tom Hit.wav
329,192,174588,1,0,0:0:0:0:
475,192,174588,1,0,0:0:0:0:
109,192,174754,1,2,2:3:0:0:
256,192,174754,1,0,0:0:0:70:LR_Tom Hit 2.wav
402,192,174754,1,0,0:0:0:0:
36,192,174919,1,2,0:0:0:0:
182,192,174919,1,0,0:0:0:70:LR_Tom Hit 3.wav
329,192,174919,1,0,0:0:0:0:
36,192,175085,1,8,0:0:0:0:
109,192,175085,1,0,0:0:0:0:
402,192,175085,1,0,0:0:0:0:
475,192,175085,1,0,0:0:0:0:
182,192,175251,1,2,0:0:0:0:
256,192,175251,1,0,0:0:0:0:
329,192,175251,1,0,0:0:0:0:
36,192,175417,1,8,0:0:0:0:
109,192,175417,1,0,0:0:0:0:
402,192,175417,1,0,0:0:0:0:
475,192,175417,1,0,0:0:0:0:
36,192,175582,1,8,0:0:0:0:
256,192,175582,1,0,0:0:0:0:
475,192,175582,1,0,0:0:0:0:
109,192,175748,1,2,2:3:0:0:
182,192,175748,1,2,0:0:0:0:
402,192,175748,1,0,0:0:0:0:
36,192,175914,128,2,176411:0:0:0:0:
182,192,175914,1,0,0:0:0:0:
329,192,175914,1,0,0:0:0:0:
402,192,176080,128,2,176577:2:3:0:0:
109,192,176245,1,2,0:0:0:0:
256,192,176245,1,0,0:0:0:0:
329,192,176245,128,0,176577:0:0:0:0:
109,192,176411,1,2,2:3:0:0:
182,192,176411,1,8,0:0:0:0:
475,192,176411,1,0,0:0:0:0:
36,192,176577,128,0,177074:0:0:0:0:
402,192,176743,128,2,177240:2:3:0:0:
109,192,176908,1,2,0:0:0:0:
256,192,176908,1,0,0:0:0:0:
329,192,176908,128,0,177240:0:0:0:0:
182,192,177074,1,2,2:3:0:0:
475,192,177074,1,0,0:0:0:0:
36,192,177240,128,2,177737:0:0:0:0:
109,192,177240,1,0,0:0:0:0:
256,192,177240,1,0,0:0:0:0:
475,192,177406,128,2,177903:2:3:0:0:
182,192,177571,1,2,0:0:0:0:
329,192,177571,1,0,0:0:0:0:
402,192,177571,128,0,177903:0:0:0:0:
109,192,177737,1,8,0:0:0:0:
256,192,177737,1,0,0:0:0:0:
329,192,177737,1,0,0:0:0:0:
182,192,177903,128,0,178400:0:0:0:0:
475,192,178069,128,2,178400:2:3:0:0:
36,192,178234,128,0,179726:0:0:0:0:
256,192,178400,1,2,0:0:0:0:
329,192,178400,1,2,2:3:0:0:
402,192,178400,1,0,0:0:0:0:
109,192,178566,1,2,0:0:0:0:
182,192,178566,1,0,0:0:0:0:
475,192,178566,1,0,0:0:0:0:
402,192,178732,1,2,2:3:0:0:
109,192,178897,1,2,0:0:0:0:
182,192,178897,1,0,0:0:0:0:
329,192,178897,1,0,0:0:0:0:
256,192,179063,1,8,0:0:0:0:
402,192,179063,1,0,0:0:0:0:
475,192,179063,1,0,0:0:0:0:
109,192,179229,1,0,0:0:0:0:
256,192,179395,1,2,2:3:0:0:
109,192,179560,1,2,0:0:0:0:
329,192,179560,1,0,0:0:0:0:
402,192,179560,1,0,0:0:0:0:
256,192,179726,1,2,2:3:0:0:
475,192,179726,1,0,0:0:0:0:
109,192,179892,1,0,0:0:0:70:LR_Tom Hit.wav
329,192,179892,1,0,0:0:0:0:
402,192,179892,1,0,0:0:0:0:
182,192,180058,1,2,2:3:0:0:
256,192,180058,1,0,0:0:0:70:LR_Tom Hit 2.wav
475,192,180058,1,0,0:0:0:0:
36,192,180223,1,2,0:0:0:0:
109,192,180223,1,0,0:0:0:70:LR_Tom Hit 3.wav
329,192,180223,1,0,0:0:0:0:
182,192,180389,1,8,0:0:0:0:
256,192,180389,1,0,0:0:0:0:
402,192,180389,1,0,0:0:0:0:
475,192,180389,1,0,0:0:0:0:
36,192,180555,1,2,0:0:0:0:
109,192,180555,1,0,0:0:0:0:
329,192,180555,1,0,0:0:0:0:
182,192,180721,1,8,0:0:0:0:
256,192,180721,1,0,0:0:0:0:
402,192,180721,1,0,0:0:0:0:
475,192,180721,1,0,0:0:0:0:
36,192,180886,1,8,0:0:0:0:
182,192,180886,1,0,0:0:0:0:
475,192,180886,1,0,0:0:0:0:
109,192,181052,1,6,0:0:0:0:
256,192,181052,1,2,2:3:0:0:
36,192,181163,1,8,0:0:0:0:
182,192,181163,1,0,0:0:0:0:
329,192,181163,1,0,0:0:0:0:
475,192,181163,1,0,0:0:0:0:
256,192,181273,1,0,0:0:0:70:LR_Tom Hit.wav
402,192,181273,1,0,0:0:0:0:
182,192,181384,1,0,0:0:0:70:LR_Tom Hit 2.wav
329,192,181384,1,0,0:0:0:0:
109,192,181494,1,0,0:0:0:70:LR_Tom Hit 3.wav
256,192,181494,1,0,0:0:0:0:
36,192,181605,1,2,0:0:0:0:
182,192,181605,1,0,0:0:0:0:
475,192,181605,1,0,0:0:0:0:
109,192,181715,1,8,0:0:0:0:
256,192,181715,1,4,0:0:0:0:
329,192,181715,1,2,0:0:0:0:
402,192,181715,1,0,0:0:0:0:
475,192,181715,1,0,0:0:0:0:
256,192,181881,1,0,0:0:0:0:
36,192,181964,1,2,0:0:0:0:
182,192,181964,1,0,0:0:0:0:
475,192,181964,1,0,0:0:0:0:
329,192,182047,1,2,2:3:0:0:
36,192,182212,1,2,0:0:0:0:
182,192,182212,1,0,0:0:0:0:
475,192,182212,1,0,0:0:0:0:
109,192,182378,1,8,0:0:0:0:
329,192,182378,1,2,2:3:0:0:
475,192,182378,1,0,0:0:0:0:
36,192,182544,1,2,0:0:0:0:
256,192,182544,128,0,183041:0:0:0:0:
402,192,182544,1,0,0:0:0:0:
475,192,182710,128,2,183207:2:3:0:0:
36,192,182875,128,2,183207:0:0:0:0:
182,192,182875,1,0,0:0:0:0:
329,192,182875,1,0,0:0:0:0:
109,192,183041,1,8,0:0:0:0:
329,192,183041,1,0,0:0:0:0:
402,192,183041,1,0,0:0:0:0:
182,192,183207,128,0,183704:0:0:0:0:
256,192,183372,1,2,0:0:0:0:
329,192,183372,1,2,2:3:0:0:
475,192,183372,128,0,183704:0:0:0:0:
36,192,183538,128,0,185030:0:0:0:0:
256,192,183704,1,2,0:0:0:0:
329,192,183704,1,2,2:3:0:0:
402,192,183704,1,0,0:0:0:0:
109,192,183870,1,2,0:0:0:0:
182,192,183870,1,0,0:0:0:0:
475,192,183870,1,0,0:0:0:0:
402,192,184035,1,2,2:3:0:0:
109,192,184201,1,2,0:0:0:0:
182,192,184201,1,0,0:0:0:0:
329,192,184201,1,0,0:0:0:0:
256,192,184367,1,8,0:0:0:0:
402,192,184367,1,0,0:0:0:0:
475,192,184367,1,0,0:0:0:0:
109,192,184533,1,0,0:0:0:0:
256,192,184698,1,2,2:3:0:0:
182,192,184864,1,2,0:0:0:0:
329,192,184864,1,0,0:0:0:0:
475,192,184864,1,0,0:0:0:0:
109,192,185030,1,2,2:3:0:0:
402,192,185030,1,8,0:1:0:0:
182,192,185196,1,0,0:0:0:70:LR_Tom Hit.wav
329,192,185196,1,0,0:0:0:0:
475,192,185196,1,0,0:0:0:0:
109,192,185361,1,2,2:3:0:0:
256,192,185361,1,0,0:0:0:70:LR_Tom Hit 2.wav
402,192,185361,1,0,0:0:0:0:
36,192,185527,1,2,0:0:0:0:
182,192,185527,1,0,0:0:0:70:LR_Tom Hit 3.wav
329,192,185527,1,0,0:0:0:0:
36,192,185693,1,8,0:0:0:0:
109,192,185693,1,0,0:0:0:0:
402,192,185693,1,0,0:0:0:0:
475,192,185693,1,0,0:0:0:0:
182,192,185859,1,2,0:0:0:0:
256,192,185859,1,0,0:0:0:0:
329,192,185859,1,0,0:0:0:0:
36,192,186024,1,8,0:0:0:0:
109,192,186024,1,0,0:0:0:0:
402,192,186024,1,0,0:0:0:0:
475,192,186024,1,0,0:0:0:0:
36,192,186190,1,8,0:0:0:0:
256,192,186190,1,0,0:0:0:0:
475,192,186190,1,0,0:0:0:0:
109,192,186356,1,2,2:3:0:0:
182,192,186356,1,2,0:0:0:0:
329,192,186356,1,0,0:0:0:0:
36,192,186522,1,8,0:0:0:0:
256,192,186522,1,0,0:0:0:0:
402,192,186522,128,0,187019:0:0:0:0:
182,192,186687,1,2,2:3:0:0:
475,192,186687,128,0,187185:0:0:0:0:
36,192,186853,128,2,187185:0:0:0:0:
109,192,186853,1,0,0:0:0:0:
329,192,186853,1,0,0:0:0:0:
182,192,187019,1,8,0:0:0:0:
256,192,187019,1,0,0:0:0:0:
329,192,187019,1,0,0:0:0:0:
109,192,187185,1,2,0:0:0:0:
182,192,187185,1,0,0:0:0:0:
402,192,187185,128,0,187682:0:0:0:0:
256,192,187350,1,0,0:0:0:70:LR_Tom Hit.wav
475,192,187350,128,0,187848:0:0:0:0:
36,192,187516,128,2,187848:0:0:0:0:
109,192,187516,1,0,0:0:0:0:
329,192,187516,1,0,0:0:0:0:
256,192,187682,1,0,0:0:0:70:LR_Tom Hit.wav
182,192,187765,1,0,0:0:0:70:LR_Tom Hit.wav
109,192,187848,128,2,188013:0:0:0:0:
329,192,187848,1,0,0:0:0:70:LR_Tom Hit.wav
402,192,187848,1,0,0:0:0:0:
256,192,187931,1,0,0:0:0:70:LR_Tom Hit 2.wav
182,192,188013,1,0,0:0:0:70:LR_Tom Hit 2.wav
475,192,188013,128,0,188566:0:0:0:0:
402,192,188096,1,0,0:0:0:70:LR_Tom Hit 3.wav
36,192,188179,128,2,188566:0:0:0:0:
109,192,188179,1,0,0:0:0:70:LR_Tom Hit 3.wav
329,192,188179,1,0,0:0:0:0:
182,192,188262,1,2,0:0:0:0:
256,192,188262,1,0,0:0:0:0:
109,192,188345,1,8,0:0:0:0:
329,192,188345,1,0,0:0:0:0:
402,192,188345,1,0,0:0:0:0:
109,192,188566,1,2,0:0:0:0:
256,192,188566,128,0,188787:0:0:0:0:
329,192,188566,1,0,0:0:0:0:
402,192,188676,1,2,2:3:0:0:
36,192,188787,1,2,0:0:0:0:
182,192,188787,1,0,0:0:0:0:
475,192,188787,1,0,0:0:0:0:
36,192,189008,1,4,0:0:0:0:
109,192,189008,1,2,0:0:0:0:
256,192,189008,1,0,0:0:0:0:
402,192,189008,1,0,0:0:0:0:
475,192,189008,128,0,191660:0:0:0:0:
182,192,189505,128,0,191660:0:0:0:0:
109,192,189588,128,0,191660:0:0:0:0:
36,192,189671,128,0,191660:0:0:0:0:
256,192,201770,5,0,0:0:0:0:
329,192,201936,1,0,0:0:0:0:
402,192,202102,1,0,0:0:0:0:
36,192,202268,1,4,0:0:0:0:
182,192,202268,128,8,202599:0:1:0:0:
256,192,202268,1,0,0:0:0:0:
329,192,202268,1,0,0:0:0:0:
475,192,202268,1,0,0:0:0:0:
36,192,202599,1,8,0:1:0:0:
329,192,202599,1,0,0:0:0:0:
475,192,202599,1,0,0:0:0:0:
36,192,202765,1,8,0:1:0:0:
182,192,202765,128,0,203096:0:0:0:0:
329,192,202765,1,0,0:0:0:0:
475,192,202765,1,0,0:0:0:0:
256,192,203096,1,0,0:0:0:0:
36,192,203262,1,8,0:1:0:0:
182,192,203262,128,0,203428:0:0:0:0:
329,192,203262,1,0,0:0:0:0:
475,192,203262,1,0,0:0:0:0:
256,192,203428,1,0,0:0:0:0:
109,192,203593,1,0,0:0:0:0:
329,192,203593,128,0,204256:0:0:0:0:
36,192,203759,1,0,0:0:0:0:
182,192,203925,1,8,0:1:0:0:
402,192,203925,1,0,0:0:0:0:
475,192,203925,1,0,0:0:0:0:
182,192,204091,1,8,0:1:0:0:
402,192,204091,1,0,0:0:0:0:
475,192,204091,1,0,0:0:0:0:
36,192,204256,128,0,204919:0:0:0:0:
109,192,204256,1,0,0:0:0:0:
256,192,204256,1,0,0:0:0:0:
329,192,204422,1,0,0:0:0:0:
109,192,204588,1,8,0:1:0:0:
182,192,204588,1,0,0:0:0:0:
475,192,204588,1,0,0:0:0:0:
329,192,204754,1,0,0:0:0:0:
109,192,204919,1,0,0:0:0:0:
256,192,204919,128,0,205251:0:0:0:0:
402,192,204919,1,0,0:0:0:0:
36,192,205251,1,8,0:1:0:0:
329,192,205251,1,0,0:0:0:0:
475,192,205251,1,0,0:0:0:0:
36,192,205417,1,8,0:1:0:0:
256,192,205417,128,0,205748:0:0:0:0:
329,192,205417,1,0,0:0:0:0:
475,192,205417,1,0,0:0:0:0:
109,192,205748,1,0,0:0:0:0:
402,192,205748,1,0,0:0:0:0:
109,192,205831,1,0,0:0:0:0:
475,192,205914,1,0,0:0:0:0:
256,192,205914,128,8,206080:0:1:0:0:
329,192,205914,1,0,0:0:0:0:
182,192,205914,1,0,0:0:0:0:
36,192,206080,1,0,0:0:0:0:
109,192,206245,1,0,0:0:0:0:
402,192,206245,128,0,206908:0:0:0:0:
475,192,206245,1,0,0:0:0:0:
36,192,206577,1,8,0:1:0:0:
182,192,206577,1,0,0:0:0:0:
329,192,206577,1,0,0:0:0:0:
36,192,206743,1,8,0:1:0:0:
182,192,206743,1,0,0:0:0:0:
329,192,206743,1,0,0:0:0:0:
109,192,206908,128,0,207571:0:0:0:0:
256,192,206908,1,0,0:0:0:0:
475,192,206908,1,0,0:0:0:0:
329,192,207074,1,0,0:0:0:0:
182,192,207240,1,8,0:1:0:0:
402,192,207240,1,0,0:0:0:0:
475,192,207240,1,0,0:0:0:0:
256,192,207406,1,0,0:0:0:0:
36,192,207571,1,0,0:0:0:0:
329,192,207571,128,0,207903:0:0:0:0:
402,192,207571,1,0,0:0:0:0:
36,192,207903,1,8,0:1:0:0:
182,192,207903,1,0,0:0:0:0:
475,192,207903,1,0,0:0:0:0:
36,192,208069,1,8,0:1:0:0:
182,192,208069,1,0,0:0:0:0:
329,192,208069,128,0,208400:0:0:0:0:
475,192,208069,1,0,0:0:0:0:
109,192,208400,1,0,0:0:0:0:
36,192,208566,1,8,0:1:0:0:
182,192,208566,1,0,0:0:0:0:
329,192,208566,128,0,208732:0:0:0:0:
475,192,208566,1,0,0:0:0:0:
109,192,208732,1,0,0:0:0:0:
36,192,208897,1,0,0:0:0:0:
182,192,208897,1,0,0:0:0:0:
256,192,208897,128,0,209560:0:0:0:0:
475,192,208897,1,0,0:0:0:0:
402,192,209063,1,0,0:0:0:0:
109,192,209229,1,8,0:1:0:0:
182,192,209229,1,0,0:0:0:0:
475,192,209229,1,0,0:0:0:0:
109,192,209395,1,8,0:1:0:0:
182,192,209395,1,0,0:0:0:0:
475,192,209395,1,0,0:0:0:0:
36,192,209560,128,0,210223:0:0:0:0:
329,192,209560,1,0,0:0:0:0:
402,192,209560,1,0,0:0:0:0:
182,192,209726,1,0,0:0:0:0:
109,192,209892,1,8,0:1:0:0:
329,192,209892,1,0,0:0:0:0:
402,192,209892,1,0,0:0:0:0:
256,192,210058,1,0,0:0:0:0:
182,192,210223,1,0,0:0:0:0:
402,192,210223,1,0,0:0:0:0:
475,192,210223,128,0,211549:0:0:0:0:
109,192,210389,1,0,0:0:0:0:
329,192,210389,1,0,0:0:0:0:
256,192,210472,1,0,0:0:0:0:
36,192,210555,1,8,0:1:0:0:
182,192,210555,1,0,0:0:0:0:
402,192,210555,1,0,0:0:0:0:
329,192,210638,1,0,0:0:0:0:
36,192,210721,128,8,211549:0:1:0:0:
182,192,210721,1,0,0:0:0:0:
402,192,210721,1,0,0:0:0:0:
256,192,210803,1,0,0:0:0:0:
109,192,210886,1,0,0:0:0:0:
329,192,210886,1,0,0:0:0:0:
182,192,210969,1,0,0:0:0:0:
256,192,211052,1,0,0:0:0:0:
402,192,211052,1,0,0:0:0:0:
109,192,211218,1,8,0:1:0:0:
182,192,211218,1,0,0:0:0:0:
329,192,211218,1,0,0:0:0:0:
256,192,211301,1,0,0:0:0:0:
182,192,211384,1,2,0:0:0:0:
329,192,211384,1,0,0:0:0:0:
402,192,211384,1,0,0:0:0:0:
109,192,211549,1,8,0:0:0:0:
182,192,211549,1,8,0:1:0:0:
329,192,211549,1,0,0:0:0:0:
402,192,211549,1,0,0:0:0:0:
109,192,211715,1,8,0:0:0:0:
182,192,211715,1,8,0:1:0:0:
329,192,211715,1,0,0:0:0:0:
402,192,211715,1,0,0:0:0:0:
182,192,211881,1,2,0:0:0:0:
256,192,211881,1,0,0:0:0:0:
329,192,211881,1,0,0:0:0:0:
36,192,212047,1,8,0:0:0:0:
109,192,212047,1,8,0:1:0:0:
402,192,212047,1,0,0:0:0:0:
475,192,212047,1,0,0:0:0:0:
182,192,212378,1,0,0:0:0:0:
256,192,212544,1,0,0:0:0:0:
182,192,212710,1,8,0:0:0:0:
329,192,212710,1,0,0:0:0:0:
36,192,212875,1,4,0:0:0:0:
256,192,212875,1,2,0:0:0:0:
402,192,212875,1,0,0:0:0:0:
475,192,212875,1,0,0:0:0:0:
36,192,213041,1,2,2:3:0:0:
475,192,213124,1,2,2:3:0:0:
36,192,213207,1,8,0:1:0:0:
182,192,213207,1,0,0:0:0:0:
329,192,213207,1,0,0:0:0:0:
402,192,213207,1,0,0:0:0:0:
329,192,213372,1,0,0:0:0:0:
36,192,213372,1,2,2:3:0:0:
182,192,213372,1,0,0:0:0:0:
36,192,213538,1,8,0:1:0:0:
182,192,213538,1,0,0:0:0:0:
329,192,213538,1,0,0:0:0:0:
182,192,213704,1,2,2:3:0:0:
329,192,213704,1,0,0:0:0:0:
256,192,213787,1,2,2:3:0:0:
36,192,213870,1,8,0:1:0:0:
109,192,213870,1,0,0:0:0:0:
475,192,213870,1,0,0:0:0:0:
109,192,214035,1,2,2:3:0:0:
402,192,214035,1,0,0:0:0:0:
329,192,214118,1,2,2:3:0:0:
36,192,214201,1,8,0:1:0:0:
182,192,214201,1,0,0:0:0:0:
256,192,214201,1,0,0:0:0:0:
475,192,214201,1,0,0:0:0:0:
475,192,214367,1,2,2:3:0:0:
36,192,214450,1,2,2:3:0:0:
109,192,214533,1,8,0:1:0:0:
182,192,214533,1,0,0:0:0:0:
329,192,214533,1,0,0:0:0:0:
475,192,214533,1,0,0:0:0:0:
329,192,214698,1,2,2:3:0:0:
475,192,214698,1,0,0:0:0:0:
182,192,214698,1,0,0:0:0:0:
182,192,214864,1,8,0:1:0:0:
329,192,214864,1,0,0:0:0:0:
475,192,214864,1,0,0:0:0:0:
182,192,215030,1,2,2:3:0:0:
329,192,215030,1,0,0:0:0:0:
256,192,215113,1,2,2:3:0:0:
36,192,215196,1,8,0:1:0:0:
402,192,215196,1,0,0:0:0:0:
475,192,215196,1,0,0:0:0:0:
109,192,215361,1,2,2:3:0:0:
402,192,215361,1,0,0:0:0:0:
182,192,215444,1,2,2:3:0:0:
36,192,215527,1,8,0:1:0:0:
256,192,215527,1,0,0:0:0:0:
329,192,215527,1,0,0:0:0:0:
475,192,215527,1,0,0:0:0:0:
182,192,215693,1,2,2:3:0:0:
329,192,215776,1,2,2:3:0:0:
36,192,215859,1,8,0:1:0:0:
109,192,215859,1,0,0:0:0:0:
256,192,215859,1,0,0:0:0:0:
402,192,215859,1,0,0:0:0:0:
109,192,216024,1,2,2:3:0:0:
256,192,216024,1,0,0:0:0:0:
402,192,216024,1,0,0:0:0:0:
109,192,216190,1,8,0:1:0:0:
256,192,216190,1,0,0:0:0:0:
402,192,216190,1,0,0:0:0:0:
109,192,216356,1,2,2:3:0:0:
402,192,216356,1,0,0:0:0:0:
329,192,216439,1,2,2:3:0:0:
36,192,216522,1,8,0:1:0:0:
182,192,216522,1,0,0:0:0:0:
256,192,216522,1,0,0:0:0:0:
475,192,216522,1,0,0:0:0:0:
109,192,216687,1,2,2:3:0:0:
402,192,216687,1,0,0:0:0:0:
182,192,216770,1,2,2:3:0:0:
36,192,216853,1,8,0:1:0:0:
256,192,216853,1,0,0:0:0:0:
329,192,216853,1,0,0:0:0:0:
475,192,216853,1,0,0:0:0:0:
329,192,217019,1,2,2:3:0:0:
256,192,217102,1,2,2:3:0:0:
109,192,217185,1,8,0:1:0:0:
182,192,217185,1,0,0:0:0:0:
402,192,217185,1,0,0:0:0:0:
475,192,217185,1,0,0:0:0:0:
36,192,217350,1,2,2:3:0:0:
182,192,217350,1,0,0:0:0:0:
329,192,217350,1,0,0:0:0:0:
36,192,217516,1,8,0:1:0:0:
182,192,217516,1,0,0:0:0:0:
329,192,217516,1,0,0:0:0:0:
109,192,217682,1,2,2:3:0:0:
256,192,217682,1,0,0:0:0:0:
329,192,217765,1,2,2:3:0:0:
36,192,217848,1,8,0:1:0:0:
402,192,217848,1,0,0:0:0:0:
475,192,217848,1,0,0:0:0:0:
182,192,218013,1,2,2:3:0:0:
329,192,218013,1,0,0:0:0:0:
109,192,218096,1,2,2:3:0:0:
36,192,218179,1,4,0:0:0:0:
256,192,218179,1,8,0:0:0:0:
402,192,218179,1,0,0:0:0:0:
475,192,218179,1,0,0:0:0:0:
109,192,218345,1,2,0:0:0:0:
182,192,218345,1,0,0:0:0:0:
329,192,218345,1,0,0:0:0:0:
109,192,218511,1,2,0:0:0:0:
182,192,218511,1,0,0:0:0:0:
329,192,218511,1,0,0:0:0:0:
36,192,218676,1,8,0:0:0:0:
109,192,218676,1,4,0:0:0:0:
256,192,218676,1,0,0:0:0:0:
402,192,218676,1,0,0:0:0:0:
475,192,218676,1,0,0:0:0:0:
182,192,218842,1,0,0:0:0:70:LR_Tom Hit.wav
329,192,218842,1,0,0:0:0:0:
402,192,218842,1,0,0:0:0:0:
36,192,219008,1,0,0:0:0:70:LR_Tom Hit 2.wav
109,192,219008,1,0,0:0:0:0:
256,192,219008,1,0,0:0:0:0:
329,192,219091,1,0,0:0:0:0:
182,192,219174,1,8,0:1:0:0:
402,192,219174,1,0,0:0:0:70:LR_Tom Hit 3.wav
475,192,219174,1,0,0:0:0:0:
256,192,219256,1,0,0:0:0:0:
36,192,219339,1,2,0:0:0:0:
109,192,219339,1,0,0:0:0:0:
329,192,219339,1,0,0:0:0:0:
182,192,219422,1,0,0:0:0:0:
36,192,219505,1,2,0:0:0:0:
109,192,219505,1,2,2:3:0:0:
256,192,219505,1,0,0:0:0:0:
402,192,219505,1,0,0:0:0:0:
475,192,219505,1,0,0:0:0:0:
36,192,219671,1,2,0:0:0:0:
109,192,219671,1,2,2:3:0:0:
256,192,219671,1,0,0:0:0:0:
402,192,219671,1,0,0:0:0:0:
475,192,219671,1,0,0:0:0:0:
182,192,219837,1,0,0:0:0:0:
182,192,219947,1,0,0:0:0:0:
36,192,220831,128,0,224809:0:0:0:0:
475,192,222157,1,0,0:0:0:0:
402,192,222212,1,0,0:0:0:0:
329,192,222268,1,0,0:0:0:0:
256,192,222323,1,0,0:0:0:0:
182,192,222378,1,0,0:0:0:0:
109,192,222433,1,0,0:0:0:0:
475,192,222489,1,0,0:0:0:0:
402,192,222544,1,0,0:0:0:0:
329,192,222599,1,0,0:0:0:0:
256,192,222654,1,0,0:0:0:0:
182,192,222710,1,0,0:0:0:0:
109,192,222765,1,0,0:0:0:0:
475,192,222820,1,0,0:0:0:0:
402,192,222875,1,0,0:0:0:0:
329,192,222931,1,0,0:0:0:0:
256,192,222986,1,0,0:0:0:0:
182,192,223041,1,0,0:0:0:0:
109,192,223096,1,0,0:0:0:0:
475,192,223152,1,0,0:0:0:0:
402,192,223207,1,0,0:0:0:0:
329,192,223262,1,0,0:0:0:0:
109,192,223317,1,0,0:0:0:0:
182,192,223372,1,0,0:0:0:0:
256,192,223428,1,0,0:0:0:0:
475,192,223483,1,0,0:0:0:0:
402,192,223538,1,0,0:0:0:0:
329,192,223593,1,0,0:0:0:0:
109,192,223649,1,0,0:0:0:0:
182,192,223704,1,0,0:0:0:0:
256,192,223759,1,0,0:0:0:0:
475,192,223814,1,0,0:0:0:0:
402,192,223870,1,0,0:0:0:0:
329,192,223925,1,0,0:0:0:0:
256,192,223980,1,0,0:0:0:0:
182,192,224035,1,0,0:0:0:0:
109,192,224091,1,0,0:0:0:0:
329,192,224146,1,0,0:0:0:0:
402,192,224201,1,0,0:0:0:0:
475,192,224256,1,0,0:0:0:0:
256,192,224312,1,0,0:0:0:0:
182,192,224367,1,0,0:0:0:0:
109,192,224422,1,0,0:0:0:0:
329,192,224477,1,0,0:0:0:0:
402,192,224533,1,0,0:0:0:0:
475,192,224588,1,0,0:0:0:0:
256,192,224643,1,0,0:0:0:0:
182,192,224698,1,0,0:0:0:0:
109,192,224754,1,0,0:0:0:0:
329,192,224809,1,0,0:0:0:0:
36,192,225638,128,0,225803:0:0:0:0:
256,192,225638,128,0,225803:0:0:0:0:
109,192,225803,128,0,225969:0:0:0:0:
329,192,225803,128,0,225969:0:0:0:0:
182,192,225969,128,0,226135:0:0:0:0:
402,192,225969,128,0,226135:0:0:0:0:
36,192,226135,128,2,226301:0:0:0:0:
109,192,226135,1,4,0:0:0:0:
256,192,226135,1,0,0:0:0:0:
329,192,226135,1,0,0:0:0:0:
475,192,226135,128,0,226466:0:0:0:0:
109,192,226301,1,2,0:0:0:0:
329,192,226301,1,0,0:0:0:0:
402,192,226301,1,0,0:0:0:0:
182,192,226384,1,0,0:0:0:0:
36,192,226466,1,8,0:0:0:0:
256,192,226466,128,0,226632:0:0:0:0:
329,192,226466,128,0,226632:0:0:0:0:
109,192,226632,128,2,226798:0:0:0:0:
182,192,226632,128,0,226964:0:0:0:0:
475,192,226632,1,0,0:0:0:0:
402,192,226715,1,0,0:0:0:0:
36,192,226798,1,2,0:0:0:0:
256,192,226798,1,0,0:0:0:0:
329,192,226798,1,0,0:0:0:0:
36,192,226964,128,2,227129:0:0:0:0:
329,192,226964,1,0,0:0:0:0:
475,192,226964,128,0,227129:0:0:0:0:
109,192,227129,128,8,227295:0:0:0:0:
256,192,227129,1,0,0:0:0:0:
402,192,227129,128,0,227295:0:0:0:0:
182,192,227295,128,2,227461:2:3:0:0:
329,192,227295,128,0,227461:0:0:0:0:
36,192,227461,128,2,227627:0:0:0:0:
402,192,227461,128,0,227792:0:0:0:0:
475,192,227461,1,0,0:0:0:0:
109,192,227627,1,2,0:0:0:0:
256,192,227627,1,0,0:0:0:0:
329,192,227627,1,0,0:0:0:0:
182,192,227710,1,0,0:0:0:0:
36,192,227792,1,8,0:0:0:0:
256,192,227792,128,0,227958:0:0:0:0:
475,192,227792,128,0,227958:0:0:0:0:
109,192,227958,128,2,228124:0:0:0:0:
182,192,227958,128,0,228290:0:0:0:0:
329,192,227958,1,0,0:0:0:0:
402,192,228041,1,0,0:0:0:0:
36,192,228124,1,2,0:0:0:0:
256,192,228124,1,0,0:0:0:0:
475,192,228124,1,0,0:0:0:0:
36,192,228290,128,2,228455:0:0:0:0:
329,192,228290,128,0,228455:0:0:0:0:
475,192,228290,1,0,0:0:0:0:
109,192,228455,128,8,228621:0:0:0:0:
256,192,228455,1,0,0:0:0:0:
402,192,228455,128,0,228621:0:0:0:0:
182,192,228621,128,2,228787:2:3:0:0:
475,192,228621,128,0,228787:0:0:0:0:
36,192,228787,128,2,228953:0:0:0:0:
329,192,228787,128,0,229118:0:0:0:0:
402,192,228787,1,0,0:0:0:0:
182,192,228953,1,2,0:0:0:0:
256,192,228953,1,0,0:0:0:0:
475,192,228953,1,0,0:0:0:0:
109,192,229035,1,0,0:0:0:0:
36,192,229118,1,8,0:0:0:0:
402,192,229118,128,0,229284:0:0:0:0:
475,192,229118,128,0,229284:0:0:0:0:
36,192,229284,128,2,229616:0:0:0:0:
109,192,229284,128,0,229450:0:0:0:0:
182,192,229284,1,0,0:0:0:0:
256,192,229367,1,0,0:0:0:0:
329,192,229450,1,2,0:0:0:0:
402,192,229450,1,0,0:0:0:0:
475,192,229450,1,0,0:0:0:0:
109,192,229616,1,2,0:0:0:0:
256,192,229616,1,0,0:0:0:0:
402,192,229616,1,0,0:0:0:0:
109,192,229698,1,0,0:0:0:0:
182,192,229781,128,8,229947:0:0:0:0:
329,192,229781,1,0,0:0:0:0:
475,192,229781,128,0,229947:0:0:0:0:
36,192,229947,128,2,230776:0:0:0:0:
256,192,229947,1,2,2:3:0:0:
402,192,229947,128,0,230279:0:0:0:0:
329,192,230030,1,0,0:0:0:0:
109,192,230113,1,2,0:0:0:0:
182,192,230113,1,0,0:0:0:0:
256,192,230113,1,0,0:0:0:0:
109,192,230279,1,2,0:0:0:0:
182,192,230279,1,0,0:0:0:0:
329,192,230279,1,0,0:0:0:0:
256,192,230444,1,8,0:0:0:0:
402,192,230444,1,0,0:0:0:0:
475,192,230444,1,0,0:0:0:0:
109,192,230610,1,2,0:0:0:0:
182,192,230610,1,0,0:0:0:0:
329,192,230610,1,0,0:0:0:0:
182,192,230776,1,8,0:0:0:0:
329,192,230776,1,0,0:0:0:0:
475,192,230776,1,0,0:0:0:0:
109,192,230942,128,2,231107:0:0:0:0:
256,192,230942,128,0,231107:0:0:0:0:
402,192,230942,1,0,0:0:0:0:
36,192,231107,128,8,231273:0:0:0:0:
329,192,231107,128,2,231273:2:3:0:0:
475,192,231107,1,0,0:0:0:0:
182,192,231273,128,2,231439:2:3:0:0:
402,192,231273,128,0,231439:0:0:0:0:
36,192,231439,128,4,231605:0:0:0:0:
109,192,231439,1,2,0:0:0:0:
256,192,231439,1,0,0:0:0:0:
329,192,231439,1,0,0:0:0:0:
475,192,231439,128,0,231770:0:0:0:0:
109,192,231605,1,2,0:0:0:0:
182,192,231605,1,0,0:0:0:0:
402,192,231605,1,0,0:0:0:0:
256,192,231687,1,0,0:0:0:0:
109,192,231770,1,8,0:0:0:0:
329,192,231770,128,0,231936:0:0:0:0:
402,192,231770,128,0,231936:0:0:0:0:
36,192,231936,128,2,232268:0:0:0:0:
109,192,231936,128,0,232102:0:0:0:0:
182,192,231936,1,0,0:0:0:0:
256,192,232019,1,0,0:0:0:0:
329,192,232102,1,2,0:0:0:0:
402,192,232102,1,0,0:0:0:0:
475,192,232102,1,0,0:0:0:0:
109,192,232268,1,2,0:0:0:0:
256,192,232268,128,0,232433:0:0:0:0:
475,192,232268,1,0,0:0:0:0:
36,192,232433,128,8,232599:0:0:0:0:
182,192,232433,1,0,0:0:0:0:
329,192,232433,128,0,232599:0:0:0:0:
109,192,232599,128,2,232765:2:3:0:0:
402,192,232599,128,0,232765:0:0:0:0:
182,192,232765,128,2,232931:0:0:0:0:
256,192,232765,1,0,0:0:0:0:
475,192,232765,128,0,232931:0:0:0:0:
36,192,232931,128,2,233096:0:0:0:0:
109,192,232931,1,0,0:0:0:0:
329,192,232931,128,0,233096:0:0:0:0:
182,192,233096,128,8,233262:0:0:0:0:
256,192,233096,1,0,0:0:0:0:
402,192,233096,128,0,233262:0:0:0:0:
36,192,233262,128,2,233428:0:0:0:0:
329,192,233262,128,0,233428:0:0:0:0:
475,192,233262,1,0,0:0:0:0:
256,192,233345,1,0,0:0:0:0:
109,192,233428,1,2,0:0:0:0:
182,192,233428,1,0,0:0:0:0:
402,192,233428,128,0,233593:0:0:0:0:
475,192,233428,128,0,233593:0:0:0:0:
36,192,233593,1,2,0:0:0:0:
182,192,233593,128,0,233759:0:0:0:0:
329,192,233593,128,0,233759:0:0:0:0:
109,192,233759,128,8,233925:0:0:0:0:
256,192,233759,128,0,233925:0:0:0:0:
402,192,233759,1,0,0:0:0:0:
475,192,233759,1,0,0:0:0:0:
36,192,233925,128,2,234091:2:3:0:0:
182,192,233925,128,2,234091:0:0:0:0:
475,192,233925,1,0,0:0:0:0:
329,192,234008,1,0,0:0:0:0:
109,192,234091,1,2,0:0:0:0:
256,192,234091,128,0,234256:0:0:0:0:
402,192,234091,128,0,234422:0:0:0:0:
36,192,234256,1,2,0:0:0:0:
109,192,234256,1,0,0:0:0:0:
329,192,234256,1,0,0:0:0:0:
182,192,234339,1,0,0:0:0:0:
36,192,234422,128,8,234505:0:0:0:0:
109,192,234422,1,0,0:0:0:0:
256,192,234422,1,0,0:0:0:0:
475,192,234422,128,0,234505:0:0:0:0:
329,192,234505,1,0,0:0:0:0:
36,192,234588,128,2,235085:0:0:0:0:
182,192,234588,1,0,0:0:0:0:
475,192,234588,128,0,235085:0:0:0:0:
256,192,234671,1,0,0:0:0:0:
109,192,234754,1,8,0:0:0:0:
329,192,234754,1,0,0:0:0:0:
402,192,234754,1,0,0:0:0:0:
182,192,234837,1,0,0:0:0:0:
256,192,234919,1,2,0:0:0:0:
329,192,234919,1,0,0:0:0:0:
109,192,235002,1,0,0:0:0:0:
182,192,235085,1,8,0:0:0:0:
256,192,235085,1,0,0:0:0:0:
402,192,235085,128,0,235168:0:0:0:0:
109,192,235168,1,0,0:0:0:70:LR_Tom Hit.wav
329,192,235168,128,0,235251:0:0:0:0:
36,192,235251,1,0,0:0:0:70:LR_Tom Hit 2.wav
256,192,235251,128,0,235334:0:0:0:0:
182,192,235334,128,0,235417:0:0:0:70:LR_Tom Hit 3.wav
475,192,235334,1,0,0:0:0:0:
36,192,235417,1,2,0:0:0:0:
109,192,235417,1,4,0:3:0:0:
329,192,235417,1,0,0:0:0:0:
402,192,235417,1,0,0:0:0:0:
36,192,235582,1,2,0:0:0:0:
109,192,235582,1,4,0:3:0:0:
329,192,235582,1,0,0:0:0:0:
402,192,235582,1,0,0:0:0:0:
36,192,235914,1,2,0:0:0:0:
109,192,235914,1,4,0:0:0:0:
256,192,235914,1,0,0:0:0:0:
402,192,235914,1,0,0:0:0:0:
475,192,235914,1,0,0:0:0:0:
36,192,236245,128,2,236411:0:0:0:0:
256,192,236245,128,0,236411:0:0:0:0:
182,192,236411,1,0,0:0:0:70:LR_Tom Hit.wav
329,192,236411,128,0,236577:0:0:0:0:
475,192,236411,1,0,0:0:0:0:
109,192,236494,1,0,0:0:0:70:LR_Tom Hit.wav
36,192,236577,1,0,0:0:0:70:LR_Tom Hit 2.wav
256,192,236577,1,0,0:0:0:0:
402,192,236577,128,0,236743:0:0:0:0:
182,192,236660,1,0,0:0:0:70:LR_Tom Hit 3.wav
36,192,236743,128,4,236908:0:0:0:0:
109,192,236743,1,2,0:0:0:0:
256,192,236743,1,0,0:0:0:0:
475,192,236743,128,0,237074:0:0:0:0:
182,192,236908,1,2,0:0:0:0:
329,192,236908,1,0,0:0:0:0:
402,192,236908,1,0,0:0:0:0:
256,192,236991,1,0,0:0:0:0:
109,192,237074,128,8,237240:0:0:0:0:
182,192,237074,128,0,237240:0:0:0:0:
402,192,237074,1,0,0:0:0:0:
36,192,237240,128,2,237571:0:0:0:0:
329,192,237240,1,0,0:0:0:0:
475,192,237240,128,0,237406:0:0:0:0:
256,192,237323,1,0,0:0:0:0:
109,192,237406,1,2,0:0:0:0:
182,192,237406,1,0,0:0:0:0:
402,192,237406,1,0,0:0:0:0:
182,192,237571,128,2,237737:0:0:0:0:
256,192,237571,128,0,237737:0:0:0:0:
402,192,237571,1,0,0:0:0:0:
36,192,237737,128,8,237903:0:0:0:0:
329,192,237737,128,0,237903:0:0:0:0:
475,192,237737,1,0,0:0:0:0:
109,192,237903,128,2,238069:2:3:0:0:
402,192,237903,128,0,238069:0:0:0:0:
36,192,238069,1,2,0:0:0:0:
182,192,238069,128,0,238234:0:0:0:0:
256,192,238069,1,0,0:0:0:0:
475,192,238069,128,0,238400:0:0:0:0:
36,192,238234,1,2,0:0:0:0:
109,192,238234,1,0,0:0:0:0:
329,192,238234,1,0,0:0:0:0:
256,192,238317,1,0,0:0:0:0:
182,192,238400,1,8,0:0:0:0:
329,192,238400,128,0,238566:0:0:0:0:
402,192,238400,128,0,238566:0:0:0:0:
36,192,238566,128,2,238897:0:0:0:0:
109,192,238566,1,0,0:0:0:0:
475,192,238566,128,0,238732:0:0:0:0:
182,192,238649,1,0,0:0:0:0:
256,192,238732,1,2,0:0:0:0:
329,192,238732,1,0,0:0:0:0:
402,192,238732,1,0,0:0:0:0:
109,192,238897,128,2,239063:0:0:0:0:
182,192,238897,128,0,239063:0:0:0:0:
475,192,238897,1,0,0:0:0:0:
36,192,239063,128,8,239229:0:0:0:0:
256,192,239063,128,0,239229:0:0:0:0:
402,192,239063,1,0,0:0:0:0:
182,192,239229,128,2,239395:2:3:0:0:
329,192,239229,128,0,239395:0:0:0:0:
109,192,239395,128,2,239560:0:0:0:0:
402,192,239395,128,0,239726:0:0:0:0:
475,192,239395,1,0,0:0:0:0:
36,192,239560,1,2,0:0:0:0:
182,192,239560,1,0,0:0:0:0:
329,192,239560,1,0,0:0:0:0:
256,192,239643,1,0,0:0:0:0:
182,192,239726,128,8,239892:0:0:0:0:
329,192,239726,1,0,0:0:0:0:
475,192,239726,128,0,239892:0:0:0:0:
36,192,239892,128,2,240223:0:0:0:0:
109,192,239892,128,0,240058:0:0:0:0:
402,192,239892,1,0,0:0:0:0:
329,192,239975,1,0,0:0:0:0:
182,192,240058,1,2,0:0:0:0:
256,192,240058,1,0,0:0:0:0:
475,192,240058,1,0,0:0:0:0:
109,192,240223,1,2,0:0:0:0:
329,192,240223,1,0,0:0:0:0:
402,192,240223,1,0,0:0:0:0:
109,192,240306,1,0,0:0:0:0:
182,192,240389,128,8,240555:0:0:0:0:
256,192,240389,128,0,240555:0:0:0:0:
475,192,240389,1,0,0:0:0:0:
36,192,240555,128,2,240886:0:0:0:0:
329,192,240555,1,2,2:3:0:0:
475,192,240555,128,0,241384:0:0:0:0:
109,192,240721,1,8,0:0:0:0:
256,192,240721,1,0,0:0:0:0:
402,192,240721,1,0,0:0:0:0:
109,192,240886,1,2,0:0:0:0:
182,192,240886,128,0,241052:0:0:0:0:
329,192,240886,1,0,0:0:0:0:
256,192,240969,128,0,241052:0:0:0:0:
36,192,241052,128,2,241218:0:0:0:0:
329,192,241052,1,0,0:0:0:0:
402,192,241052,1,0,0:0:0:0:
109,192,241218,128,8,241384:0:0:0:0:
256,192,241218,1,0,0:0:0:0:
402,192,241218,1,0,0:0:0:0:
36,192,241384,1,2,0:0:0:0:
182,192,241384,1,0,0:0:0:0:
329,192,241384,1,0,0:0:0:0:
109,192,241549,1,2,0:0:0:0:
256,192,241549,128,0,241715:0:0:0:0:
475,192,241549,1,0,0:0:0:0:
36,192,241715,1,8,0:0:0:0:
182,192,241715,128,0,241881:0:0:0:0:
329,192,241715,1,0,0:0:0:0:
402,192,241798,1,0,0:0:0:70:LR_Tom Hit.wav
109,192,241881,128,0,242047:0:0:0:70:LR_Tom Hit 2.wav
256,192,241881,1,0,0:0:0:0:
475,192,241881,1,0,0:0:0:0:
329,192,241964,1,0,0:0:0:70:LR_Tom Hit 3.wav
36,192,242047,128,4,242212:0:0:0:0:
182,192,242047,1,2,0:0:0:0:
256,192,242047,1,0,0:0:0:0:
402,192,242047,1,0,0:0:0:0:
475,192,242047,128,0,242378:0:0:0:0:
109,192,242212,1,2,0:0:0:0:
182,192,242212,1,0,0:0:0:0:
329,192,242212,1,0,0:0:0:0:
256,192,242295,1,0,0:0:0:0:
109,192,242378,128,8,242544:0:0:0:0:
329,192,242378,1,0,0:0:0:0:
402,192,242378,128,0,242544:0:0:0:0:
36,192,242544,128,2,242875:0:0:0:0:
256,192,242544,128,0,242710:0:0:0:0:
182,192,242710,1,2,0:0:0:0:
329,192,242710,1,0,0:0:0:0:
475,192,242710,1,0,0:0:0:0:
109,192,242875,128,2,243041:0:0:0:0:
256,192,242875,1,0,0:0:0:0:
402,192,242875,1,0,0:0:0:0:
182,192,243041,128,8,243207:0:0:0:0:
329,192,243041,1,0,0:0:0:0:
475,192,243041,1,0,0:0:0:0:
36,192,243207,1,2,2:3:0:0:
256,192,243207,128,0,243372:0:0:0:0:
109,192,243372,1,2,0:0:0:0:
329,192,243372,128,0,243455:0:0:0:0:
402,192,243372,1,0,0:0:0:0:
475,192,243372,128,0,243455:0:0:0:0:
36,192,243455,128,0,243538:0:0:0:0:
182,192,243455,128,0,243538:0:0:0:0:
256,192,243538,1,2,0:0:0:0:
329,192,243538,128,0,243621:0:0:0:0:
402,192,243538,1,0,0:0:0:0:
475,192,243538,128,0,243621:0:0:0:0:
36,192,243621,128,0,243704:0:0:0:0:
182,192,243621,128,0,243704:0:0:0:0:
256,192,243704,128,0,243787:0:0:0:0:
475,192,243704,128,0,243787:0:0:0:0:
36,192,243787,128,0,243870:0:0:0:0:
329,192,243787,128,0,243870:0:0:0:0:
402,192,243870,128,0,243953:0:0:0:0:
475,192,243870,128,0,243953:0:0:0:0:
36,192,243953,128,0,244035:0:0:0:0:
109,192,243953,128,0,244035:0:0:0:0:
182,192,244035,128,0,244118:0:0:0:0:
475,192,244035,128,0,244201:0:0:0:0:
256,192,244118,128,0,244201:0:0:0:0:
36,192,244201,128,0,244367:0:0:0:0:
329,192,244201,128,0,244284:0:0:0:0:
402,192,244284,128,0,244367:0:0:0:0:
109,192,244367,128,0,244533:0:0:0:0:
256,192,244367,128,0,244533:0:0:0:0:
475,192,244367,128,0,244698:0:0:0:0:
182,192,244533,128,0,244698:0:0:0:0:
36,192,244698,1,4,0:0:0:0:
109,192,244698,128,2,244864:0:0:0:0:
256,192,244698,1,0,0:0:0:0:
329,192,244698,128,0,245030:0:0:0:0:
402,192,244698,1,0,0:0:0:0:
182,192,244864,1,2,0:0:0:0:
475,192,244864,1,2,2:3:0:0:
36,192,245030,128,8,245113:0:0:0:0:
256,192,245030,1,0,0:0:0:0:
402,192,245030,1,0,0:0:0:0:
182,192,245113,1,0,0:0:0:0:
36,192,245196,128,2,247350:0:0:0:0:
402,192,245196,1,0,0:0:0:0:
475,192,245196,1,0,0:0:0:0:
182,192,245279,1,0,0:0:0:0:
256,192,245279,1,0,0:0:0:0:
109,192,245361,1,2,0:0:0:0:
329,192,245361,1,0,0:0:0:0:
402,192,245361,1,0,0:0:0:0:
475,192,245361,1,0,0:0:0:0:
182,192,245527,1,2,0:0:0:0:
329,192,245527,1,0,0:0:0:0:
109,192,245693,1,8,0:0:0:0:
256,192,245693,1,0,0:0:0:0:
402,192,245693,1,0,0:0:0:0:
475,192,245693,1,0,0:0:0:0:
182,192,245859,1,2,2:3:0:0:
329,192,245859,1,0,0:0:0:0:
109,192,246024,1,2,0:0:0:0:
182,192,246024,1,0,0:0:0:0:
402,192,246024,1,0,0:0:0:0:
475,192,246024,1,0,0:0:0:0:
256,192,246190,1,2,0:0:0:0:
329,192,246190,1,0,0:0:0:0:
109,192,246356,1,8,0:0:0:0:
182,192,246356,1,0,0:0:0:0:
329,192,246356,1,0,0:0:0:0:
475,192,246356,1,0,0:0:0:0:
256,192,246522,1,2,0:0:0:0:
475,192,246522,1,0,0:0:0:0:
329,192,246605,1,0,0:0:0:0:
402,192,246605,1,0,0:0:0:0:
109,192,246687,1,2,0:0:0:0:
182,192,246687,1,0,0:0:0:0:
256,192,246687,1,0,0:0:0:0:
475,192,246687,1,0,0:0:0:0:
109,192,246853,1,2,0:0:0:0:
402,192,246853,1,0,0:0:0:0:
182,192,247019,1,8,0:0:0:0:
256,192,247019,1,0,0:0:0:0:
329,192,247019,1,0,0:0:0:0:
475,192,247019,1,0,0:0:0:0:
329,192,247185,1,2,2:3:0:0:
109,192,247350,1,2,0:0:0:0:
256,192,247350,1,0,0:0:0:0:
402,192,247350,1,0,0:0:0:0:
475,192,247350,1,0,0:0:0:0:
182,192,247516,128,2,247599:0:0:0:0:
475,192,247516,1,0,0:0:0:0:
109,192,247599,128,0,247682:0:0:0:0:
402,192,247599,1,0,0:0:0:0:
36,192,247682,128,8,247765:0:0:0:0:
329,192,247682,1,0,0:0:0:0:
256,192,247765,1,0,0:0:0:0:
475,192,247765,128,0,247848:0:0:0:0:
182,192,247848,1,2,0:0:0:0:
402,192,247848,128,0,247931:0:0:0:0:
109,192,247931,1,0,0:0:0:0:
329,192,247931,128,0,248013:0:0:0:0:
36,192,248013,128,2,248179:0:0:0:0:
182,192,248013,1,0,0:0:0:0:
256,192,248013,1,0,0:0:0:0:
475,192,248013,128,0,248179:0:0:0:0:
182,192,248179,1,2,0:0:0:0:
402,192,248179,128,0,248262:0:0:0:0:
109,192,248262,1,0,0:0:0:0:
329,192,248262,128,0,248345:0:0:0:0:
36,192,248345,1,8,0:0:0:0:
256,192,248345,128,0,248428:0:0:0:0:
182,192,248428,128,0,248511:0:0:0:0:
475,192,248428,1,0,0:0:0:0:
109,192,248511,128,2,248593:0:0:0:0:
402,192,248511,1,0,0:0:0:0:
36,192,248593,128,0,248676:0:0:0:0:
329,192,248593,1,0,0:0:0:0:
256,192,248676,128,2,248759:0:0:0:0:
475,192,248676,1,0,0:0:0:0:
36,192,248759,1,0,0:0:0:0:
329,192,248759,128,0,248842:0:0:0:0:
109,192,248842,1,2,0:0:0:0:
402,192,248842,128,0,248925:0:0:0:0:
182,192,248925,128,0,249008:0:0:0:0:
256,192,248925,1,0,0:0:0:0:
109,192,249008,128,8,249091:0:0:0:0:
329,192,249008,1,0,0:0:0:0:
36,192,249091,128,0,249174:0:0:0:0:
402,192,249091,1,0,0:0:0:0:
256,192,249174,128,2,249256:0:0:0:0:
475,192,249174,1,0,0:0:0:0:
109,192,249256,128,0,249339:0:0:0:0:
329,192,249256,1,0,0:0:0:0:
182,192,249339,128,8,249422:0:0:0:0:
402,192,249339,1,0,0:0:0:0:
256,192,249422,128,0,249505:0:0:0:0:
475,192,249422,1,0,0:0:0:0:
36,192,249505,1,2,0:0:0:0:
329,192,249505,128,0,249588:0:0:0:0:
109,192,249588,1,0,0:0:0:0:
402,192,249588,128,0,249671:0:0:0:0:
36,192,249671,1,8,0:0:0:0:
182,192,249671,128,0,249837:0:0:0:0:
256,192,249671,1,0,0:0:0:0:
475,192,249671,128,0,249837:0:0:0:0:
329,192,249837,1,2,2:3:0:0:
36,192,250002,1,4,0:0:0:0:
109,192,250002,1,2,0:0:0:0:
256,192,250002,1,0,0:0:0:0:
402,192,250002,1,0,0:0:0:0:
475,192,250002,1,0,0:0:0:0:
36,192,250168,1,2,0:0:0:0:
182,192,250168,1,0,0:0:0:0:
329,192,250168,128,0,250334:0:0:0:0:
475,192,250168,128,0,250334:0:0:0:0:
182,192,250334,128,8,250417:0:0:0:0:
36,192,250417,128,0,250500:0:0:0:0:
256,192,250417,1,0,0:0:0:0:
475,192,250417,1,0,0:0:0:0:
109,192,250500,128,2,250582:0:0:0:0:
329,192,250500,1,0,0:0:0:0:
182,192,250582,128,0,250665:0:0:0:0:
402,192,250582,1,0,0:0:0:0:
36,192,250665,1,2,0:0:0:0:
256,192,250665,128,0,250748:0:0:0:0:
475,192,250665,128,0,250831:0:0:0:0:
109,192,250748,1,0,0:0:0:0:
182,192,250831,1,2,0:0:0:0:
402,192,250831,128,0,250914:0:0:0:0:
36,192,250914,128,0,251080:0:0:0:0:
256,192,250914,1,0,0:0:0:0:
475,192,250914,1,0,0:0:0:0:
109,192,250997,1,8,0:0:0:0:
329,192,250997,1,0,0:0:0:0:
182,192,251080,1,0,0:0:0:0:
256,192,251163,1,2,2:3:0:0:
402,192,251163,1,0,0:0:0:0:
475,192,251163,128,0,251328:0:0:0:0:
36,192,251328,128,2,251494:0:0:0:0:
109,192,251328,1,0,0:0:0:0:
329,192,251328,1,0,0:0:0:0:
256,192,251494,1,0,0:0:0:0:
402,192,251494,1,2,0:0:0:0:
36,192,251577,128,0,251743:0:0:0:0:
329,192,251577,128,0,251743:0:0:0:0:
475,192,251577,1,0,0:0:0:0:
182,192,251660,1,8,0:0:0:0:
109,192,251660,1,0,0:0:0:0:
475,192,251743,1,0,0:0:0:0:
36,192,251826,1,2,0:0:0:0:
109,192,251826,128,0,251908:0:0:0:0:
182,192,251826,128,0,251908:0:0:0:0:
402,192,251826,1,0,0:0:0:0:
256,192,251908,1,0,0:0:0:0:
329,192,251908,1,8,0:0:0:0:
109,192,251991,1,2,0:0:0:0:
182,192,251991,1,0,0:0:0:0:
402,192,251991,128,0,252074:0:0:0:0:
475,192,251991,128,0,252074:0:0:0:0:
36,192,252157,128,2,252240:0:0:0:0:
109,192,252157,128,0,252240:0:0:0:0:
402,192,252157,1,0,0:0:0:0:
475,192,252157,1,0,0:0:0:0:
36,192,252323,1,8,0:0:0:0:
109,192,252323,1,0,0:0:0:0:
402,192,252323,128,0,252489:0:0:0:0:
475,192,252323,128,0,252489:0:0:0:0:
256,192,252489,1,2,2:3:0:0:
329,192,252489,1,2,0:0:0:0:
109,192,252571,1,0,0:0:0:0:
182,192,252571,1,0,0:0:0:0:
36,192,252654,128,2,252820:0:0:0:0:
256,192,252654,128,0,252820:0:0:0:0:
329,192,252654,1,0,0:0:0:0:
475,192,252654,1,0,0:0:0:0:
402,192,252737,1,0,0:0:0:0:
182,192,252820,128,2,252903:0:0:0:0:
475,192,252820,1,0,0:0:0:0:
109,192,252903,128,0,252986:0:0:0:0:
329,192,252903,1,0,0:0:0:0:
36,192,252986,128,8,253069:0:0:0:0:
402,192,252986,1,0,0:0:0:0:
256,192,253069,128,0,253152:0:0:0:0:
475,192,253069,1,0,0:0:0:0:
182,192,253152,1,2,0:0:0:0:
329,192,253152,128,0,253234:0:0:0:0:
109,192,253234,1,0,0:0:0:0:
402,192,253234,128,0,253317:0:0:0:0:
36,192,253317,128,8,253400:0:0:0:0:
475,192,253317,128,0,253400:0:0:0:0:
109,192,253400,128,0,253483:0:0:0:0:
329,192,253400,1,0,0:0:0:0:
182,192,253483,128,2,253566:0:0:0:0:
402,192,253483,1,0,0:0:0:0:
256,192,253566,128,0,253649:0:0:0:0:
475,192,253566,1,0,0:0:0:0:
36,192,253649,1,8,0:0:0:0:
109,192,253649,1,0,0:0:0:70:LR_Tom Hit.wav
329,192,253732,128,0,253814:0:0:0:70:LR_Tom Hit.wav
475,192,253732,1,0,0:0:0:0:
109,192,253814,1,0,0:0:0:70:LR_Tom Hit 2.wav
256,192,253814,1,0,0:0:0:0:
329,192,253897,1,0,0:0:0:70:LR_Tom Hit 3.wav
475,192,253897,128,0,253980:0:0:0:0:
36,192,253980,1,2,0:0:0:0:
109,192,253980,1,4,0:0:0:0:
182,192,253980,1,0,0:0:0:0:
256,192,253980,1,0,0:0:0:0:
402,192,253980,1,0,0:0:0:0:
36,192,254146,128,2,254312:0:0:0:0:
109,192,254146,128,4,254312:0:0:0:0:
182,192,254146,128,0,254312:0:0:0:0:
256,192,254146,128,0,254312:0:0:0:0:
402,192,254146,128,0,254312:0:0:0:0:
36,192,254477,128,2,254809:0:0:0:0:
109,192,254477,128,4,254809:0:0:0:0:
182,192,254477,1,0,0:0:0:0:
329,192,254477,1,0,0:0:0:0:
402,192,254477,128,0,254809:0:0:0:0:
475,192,254477,128,0,254809:0:0:0:0:
182,192,254809,1,2,0:0:0:0:
329,192,254809,1,0,0:0:0:0:
256,192,254975,1,0,0:0:0:70:LR_Tom Hit.wav
475,192,254975,1,0,0:0:0:0:
329,192,255058,1,0,0:0:0:70:LR_Tom Hit.wav
402,192,255058,1,0,0:0:0:0:
36,192,255140,1,0,0:0:0:70:LR_Tom Hit 2.wav
256,192,255140,1,0,0:0:0:0:
109,192,255223,1,0,0:0:0:70:LR_Tom Hit 3.wav
182,192,255223,1,0,0:0:0:0:
36,192,255306,128,4,255638:0:0:0:0:
256,192,255306,1,2,0:0:0:0:
329,192,255306,1,0,0:0:0:0:
402,192,255306,128,0,255472:0:0:0:0:
475,192,255306,1,0,0:0:0:0:
109,192,255472,1,2,0:0:0:0:
329,192,255472,1,0,0:0:0:0:
182,192,255638,128,8,255803:0:0:0:0:
402,192,255638,1,0,0:0:0:0:
475,192,255638,1,0,0:0:0:0:
36,192,255803,1,2,0:0:0:0:
256,192,255803,1,0,0:0:0:0:
329,192,255803,128,0,255969:0:0:0:0:
109,192,255886,1,0,0:0:0:0:
182,192,255969,1,2,0:0:0:0:
402,192,255969,1,0,0:0:0:0:
475,192,255969,128,0,256135:0:0:0:0:
109,192,256135,1,2,0:0:0:0:
329,192,256135,1,0,0:0:0:0:
36,192,256301,1,8,0:0:0:0:
256,192,256301,1,0,0:0:0:0:
402,192,256301,128,0,256466:0:0:0:0:
182,192,256466,128,2,256632:2:3:0:0:
329,192,256466,1,0,0:0:0:0:
475,192,256466,1,0,0:0:0:0:
36,192,256632,128,2,256964:0:0:0:0:
109,192,256632,1,0,0:0:0:0:
256,192,256632,128,0,256798:0:0:0:0:
402,192,256632,1,0,0:0:0:0:
329,192,256798,1,2,0:0:0:0:
475,192,256798,1,0,0:0:0:0:
109,192,256964,1,8,0:0:0:0:
182,192,256964,128,0,257295:0:0:0:0:
329,192,256964,1,0,0:0:0:0:
475,192,256964,128,0,257129:0:0:0:0:
36,192,257129,1,2,0:0:0:0:
402,192,257129,1,0,0:0:0:0:
329,192,257212,1,0,0:0:0:0:
109,192,257295,128,2,257461:0:0:0:0:
256,192,257295,1,0,0:0:0:0:
402,192,257295,128,0,257627:0:0:0:0:
475,192,257295,1,0,0:0:0:0:
182,192,257461,1,2,0:0:0:0:
329,192,257461,1,0,0:0:0:0:
109,192,257627,1,8,0:0:0:0:
256,192,257627,128,0,257958:0:0:0:0:
329,192,257627,128,0,257792:0:0:0:0:
475,192,257627,1,0,0:0:0:0:
36,192,257792,1,2,2:3:0:0:
182,192,257792,1,0,0:0:0:0:
36,192,257958,1,2,0:0:0:0:
182,192,257958,1,0,0:0:0:0:
402,192,257958,1,0,0:0:0:0:
475,192,257958,1,0,0:0:0:0:
109,192,258124,128,2,258207:0:0:0:0:
329,192,258124,1,0,0:0:0:0:
182,192,258207,128,0,258290:0:0:0:0:
402,192,258207,1,0,0:0:0:0:
36,192,258290,1,8,0:0:0:0:
256,192,258290,128,0,258372:0:0:0:0:
475,192,258290,128,0,258372:0:0:0:0:
109,192,258372,1,0,0:0:0:0:
402,192,258372,128,0,258455:0:0:0:0:
182,192,258455,1,2,0:0:0:0:
329,192,258455,128,0,258538:0:0:0:0:
256,192,258538,128,0,258621:0:0:0:0:
475,192,258538,1,0,0:0:0:0:
36,192,258621,128,2,258704:0:0:0:0:
402,192,258621,1,0,0:0:0:0:
109,192,258704,128,0,258787:0:0:0:0:
329,192,258704,1,0,0:0:0:0:
182,192,258787,128,2,258870:0:0:0:0:
402,192,258787,1,0,0:0:0:0:
256,192,258870,128,0,258953:0:0:0:0:
475,192,258870,1,0,0:0:0:0:
36,192,258953,128,8,259118:0:0:0:0:
109,192,258953,1,0,0:0:0:0:
402,192,258953,1,0,0:0:0:0:
182,192,259035,1,0,0:0:0:0:
256,192,259118,128,2,259284:0:0:0:0:
329,192,259118,1,0,0:0:0:0:
475,192,259118,1,0,0:0:0:0:
36,192,259284,1,8,0:0:0:0:
109,192,259284,1,0,0:0:0:0:
182,192,259284,1,0,0:0:0:0:
329,192,259284,128,0,259450:0:0:0:0:
475,192,259284,128,0,259450:0:0:0:0:
256,192,259450,1,2,0:0:0:0:
402,192,259450,1,0,0:0:0:0:
36,192,259616,1,2,0:0:0:0:
109,192,259616,1,0,0:0:0:0:
256,192,259616,128,0,259781:0:0:0:0:
402,192,259616,128,0,259781:0:0:0:0:
475,192,259616,1,0,0:0:0:0:
36,192,259781,1,8,0:0:0:0:
182,192,259781,1,0,0:0:0:0:
329,192,259781,1,0,0:0:0:0:
36,192,259947,1,2,0:0:0:0:
182,192,259947,128,0,260113:0:0:0:0:
256,192,259947,1,0,0:0:0:0:
329,192,259947,128,0,260113:0:0:0:0:
402,192,259947,1,0,0:0:0:0:
109,192,260113,128,2,260279:0:0:0:0:
475,192,260113,1,0,0:0:0:0:
402,192,260196,1,0,0:0:0:0:
36,192,260279,1,8,0:0:0:0:
256,192,260279,128,0,260444:0:0:0:70:LR_Tom Hit.wav
329,192,260279,1,0,0:0:0:0:
109,192,260361,1,0,0:0:0:0:
182,192,260444,1,2,2:3:0:0:
402,192,260444,128,0,260610:0:0:0:0:
256,192,260527,1,0,0:0:0:0:
36,192,260610,128,4,260776:0:0:0:0:
109,192,260610,1,2,0:0:0:0:
182,192,260610,1,0,0:0:0:0:
329,192,260610,1,0,0:0:0:0:
475,192,260610,128,0,260942:0:0:0:0:
109,192,260776,1,2,0:0:0:0:
182,192,260776,1,0,0:0:0:0:
329,192,260776,1,0,0:0:0:0:
256,192,260859,1,0,0:0:0:0:
36,192,260942,1,8,0:0:0:0:
109,192,260942,1,0,0:0:0:0:
329,192,260942,128,0,261107:0:0:0:0:
402,192,260942,128,0,261439:0:0:0:0:
36,192,261107,128,2,261439:2:3:0:0:
182,192,261107,1,0,0:0:0:0:
109,192,261273,1,2,0:0:0:0:
256,192,261273,1,0,0:0:0:0:
475,192,261273,1,0,0:0:0:0:
109,192,261439,1,2,0:0:0:0:
182,192,261439,1,0,0:0:0:0:
329,192,261439,128,0,261770:0:0:0:0:
36,192,261605,128,8,261770:0:0:0:0:
256,192,261605,1,0,0:0:0:0:
402,192,261605,1,0,0:0:0:0:
475,192,261605,1,0,0:0:0:0:
109,192,261770,1,2,2:3:0:0:
182,192,261770,128,0,261936:0:0:0:0:
256,192,261936,1,2,0:0:0:0:
329,192,261936,1,0,0:0:0:0:
402,192,261936,128,0,262019:0:0:0:0:
475,192,261936,128,0,262019:0:0:0:0:
36,192,262019,128,0,262102:0:0:0:0:
109,192,262019,128,0,262102:0:0:0:0:
256,192,262102,1,2,0:0:0:0:
329,192,262102,1,0,0:0:0:0:
402,192,262102,128,0,262185:0:0:0:0:
475,192,262102,128,0,262185:0:0:0:0:
36,192,262185,128,0,262268:0:0:0:0:
109,192,262185,128,0,262268:0:0:0:0:
402,192,262268,128,0,262350:0:0:0:0:
475,192,262268,128,0,262350:0:0:0:0:
36,192,262350,128,0,262433:0:0:0:0:
109,192,262350,128,0,262433:0:0:0:0:
402,192,262433,128,0,262516:0:0:0:0:
475,192,262433,128,0,262516:0:0:0:0:
36,192,262516,128,0,262599:0:0:0:0:
109,192,262516,128,0,262599:0:0:0:0:
402,192,262599,128,0,262682:0:0:0:0:
475,192,262599,128,0,262682:0:0:0:0:
36,192,262682,128,0,262765:0:0:0:0:
109,192,262682,128,0,262765:0:0:0:0:
402,192,262765,128,0,262848:0:0:0:0:
475,192,262765,128,0,262848:0:0:0:0:
36,192,262848,128,0,262931:0:0:0:0:
109,192,262848,128,0,262931:0:0:0:0:
402,192,262931,128,0,263013:0:0:0:0:
475,192,262931,128,0,263013:0:0:0:0:
36,192,263013,128,0,263096:0:0:0:0:
109,192,263013,128,0,263096:0:0:0:0:
402,192,263096,128,0,263179:0:0:0:0:
475,192,263096,128,0,263179:0:0:0:0:
36,192,263179,128,0,263262:0:0:0:0:
109,192,263179,128,0,263262:0:0:0:0:
402,192,263262,128,0,263345:0:0:0:0:
475,192,263262,128,0,263345:0:0:0:0:
36,192,263345,128,0,263428:0:0:0:0:
109,192,263345,128,0,263428:0:0:0:0:
402,192,263428,128,0,263511:0:0:0:0:
475,192,263428,128,0,263511:0:0:0:0:
36,192,263511,128,0,263593:0:0:0:0:
109,192,263511,128,0,263593:0:0:0:0:
402,192,263593,128,0,263676:0:0:0:0:
475,192,263593,128,0,263676:0:0:0:0:
36,192,263676,128,0,263759:0:0:0:0:
109,192,263676,128,0,263759:0:0:0:0:
402,192,263759,128,0,263842:0:0:0:0:
475,192,263759,128,0,263842:0:0:0:0:
36,192,263842,128,0,263925:0:0:0:0:
109,192,263842,128,0,263925:0:0:0:0:
402,192,263925,128,0,264091:0:0:0:0:
475,192,263925,128,0,264091:0:0:0:0:
109,192,264091,128,0,264256:0:0:0:0:
256,192,264091,128,0,264256:0:0:0:0:
329,192,264256,128,0,264422:0:0:0:0:
475,192,264256,128,0,264422:0:0:0:0:
182,192,264339,128,0,264422:0:0:0:0:
36,192,264422,128,0,264588:0:0:0:0:
109,192,264422,128,0,264588:0:0:0:0:
182,192,264588,128,2,264754:0:0:0:0:
256,192,264588,128,4,264837:0:0:0:0:
329,192,264588,128,0,264919:0:0:0:0:
402,192,264588,128,0,267240:0:0:0:0:
475,192,264588,128,0,269892:0:0:0:0:
36,192,264919,128,0,265002:0:0:0:0:
109,192,264919,128,0,265002:0:0:0:0:
36,192,265085,128,0,269892:0:0:0:0:
109,192,265085,128,0,267240:0:0:0:0:
329,192,266245,128,0,266328:0:0:0:0:
182,192,266328,128,0,266411:0:0:0:0:
329,192,266411,128,0,266494:0:0:0:0:
182,192,266494,128,0,266577:0:0:0:0:
329,192,266577,128,0,266660:0:0:0:0:
182,192,266660,128,0,266743:0:0:0:0:
329,192,266743,128,0,266826:0:0:0:0:
182,192,266826,128,0,266908:0:0:0:0:
329,192,266908,128,0,266991:0:0:0:0:
182,192,266991,128,0,267074:0:0:0:0:
329,192,267074,128,0,267157:0:0:0:0:
182,192,267157,128,0,267240:0:0:0:0:
256,192,267240,1,0,0:0:0:0:
182,192,267406,1,0,0:0:0:0:
109,192,267571,1,0,0:0:0:0:
329,192,267737,1,0,0:0:0:0:
402,192,267737,1,0,0:0:0:0:
256,192,267903,1,0,0:0:0:0:
182,192,268069,1,0,0:0:0:0:
109,192,268234,1,0,0:0:0:0:
402,192,268234,1,0,0:0:0:0:
329,192,268400,1,0,0:0:0:0:
256,192,268566,1,0,0:0:0:0:
182,192,268732,1,0,0:0:0:0:
402,192,268732,1,0,0:0:0:0:
109,192,268897,1,0,0:0:0:0:
329,192,269063,1,8,0:0:0:0:
182,192,269146,1,8,0:0:0:0:
329,192,269229,1,8,0:0:0:0:
109,192,269312,1,8,0:0:0:0:
182,192,269312,1,0,0:0:0:0:
329,192,269395,1,8,0:0:0:0:
402,192,269395,1,0,0:0:0:0:
109,192,269477,1,8,0:0:0:0:
182,192,269477,1,0,0:0:0:0:
329,192,269560,1,8,0:0:0:0:
402,192,269560,1,0,0:0:0:0:
109,192,269643,1,8,0:0:0:0:
182,192,269643,1,0,0:0:0:0:
329,192,269726,1,8,0:0:0:0:
402,192,269726,1,0,0:0:0:0:
109,192,269809,1,8,0:0:0:0:
182,192,269809,1,0,0:0:0:0:
256,192,269892,1,8,0:0:0:0:
329,192,269892,1,2,0:0:0:0:
402,192,269892,1,0,0:0:0:0:
182,192,270223,1,0,3:3:0:0:
182,192,270334,1,0,0:0:0:0:
329,192,270334,1,0,3:3:0:0:
256,192,270444,1,0,0:0:0:0:
329,192,270444,1,0,3:3:0:0:
182,192,270527,128,0,272102:0:0:0:0:
109,192,270555,128,0,272129:0:0:0:0:
475,192,270555,128,0,272129:3:3:0:0:
36,192,270582,128,0,272157:0:0:0:0:
402,192,270582,128,0,272157:0:0:0:0:
329,192,270610,128,0,272185:0:0:0:0:
182,192,272185,128,0,272268:0:0:0:0:
109,192,272212,128,0,272295:0:0:0:0:
475,192,272212,128,0,272295:0:0:0:0:
36,192,272240,128,0,272323:0:0:0:0:
402,192,272240,128,0,272323:0:0:0:0:
329,192,272268,128,0,272350:0:0:0:0:
182,192,272350,128,0,272544:0:0:0:0:
109,192,272378,128,0,272544:0:0:0:0:
475,192,272378,128,0,272544:0:0:0:0:
36,192,272406,128,0,272544:0:0:0:0:
402,192,272406,128,0,272544:0:0:0:0:
329,192,272433,128,0,272544:0:0:0:0:
475,192,272875,1,0,0:0:0:0:
256,192,272931,1,0,0:0:0:0:
402,192,272986,1,0,0:0:0:0:
