osu file format v14

[General]
AudioFilename: audio.mp3
AudioLeadIn: 0
PreviewTime: 30364
Countdown: 0
SampleSet: Soft
StackLeniency: 0.7
Mode: 0
LetterboxInBreaks: 0
WidescreenStoryboard: 1

[Editor]
DistanceSpacing: 0.7
BeatDivisor: 8
GridSize: 4
TimelineZoom: 1.4

[Metadata]
Title:Mamono
TitleUnicode:魔物
Artist:Chroma
ArtistUnicode:黒魔
Creator:sorciere
Version:Chant
Source:
Tags:五つの物語
BeatmapID:1575777
BeatmapSetID:623214

[Difficulty]
HPDrainRate:7
CircleSize:5.5
OverallDifficulty:7
ApproachRate:8
SliderMultiplier:2
SliderTickRate:1

[Events]
//Background and Video events
0,0,"4262043 - 1.jpg",0,0
//Break Periods
2,28277,29470
2,81265,83431
2,224640,226808
2,250355,252522
2,280744,282912
2,286589,289146
//Storyboard Layer 0 (Background)
//Storyboard Layer 1 (Fail)
//Storyboard Layer 2 (Pass)
//Storyboard Layer 3 (Foreground)
//Storyboard Layer 4 (Overlay)
//Storyboard Sound Samples

[TimingPoints]
26,779.220779220779,4,2,2,100,1,0
3142,-200,4,2,2,30,0,0
24961,-200,4,2,5,10,0,0
31194,-66.6666666666667,4,1,2,70,0,0
35870,-100,4,1,2,70,0,0
36649,-66.6666666666667,4,1,2,70,0,0
42104,-100,4,1,2,70,0,0
42883,-200,4,1,2,70,0,0
43662,-100,4,2,2,50,0,0
64506,-200,4,2,2,40,0,0
65480,-66.6666666666667,4,1,2,70,0,0
67039,-100,4,1,2,70,0,0
67818,-66.6666666666667,4,1,2,70,0,0
68207,-66.6666666666667,4,1,2,30,0,0
68305,-66.6666666666667,4,1,2,40,0,0
68402,-66.6666666666667,4,1,2,50,0,0
68500,-66.6666666666667,4,1,2,60,0,0
68597,-66.6666666666667,4,1,2,70,0,0
70545,-100,4,1,2,70,0,0
70935,-66.6666666666667,4,1,2,70,0,0
73078,-100,4,1,2,70,0,0
74052,-66.6666666666667,4,1,2,70,0,0
74441,-66.6666666666667,4,1,2,30,0,0
74539,-66.6666666666667,4,1,2,40,0,0
74636,-66.6666666666667,4,1,2,50,0,0
74733,-66.6666666666667,4,1,2,60,0,0
74831,-66.6666666666667,4,1,2,70,0,0
77948,-133.333333333333,4,2,2,40,0,0
84181,-133.333333333333,4,2,5,10,0,0
87298,-133.333333333333,4,2,5,20,0,0
88857,-133.333333333333,4,2,2,70,0,0
89246,-80,4,2,2,40,0,0
89636,-133.333333333333,4,2,2,70,0,0
90026,-57.1428571428571,4,2,2,40,0,0
90415,-100,4,1,2,50,0,0
96649,-133.333333333333,4,2,5,20,0,0
101324,-133.333333333333,4,2,2,40,0,0
101714,-133.333333333333,4,2,2,50,0,0
102104,-133.333333333333,4,2,2,60,0,0
102493,-133.333333333333,4,2,2,70,0,0
102883,-133.333333333333,4,2,2,100,0,0
103857,-133.333333333333,4,2,2,20,0,0
106779,-80,4,1,2,70,0,1
118077,-133.333333333333,4,1,2,70,0,1
118467,-80,4,1,2,70,0,1
124311,-66.6666666666667,4,1,2,70,0,1
124701,-50,4,2,2,100,0,0
125090,-50,4,2,2,20,0,0
126259,-50,4,2,2,100,0,0
126649,-50,4,2,2,20,0,0
127818,-133.333333333333,4,2,5,10,0,0
130935,-66.6666666666667,4,1,2,70,0,0
135610,-100,4,1,2,70,0,0
136389,-66.6666666666667,4,1,2,70,0,0
141844,-100,4,1,2,70,0,0
142623,-200,4,2,2,30,0,0
165220,-66.6666666666667,4,1,2,70,0,0
166779,-100,4,1,2,70,0,0
167558,-66.6666666666667,4,1,2,70,0,0
167948,-66.6666666666667,4,1,2,30,0,0
168045,-66.6666666666667,4,1,2,40,0,0
168142,-66.6666666666667,4,1,2,50,0,0
168240,-66.6666666666667,4,1,2,60,0,0
168337,-66.6666666666667,4,1,2,70,0,0
170285,-100,4,1,2,70,0,0
170675,-66.6666666666667,4,1,2,70,0,0
172818,-100,4,1,2,70,0,0
173792,-66.6666666666667,4,1,2,70,0,0
174181,-66.6666666666667,4,1,2,30,0,0
174279,-66.6666666666667,4,1,2,40,0,0
174376,-66.6666666666667,4,1,2,50,0,0
174474,-66.6666666666667,4,1,2,60,0,0
174571,-66.6666666666667,4,1,2,70,0,0
177688,-100,4,2,2,50,0,0
180415,-100,4,2,2,20,0,0
180513,-100,4,2,2,25,0,0
180610,-100,4,2,2,30,0,0
180707,-100,4,2,2,40,0,0
180805,-100,4,2,2,50,0,0
190155,-80,4,2,2,60,0,0
199506,-80,4,2,2,80,0,0
202623,-66.6666666666667,4,1,2,70,0,0
210415,-80,4,1,2,50,0,0
211194,-100,4,1,2,30,0,0
211974,-100,4,1,2,70,0,0
215090,-133.333333333333,4,2,5,10,0,0
227558,-200,4,2,2,30,0,0
246649,-200,4,2,2,35,0,0
247039,-200,4,2,2,40,0,0
247428,-200,4,2,2,45,0,0
247818,-200,4,2,2,50,0,0
248207,-200,4,2,2,55,0,0
248597,-200,4,2,2,60,0,0
248987,-200,4,2,2,65,0,0
249376,-200,4,2,2,70,0,0
250155,-200,4,2,2,20,0,0
252103,-133.333333333333,4,2,2,40,0,0
253272,-80,4,1,2,70,0,1
264571,-133.333333333333,4,1,2,70,0,1
264961,-80,4,1,2,70,0,1
270805,-66.6666666666667,4,1,2,70,0,1
271194,-50,4,2,2,100,0,0
271584,-50,4,2,2,20,0,0
272753,-50,4,2,2,100,0,0
273142,-50,4,2,2,20,0,0
274311,-133.333333333333,4,2,5,10,0,0
283662,-133.333333333333,4,2,2,50,0,0
284052,-133.333333333333,4,2,2,40,0,0
284441,-133.333333333333,4,2,2,30,0,0
284831,-133.333333333333,4,2,2,20,0,0
285220,-133.333333333333,4,2,2,10,0,0
285610,-133.333333333333,4,2,2,5,0,0
289896,-100,4,2,2,30,0,0
290577,-100,4,2,2,10,0,0
290675,-80,4,2,2,50,0,0
291357,-80,4,2,2,10,0,0
291454,-66.6666666666667,4,1,2,70,0,0
296130,-100,4,1,2,70,0,0
296909,-66.6666666666667,4,1,2,70,0,0
302363,-100,4,1,2,70,0,0
303532,-100,4,1,2,100,0,0
303922,-66.6666666666667,4,1,2,70,0,0
308597,-100,4,1,2,70,0,0
309376,-66.6666666666667,4,1,2,70,0,0
314831,-100,4,1,2,40,0,0
316389,-100,4,2,2,30,0,0

[Colours]
Combo1 : 255,13,19
Combo2 : 91,239,247
Combo3 : 72,146,255
Combo4 : 162,168,168
Combo5 : 250,245,71
Combo6 : 120,56,254
Combo7 : 254,101,92

[HitObjects]
280,84,3143,5,0,0:0:0:0:
312,304,3922,1,0,0:0:0:0:
348,102,4701,1,0,0:0:0:0:
372,268,5480,1,0,0:0:0:0:
440,188,6259,6,0,B|399:184|399:184|383:190|383:190|341:186,3,100,0|2|0|2,0:3|0:3|0:3|0:3,0:3:0:0:
212,92,9376,85,0,0:0:0:0:
244,312,10155,1,0,0:0:0:0:
152,128,10934,1,0,0:0:0:0:
176,294,11713,1,0,0:0:0:0:
84,208,12492,6,0,B|124:211|124:211|140:205|140:205|182:209,3,100,0|2|0|2,0:3|0:3|0:3|0:3,0:3:0:0:
312,80,15610,85,0,0:0:0:0:
276,292,16389,1,0,0:0:0:0:
288,148,17168,21,0,0:0:0:0:
300,212,17948,1,2,0:0:0:0:
192,208,18727,85,0,0:0:0:0:
408,164,19506,1,0,0:0:0:0:
300,148,20285,5,0,0:0:0:0:
286,212,21065,1,2,0:0:0:0:
280,356,21844,69,0,0:0:0:0:
284,340,22623,1,2,0:0:0:0:
305,280,23402,1,0,0:0:0:0:
309,264,24181,1,2,0:0:0:0:
327,205,24961,6,0,B|327:141|283:109|199:109|183:181|195:213|195:213|211:261|179:285|143:293|108:271|107:217,1,400
108,228,30220,6,0,L|89:236,2,12.5,0|0|8,0:0|0:0|3:0,0:0:0:0:
174,200,30610,21,0,3:0:0:0:
174,200,30805,69,4,3:0:0:0:
28,192,31194,70,0,B|112:172|88:220|176:200,1,150.000005722046,2|0,0:3|2:0,0:0:0:0:
320,180,31974,2,0,B|274:169|246:188|234:224|234:224|218:264|182:272|150:272|122:240,1,225.000008583069,8|0,0:0|2:0,0:0:0:0:
174,200,32753,37,0,0:0:0:0:
300,244,33142,1,0,0:0:0:0:
356,72,33532,2,0,P|427:78|446:144,1,150.000005722046,8|0,0:0|2:0,0:0:0:0:
300,244,34117,1,2,2:0:0:0:
370,220,34311,54,0,B|286:200|310:248|222:228,1,150.000005722046,0|0,0:0|2:0,0:0:0:0:
56,296,35091,2,0,B|68:328|100:336|128:316|132:284|132:284|136:220|104:240|112:168,1,225.000008583069,8|0,0:0|2:0,0:0:0:0:
136,111,35870,38,0,P|128:88|124:59,1,50,0|2,2:0|0:2,0:0:0:0:
250,206,36259,2,0,P|257:184|262:154,1,50,0|2,2:0|0:2,0:0:0:0:
111,173,36649,2,2,B|149:188|185:172|201:132|201:132|221:92|258:82|298:102,1,225.000008583069,2|2,1:0|2:0,0:0:0:0:
460,211,37428,54,0,P|393:235|351:179,1,150.000005722046,2|0,0:3|2:0,0:0:0:0:
429,354,38207,2,0,P|467:251|420:152,1,225.000008583069,8|0,0:0|2:0,0:0:0:0:
360,128,38987,37,0,0:0:0:0:
232,264,39376,1,0,0:0:0:0:
136,104,39766,2,0,P|60:102|-2:140,1,150.000005722046,8|0,0:0|2:0,0:0:0:0:
96,228,40350,1,2,2:0:0:0:
148,184,40545,54,0,P|78:163|29:215,1,150.000005722046,4|0,0:2|2:0,0:0:0:0:
148,344,41324,2,0,B|276:368|232:284|368:312,1,225.000008583069,2|0,0:0|2:0,0:0:0:0:
428,336,42104,38,0,P|436:308|440:284,1,50,0|2,2:0|0:2,0:0:0:0:
264,360,42493,2,0,P|256:336|252:308,1,50,0|0,2:0|0:2,0:0:0:0:
88,290,42883,38,2,B|123:286|123:286|128:290|128:290|164:287,1,75,2|0,0:0|2:0,0:0:0:0:
161,287,43662,38,0,L|147:187,1,100,0|0,3:0|0:0,0:0:0:0:
247,196,44441,2,0,L|147:188,1,100,2|8,1:2|0:0,0:0:0:0:
72,104,45026,1,2,3:2:0:0:
116,56,45220,2,0,L|216:48,1,100,0|0,3:0|1:0,0:0:0:0:
388,144,46000,2,0,L|228:132,1,150,2|0,1:2|0:0,0:0:0:0:
176,128,46779,85,2,3:0:0:0:
316,60,47168,1,0,3:0:0:0:
280,208,47558,2,0,L|292:313,1,100,8|0,1:1|0:0,0:0:0:0:
360,252,48142,1,0,0:0:0:0:
360,252,48240,1,0,0:0:0:0:
360,252,48337,21,8,0:1:0:0:
220,264,48532,1,0,0:0:0:0:
360,252,48727,1,8,0:1:0:0:
503,303,49116,6,0,L|404:296,1,100,4|0,0:2|0:1,0:1:0:0:
420,360,49701,1,0,0:0:0:0:
404,296,49896,70,0,L|418:196,1,100,0|0,3:0|0:0,0:0:0:0:
318,204,50675,2,0,L|418:196,1,100,2|8,1:2|0:0,0:0:0:0:
494,112,51259,1,0,3:0:0:0:
450,64,51454,2,0,L|350:56,1,100,2|0,3:0|1:0,0:0:0:0:
178,152,52233,2,0,L|338:140,1,150,2|0,1:2|0:0,0:0:0:0:
390,136,53013,85,2,3:0:0:0:
250,68,53402,1,0,3:0:0:0:
286,216,53792,2,0,L|274:321,1,100,8|0,1:1|0:0,0:0:0:0:
212,260,54376,1,0,0:0:0:0:
212,260,54474,1,0,0:0:0:0:
212,260,54571,21,8,0:1:0:0:
348,276,54766,1,0,0:0:0:0:
212,260,54961,1,8,0:1:0:0:
56,312,55350,6,2,L|160:304,1,100,6|2,0:2|0:1,0:1:0:0:
136,372,55935,1,0,0:0:0:0:
162,312,56130,6,0,L|214:320,1,50,2|0,0:0|0:0,0:0:0:0:
286,356,56519,2,0,L|338:350,1,50,2|0,0:0|0:0,0:0:0:0:
417,366,56909,2,0,L|466:346,1,50,2|0,1:2|0:0,0:0:0:0:
306,280,57298,53,0,3:0:0:0:
224,384,57493,1,0,3:0:0:0:
211,319,57688,54,0,L|162:312,1,50,8|0,0:0|0:0,0:0:0:0:
335,350,58078,2,0,L|286:356,1,50,8|0,0:0|0:0,0:0:0:0:
463,347,58467,2,0,L|417:366,1,50,8|0,0:0|0:0,0:0:0:0:
216,328,58857,2,0,L|166:320,1,50,2|0,0:1|0:1,0:1:0:0:
104,340,59246,6,0,L|96:288,1,50,2|0,0:0|0:0,0:0:0:0:
60,216,59636,2,0,L|65:166,1,50,2|0,0:0|0:0,0:0:0:0:
50,85,60026,2,0,L|68:38,1,50,2|0,1:2|0:0,0:0:0:0:
136,196,60415,21,0,3:0:0:0:
80,280,60610,1,0,3:0:0:0:
88,284,60707,1,0,0:0:0:0:
96,288,60805,86,0,L|104:338,1,50,8|0,0:0|0:0,0:0:0:0:
65,166,61194,2,0,L|60:216,1,50,8|0,0:0|0:0,0:0:0:0:
68,38,61584,2,0,L|50:85,1,50,8|0,0:0|0:0,0:0:0:0:
88,286,61974,2,0,L|95:335,1,50,2|0,0:1|0:0,0:0:0:0:
152,364,62363,37,2,0:0:0:0:
228,236,62753,1,0,0:0:0:0:
264,376,63142,1,2,0:0:0:0:
228,236,63532,2,0,L|234:184,1,50,0|0,0:0|3:0,0:0:0:0:
184,144,63922,85,8,0:1:0:0:
220,304,64117,1,0,0:0:0:0:
288,156,64311,1,0,0:0:0:0:
384,236,64506,86,0,L|387:253,2,12.5,0|0|8,0:0|0:0|3:0,0:0:0:0:
400,140,64896,21,0,3:0:0:0:
468,214,65091,69,4,3:0:0:0:
468,214,65480,70,0,P|440:158|484:86,1,150.000005722046,0|0,3:0|2:0,0:0:0:0:
375,187,66065,1,0,2:0:0:0:
375,187,66162,1,0,2:0:0:0:
375,187,66259,2,0,B|288:177|324:229|232:213,1,150.000005722046,8|0,0:1|2:0,0:0:0:0:
175,183,66844,1,0,3:0:0:0:
135,131,67039,6,0,P|131:107|135:79,1,50,0|2,2:0|0:2,0:0:0:0:
211,235,67428,2,0,P|215:259|211:287,1,50,0|0,2:0|2:0,0:0:0:0:
207,295,67720,1,0,2:0:0:0:
203,303,67818,2,0,P|155:319|103:287,1,112.500004291535,8|0,0:0|2:0,0:0:0:0:
47,303,68207,2,0,P|45:286|48:270,5,25.0000009536744
35,263,68597,86,0,P|19:228|28:191,1,75.0000028610231,2|0,0:2|2:0,0:0:0:0:
95,183,68987,2,0,P|110:217|101:254,1,75.0000028610231,2|0,0:2|2:0,0:0:0:0:
8,328,69376,6,0,P|70:289|140:308,1,150.000005722046,8|0,0:0|2:0,0:0:0:0:
279,343,69961,1,0,3:0:0:0:
293,346,70058,1,0,2:0:0:0:
303,348,70155,1,8,0:0:0:0:
307,211,70350,1,0,3:0:0:0:
351,263,70545,2,0,P|330:276|305:281,1,50,8|2,0:0|2:0,0:0:0:0:
363,343,70935,2,0,P|299:305|226:314,1,150.000005722046,4|0,0:0|2:0,0:0:0:0:
100,228,71519,1,0,2:0:0:0:
156,264,71714,86,0,B|240:272|212:224|300:232,1,150.000005722046,2|0,3:0|0:2,0:0:0:0:
424,332,72298,1,0,2:0:0:0:
424,332,72396,1,0,2:0:0:0:
424,332,72493,2,0,B|419:292|384:272|384:272|340:269|312:304,1,150.000005722046,8|0,0:0|0:0,0:0:0:0:
428,344,73078,6,0,P|436:316|436:292,1,50,2|0,3:2|0:0,0:0:0:0:
356,380,73467,1,0,2:0:0:0:
260,312,73662,2,0,P|263:336|272:359,1,50,0|0,3:0|0:0,0:0:0:0:
344,248,74052,2,0,P|360:188|352:132,1,112.500004291535,8|0,0:0|2:0,0:0:0:0:
356,76,74441,2,0,P|338:76|323:82,5,25.0000009536744
312,88,74831,86,0,P|276:92|240:72,1,75.0000028610231,2|0,0:2|2:0,0:0:0:0:
216,12,75220,2,0,P|252:6|285:22,1,75.0000028610231,2|0,0:2|2:0,0:0:0:0:
392,100,75610,2,0,P|320:104|283:166,1,150.000005722046,8|0,0:0|2:0,0:0:0:0:
412,244,76194,1,0,3:0:0:0:
412,230,76292,1,0,2:0:0:0:
410,219,76389,1,2,0:2:0:0:
360,168,76584,1,0,2:0:0:0:
348,296,76779,1,2,0:2:0:0:
300,200,76974,1,0,2:0:0:0:
300,200,77071,1,0,2:0:0:0:
300,200,77168,6,0,P|284:212|272:227,1,37.5000014305115,0|0,0:0|2:0,0:0:0:0:
224,308,77363,2,0,P|215:290|204:273,1,37.5000014305115,0|0,0:0|2:0,0:0:0:0:
136,212,77558,6,0,P|118:219|104:231,1,37.5000014305115,0|0,3:0|2:0,0:0:0:0:
88,296,77753,2,0,P|73:282|59:272,1,37.5000014305115,0|0,3:0|2:0,0:0:0:0:
0,240,77948,5,4,0:0:0:0:
256,192,78045,12,0,81065,0:0:0:0:
132,260,84181,54,0,B|112:228|108:196|108:164|144:140|184:116|240:140|256:192|256:192|268:240|300:276|340:276|396:260|420:220|408:172|388:140,1,525.000020027161
188,212,87298,5,0,0:0:0:0:
332,188,87688,1,0,0:0:0:0:
244,280,88077,1,0,0:0:0:0:
288,116,88467,1,0,0:0:0:0:
264,200,88662,1,0,3:0:0:0:
264,200,88759,1,0,0:0:0:0:
264,200,88857,2,0,B|242:203|242:203|236:203|236:203|212:208,1,37.5000014305115,2|0,1:2|1:0,0:0:0:0:
156,216,89246,54,0,B|111:211|111:211|103:215|103:215|63:211,1,93.75,2|0,3:2|0:0,0:0:0:0:
63,211,89636,54,0,L|72:264,1,37.5000014305115,4|0,2:1|0:0,0:0:0:0:
168,152,90026,54,0,B|105:146|105:146|94:150|94:150|38:146,1,131.250001251698,2|0,3:2|0:0,0:0:0:0:
37,145,90415,6,0,L|28:96,1,50,2|0,0:2|2:0,0:0:0:0:
212,112,90805,2,0,L|194:158,1,50,0|0,0:0|2:0,0:0:0:0:
108,224,91194,1,2,0:0:0:0:
128,44,91584,1,0,0:0:0:0:
148,168,91779,5,0,3:0:0:0:
140,162,91876,1,0,2:0:0:0:
132,161,91974,2,0,P|104:156|78:163,1,50,2|0,0:2|2:0,0:0:0:0:
108,320,92363,2,0,P|132:318|156:304,1,50,2|0,0:2|2:0,0:0:0:0:
228,224,92753,1,2,0:0:0:0:
16,252,93142,1,0,2:0:0:0:
44,312,93337,1,0,0:0:0:0:
64,200,93532,54,0,L|72:144,1,50,2|0,0:2|2:0,0:0:0:0:
44,312,93922,2,0,L|52:256,1,50,0|0,0:0|2:0,0:0:0:0:
84,88,94311,1,2,0:0:0:0:
44,312,94701,1,0,0:0:0:0:
104,340,94896,5,0,3:0:0:0:
108,331,94993,1,0,2:0:0:0:
108,323,95091,2,0,P|107:294|94:270,1,50,2|0,0:2|2:0,0:0:0:0:
116,164,95480,2,0,P|87:154|62:158,1,50,2|0,0:2|1:0,0:0:0:0:
36,224,95870,70,0,L|-4:220,2,33.3333333333333,8|8|8,0:0|0:0|3:0,0:0:0:0:
172,240,96259,1,8,3:0:0:0:
220,196,96649,38,0,P|267:155|128:187,1,525.000020027161
203,129,99766,6,0,B|233:95|197:41|139:65|133:120|175:145|175:145|195:173|179:205,1,225.000008583069
176,260,101324,5,2,1:2:0:0:
208,324,101714,1,0,1:0:0:0:
288,200,102104,5,2,1:2:0:0:
270,366,102493,1,0,1:0:0:0:
216,80,102883,5,4,1:2:0:0:
216,80,103857,70,0,L|219:42,2,37.5000014305115,0|0|0,3:0|3:0|3:0,3:0:0:0:
275,127,104441,1,0,0:0:0:0:
249,198,104831,1,0,0:0:0:0:
174,196,105220,1,0,0:0:0:0:
154,121,105610,1,0,0:0:0:0:
154,121,106779,38,0,L|92:128,2,62.5,0|2|0,0:0|2:0|0:0,0:0:0:0:
28,184,107363,1,0,2:0:0:0:
28,184,107461,1,0,2:0:0:0:
28,184,107558,2,0,B|8:152|8:152|16:56,1,125,4|0,0:2|0:0,0:0:0:0:
15,65,108337,2,0,P|47:82|76:81,1,62.5,2|0,0:2|2:0,0:0:0:0:
176,128,108727,2,0,P|211:116|231:95,1,62.5,0|0,3:0|2:0,0:0:0:0:
315,26,109117,38,0,B|443:18|443:18|435:54|435:54|412:55,1,187.5,4|0,0:0|2:0,0:0:0:0:
268,76,109896,2,0,P|252:52|248:20,1,62.5,2|0,0:2|2:0,0:0:0:0:
412,128,110285,2,0,P|408:158|392:184,1,62.5,0|0,3:0|2:0,0:0:0:0:
336,212,110578,1,0,2:0:0:0:
336,212,110675,53,0,0:0:0:0:
348,140,110870,1,0,0:0:0:0:
480,196,111065,37,0,3:0:0:0:
468,268,111259,1,2,0:2:0:0:
320,292,111454,6,2,B|180:260|224:364|80:320,1,250,2|0,0:0|2:0,0:0:0:0:
81,320,112818,69,0,0:0:0:0:
88,324,112915,1,0,0:0:0:0:
96,328,113013,2,0,P|108:292|100:260,1,62.5,0|0,0:0|2:0,0:0:0:0:
56,168,113402,2,2,P|116:169|151:218,1,125,2|2,0:0|2:0,0:0:0:0:
431,320,114376,21,0,0:0:0:0:
424,324,114474,1,0,0:0:0:0:
416,328,114571,2,0,P|404:292|412:260,1,62.5,0|0,0:0|2:0,0:0:0:0:
456,168,114961,2,2,P|395:169|360:218,1,125,2|2,0:0|2:0,0:0:0:0:
108,316,115935,69,0,0:0:0:0:
115,320,116032,1,0,0:0:0:0:
123,324,116130,2,0,P|135:288|127:256,1,62.5,4|2,0:2|0:2,0:0:0:0:
5,312,116519,1,0,2:0:0:0:
78,379,116714,1,2,0:2:0:0:
185,354,116909,70,0,P|217:346|253:350,1,62.5,0|0,0:0|3:0,0:0:0:0:
361,306,117298,2,0,P|389:322|411:351,1,62.5,0|0,0:0|3:0,0:0:0:0:
317,366,117688,1,0,0:0:0:0:
297,204,117883,1,0,0:0:0:0:
176,292,118077,2,0,L|181:333,1,37.5000014305115,0|0,2:0|2:0,2:0:0:0:
109,320,118467,38,0,P|93:280|97:200,1,125,4|0,0:0|2:0,0:0:0:0:
396,228,119246,2,0,P|412:188|408:108,1,125,0|0,0:0|2:0,0:0:0:0:
242,69,119831,1,0,2:0:0:0:
248,136,120026,54,0,L|256:212,1,62.5,2|0,0:2|2:0,0:0:0:0:
116,240,120415,1,2,0:2:0:0:
188,256,120610,2,0,L|176:132,1,125,0|0,3:0|2:0,0:0:0:0:
52,204,121194,1,0,0:0:0:0:
52,204,121389,1,0,0:0:0:0:
188,256,121584,38,0,P|238:263|292:208,1,125,4|0,0:0|2:0,0:0:0:0:
222,194,122168,1,0,3:0:0:0:
376,308,122363,2,0,B|312:304|312:304|288:324|258:329,1,125,2|0,0:2|2:0,0:0:0:0:
109,301,122948,1,0,3:0:0:0:
107,289,123045,1,0,2:0:0:0:
106,278,123142,85,2,0:2:0:0:
174,289,123337,1,0,0:0:0:0:
86,213,123532,5,2,0:2:0:0:
212,232,123727,1,0,0:0:0:0:
150,121,123922,6,0,L|156:184,1,62.5,2|0,0:2|2:0,0:0:0:0:
244,348,124311,2,2,P|279:316|268:252,1,112.500004291535,2|0,0:0|2:0,0:0:0:0:
212,232,124701,54,0,B|116:240|116:240|107:233|107:233|16:241,1,200,4|0,0:0|0:1,0:1:0:0:
8,248,126259,86,0,B|99:239|99:239|108:247|108:247|203:238,1,200,4|0,0:0|0:0,0:0:0:0:
204,237,127818,54,0,B|220:265|240:285|284:293|324:269|340:237|332:197|332:197|328:157|324:117|372:93|428:77|464:105|488:165|480:225|428:241|384:237,1,525.000020027161
264,208,130935,70,0,B|261:205|177:185|201:233|113:213,1,150.000005722046,2|0,0:3|2:0,0:0:0:0:
0,160,131714,2,0,B|0:120|45:113|76:144|57:181|57:181|37:221|53:253|89:277,1,225.000008583069,8|0,0:0|2:0,0:0:0:0:
148,292,132493,37,0,0:0:0:0:
280,168,132883,1,0,0:0:0:0:
380,320,133272,2,0,P|311:341|262:290,1,150.000005722046,8|0,0:0|2:0,0:0:0:0:
264,104,133857,1,2,2:0:0:0:
280,168,134052,54,0,P|317:186|425:173,1,150.000005722046,0|0,0:0|2:0,0:0:0:0:
512,72,134831,2,0,B|531:22|484:-20|414:20|419:89|458:131|476:138,1,225.000008583069,8|0,0:0|2:0,0:0:0:0:
364,84,135610,38,0,P|361:59|368:35,1,50,0|2,0:0|2:0,0:0:0:0:
240,180,136000,2,0,P|241:155|235:130,1,50,0|2,0:0|2:0,0:0:0:0:
396,140,136389,2,2,B|357:159|320:149|300:109|300:109|284:69|248:53|210:68,1,225.000008583069,2|2,1:2|2:0,0:0:0:0:
72,160,137168,54,0,B|52:244|100:220|80:308,1,150.000005722046,2|0,0:3|2:0,0:0:0:0:
0,139,137948,2,0,P|84:84|148:168,1,225.000008583069,8|0,0:0|2:0,0:0:0:0:
136,228,138727,37,0,0:0:0:0:
256,368,139117,1,0,0:0:0:0:
384,244,139506,2,0,P|411:173|397:102,1,150.000005722046,8|0,0:0|2:0,0:0:0:0:
280,164,140091,1,2,2:0:0:0:
306,226,140285,54,0,P|346:168|311:106,1,150.000005722046,4|0,0:2|2:0,0:0:0:0:
64,163,141065,2,0,B|106:151|138:171|138:171|170:191|206:171|206:171|242:151|279:163,1,225.000008583069,2|0,0:0|2:0,0:0:0:0:
172,112,141844,38,0,P|163:88|166:64,1,50,0|2,0:0|2:0,0:0:0:0:
269,211,142233,2,0,P|278:189|279:164,1,50,0|2,0:0|2:0,0:0:0:0:
160,312,142623,38,2,B|157:280|157:280|151:274|151:274|149:236,1,75,2|0,0:1|0:1,0:1:0:0:
145,171,143402,5,0,0:0:0:0:
365,139,144181,1,0,0:0:0:0:
163,103,144960,1,0,0:0:0:0:
329,79,145739,1,0,0:0:0:0:
249,11,146518,6,0,B|245:52|245:52|251:68|251:68|247:110,3,100,0|2|0|2,0:3|0:3|0:3|0:3,0:3:0:0:
153,239,149635,85,0,0:0:0:0:
373,207,150414,1,0,0:0:0:0:
189,299,151193,1,0,0:0:0:0:
355,275,151972,1,0,0:0:0:0:
269,367,152751,6,0,B|272:327|272:327|266:311|266:311|270:269,3,100,0|2|0|2,0:3|0:3|0:3|0:3,0:3:0:0:
160,160,155870,85,0,0:0:0:0:
372,196,156649,1,0,0:0:0:0:
268,208,157428,21,0,0:0:0:0:
256,144,158208,1,2,0:0:0:0:
288,72,158987,85,0,0:0:0:0:
244,288,159766,1,0,0:0:0:0:
232,192,160545,5,0,0:0:0:0:
296,178,161324,1,2,0:0:0:0:
160,160,162103,70,0,P|138:116|153:70,2,100,0|2|0,0:0|0:0|0:0,0:0:0:0:
160,160,164246,22,0,L|144:164,2,12.5,0|0|8,2:0|2:0|3:0,3:0:0:0:
223,146,164636,21,0,3:0:0:0:
223,146,164831,69,4,3:0:0:0:
238,271,165220,70,0,P|265:204|223:146,1,150.000005722046,2|0,2:3|2:0,2:0:0:0:
34,230,165805,1,0,2:0:0:0:
42,234,165902,1,0,2:0:0:0:
50,238,166000,2,0,B|137:248|101:196|193:212,1,150.000005722046,8|0,0:0|2:0,0:0:0:0:
304,268,166584,1,0,3:0:0:0:
312,340,166779,6,0,P|288:340|264:328,1,50,0|2,0:0|2:0,0:0:0:0:
300,196,167168,2,0,P|328:200|348:212,1,50,0|0,0:0|2:0,0:0:0:0:
340,216,167461,1,0,2:0:0:0:
336,224,167558,2,0,P|283:229|249:187,1,112.500004291535,8|0,0:0|2:0,0:0:0:0:
260,128,167948,2,0,P|262:111|259:95,5,25.0000009536744
249,88,168337,86,0,P|221:64|181:60,1,75.0000028610231,2|0,0:2|2:0,0:0:0:0:
116,160,168727,2,0,P|109:123|125:87,1,75.0000028610231,2|0,0:2|2:0,0:0:0:0:
268,152,169117,2,0,P|229:212|156:209,1,150.000005722046,8|0,0:0|2:0,0:0:0:0:
280,288,169701,1,0,3:0:0:0:
292,288,169798,1,0,2:0:0:0:
304,284,169896,1,8,0:0:0:0:
364,128,170091,1,0,2:0:0:0:
279,223,170285,2,0,P|254:224|229:217,1,50,8|2,0:0|2:0,0:0:0:0:
160,140,170675,2,0,B|251:121|216:177|304:156,1,150.000005722046,4|0,0:0|2:0,0:0:0:0:
456,252,171259,1,0,2:0:0:0:
412,200,171454,6,0,P|341:209|323:277,1,150.000005722046,0|0,3:0|2:0,0:0:0:0:
452,348,172039,1,0,2:0:0:0:
452,348,172136,1,0,2:0:0:0:
452,348,172233,2,0,B|401:309|359:336|359:336|332:351|312:344,1,150.000005722046,8|0,0:0|2:0,0:0:0:0:
256,316,172818,86,0,P|245:292|247:264,1,50,2|0,3:0|0:0,0:0:0:0:
356,200,173207,1,0,2:0:0:0:
416,216,173402,2,0,P|426:192|424:164,1,50,0|0,3:0|0:0,0:0:0:0:
272,136,173792,2,0,P|256:96|268:28,1,112.500004291535,8|0,0:0|2:0,0:0:0:0:
328,16,174181,2,0,P|330:33|327:49,5,25.0000009536744
320,60,174571,6,0,P|280:56|249:37,1,75.0000028610231,2|0,0:2|2:0,0:0:0:0:
124,60,174961,2,0,P|86:62|54:81,1,75.0000028610231,2|0,0:2|2:0,0:0:0:0:
8,188,175350,2,0,P|64:200|108:128,1,150.000005722046,8|0,0:0|2:0,0:0:0:0:
80,220,175935,1,0,3:0:0:0:
80,232,176032,1,0,2:0:0:0:
84,244,176130,1,2,0:2:0:0:
208,296,176324,1,0,2:0:0:0:
128,316,176519,1,2,0:2:0:0:
224,216,176714,1,0,2:0:0:0:
224,216,176811,1,0,2:0:0:0:
224,216,176909,86,0,P|247:220|273:232,1,37.5000014305115,0|0,0:0|2:0,0:0:0:0:
373,286,177104,2,0,P|350:296|322:301,1,37.5000014305115,0|0,0:0|2:0,0:0:0:0:
324,196,177298,22,0,P|327:218|323:247,1,37.5000014305115,0|0,3:0|2:0,0:0:0:0:
299,359,177493,2,0,P|281:340|268:314,1,37.5000014305115,0|0,3:0|2:0,0:0:0:0:
259,224,177688,6,0,L|264:116,1,100,2|2,0:0|0:0,0:0:0:0:
256,288,178272,2,0,L|255:315,2,25,0|0|2,3:0|0:0|1:2,0:0:0:0:
172,176,178662,2,0,L|122:180,2,50,0|2|0,0:0|0:0|0:0,0:0:0:0:
260,132,179246,2,2,L|364:124,1,100,2|2,0:1|0:1,0:1:0:0:
416,188,179831,2,2,L|316:195,1,100,2|2,3:1|1:1,0:1:0:0:
260,132,180415,2,0,L|236:129,5,16.6666666666667
228,128,180805,6,0,L|233:236,1,100,2|2,0:0|0:0,0:0:0:0:
227,64,181389,2,0,L|226:38,2,25,0|0|2,3:0|0:0|1:2,0:0:0:0:
232,227,181779,2,0,L|182:230,1,50,0|2,0:0|0:0,0:0:0:0:
128,268,182168,1,0,0:0:0:0:
128,268,182266,1,0,0:0:0:0:
128,268,182363,6,0,L|120:324,1,50,2|0,1:1|0:0,0:0:0:0:
8,228,182753,2,0,L|16:284,1,50,2|0,1:1|0:0,0:0:0:0:
152,200,183142,2,0,L|144:256,1,50,2|0,1:1|0:1,0:1:0:0:
24,164,183532,2,0,L|21:140,5,16.6666666666667,2|0|0|0|0|0,0:1|0:0|0:0|0:0|0:0|0:0,0:0:0:0:
21,136,183922,70,0,L|121:140,1,100,2|2,0:0|0:0,0:0:0:0:
185,142,184506,2,0,L|210:143,2,25,0|0|2,3:0|0:0|1:2,0:0:0:0:
152,200,184896,1,0,0:0:0:0:
160,264,185091,1,2,0:0:0:0:
200,312,185285,1,0,0:0:0:0:
260,340,185480,6,2,L|364:336,1,100,2|2,1:1|0:1,0:1:0:0:
480,360,186065,1,2,0:1:0:0:
432,248,186259,2,0,L|435:297,1,50,0|2,3:0|0:1,0:0:0:0:
427,181,186649,2,0,L|425:158,5,16.6666666666667
423,149,187039,86,0,L|312:142,1,100,2|2,0:0|0:0,0:0:0:0:
188,120,187623,1,0,0:0:0:0:
232,64,187818,2,0,L|343:57,1,100,2|2,0:0|0:0,0:0:0:0:
260,136,188402,1,0,3:0:0:0:
260,136,188500,1,0,0:0:0:0:
260,136,188597,5,0,1:0:0:0:
188,120,188792,2,0,L|132:124,2,50,2|0|2,0:1|0:0|0:1,0:0:0:0:
340,148,189376,5,0,1:0:0:0:
296,204,189571,1,0,0:0:0:0:
316,80,189766,1,0,1:0:0:0:
316,80,190155,54,0,B|375:76|375:76|384:80|384:80|440:77,1,125,0|0,1:0|0:0,0:0:0:0:
252,116,190935,2,0,B|241:87|241:87|248:55,1,62.5,0|0,1:0|0:0,0:0:0:0:
336,72,191324,1,0,0:0:0:0:
424,88,191519,1,0,3:0:0:0:
320,184,191714,22,0,B|295:190|295:190|272:181|272:181|192:177,1,125,2|0,0:0|3:0,0:0:0:0:
280,264,192298,2,0,B|304:270|304:270|327:261|327:261|402:257,1,125,2|0,0:0|0:0,0:0:0:0:
288,336,192883,2,0,L|267:330,5,20.8333333333333
256,328,193272,70,0,B|236:300|236:300|248:208,1,125,0|0,1:0|3:0,0:0:0:0:
72,104,194052,2,0,B|118:108|118:108|147:98|147:98|195:102,1,125,0|0,1:0|0:0,0:0:0:0:
160,172,194636,1,0,3:0:0:0:
160,172,194733,1,0,0:0:0:0:
160,172,194831,38,0,B|148:204|148:204|152:232,1,62.5,2|0,1:2|0:0,0:0:0:0:
348,112,195220,2,0,B|352:84|352:84|340:52,1,62.5,0|0,1:0|0:0,0:0:0:0:
224,248,195610,2,0,L|292:260,1,62.5,2|0,1:2|0:0,0:0:0:0:
272,32,196000,2,0,L|210:21,1,62.5,0|0,1:0|0:0,0:0:0:0:
252,148,196389,86,0,B|316:140|316:140|332:144|332:144|348:132|348:132|392:128,1,125,0|0,1:0|0:0,0:0:0:0:
388,324,197168,2,0,B|396:296|396:296|388:264,1,62.5,0|0,1:0|0:0,0:0:0:0:
240,268,197558,2,0,B|232:296|232:296|240:328,1,62.5,0|0,0:0|3:0,0:0:0:0:
312,296,197948,69,2,0:0:0:0:
304,224,198142,1,0,0:0:0:0:
296,152,198337,1,2,1:2:0:0:
292,300,198532,2,0,L|288:362,1,62.5,2|0,0:0|1:0,0:0:0:0:
168,256,198922,2,0,B|143:237|143:237|243:229,1,125,2|0,0:0|0:0,0:0:0:0:
304,224,199506,5,0,3:0:0:0:
216,128,199701,5,2,0:0:0:0:
168,176,199896,1,0,1:0:0:0:
148,112,200091,1,2,0:0:0:0:
264,8,200285,85,0,3:0:0:0:
352,100,200480,5,2,0:0:0:0:
412,64,200675,1,0,1:0:0:0:
416,132,200870,1,2,0:0:0:0:
304,224,201065,37,0,1:0:0:0:
400,252,201259,1,2,0:0:0:0:
292,240,201454,5,0,1:0:0:0:
424,192,201649,1,2,0:0:0:0:
256,176,201844,54,0,L|204:184,2,41.6666666666667,0|0|0,1:0|1:0|1:0,0:0:0:0:
204,120,202233,6,0,L|245:113,2,41.6666666666667,0|0|0,3:0|3:0|3:0,0:0:0:0:
152,160,202623,6,0,P|112:108|132:28,1,150.000005722046,0|0,0:0|2:0,0:0:0:0:
382,30,203402,2,0,P|401:100|360:160,1,150.000005722046,0|0,0:0|2:0,0:0:0:0:
264,252,203987,1,0,3:0:0:0:
264,252,204181,6,0,P|252:208|256:168,1,75.0000028610231,0|0,0:0|2:0,0:0:0:0:
432,212,204571,2,0,P|420:247|397:277,1,75.0000028610231,0|0,0:0|2:0,0:0:0:0:
460,348,204961,2,0,P|395:311|322:319,1,150.000005722046,0|0,1:0|0:0,0:0:0:0:
322,318,205740,85,0,0:0:0:0:
184,276,206130,1,0,0:0:0:0:
280,128,206519,5,0,0:0:0:0:
240,368,206909,1,0,0:0:0:0:
184,276,207104,85,0,3:0:0:0:
184,276,207201,1,0,2:0:0:0:
184,276,207298,1,0,0:0:0:0:
215,159,207493,1,0,0:0:0:0:
272,264,207688,2,0,P|289:231|293:190,1,75.0000028610231
255,111,208077,2,0,P|255:87|243:59,2,50.0000019073487
215,159,208467,1,0,0:0:0:0:
215,159,208857,6,0,P|143:162|107:98,1,150.000005722046,0|0,0:0|2:0,0:0:0:0:
108,102,209636,6,0,L|181:90,1,75.0000028610231,0|0,0:0|2:0,0:0:0:0:
191,14,210025,2,0,L|117:25,1,75.0000028610231,2|0,0:2|0:0,0:0:0:0:
20,160,210415,38,0,L|82:169,1,62.5,0|0,0:0|2:0,0:0:0:0:
108,102,210805,2,0,L|45:92,1,62.5,2|0,0:2|0:0,0:0:0:0:
68,236,211194,54,0,L|123:228,1,50,0|0,0:0|2:0,0:0:0:0:
132,160,211584,2,0,L|80:169,1,50,2|0,0:2|0:0,0:0:0:0:
8,276,211974,70,0,P|56:269|95:299,1,100,0|0,0:0|2:0,0:0:0:0:
204,360,212753,2,0,P|252:362|287:328,1,100,0|0,0:0|2:0,0:0:0:0:
340,284,213337,6,0,P|341:271|346:260,2,25,0|0|0,3:0|2:0|0:0,0:0:0:0:
412,344,213727,2,0,L|403:294,1,50,0|0,2:0|0:0,0:0:0:0:
432,200,214116,86,0,L|436:172,2,25,0|0|0,2:0|2:0|0:0,0:0:0:0:
403,294,214506,1,0,0:0:0:0:
356,216,214701,1,0,0:0:0:0:
356,216,215090,22,0,B|300:300|216:308|163:295|76:217|85:145|108:100|124:52|201:17|268:12|316:36|316:36|325:93|332:196|280:244|200:232|181:197|152:132|208:76|316:108|316:108|372:140|420:116|436:88|432:52|432:52|400:76|396:108|396:176|500:170|456:300|356:340|287:349|256:350|256:350|152:348|171:388|228:364|96:292,1,1800.00006866455
112,152,227558,37,0,0:0:0:0:
196,128,227948,1,0,0:0:0:0:
252,196,228337,1,0,0:0:0:0:
256,208,229117,53,0,0:0:0:0:
312,232,229506,1,0,0:0:0:0:
356,192,229896,1,0,0:0:0:0:
360,180,230675,85,0,0:0:0:0:
312,124,231065,1,0,0:0:0:0:
284,196,231454,1,0,0:0:0:0:
288,208,232233,5,0,0:0:0:0:
269,230,232623,1,0,0:0:0:0:
255,204,233013,1,0,0:0:0:0:
256,192,233792,37,0,0:0:0:0:
160,180,234181,1,0,0:0:0:0:
256,172,234571,1,0,0:0:0:0:
252,160,235350,37,0,0:0:0:0:
392,152,235740,1,0,0:0:0:0:
252,136,236130,1,0,0:0:0:0:
256,124,236909,53,0,0:0:0:0:
180,112,237298,1,0,0:0:0:0:
256,100,237688,1,0,0:0:0:0:
252,88,238467,53,0,0:0:0:0:
272,272,238857,1,0,0:0:0:0:
276,148,239246,1,0,0:0:0:0:
252,212,239636,1,0,0:0:0:0:
252,88,240026,37,0,0:0:0:0:
340,71,240415,1,0,0:0:0:0:
412,124,240805,1,0,0:0:0:0:
408,136,241584,5,0,0:0:0:0:
341,120,241974,1,0,0:0:0:0:
279,149,242363,1,0,0:0:0:0:
276,160,243142,5,0,0:0:0:0:
328,192,243532,1,0,0:0:0:0:
388,188,243922,1,0,0:0:0:0:
392,176,244701,5,0,0:0:0:0:
276,160,245091,1,0,0:0:0:0:
192,236,245480,1,0,0:0:0:0:
260,336,246259,53,0,0:0:0:0:
268,324,246649,1,0,0:0:0:0:
240,308,247039,1,0,0:0:0:0:
292,268,247428,1,0,0:0:0:0:
212,236,247818,1,0,0:0:0:0:
316,188,248207,1,0,0:0:0:0:
180,144,248597,1,0,0:0:0:0:
356,104,248987,1,0,0:0:0:0:
140,56,249376,54,0,P|133:29|177:44,1,100,0|0,0:3|0:0,0:0:0:0:
112,112,253272,38,0,L|120:175,2,62.5,0|2|0,0:0|2:0|0:0,0:0:0:0:
40,251,253857,1,0,2:0:0:0:
40,251,253954,1,0,2:0:0:0:
40,251,254052,2,0,B|87:246|87:246|112:252|112:252|168:247,1,125,4|0,0:2|2:0,0:0:0:0:
163,247,254831,2,0,P|175:283|175:323,1,62.5,2|0,0:2|2:0,0:0:0:0:
256,195,255220,2,0,P|258:163|269:134,1,62.5,0|0,3:0|2:0,0:0:0:0:
372,55,255610,38,0,B|508:70|508:70|461:88,1,187.5,4|0,0:0|0:0,0:0:0:0:
372,127,256389,2,0,P|340:123|316:107,1,62.5,2|0,0:2|2:0,0:0:0:0:
156,71,256779,2,0,P|181:53|212:50,1,62.5,0|0,3:0|2:0,0:0:0:0:
272,63,257071,1,0,2:0:0:0:
272,63,257168,53,0,0:0:0:0:
256,123,257363,1,0,0:0:0:0:
176,215,257558,37,0,0:0:0:0:
160,155,257753,1,2,0:2:0:0:
267,223,257948,6,2,P|307:235|327:91,1,250,2|0,0:0|2:0,0:0:0:0:
330,92,259311,69,0,0:0:0:0:
322,88,259409,1,0,0:0:0:0:
314,84,259506,2,0,L|318:152,1,62.5,0|0,0:0|2:0,0:0:0:0:
496,172,259896,2,2,B|432:160|440:208|376:192,1,125,2|2,0:0|2:0,0:0:0:0:
182,92,260870,21,0,0:0:0:0:
190,88,260967,1,0,0:0:0:0:
198,84,261065,2,0,L|194:152,1,62.5,0|0,0:0|2:0,0:0:0:0:
16,172,261454,2,2,B|80:160|72:208|136:192,1,125,2|2,0:0|2:0,0:0:0:0:
330,92,262428,69,0,0:0:0:0:
322,88,262526,1,0,0:0:0:0:
314,84,262623,2,0,L|318:152,1,62.5,4|2,0:2|2:0,0:0:0:0:
440,80,263013,1,0,0:0:0:0:
367,13,263207,1,2,0:2:0:0:
260,38,263402,70,0,P|228:46|192:42,1,62.5,0|0,0:0|3:0,0:0:0:0:
84,86,263792,2,0,P|56:70|34:41,1,62.5,0|0,0:0|3:0,0:0:0:0:
128,26,264181,1,0,0:0:0:0:
160,160,264376,1,0,0:0:0:0:
96,256,264571,2,0,L|76:288,1,37.5000014305115
28,232,264961,38,0,L|156:224,1,125,4|0,0:0|2:0,0:0:0:0:
440,320,265740,2,0,L|312:312,1,125,0|0,0:0|2:0,0:0:0:0:
228,192,266324,1,0,0:0:0:0:
296,180,266519,54,0,P|308:209|310:240,1,62.5,2|0,0:2|2:0,0:0:0:0:
432,228,266909,1,2,0:2:0:0:
376,276,267103,2,0,P|406:221|408:160,1,125,0|0,3:0|2:0,0:0:0:0:
320,68,267688,1,0,0:0:0:0:
320,68,267883,1,0,0:0:0:0:
219,123,268078,38,0,B|291:111|271:151|339:139,1,125,4|0,0:0|2:0,0:0:0:0:
244,192,268662,1,0,3:0:0:0:
172,60,268857,2,0,B|167:107|167:107|177:132|177:132|173:182,1,125,2|0,0:2|2:0,0:0:0:0:
40,164,269441,1,0,3:0:0:0:
40,164,269539,1,0,2:0:0:0:
40,164,269636,85,2,0:2:0:0:
108,148,269831,1,0,0:0:0:0:
148,248,270026,5,2,0:2:0:0:
16,236,270220,1,0,0:0:0:0:
44,328,270415,6,0,L|112:323,1,62.5,2|0,0:2|2:0,0:0:0:0:
295,311,270805,2,2,P|262:269|207:267,1,112.500004291535,2|0,0:0|0:2,0:0:0:0:
169,316,271194,54,0,B|260:308|260:308|269:315|269:315|365:307,1,200,4|0,0:0|0:0,0:0:0:0:
358,312,272753,86,0,B|261:321|261:321|252:313|252:313|161:322,1,200,4|0,0:0|0:0,0:0:0:0:
153,312,274311,54,0,B|156:341|140:393|80:401|20:377|-8:341|8:285|32:237|72:241|112:245|112:245|152:253|184:232|208:197|204:156|184:132|164:112,1,525.000020027161
124,176,277428,2,0,B|64:136|80:68|124:28|176:28|208:52|208:52|244:84|244:84|268:104|308:132|364:136|416:120|436:72|420:8|384:-8|328:8|328:56,1,600.000022888185
256,192,283662,12,0,286389,0:0:0:0:
104,96,289896,38,0,P|28:102|11:15,1,175,0|0,3:0|0:0,0:0:0:0:
64,50,290675,6,0,P|99:142|-1:150,1,218.75,0|0,3:0|0:0,0:0:0:0:
46,110,291454,6,0,B|134:126|106:74|190:89,1,150.000005722046,2|0,3:0|2:0,0:0:0:0:
364,96,292233,2,0,B|342:121|310:121|274:113|258:73|258:73|246:37|218:18|186:21,1,225.000008583069,8|0,0:0|2:0,0:0:0:0:
124,32,293013,37,0,0:0:0:0:
0,152,293402,1,0,0:0:0:0:
172,116,293792,2,0,P|249:120|311:163,1,150.000005722046,8|0,0:0|2:0,0:0:0:0:
409,292,294376,1,2,2:0:0:0:
456,247,294571,54,0,P|384:231|344:291,1,150.000005722046,0|0,0:0|2:0,0:0:0:0:
120,260,295350,2,0,P|226:249|283:339,1,225.000008583069,8|0,0:0|2:0,0:0:0:0:
236,228,296130,38,0,P|232:196|240:172,1,50,0|2,0:0|2:0,0:0:0:0:
420,80,296519,2,0,P|424:112|416:136,1,50,0|2,0:0|2:0,0:0:0:0:
296,200,296909,2,2,P|261:168|370:115,1,225.000008583069,2|2,1:1|0:2,0:1:0:0:
428,228,297688,54,0,P|436:304|408:372,1,150.000005722046,2|0,3:0|2:0,0:0:0:0:
200,240,298467,2,0,B|207:173|175:193|179:129|179:129|183:97|211:77|243:85|255:117,1,225.000008583069,8|0,0:0|2:0,0:0:0:0:
272,180,299246,37,0,0:0:0:0:
104,120,299636,1,0,0:0:0:0:
256,28,300026,2,0,P|327:28|393:81,1,150.000005722046,8|0,0:0|2:0,0:0:0:0:
472,192,300610,1,2,2:0:0:0:
500,124,300805,54,0,B|416:109|444:161|356:145,1,150.000005722046,0|0,0:0|2:0,0:0:0:0:
144,60,301584,2,0,P|240:23|287:116,1,225.000008583069,8|0,0:0|2:0,0:0:0:0:
244,164,302363,38,0,P|218:163|190:171,1,50,0|2,0:0|2:0,0:0:0:0:
120,284,302753,2,0,P|94:284|66:276,1,50,0|2,0:0|2:0,0:0:0:0:
16,208,303142,21,0,3:0:0:0:
100,188,303337,1,0,0:0:0:0:
228,268,303532,53,0,3:0:0:0:
312,288,303727,1,0,0:0:0:0:
444,220,303922,70,0,P|451:150|384:127,1,150.000005722046,2|0,3:0|2:0,0:0:0:0:
256,200,304701,2,0,B|217:219|180:209|160:169|160:169|144:129|108:113|70:128,1,225.000008583069,8|0,0:0|2:0,0:0:0:0:
20,168,305480,37,0,0:0:0:0:
220,148,305870,1,0,0:0:0:0:
140,300,306259,2,0,P|112:230|121:157,1,150.000005722046,8|0,0:0|2:0,0:0:0:0:
260,64,306844,1,2,2:0:0:0:
312,108,307039,54,0,B|228:123|256:71|168:87,1,150.000005722046,0|0,0:0|2:0,0:0:0:0:
364,160,307818,2,0,P|284:152|192:252,1,225.000008583069,8|0,0:0|2:0,0:0:0:0:
144,304,308597,38,0,P|169:318|194:321,1,50,0|2,0:0|2:0,0:0:0:0:
68,152,308987,2,0,P|62:180|67:204,1,50,0|2,0:0|2:0,0:0:0:0:
192,251,309376,2,2,P|231:214|125:183,1,225.000008583069,2|2,0:0|2:0,0:0:0:0:
140,328,310155,54,0,P|196:336|288:292,1,150.000005722046,2|0,3:0|2:0,0:0:0:0:
392,220,310935,2,0,B|373:189|333:189|310:221|333:258|333:258|356:288|349:328|318:358,1,225.000008583069,8|0,0:0|2:0,0:0:0:0:
260,376,311714,37,0,0:0:0:0:
144,240,312104,1,0,0:0:0:0:
220,80,312493,2,0,P|252:144|240:223,1,150.000005722046,8|0,0:0|2:0,0:0:0:0:
122,170,313078,1,2,2:0:0:0:
138,104,313272,54,0,P|184:155|159:221,1,150.000005722046,0|0,0:0|2:0,0:0:0:0:
20,292,314052,2,0,B|148:268|104:352|240:324,1,225.000008583069,8|0,0:0|2:0,0:0:0:0:
292,296,314831,38,0,P|300:268|300:232,1,50,0|2,0:0|2:0,0:0:0:0:
404,344,315220,2,0,P|401:314|389:281,1,50,0|2,0:0|2:0,0:0:0:0:
424,164,315610,85,0,0:0:0:0:
376,208,315805,21,0,2:0:0:0:
316,184,316000,69,0,0:0:0:0:
256,192,316389,12,0,322623,0:0:0:0:
