osu file format v14

[General]
AudioFilename: audio.mp3
AudioLeadIn: 0
PreviewTime: 89010
Countdown: 0
SampleSet: Soft
StackLeniency: 0.3
Mode: 0
LetterboxInBreaks: 0
WidescreenStoryboard: 0

[Editor]
Bookmarks: 17760,19464,94464,111936,125828,125885,125941,125998,126055,126282,126510,126623,126680,126737,126964,127078,127191,127305,127362,127419,127589,127703,127816,127930,128101,128271,128441,128669,128953,129294,129691,130146,136055
DistanceSpacing: 1.7
BeatDivisor: 16
GridSize: 32
TimelineZoom: 1.7

[Metadata]
Title:Made In Love
TitleUnicode:Made In Love
Artist:Chroma
ArtistUnicode:黒魔
Creator:TritoBandito
Version:Robot & Human
Source:SOUND VOLTEX IV HEAVENLY HAVEN
Tags:Robot & Human chiptune alternate Slyze Lully Ichinose Rika SgtCatalyst Slyze- Narrative istomin_dennis pixiv english japanese electronic hakashii too
BeatmapID:2961339
BeatmapSetID:1402872

[Difficulty]
HPDrainRate:5
CircleSize:4.2
OverallDifficulty:9.2
ApproachRate:9.5
SliderMultiplier:1.8
SliderTickRate:1

[Events]
//Background and Video events
0,0,"adsfasfgasdgsa_digital_art_x4.jpg",0,0
//Break Periods
//Storyboard Layer 0 (Background)
//Storyboard Layer 1 (Fail)
//Storyboard Layer 2 (Pass)
//Storyboard Layer 3 (Foreground)
//Storyboard Layer 4 (Overlay)
//Storyboard Sound Samples

[TimingPoints]
3101,681.818181818182,4,2,1,30,1,0
3101,-166.666666666667,4,2,1,30,0,0
4464,-166.666666666667,4,2,1,5,0,0
4635,-166.666666666667,4,2,1,30,0,0
7873,-166.666666666667,4,2,1,5,0,0
8044,-166.666666666667,4,2,1,30,0,0
10260,-166.666666666667,4,2,1,5,0,0
10431,-166.666666666667,4,2,1,30,0,0
10941,-166.666666666667,4,2,1,5,0,0
11112,-166.666666666667,4,2,1,30,0,0
13328,-166.666666666667,4,2,1,5,0,0
13499,-166.666666666667,4,2,1,30,0,0
15032,-166.666666666667,4,2,1,5,0,0
15203,-166.666666666667,4,2,1,30,0,0
18782,-166.666666666667,4,2,1,5,0,0
18953,-166.666666666667,4,2,1,30,0,0
20316,-166.666666666667,4,2,1,5,0,0
20487,-166.666666666667,4,2,1,30,0,0
24748,-166.666666666667,4,2,1,5,0,0
24919,-166.666666666667,4,2,1,30,0,0
26964,-76.9230769230769,4,2,1,30,0,0
27305,-76.9230769230769,4,2,1,5,0,0
27646,-100,4,2,1,30,0,0
27987,-100,4,2,1,5,0,0
28072,-100,4,2,1,30,0,0
28328,-100,4,2,1,40,0,0
28498,-100,4,2,1,40,0,0
28583,-100,4,2,1,5,0,0
28626,-100,4,2,1,40,0,0
28669,-62.5,4,2,1,40,0,0
28711,-100,4,2,1,5,0,0
28754,-100,4,2,1,40,0,0
28839,-71.4285714285714,4,2,1,40,0,0
30373,-71.4285714285714,4,2,1,60,0,0
31907,-71.4285714285714,4,2,1,5,0,0
31993,-71.4285714285714,4,2,1,60,0,0
32248,-71.4285714285714,4,2,1,5,0,0
32334,-71.4285714285714,4,2,1,60,0,0
37362,-71.4285714285714,4,2,1,5,0,0
37448,-71.4285714285714,4,2,1,60,0,0
37703,-71.4285714285714,4,2,1,5,0,0
37789,-71.4285714285714,4,2,1,60,0,0
38726,-71.4285714285714,4,2,1,5,0,0
38812,-71.4285714285714,4,2,1,60,0,0
39919,-41.6666666666667,4,2,1,60,0,0
40174,-71.4285714285714,4,2,1,5,0,0
40260,-71.4285714285714,4,2,1,60,0,0
40601,-41.6666666666667,4,2,1,60,0,0
40686,-41.6666666666667,4,2,1,5,0,0
40771,-41.6666666666667,4,2,1,60,0,0
40856,-41.6666666666667,4,2,1,5,0,0
40941,-55.5555555555556,4,2,1,60,0,0
41112,-41.6666666666667,4,2,1,5,0,0
41197,-47.6190476190476,4,2,1,60,0,0
41282,-47.6190476190476,4,2,21,70,0,0
41368,-47.6190476190476,4,2,1,70,0,0
41708,-47.6190476190476,4,2,1,70,0,0
42135,-47.6190476190476,4,2,1,5,0,0
42220,-47.6190476190476,4,2,1,70,0,0
42476,-47.6190476190476,4,2,1,5,0,0
42561,-47.6190476190476,4,2,1,70,0,0
44862,-47.6190476190476,4,2,1,5,0,0
44947,-47.6190476190476,4,2,1,70,0,0
45544,-47.6190476190476,4,2,1,5,0,0
45629,-47.6190476190476,4,2,1,70,0,0
45885,-47.6190476190476,4,2,1,5,0,0
45970,-47.6190476190476,4,2,1,70,0,0
46566,-47.6190476190476,4,2,1,5,0,0
46651,-47.6190476190476,4,2,1,70,0,0
46737,-47.6190476190476,4,2,1,50,0,0
46993,-47.6190476190476,4,2,1,5,0,0
47078,-44.4444444444445,4,2,1,55,0,0
47333,-47.6190476190476,4,2,1,5,0,0
47419,-41.6666666666667,4,2,1,60,0,0
47674,-47.6190476190476,4,2,1,5,0,0
47760,-39.2156862745098,4,2,1,65,0,0
48015,-47.6190476190476,4,2,1,5,0,0
48101,-34.4827586206897,4,2,1,70,0,0
48356,-47.6190476190476,4,2,1,5,0,0
48441,-47.6190476190476,4,2,1,70,0,0
48782,-71.4285714285714,4,2,1,70,0,0
49123,-71.4285714285714,4,2,1,5,0,0
49464,-1000,4,2,21,80,0,0
51169,-1000,4,2,1,10,0,0
51339,-71.4285714285714,4,2,1,5,0,0
51510,-71.4285714285714,4,2,1,20,0,0
51680,-71.4285714285714,4,2,1,5,0,0
51765,-71.4285714285714,4,2,1,20,0,0
51851,-71.4285714285714,4,2,1,30,0,0
52021,-71.4285714285714,4,2,1,5,0,0
52106,-71.4285714285714,4,2,1,30,0,0
52191,-71.4285714285714,4,2,1,40,0,0
52362,-71.4285714285714,4,2,1,5,0,0
52447,-71.4285714285714,4,2,1,40,0,0
52532,-71.4285714285714,4,2,1,50,0,0
52703,-71.4285714285714,4,2,1,5,0,0
52788,-71.4285714285714,4,2,1,50,0,0
52873,-55.5555555555556,4,2,1,60,0,0
53044,-55.5555555555556,4,2,1,5,0,0
53129,-55.5555555555556,4,2,1,60,0,0
53214,-55.5555555555556,4,2,1,70,0,0
53385,-55.5555555555556,4,2,1,5,0,0
53470,-55.5555555555556,4,2,1,70,0,0
53555,-55.5555555555556,4,2,1,80,0,0
53726,-55.5555555555556,4,2,1,5,0,0
53811,-55.5555555555556,4,2,1,80,0,0
53896,-55.5555555555556,4,2,1,90,0,0
54066,-55.5555555555556,4,2,1,5,0,0
54151,-55.5555555555556,4,2,1,90,0,0
54237,-55.5555555555556,4,2,1,50,0,0
54279,-71.4285714285714,4,2,1,5,0,0
54876,-55.5555555555556,4,2,1,50,0,0
54919,-25,4,2,1,80,0,0
54961,-20,4,2,1,5,0,0
55601,-20,4,2,1,65,0,0
55941,-83.3333333333333,4,2,1,65,0,0
56623,-50,4,2,1,65,0,0
56708,-58.8235294117647,4,2,1,5,0,0
56794,-58.8235294117647,4,2,1,65,0,0
56879,-58.8235294117647,4,2,1,5,0,0
56964,-500,4,2,1,65,0,0
57390,-500,4,2,1,5,0,0
57476,-41.6666666666667,4,2,1,65,0,0
57561,-41.6666666666667,4,2,1,5,0,0
57646,-41.6666666666667,4,2,1,65,0,0
57987,-83.3333333333333,4,2,1,65,0,0
58157,-41.6666666666667,4,2,1,5,0,0
58242,-76.9230769230769,4,2,1,65,0,0
58413,-41.6666666666667,4,2,1,5,0,0
58498,-76.9230769230769,4,2,1,65,0,0
58583,-41.6666666666667,4,2,1,5,0,0
58668,-55.5555555555556,4,2,2,65,0,0
59010,-55.5555555555556,4,2,1,65,0,0
59351,-55.5555555555556,4,2,1,30,0,0
59436,-55.5555555555556,4,2,1,35,0,0
59521,-55.5555555555556,4,2,1,40,0,0
59606,-55.5555555555556,4,2,1,45,0,0
59691,-55.5555555555556,4,2,1,50,0,0
59805,-55.5555555555556,4,2,1,55,0,0
59919,-55.5555555555556,4,2,1,60,0,0
60032,-55.5555555555556,4,2,1,65,0,0
60118,-55.5555555555556,4,2,1,5,0,0
60203,-38.4615384615385,4,2,1,70,0,0
60458,-38.4615384615385,4,2,1,5,0,0
60544,-71.4285714285714,4,2,1,40,0,0
61140,-71.4285714285714,4,2,1,5,0,0
61226,-55.5555555555556,4,2,1,40,0,0
61311,-38.4615384615385,4,2,1,5,0,0
61397,-71.4285714285714,4,2,1,40,0,0
61822,-71.4285714285714,4,2,1,5,0,0
61907,-71.4285714285714,4,2,1,40,0,0
61993,-71.4285714285714,4,2,1,5,0,0
62078,-71.4285714285714,4,2,1,40,0,0
62163,-71.4285714285714,4,2,1,5,0,0
62248,-55.5555555555556,4,2,1,50,0,0
62333,-71.4285714285714,4,2,1,5,0,0
62418,-55.5555555555556,4,2,1,50,0,0
62504,-55.5555555555556,4,2,1,5,0,0
62589,-55.5555555555556,4,2,1,50,0,0
62675,-55.5555555555556,4,2,1,5,0,0
62760,-50,4,2,1,60,0,0
62845,-55.5555555555556,4,2,1,5,0,0
62930,-45.4545454545455,4,2,1,60,0,0
63015,-55.5555555555556,4,2,1,5,0,0
63101,-38.4615384615385,4,2,1,70,0,0
63953,-41.6666666666667,4,2,1,70,0,0
64123,-38.4615384615385,4,2,1,80,0,0
64464,-45.4545454545455,4,2,1,80,0,0
64976,-50,4,2,1,80,0,0
65146,-153.846153846154,4,2,1,60,0,0
65572,-153.846153846154,4,2,1,5,0,0
65657,-153.846153846154,4,2,1,60,0,0
65828,-41.6666666666667,4,2,1,70,0,0
70941,-55.5555555555556,4,2,1,70,0,0
71282,-41.6666666666667,4,2,1,70,0,0
72305,-83.3333333333333,4,2,1,70,0,0
72646,-41.6666666666667,4,2,1,70,0,0
74351,-41.6666666666667,4,2,1,6,0,0
74691,-250,4,2,1,12,0,0
74862,-250,4,2,1,5,0,0
75032,-166.666666666667,4,2,1,18,0,0
75203,-250,4,2,1,5,0,0
75373,-125,4,2,1,24,0,0
75544,-250,4,2,1,5,0,0
75714,-100,4,2,1,30,0,0
75885,-250,4,2,1,5,0,0
76055,-83.3333333333333,4,2,1,36,0,0
76226,-250,4,2,1,5,0,0
76396,-71.4285714285714,4,2,1,42,0,0
76566,-250,4,2,1,5,0,0
76737,-62.5,4,2,1,48,0,0
76907,-250,4,2,1,5,0,0
77078,-55.5555555555556,4,2,1,54,0,0
77248,-250,4,2,1,5,0,0
77419,-50,4,2,1,60,0,0
77589,-250,4,2,1,5,0,0
77760,-45.4545454545455,4,2,1,66,0,0
77930,-250,4,2,1,5,0,0
78101,-41.6666666666667,4,2,1,72,0,0
78271,-250,4,2,1,5,0,0
78441,-38.4615384615385,4,2,1,78,0,0
78612,-250,4,2,1,5,0,0
78782,-250,4,2,1,60,0,0
79464,-52.6315789473684,4,2,1,65,0,0
84919,-52.6315789473684,4,2,1,40,0,0
85601,-52.6315789473684,4,2,1,45,0,0
86282,-45.4545454545455,4,2,1,50,0,0
86964,-45.4545454545455,4,2,1,55,0,0
87646,-45.4545454545455,4,2,1,60,0,0
88328,-45.4545454545455,4,2,1,70,0,0
89010,-125,4,2,1,30,0,0
89521,-125,4,2,1,5,0,0
89691,-250,4,2,1,30,0,0
90203,-125,4,2,1,5,0,0
90373,-35.7142857142857,4,2,22,80,0,1
90487,-35.7142857142857,4,2,1,80,0,1
90601,-35.7142857142857,4,2,1,5,0,1
90657,-35.7142857142857,4,2,1,80,0,1
93044,-35.7142857142857,4,2,1,80,0,1
93100,-35.7142857142857,4,2,1,80,0,1
93328,-35.7142857142857,4,2,1,5,0,1
93384,-35.7142857142857,4,2,1,80,0,1
96055,-35.7142857142857,4,2,1,5,0,1
96111,-35.7142857142857,4,2,1,80,0,1
99180,-35.7142857142857,4,2,1,5,0,1
99237,-35.7142857142857,4,2,1,80,0,1
99691,-41.6666666666667,4,2,1,80,0,1
99805,-41.6666666666667,4,2,1,5,0,1
99919,-35.7142857142857,4,2,1,80,0,1
100941,-35.7142857142857,4,2,1,80,0,0
101282,-38.4615384615385,4,2,1,70,0,1
101566,-38.4615384615385,4,2,1,5,0,1
101623,-38.4615384615385,4,2,1,70,0,1
101794,-38.4615384615385,4,2,1,5,0,1
101851,-38.4615384615385,4,2,1,70,0,1
101907,-35.7142857142857,4,2,1,5,0,1
101964,-38.4615384615385,4,2,1,70,0,1
102248,-38.4615384615385,4,2,1,5,0,1
102305,-38.4615384615385,4,2,1,70,0,1
102589,-38.4615384615385,4,2,1,5,0,1
102646,-38.4615384615385,4,2,1,70,0,1
102930,-38.4615384615385,4,2,1,5,0,1
102987,-33.3333333333333,4,2,1,70,0,1
103271,-38.4615384615385,4,2,1,5,0,1
103328,-83.3333333333333,4,2,1,70,0,1
103612,-83.3333333333333,4,2,1,5,0,1
103669,-83.3333333333333,4,2,1,70,0,1
104010,-38.4615384615385,4,2,1,80,0,1
104294,-38.4615384615385,4,2,1,5,0,1
104351,-38.4615384615385,4,2,1,80,0,1
104521,-38.4615384615385,4,2,1,5,0,1
104578,-38.4615384615385,4,2,1,80,0,1
104635,-38.4615384615385,4,2,1,5,0,1
104692,-38.4615384615385,4,2,1,80,0,1
104976,-38.4615384615385,4,2,1,5,0,1
105033,-38.4615384615385,4,2,1,80,0,1
105316,-38.4615384615385,4,2,1,5,0,1
105373,-38.4615384615385,4,2,1,80,0,1
105657,-38.4615384615385,4,2,1,5,0,1
105714,-33.3333333333333,4,2,1,80,0,1
105998,-38.4615384615385,4,2,1,5,0,1
106055,-29.4117647058824,4,2,1,80,0,1
106339,-29.4117647058824,4,2,1,5,0,1
106396,-38.4615384615385,4,2,1,80,0,1
106737,-38.4615384615385,4,2,1,75,0,1
108101,-38.4615384615385,4,2,1,90,0,1
108782,-33.3333333333333,4,2,1,80,0,1
109294,-33.3333333333333,4,2,1,80,0,0
109464,-100,4,2,1,100,0,1
110146,-100,4,2,1,65,0,1
111936,-100,4,2,1,65,0,0
112191,-100,4,2,1,65,0,1
114663,-100,4,2,1,65,0,0
114919,-100,4,2,1,65,0,1
117390,-100,4,2,1,65,0,0
117646,-100,4,2,1,65,0,1
120118,-100,4,2,1,65,0,0
120373,-166.666666666667,4,2,1,35,0,0
125657,-166.666666666667,4,2,1,5,0,0
125714,-166.666666666667,4,2,1,35,0,0
130430,-166.666666666667,4,2,1,35,0,0
130601,-166.666666666667,4,2,1,35,0,0
131282,-83.3333333333333,4,2,1,50,0,1
133669,-83.3333333333333,4,2,1,5,0,0
134010,-100,4,2,1,40,0,0
135032,-71.4285714285714,4,2,1,50,0,0
135714,-55.5555555555556,4,2,1,60,0,0
136055,-55.5555555555556,4,2,1,80,0,0

[Colours]
Combo1 : 145,0,3
Combo2 : 255,128,0
Combo3 : 253,78,2
Combo4 : 0,255,205
Combo5 : 128,255,0

[HitObjects]
482,74,3101,6,0,B|424:37|369:74|369:74|315:112|259:74,1,215.999993408203,2|0,2:0|0:0,0:0:0:0:
278,85,4805,6,0,L|273:143,2,53.9999983520508,2|2|2,2:0|2:0|2:0,0:0:0:0:
190,140,5828,2,0,L|197:60,1,80.9999975280763,2|2,2:0|2:0,0:0:0:0:
233,210,6851,6,0,B|190:228|151:209|151:209|107:188|63:221,1,161.999995056153,2|0,2:0|0:0,0:0:0:0:
76,211,8555,6,0,L|70:264,1,53.9999983520508,2|2,2:0|2:0,0:0:0:0:
151,351,9066,2,0,L|145:297,1,53.9999983520508,2|2,2:0|2:0,0:0:0:0:
239,367,9578,2,0,L|227:259,1,107.999996704102,2|0,2:0|0:0,0:0:0:0:
323,330,10601,2,0,L|317:276,1,53.9999983520508,2|0,2:0|0:0,0:0:0:0:
459,267,11282,22,0,P|431:276|401:271,1,53.9999983520508,2|2,2:0|2:0,0:0:0:0:
281,212,11794,2,0,P|309:203|339:208,1,53.9999983520508,2|2,2:0|2:0,0:0:0:0:
455,107,12305,2,0,B|421:82|421:82|427:210,1,161.999995056153,2|0,2:0|0:0,0:0:0:0:
212,91,13669,6,0,L|238:93,1,26.9999991760254,2|2,2:0|2:0,0:0:0:0:
256,20,14010,2,0,B|186:13|186:13|162:20|162:20|89:14,1,161.999995056153,2|0,2:0|0:0,0:0:0:0:
95,14,15714,6,0,P|78:37|71:65,2,53.9999983520508,2|2|2,2:0|2:0|2:0,0:0:0:0:
230,70,16737,2,0,P|189:58|146:69,1,80.9999975280763,2|2,2:0|2:0,0:0:0:0:
25,134,17760,6,0,B|74:113|109:131|109:131|148:152|197:128,1,161.999995056153,2|0,2:0|0:0,0:0:0:0:
181,135,19464,22,0,L|173:201,1,53.9999983520508,2|2,2:0|2:0,0:0:0:0:
85,243,19976,2,0,L|93:177,1,53.9999983520508,2|0,2:0|0:0,0:0:0:0:
13,172,20487,1,2,2:0:0:0:
28,298,20828,6,0,P|70:321|142:298,2,107.999996704102,2|2|2,2:0|2:0|2:0,0:0:0:0:
256,192,22362,12,0,24748,0:0:0:0:
256,192,24919,6,0,B|256:169,2,13.4999995880127
440,97,26964,6,0,L|312:91,1,116.999994644165,2|0,2:0|0:0,0:0:0:0:
444,81,27646,22,0,L|341:76,1,90,2|0,2:0|0:0,0:0:0:0:
396,168,28328,6,0,L|397:156,3,11.25
405,173,28498,2,0,L|409:142,1,22.5
487,150,28669,2,0,L|484:168,1,18
462,249,28839,6,0,B|447:247|447:247|445:250|445:250|423:242,1,31.4999990386963
354,311,29010,1,0,1:0:0:0:
363,311,29095,1,0,0:0:0:0:
372,311,29180,1,0,0:0:0:0:
381,311,29265,1,0,0:0:0:0:
403,310,29351,1,0,0:0:0:0:
279,193,29521,5,0,3:0:0:0:
280,272,29606,1,0,3:0:0:0:
282,352,29691,1,0,3:0:0:0:
180,168,29862,1,0,3:0:0:0:
376,164,30032,1,0,3:0:0:0:
68,106,30373,22,0,B|79:20|79:20|44:37,2,125.999996154785,6|0|8,2:0|0:0|1:0,0:0:0:0:
68,106,31396,5,2,2:0:0:0:
68,106,31566,1,2,2:0:0:0:
215,57,31737,2,0,B|184:49|184:49|154:57,1,62.9999980773926,2|0,3:2|0:0,0:0:0:0:
279,100,32078,2,0,P|291:72|291:40,1,62.9999980773926,0|0,3:0|0:0,0:0:0:0:
341,145,32419,2,0,P|365:87|365:24,1,125.999996154785,8|2,1:0|2:0,0:0:0:0:
215,57,32930,1,2,2:0:0:0:
333,225,33101,6,0,B|367:230|392:207|392:207|419:232|466:224,2,125.999996154785,2|0|8,3:2|0:0|1:0,0:0:0:0:
442,151,33953,5,2,2:0:0:0:
339,153,34123,1,2,3:2:0:0:
396,290,34294,1,2,2:0:0:0:
387,89,34464,1,2,2:0:0:0:
395,269,34635,1,2,2:0:0:0:
467,77,34805,21,2,3:2:0:0:
318,163,34976,1,2,2:0:0:0:
457,320,35146,6,0,L|318:313,1,125.999996154785,8|2,1:0|2:0,0:0:0:0:
428,180,35657,1,2,2:0:0:0:
275,253,35828,6,0,P|249:309|268:367,2,125.999996154785,2|0|8,3:2|0:0|1:0,0:0:0:0:
275,253,36851,5,2,2:0:0:0:
275,253,37021,1,2,2:0:0:0:
174,321,37191,2,0,P|133:327|97:311,1,62.9999980773926,2|0,3:2|0:0,0:0:0:0:
152,192,37532,2,0,L|144:267,1,62.9999980773926,0|0,3:0|0:0,0:0:0:0:
65,152,37873,2,0,L|49:302,1,125.999996154785,8|2,1:0|2:0,0:0:0:0:
40,384,38385,1,2,2:0:0:0:
145,254,38555,22,0,L|152:192,1,62.9999980773926,2|0,3:2|0:0,0:0:0:0:
135,345,38896,1,0,3:0:0:0:
160,119,39066,5,2,3:2:0:0:
163,87,39152,1,0,3:0:0:0:
166,56,39237,1,8,1:0:0:0:
238,184,39407,1,0,3:0:0:0:
69,174,39578,1,0,3:0:0:0:
169,25,39748,1,0,3:0:0:0:
360,245,39919,6,0,B|318:225|280:249|280:249|241:273|198:251,1,161.999995056153,8|0,1:0|0:0,0:0:0:0:
142,210,40260,1,0,3:0:0:0:
431,146,40601,6,0,L|428:199,1,53.9999983520508,8|0,1:0|0:0,0:0:0:0:
326,370,40771,2,0,L|323:316,1,53.9999983520508,8|0,1:0|0:0,0:0:0:0:
449,137,40941,2,0,L|443:244,1,80.9999975280763,0|0,3:0|0:0,0:0:0:0:
501,72,41282,22,0,B|462:44|411:64|411:64|360:84|321:56,1,188.999994232178,6|0,1:1|0:0,0:0:0:0:
449,137,41794,1,2,2:0:0:0:
252,95,41964,2,0,P|243:50|260:6,1,94.499997116089,8|0,1:0|0:0,0:0:0:0:
297,165,42305,2,0,B|252:179|252:179|207:163,1,94.499997116089,0|0,3:0|0:0,0:0:0:0:
341,229,42646,2,0,B|251:257|251:257|161:225,1,188.999994232178,2|0,3:2|0:0,0:0:0:0:
26,52,43328,6,0,B|90:6|90:6|54:221,1,283.499991348267,8|0,1:0|0:0,0:0:0:0:
190,278,44010,2,0,B|155:245|91:256|107:283|55:309|-6:262,1,188.999994232178,2|0,3:2|0:0,0:0:0:0:
103,137,44521,1,2,2:0:0:0:
262,243,44691,2,0,P|269:288|249:330,1,94.499997116089,8|0,1:0|0:0,0:0:0:0:
56,209,45032,1,0,0:0:0:0:
249,330,45203,5,0,3:0:0:0:
263,329,45288,1,0,3:0:0:0:
277,328,45373,2,0,L|391:319,1,94.499997116089,8|0,1:0|0:0,0:0:0:0:
499,213,45714,2,0,L|385:222,1,94.499997116089,0|0,3:0|0:0,0:0:0:0:
235,117,46055,5,8,1:0:0:0:
412,104,46226,1,8,1:0:0:0:
344,275,46396,2,0,P|324:232|333:186,1,94.499997116089,0|0,3:0|0:0,0:0:0:0:
477,77,46737,22,0,B|444:78|412:104|412:104|380:79|345:80,1,141.749995674133,2|0,3:2|0:0,0:0:0:0:
344,89,47078,6,0,B|378:88|412:115|412:115|447:87|483:86,1,151.875005793572,0|0,3:0|0:0,0:0:0:0:
486,94,47419,6,0,B|448:95|413:124|413:124|377:96|338:98,1,161.999995056153,2|0,3:2|0:0,0:0:0:0:
335,105,47760,6,0,B|373:104|413:135|413:135|452:103|493:102,1,172.124997701883,2|0,3:2|0:0,0:0:0:0:
267,242,48101,22,0,B|300:207|289:143|262:159|236:107|283:46,1,195.750005973816,8|0,1:0|0:0,0:0:0:0:
359,4,48441,5,0,3:0:0:0:
358,13,48527,1,0,3:0:0:0:
358,22,48612,1,0,3:0:0:0:
358,31,48697,1,0,3:0:0:0:
358,40,48782,6,0,B|316:18|316:18|213:34,1,125.999996154785,8|0,1:0|0:0,0:0:0:0:
158,274,49464,6,0,L|207:266,1,49.5,6|0,2:0|0:0,0:0:0:0:
94,318,51510,22,0,P|82:291|84:251,1,62.9999980773926,2|0,2:0|0:0,0:0:0:0:
287,288,51851,2,0,P|290:258|276:221,1,62.9999980773926,2|0,2:0|0:0,0:0:0:0:
59,313,52191,6,0,P|52:284|60:245,1,62.9999980773926,2|0,2:0|0:0,0:0:0:0:
319,271,52532,2,0,P|315:242|296:207,1,62.9999980773926,2|0,2:0|0:0,0:0:0:0:
4,188,52873,6,0,P|40:171|81:172,1,80.9999975280763,2|0,2:0|0:0,0:0:0:0:
332,136,53214,2,0,P|292:132|254:145,1,80.9999975280763,2|0,2:0|0:0,0:0:0:0:
17,162,53555,6,0,P|55:151|94:159,1,80.9999975280763,2|0,2:0|0:0,0:0:0:0:
311,117,53896,2,0,P|271:118|236:138,1,80.9999975280763,2|0,2:0|0:0,0:0:0:0:
185,271,54237,22,0,L|182:251,1,20.2499993820191,8|0,2:0|0:0,0:0:0:0:
264,190,54919,6,0,B|262:187|262:187|260:186|260:186|257:186|257:186|255:185|255:185|253:186|253:186|251:186|251:186|250:187|250:187|249:188|249:188|248:191|248:191|248:192|248:192|249:194|249:194|250:196|250:196|251:197|251:197|252:198|252:198|254:198|254:198|257:198|257:198|259:197|259:197|260:196|260:196|262:195|262:195|263:193|263:193|264:192|264:192|262:189,12,45,8|0|0|0|0|0|0|0|0|0|0|0|0,3:0|0:0|0:0|0:0|0:0|0:0|0:0|0:0|0:0|0:0|0:0|0:0|0:0,0:0:0:0:
210,263,55601,5,8,2:0:0:0:
210,263,55941,5,8,2:0:0:0:
236,363,56112,1,2,2:0:0:0:
356,254,56282,2,0,L|293:248,1,53.9999983520508,0|0,3:0|0:0,0:0:0:0:
409,317,56538,21,0,3:0:0:0:
427,300,56623,2,0,P|436:273|439:256,1,45,2|0,3:2|0:0,0:0:0:0:
512,235,56794,2,0,P|501:211|491:198,1,38.2500007295609,2|0,2:0|0:0,0:0:0:0:
377,135,56964,6,0,L|352:135,1,22.5,4|0,2:0|0:0,0:0:0:0:
323,135,57476,6,0,L|400:135,1,53.9999983520508
485,135,57646,1,8,2:0:0:0:
485,135,57987,2,0,P|480:116|476:138,1,53.9999983520508,2|0,2:0|0:0,0:0:0:0:
323,135,58328,6,0,L|293:132,1,29.2499986610413,2|0,2:0|0:0,0:0:0:0:
318,126,58498,2,0,L|288:123,1,29.2499986610413,2|0,2:0|0:0,0:0:0:0:
111,103,58669,1,8,2:0:0:0:
111,103,59010,21,8,2:0:0:0:
45,187,59180,1,2,2:0:0:0:
68,33,59351,5,0,3:0:0:0:
87,28,59436,1,0,3:0:0:0:
111,26,59521,1,0,3:0:0:0:
144,37,59606,1,0,3:0:0:0:
179,70,59691,5,0,3:0:0:0:
182,142,59805,5,0,3:0:0:0:
125,208,59919,21,0,3:0:0:0:
28,176,60032,6,0,P|26:195|29:216,1,40.4999987640381,8|0,3:0|0:0,0:0:0:0:
44,340,60203,2,0,B|60:290|32:250|32:250|1:208|25:150,1,175.499991966248,4|0,2:1|0:0,0:0:0:0:
33,97,60544,6,0,P|75:118|93:154,2,62.9999980773926,8|2|2,2:0|2:0|2:0,0:0:0:0:
209,313,61055,6,0,L|205:265,1,31.4999990386963,2|0,2:0|0:0,0:0:0:0:
125,240,61226,2,0,L|129:192,1,40.4999987640381,2|0,2:0|0:0,0:0:0:0:
112,384,61396,1,8,2:0:0:0:
457,156,61737,22,0,P|439:151|418:150,1,31.4999990386963,4|0,1:0|0:0,0:0:0:0:
343,251,61907,2,0,P|354:239|364:226,1,31.4999990386963,0|0,3:0|0:0,0:0:0:0:
318,105,62078,2,0,P|322:123|332:141,1,31.4999990386963,0|0,3:0|0:0,0:0:0:0:
459,266,62248,6,0,P|454:247|444:229,1,40.4999987640381,4|0,1:0|0:0,0:0:0:0:
249,190,62419,2,0,P|267:195|288:196,1,40.4999987640381,0|0,3:0|0:0,0:0:0:0:
414,54,62589,2,0,P|400:67|389:84,1,40.4999987640381,0|0,3:0|0:0,0:0:0:0:
350,295,62760,6,0,L|344:251,1,45,4|0,1:0|0:0,0:0:0:0:
246,59,62930,2,0,L|239:109,1,49.5000015106202,0|0,3:0|0:0,0:0:0:0:
374,171,63101,5,4,1:0:0:0:
246,59,63271,1,0,3:0:0:0:
170,62,63356,1,0,3:0:0:0:
94,62,63441,2,0,L|44:64,2,29.2499986610413,0|0|0,3:0|3:0|3:0,0:0:0:0:
342,250,63612,21,4,1:0:0:0:
230,156,63782,1,0,3:0:0:0:
179,158,63867,1,0,3:0:0:0:
128,158,63953,2,0,L|98:158,2,26.9999991760254,0|0|0,3:0|3:0|3:0,0:0:0:0:
424,281,64123,5,4,1:0:0:0:
219,249,64294,1,0,3:0:0:0:
193,250,64379,1,0,3:0:0:0:
168,250,64464,2,0,L|128:251,2,24.7500007553101,0|0|0,3:0|3:0|3:0,0:0:0:0:
454,201,64635,5,4,1:0:0:0:
213,340,64805,1,0,3:0:0:0:
198,340,64890,1,0,3:0:0:0:
184,340,64976,2,0,L|154:341,2,22.5,0|0|0,3:0|3:0|3:0,0:0:0:0:
444,54,65146,6,0,L|449:131,1,73.1249966526033,8|0,1:0|0:0,0:0:0:0:
454,201,65657,1,8,2:0:0:0:
444,54,65828,21,6,3:2:0:0:
277,130,65998,1,0,0:0:0:0:
233,127,66083,1,0,0:0:0:0:
189,124,66169,1,8,1:0:0:0:
360,90,66339,6,0,L|351:212,1,107.999996704102,0|2,0:0|3:2,0:0:0:0:
346,270,66595,1,0,0:0:0:0:
342,312,66680,1,0,0:0:0:0:
124,189,66851,5,8,1:0:0:0:
101,151,66936,1,0,0:0:0:0:
99,107,67021,1,0,0:0:0:0:
117,67,67106,1,0,0:0:0:0:
151,40,67191,6,0,L|204:44,1,53.9999983520508,2|0,3:2|0:0,0:0:0:0:
269,214,67362,2,0,L|215:209,1,53.9999983520508
152,24,67532,2,0,L|259:32,1,107.999996704102,8|0,1:0|0:0,0:0:0:0:
351,30,67788,1,0,0:0:0:0:
335,41,67873,21,2,3:2:0:0:
360,112,67958,1,2,0:0:0:0:
339,185,68044,1,2,0:0:0:0:
269,214,68129,1,2,0:0:0:0:
194,200,68214,2,0,P|193:170|205:142,1,53.9999983520508,8|0,1:0|0:0,0:0:0:0:
417,171,68385,2,0,P|418:201|406:229,1,53.9999983520508
254,58,68555,5,2,3:2:0:0:
129,307,68726,1,0,0:0:0:0:
125,263,68811,1,0,0:0:0:0:
123,220,68896,1,8,1:0:0:0:
87,378,69066,6,0,B|144:385|144:385|188:360,1,107.999996704102,0|2,0:0|3:2,0:0:0:0:
244,313,69322,1,0,0:0:0:0:
278,287,69407,1,0,0:0:0:0:
185,159,69578,5,8,1:0:0:0:
147,137,69663,1,0,0:0:0:0:
103,137,69748,1,0,0:0:0:0:
65,157,69833,1,0,0:0:0:0:
45,195,69919,22,0,L|47:257,1,53.9999983520508,2|0,3:2|0:0,0:0:0:0:
152,59,70089,2,0,L|154:-3,1,53.9999983520508
280,250,70260,2,0,B|316:262|316:262|401:244,1,107.999996704102,8|0,1:0|0:0,0:0:0:0:
488,284,70515,1,0,0:0:0:0:
476,298,70601,5,2,3:2:0:0:
457,225,70686,1,2,0:0:0:0:
438,152,70771,1,2,0:0:0:0:
421,77,70856,1,2,0:0:0:0:
402,4,70941,2,0,B|361:-8|361:-8|287:16,1,121.499996292114,8|0,1:0|0:0,0:0:0:0:
232,78,71282,6,0,P|258:94|281:97,1,53.9999983520508,4|0,3:2|0:0,0:0:0:0:
297,176,71453,2,0,P|326:168|345:154,1,53.9999983520508,0|0,3:0|0:0,0:0:0:0:
168,28,71623,6,0,P|152:54|149:77,1,53.9999983520508,8|0,1:0|0:0,0:0:0:0:
70,93,71794,2,0,P|77:122|91:141,1,53.9999983520508,0|0,3:0|0:0,0:0:0:0:
192,224,71964,21,6,3:2:0:0:
192,224,72049,1,2,2:0:0:0:
192,224,72135,2,0,P|162:215|139:218,1,53.9999983520508,2|0,2:0|0:0,0:0:0:0:
21,263,72305,6,0,P|43:242|52:220,1,53.9999983520508,8|0,1:0|0:0,0:0:0:0:
167,354,72646,5,12,1:0:0:0:
240,338,72731,1,0,3:0:0:0:
297,289,72816,1,0,3:0:0:0:
309,213,72902,1,0,3:0:0:0:
285,141,72987,5,12,1:0:0:0:
262,212,73072,1,0,3:0:0:0:
276,286,73157,1,0,3:0:0:0:
336,334,73243,1,0,3:0:0:0:
410,349,73328,21,12,1:0:0:0:
360,293,73413,1,0,3:0:0:0:
288,268,73498,1,0,3:0:0:0:
217,296,73584,1,0,3:0:0:0:
167,354,73669,5,12,1:0:0:0:
480,314,74691,6,0,L|481:297,1,18,2|0,2:0|0:0,0:0:0:0:
405,314,75032,6,0,L|407:287,1,26.9999991760254,2|0,2:0|0:0,0:0:0:0:
331,315,75373,22,0,L|332:280,1,36,2|0,2:0|0:0,0:0:0:0:
257,318,75714,6,0,L|259:273,1,45,2|0,2:0|0:0,0:0:0:0:
182,319,76055,6,0,L|185:266,1,53.9999983520508,2|0,2:0|0:0,0:0:0:0:
107,322,76396,6,0,L|110:259,1,62.9999980773926,2|0,2:0|0:0,0:0:0:0:
24,54,76737,22,0,L|26:125,1,72,2|0,2:0|0:0,0:0:0:0:
105,42,77078,6,0,L|108:122,1,80.9999975280763,2|0,2:0|0:0,0:0:0:0:
189,30,77419,6,0,L|192:119,1,90,2|0,2:0|0:0,0:0:0:0:
271,18,77760,6,0,L|275:116,1,99.0000030212403,2|0,2:0|0:0,0:0:0:0:
354,9,78101,22,0,L|358:122,1,107.999996704102,2|0,2:0|0:0,0:0:0:0:
436,0,78441,6,0,L|441:123,1,116.999994644165,2|0,2:0|0:0,0:0:0:0:
256,210,78782,6,0,L|256:192,1,18,8|0,2:0|0:0,0:0:0:0:
502,232,79464,6,0,B|457:194|386:221|386:221|341:233|319:222|313:180|355:157|385:167|386:222|386:222|381:249|356:279,2,341.999990867615,4|2|2,1:0|2:0|2:0,0:0:0:0:
502,232,81510,21,8,2:0:0:0:
11,233,82191,6,0,B|56:195|127:222|127:222|172:234|194:223|200:181|158:158|128:168|127:223|127:223|132:250|157:280,2,341.999990867615,4|2|2,1:0|2:0|2:0,0:0:0:0:
11,233,84237,5,8,2:0:0:0:
504,260,84919,6,0,L|510:317,2,56.9999984779358,2|0|0,3:2|3:0|3:0,0:0:0:0:
375,206,85260,2,0,L|380:149,2,56.9999984779358,0|0|0,3:0|3:0|3:0,0:0:0:0:
464,105,85601,21,2,3:2:0:0:
425,64,85714,1,0,3:0:0:0:
370,54,85828,1,0,3:0:0:0:
319,79,85941,1,0,3:0:0:0:
268,103,86055,1,0,3:0:0:0:
213,93,86169,1,0,3:0:0:0:
174,53,86282,5,2,3:2:0:0:
226,16,86395,1,0,3:0:0:0:
290,24,86509,1,0,3:0:0:0:
331,74,86622,1,0,3:0:0:0:
327,139,86736,1,0,3:0:0:0:
280,183,86850,1,0,3:0:0:0:
215,183,86964,5,8,3:2:0:0:
138,184,87077,1,0,3:0:0:0:
81,237,87191,1,0,3:0:0:0:
75,313,87305,1,0,3:0:0:0:
125,373,87418,1,0,3:0:0:0:
201,384,87532,1,0,3:0:0:0:
265,340,87646,6,0,P|271:318|269:293,5,33.0000010070801,2|0|0|0|0|0,3:2|3:0|3:0|3:0|3:0|3:0,0:0:0:0:
341,279,87987,2,0,P|329:259|310:242,5,33.0000010070801,0|0|0|0|0|0,3:0|3:0|3:0|3:0|3:0|3:0,0:0:0:0:
351,182,88328,2,0,P|329:175|304:178,5,33.0000010070801,2|0|0|0|0|0,3:2|3:0|3:0|3:0|3:0|3:0,0:0:0:0:
243,226,88669,21,0,3:0:0:0:
236,227,88726,1,0,3:0:0:0:
231,223,88782,1,0,3:0:0:0:
231,216,88839,1,0,3:0:0:0:
236,212,88896,1,0,3:0:0:0:
243,214,88953,1,0,3:0:0:0:
243,226,89010,6,0,P|186:242|133:223,1,108,2|0,2:0|0:0,0:0:0:0:
32,164,89691,2,0,P|57:170|83:162,1,54,2|0,2:0|0:0,0:0:0:0:
145,31,90373,6,0,B|119:76|151:117|151:113|150:109|179:147|158:190,1,167.999994873047,6|0,1:0|0:0,0:0:0:0:
103,245,90714,1,0,0:0:0:0:
110,236,90771,1,0,0:0:0:0:
120,229,90828,1,0,0:0:0:0:
133,224,90885,1,0,0:0:0:0:
150,221,90941,1,0,0:0:0:0:
169,224,90998,1,0,0:0:0:0:
191,236,91055,2,0,P|230:248|270:239,1,83.9999974365235,8|0,1:0|0:0,0:0:0:0:
351,38,91282,5,0,0:0:0:0:
237,88,91396,2,0,L|232:171,1,83.9999974365235,2|0,2:0|0:0,0:0:0:0:
358,278,91623,21,0,0:0:0:0:
392,169,91737,2,0,P|352:156|312:165,1,83.9999974365235,0|0,3:0|0:0,0:0:0:0:
271,238,91964,1,0,0:0:0:0:
373,362,92078,5,0,3:0:0:0:
431,315,92191,1,0,0:0:0:0:
433,239,92305,1,0,0:0:0:0:
276,318,92419,5,8,1:0:0:0:
197,345,92532,1,2,2:0:0:0:
119,312,92646,1,2,2:0:0:0:
120,147,92760,5,2,2:0:0:0:
193,184,92873,2,0,L|194:279,1,83.9999974365235,2|2,2:0|2:0,0:0:0:0:
30,88,93101,22,0,P|100:45|181:61,1,167.999994873047,4|0,1:0|0:0,0:0:0:0:
279,134,93441,1,0,0:0:0:0:
296,140,93498,1,0,0:0:0:0:
314,143,93555,1,0,0:0:0:0:
332,144,93612,1,0,0:0:0:0:
350,142,93669,1,0,0:0:0:0:
368,138,93726,1,0,0:0:0:0:
384,131,93782,2,0,B|424:116|424:116|464:126,1,83.9999974365235,8|0,1:0|0:0,0:0:0:0:
317,254,94010,5,0,0:0:0:0:
262,125,94123,2,0,L|284:17,1,83.9999974365235,2|0,3:2|0:0,0:0:0:0:
430,260,94351,5,0,0:0:0:0:
357,324,94464,2,0,P|316:335|276:323,1,83.9999974365235,2|0,2:0|0:0,0:0:0:0:
204,269,94691,1,0,0:0:0:0:
262,125,94805,5,2,3:2:0:0:
329,175,94919,1,0,0:0:0:0:
317,254,95032,1,0,0:0:0:0:
151,351,95146,21,8,1:0:0:0:
176,272,95260,1,2,2:0:0:0:
158,163,95373,5,2,2:0:0:0:
47,142,95487,1,2,2:0:0:0:
1,241,95601,1,2,2:0:0:0:
75,322,95714,1,2,2:0:0:0:
244,212,95828,6,0,B|315:205|315:205|340:216|340:216|409:210,1,167.999994873047,4|0,1:0|0:0,0:0:0:0:
480,145,96169,1,0,0:0:0:0:
487,129,96226,1,0,0:0:0:0:
486,112,96282,1,0,0:0:0:0:
478,96,96339,1,0,0:0:0:0:
465,84,96396,1,0,0:0:0:0:
449,77,96453,1,0,0:0:0:0:
432,78,96510,2,0,P|387:91|343:82,1,83.9999974365235,8|0,1:0|0:0,0:0:0:0:
125,13,96737,5,0,0:0:0:0:
250,102,96851,2,0,L|244:185,1,83.9999974365235,2|0,2:0|0:0,0:0:0:0:
147,127,97078,21,0,0:0:0:0:
205,34,97191,2,0,P|244:20|285:26,1,83.9999974365235,2|0,3:2|0:0,0:0:0:0:
351,86,97419,1,0,0:0:0:0:
248,135,97532,5,2,3:2:0:0:
249,119,97646,1,0,0:0:0:0:
250,102,97760,1,0,0:0:0:0:
340,201,97873,5,8,1:0:0:0:
311,215,97987,1,2,2:0:0:0:
280,230,98101,1,2,2:0:0:0:
147,127,98214,5,2,2:0:0:0:
248,135,98328,1,2,2:0:0:0:
280,230,98441,1,2,2:0:0:0:
75,214,98555,21,4,1:0:0:0:
76,190,98668,1,2,2:0:0:0:
77,167,98782,1,2,2:0:0:0:
248,135,98896,5,2,2:0:0:0:
134,279,99010,2,0,B|73:299|73:299|15:278,1,125.999996154785,2|0,2:0|0:0,0:0:0:0:
77,167,99237,5,8,1:0:0:0:
76,190,99351,1,2,2:0:0:0:
75,214,99464,1,2,2:0:0:0:
75,378,99578,5,2,3:2:0:0:
206,312,99691,2,0,P|212:277|204:242,1,71.9999978027344,2|0,2:0|0:0,0:0:0:0:
77,167,99919,22,0,L|76:211,5,41.9999987182618,0|0|0|0|0|0,1:0|0:0|0:0|0:0|1:0|0:0,0:0:0:0:
187,122,100260,2,0,L|188:166,5,41.9999987182618,0|0|0|0|0|0,0:0|0:0|3:0|0:0|3:0|0:0,0:0:0:0:
129,68,100601,5,0,3:0:0:0:
169,48,100657,5,0,0:0:0:0:
214,48,100714,5,0,3:0:0:0:
242,68,100771,21,0,0:0:0:0:
278,79,100828,5,0,3:0:0:0:
306,75,100885,5,0,0:0:0:0:
319,66,100941,6,0,P|335:41|339:19,5,41.9999987182618,0|0|0|0|0|0,3:0|0:0|0:0|0:0|0:0|0:0,0:0:0:0:
350,0,101282,22,0,B|314:29|314:29|341:199,1,194.999991073609,12|0,1:0|0:0,0:0:0:0:
400,215,101623,2,0,P|343:203|313:257,1,116.999994644165,2|0,3:2|0:0,0:0:0:0:
345,312,101851,6,0,P|363:301|376:284,1,38.9999982147218,2|0,3:2|0:0,0:0:0:0:
254,193,101964,2,0,B|200:158|150:192|150:192|102:218|70:203,1,194.999991073609,2|0,3:2|0:0,0:0:0:0:
91,133,102305,2,0,P|145:215|56:274,1,194.999991073609,2|0,3:2|0:0,0:0:0:0:
70,203,102646,6,0,B|102:218|150:192|150:192|200:158|254:193,1,194.999991073609,6|0,3:2|0:0,0:0:0:0:
301,253,102987,2,0,B|271:215|271:215|299:91|299:91|352:78,1,225.000008583069,6|0,3:2|0:0,0:0:0:0:
412,37,103328,6,0,P|425:97|414:124,1,89.9999972534181,6|0,3:2|0:0,0:0:0:0:
358,171,103669,1,0,3:2:0:0:
91,69,104010,22,0,B|104:24|161:25|189:60|176:137|89:157,1,194.999991073609,12|0,1:0|0:0,0:0:0:0:
68,208,104351,2,0,P|118:177|184:226,1,116.999994644165,2|0,3:2|0:0,0:0:0:0:
185,269,104578,6,0,P|164:272|145:269,1,38.9999982147218,2|0,3:2|0:0,0:0:0:0:
321,142,104691,2,0,B|358:171|358:171|326:326,1,194.999991073609,2|0,3:2|0:0,0:0:0:0:
265,359,105032,2,0,B|311:330|373:347|344:374|406:390|461:354,1,194.999991073609,2|0,3:2|0:0,0:0:0:0:
512,304,105373,6,0,P|540:221|480:128,1,194.999991073609,6|0,3:2|0:0,0:0:0:0:
380,218,105714,2,0,P|450:262|412:187,1,225.000008583069,6|0,3:2|0:0,0:0:0:0:
291,274,106055,6,0,B|221:293|175:237|175:237|135:298|65:286,1,255.000004863739,6|0,3:2|0:0,0:0:0:0:
7,243,106396,21,0,3:2:0:0:
10,222,106510,1,0,3:0:0:0:
14,201,106623,1,0,3:0:0:0:
18,181,106737,6,0,B|39:72|39:72|32:109|55:148,1,175.499991966248,12|0,1:0|0:0,0:0:0:0:
97,188,107078,5,8,1:0:0:0:
177,210,107191,1,8,1:0:0:0:
270,185,107305,1,8,1:0:0:0:
116,93,107419,5,8,1:0:0:0:
176,225,107532,1,8,1:0:0:0:
231,87,107646,1,8,1:0:0:0:
100,282,107760,21,2,0:0:0:0:
101,289,107816,1,2,0:0:0:0:
102,296,107873,1,2,0:0:0:0:
103,303,107930,1,2,0:0:0:0:
104,310,107987,1,2,0:0:0:0:
105,317,108044,1,2,0:0:0:0:
106,324,108101,6,0,B|156:347|156:347|283:308,1,155.999992858887,12|0,1:0|3:0,0:0:0:0:
390,244,108441,1,0,3:0:0:0:
174,254,108555,1,0,3:0:0:0:
439,65,108782,6,0,B|413:27|413:27|400:169,1,180.000006866455,12|0,1:0|3:0,0:0:0:0:
323,294,109123,1,0,3:0:0:0:
491,144,109237,1,0,3:0:0:0:
132,141,109464,6,0,B|72:148|54:62|112:36|179:44|168:122|168:122|147:304|147:304|75:297|75:297|85:208|85:208|35:183|21:145,1,660,4|8,1:0|2:0,0:0:0:0:
20,144,112191,22,0,B|32:169|45:183|45:183|67:203|84:207|84:207|81:251|81:251|78:254|78:254|74:296|74:296|108:298|108:298|146:303|146:303|146:267|153:245|153:245|152:239|152:239|157:209|158:180|158:180|162:171|162:171|160:147|167:121|167:121|178:43|109:51|53:61|71:147|141:140,1,660,2|8,2:0|2:0,0:0:0:0:
141,139,114919,6,0,B|77:136|70:91|89:59|106:76|121:57|121:57|171:63|167:120|167:120|165:141|162:146|162:146|166:157|162:170|162:170|158:179|158:179|151:201|156:211|156:211|160:226|152:238|152:238|153:244|153:244|147:264|147:274|147:274|151:283|146:302|146:302|128:297|128:297|108:297|108:297|95:299|95:299|74:295|74:295|80:273|78:253|78:253|81:250|81:250|77:236|84:206|84:206|67:202|45:182|45:182|32:168|20:143,1,660,2|8,2:0|2:0,0:0:0:0:
23,149,117646,38,0,B|29:156|29:156|38:176|38:176|57:185|57:185|62:194|62:194|77:200|77:200|74:213|74:213|74:224|74:224|70:230|70:230|72:244|72:244|71:247|71:247|73:256|73:256|71:265|71:265|68:267|68:267|71:271|71:271|69:282|69:282|67:289|67:289|76:286|76:286|88:293|88:293|94:293|94:293|106:289|106:289|112:288|124:292|124:292|127:295|127:295|139:296|139:296|141:286|141:286|144:277|144:277|140:268|140:268|140:258|140:258|136:254|136:254|139:247|139:247|146:238|146:238|145:233|145:233|148:221|148:221|147:212|147:212|149:205|149:205|147:194|147:194|151:185|151:185|151:174|151:174|155:164|155:164|157:151|157:151|155:140|155:140|158:134|158:134|160:114|160:114|160:104|160:104|161:95|161:95|158:82|158:82|156:65|156:65|150:53|139:65|139:65|130:55|114:51|114:51|93:62|93:76|93:76|76:89|76:89|80:106|96:113|96:113|114:127,1,645,2|8,2:0|0:0,0:0:0:0:
107,122,120373,38,0,B|163:99|208:130|208:130|255:163|324:119,1,215.999993408203,2|0,2:0|0:0,0:0:0:0:
311,126,122078,6,0,L|304:192,2,53.9999983520508,2|2|2,2:0|2:0|2:0,0:0:0:0:
392,121,123101,22,0,L|382:209,1,80.9999975280763,2|2,2:0|2:0,0:0:0:0:
455,59,124123,2,0,B|395:17|331:57|331:57|276:90|219:54,1,242.999992584229,2|0,2:0|0:0,0:0:0:0:
111,46,125828,6,0,L|113:33,3,8.99999972534181
115,28,126055,2,0,P|134:24|152:27,1,35.9999989013672
226,58,126510,5,0,0:0:0:0:
168,130,126623,1,0,0:0:0:0:
168,130,126680,1,0,0:0:0:0:
168,130,126737,2,0,L|170:147,1,17.9999994506836
94,215,126964,6,0,L|96:197,2,17.9999994506836
204,234,127305,2,0,L|206:248,1,8.99999972534181
192,237,127419,22,0,L|195:265,1,26.9999991760254
127,341,127703,2,0,L|129:321,2,17.9999994506836
277,296,128101,5,0,0:0:0:0:
354,272,128271,1,0,0:0:0:0:
417,316,128441,1,0,0:0:0:0:
270,311,128669,5,0,0:0:0:0:
419,332,128953,5,0,0:0:0:0:
263,326,129294,21,0,0:0:0:0:
421,348,129691,5,0,0:0:0:0:
256,341,130146,5,0,0:0:0:0:
256,192,130601,5,8,0:0:0:0:
256,192,131282,22,0,B|127:159|165:-17|297:47|297:47|388:-32|519:117|334:219|334:219|296:241|303:289|303:289|305:259|334:244,1,755.999976928712,4|0,2:1|0:0,0:0:0:0:
321,251,134010,6,0,P|355:247|390:255,1,67.5,0|0,2:0|2:0,0:0:0:0:
411,259,134351,2,0,P|428:260|448:258,1,22.5
503,215,134521,2,0,P|510:230|517:249,1,22.5
505,342,134691,5,0,0:0:0:0:
492,360,134777,1,0,0:0:0:0:
473,372,134862,1,0,0:0:0:0:
451,375,134947,1,0,0:0:0:0:
430,368,135032,5,0,2:0:0:0:
403,351,135117,1,0,0:0:0:0:
373,344,135202,1,0,0:0:0:0:
342,346,135287,1,0,0:0:0:0:
312,358,135372,1,0,0:0:0:0:
282,369,135459,1,0,0:0:0:0:
251,371,135544,1,0,0:0:0:0:
221,364,135629,1,0,0:0:0:0:
194,348,135714,21,0,2:0:0:0:
171,314,135799,1,0,0:0:0:0:
171,273,135884,1,0,0:0:0:0:
192,238,135969,1,0,0:0:0:0:
248,289,136055,5,4,1:0:0:0:
