osu file format v14

[General]
AudioFilename: audio.mp3
AudioLeadIn: 0
PreviewTime: 89010
Countdown: 0
SampleSet: Normal
StackLeniency: 0.7
Mode: 1
LetterboxInBreaks: 0
WidescreenStoryboard: 0

[Editor]
DistanceSpacing: 1
BeatDivisor: 16
GridSize: 32
TimelineZoom: 2.599999

[Metadata]
Title:Made In Love
TitleUnicode:Made In Love
Artist:Chroma
ArtistUnicode:黒魔
Creator:Nifty
Version:Muzukashii
Source:SOUND VOLTEX IV HEAVENLY HAVEN
Tags:sdvx electronic instrumental happy music sv robot & human
BeatmapID:2267976
BeatmapSetID:1016229

[Difficulty]
HPDrainRate:5.5
CircleSize:2
OverallDifficulty:4.5
ApproachRate:10
SliderMultiplier:1.4
SliderTickRate:1

[Events]
//Background and Video events
0,0,"O52ps5m.jpg",0,-140
//Break Periods
//Storyboard Layer 0 (Background)
//Storyboard Layer 1 (Fail)
//Storyboard Layer 2 (Pass)
//Storyboard Layer 3 (Foreground)
//Storyboard Layer 4 (Overlay)
//Storyboard Sound Samples

[TimingPoints]
374,681.818181818182,4,1,0,20,1,0
24915,-111.111111111111,4,1,0,20,0,0
25000,-109.89010989011,4,1,0,20,0,0
25085,-108.695652173913,4,1,0,20,0,0
28324,-76.9230769230769,4,1,0,30,0,0
30370,-76.9230769230769,4,1,0,40,0,0
33779,-76.9230769230769,4,1,0,40,0,0
38893,-76.9230769230769,4,1,0,40,0,0
38978,-75.187969924812,4,1,0,40,0,0
39063,-73.5294117647059,4,1,0,40,0,0
39149,-71.9424460431655,4,1,0,40,0,0
39234,-70.4225352112676,4,1,0,40,0,0
39404,-67.5675675675676,4,1,0,40,0,0
39575,-64.9350649350649,4,1,0,40,0,0
39745,-62.5,4,1,0,40,0,0
39915,-60.2409638554217,4,1,0,40,0,0
40256,-68.4931506849315,4,1,0,40,0,0
40597,-60.2409638554217,4,1,0,40,0,0
40767,-62.5,4,1,0,40,0,0
40938,-64.9350649350649,4,1,0,40,0,0
41279,-62.5,4,1,0,50,0,0
41961,-64.0496000102479,4,1,0,50,0,0
42302,-64.8535768368965,4,1,0,50,0,0
42643,-65.6779507953928,4,1,0,50,0,0
43325,-67.3913028827978,4,1,0,50,0,0
44006,-69.1964424724996,4,1,0,50,0,0
44688,-71.1008978621382,4,1,0,50,0,0
45200,-72.5995503183853,4,1,0,50,0,0
45285,-72.8554453252668,4,1,0,50,0,0
45370,-73.1132040984338,4,1,0,50,0,0
45711,-74.162684748518,4,1,0,50,0,0
46052,-75.2427330568414,4,1,0,50,0,0
46223,-75.7946117610499,4,1,0,50,0,0
46393,-76.3547042515063,4,1,0,50,0,0
46563,-76.9230769230769,4,1,0,50,0,0
46734,-76.9230769230769,4,1,0,50,0,0
47075,-74.0740740740741,4,1,0,50,0,0
47416,-71.4285714285714,4,1,0,50,0,0
47757,-68.9655172413793,4,1,0,50,0,0
48098,-66.6666666666667,4,1,0,50,0,0
48438,-64.5161290322581,4,1,0,50,0,0
48524,-64,4,1,0,50,0,0
48609,-63.4920634920635,4,1,0,50,0,0
48694,-62.992125984252,4,1,0,50,0,0
48779,-62.5,4,1,0,50,0,0
49460,-55.5555555555556,4,1,0,30,0,0
52188,-83.3333333333333,4,1,0,30,0,0
52529,-77.0210121023116,4,1,0,30,0,0
52870,-71.5976441511169,4,1,0,40,0,0
53211,-66.6666666666667,4,1,0,40,0,0
53552,-62.5,4,1,0,50,0,0
53893,-58.8235294117647,4,1,0,50,0,0
54233,-55.5555555555556,4,1,0,60,0,0
54915,-66.6666666666667,4,1,0,80,0,0
55579,-76.9230769230769,4,1,0,80,0,0
60164,-71.4285714285714,4,1,0,80,0,0
60305,-76.9230769230769,4,1,0,80,0,0
61735,-66.6666666666667,4,1,0,80,0,0
63099,-58.8235294117647,4,1,0,80,0,0
65656,-50,4,1,0,60,0,0
72642,-45.4545454545455,4,1,0,70,0,0
74006,-65.7894736842105,4,1,0,20,0,0
74347,-64.9350649350649,4,1,0,20,0,0
74688,-64.1025641025641,4,1,0,20,0,0
75029,-63.2911392405063,4,1,0,20,0,0
75370,-62.5,4,1,0,30,0,0
75710,-61.7283950617284,4,1,0,30,0,0
76051,-60.9756097560976,4,1,0,30,0,0
76392,-60.2409638554217,4,1,0,30,0,0
76733,-59.5238095238095,4,1,0,40,0,0
77074,-58.8235294117647,4,1,0,40,0,0
77415,-58.1395348837209,4,1,0,40,0,0
77757,-57.4712643678161,4,1,0,40,0,0
78097,-56.8181818181818,4,1,0,50,0,0
78438,-56.1797752808989,4,1,0,50,0,0
78722,-55.6108265381538,4,1,0,30,0,0
78864,-56.4971751412429,4,1,0,30,0,0
78949,-57.4712643678161,4,1,0,30,0,0
79034,-58.4795321637427,4,1,0,30,0,0
79404,-50,4,1,0,70,0,0
80143,-83.3333333333333,4,1,0,50,0,0
80825,-77.3542375424868,4,1,0,50,0,0
81507,-72.1757450521722,4,1,0,50,0,0
82188,-67.6470528546718,4,1,0,50,0,0
82870,-63.6531564963775,4,1,0,50,0,0
83552,-60.104533805194,4,1,0,50,0,0
84234,-56.9306846142548,4,1,0,50,0,0
84915,-54.0752457043977,4,1,0,60,0,0
85029,-53.6269516188368,4,1,0,60,0,0
85143,-53.1860293065659,4,1,0,60,0,0
85257,-52.7522984176421,4,1,0,60,0,0
85370,-52.325584437534,4,1,0,60,0,0
85484,-51.905718453002,4,1,0,60,0,0
85598,-51.4925369291602,4,1,0,60,0,0
85711,-51.0858814971024,4,1,0,60,0,0
85825,-50.6855987515123,4,1,0,60,0,0
85938,-50.2915400577146,4,1,0,60,0,0
86052,-49.903561367657,4,1,0,60,0,0
86166,-49.5215230443455,4,1,0,60,0,0
86279,-49.1452896942819,4,1,0,60,0,0
86393,-48.774730007482,4,1,0,60,0,0
86507,-48.409740039696,4,1,0,60,0,0
86620,-48.0501489794869,4,1,0,60,0,0
86734,-47.6958606670362,4,1,0,60,0,0
86848,-47.3467586645752,4,1,0,60,0,0
86961,-47.0027299185537,4,1,0,60,0,0
87075,-46.663664637575,4,1,0,60,0,0
87188,-46.3294561755775,4,1,0,60,0,0
87302,-46.00000092,4,1,0,60,0,0
87416,-45.6751981846849,4,1,0,60,0,0
87529,-45.3549501072871,4,1,0,60,0,0
87642,-45.0391615509686,4,1,0,70,0,0
87728,-44.8051959689661,4,1,0,70,0,0
87813,-44.5736485938351,4,1,0,70,0,0
87899,-44.3444821273999,4,1,0,70,0,0
87984,-44.1176405709352,4,1,0,70,0,0
88069,-43.8931272580271,4,1,0,70,0,0
88154,-43.6708874579395,4,1,0,70,0,0
88240,-43.4508868108744,4,1,0,70,0,0
88325,-43.23309164594,4,1,0,70,0,0
88382,-43.0890914363447,4,1,0,70,0,0
88438,-42.9460657538624,4,1,0,70,0,0
88495,-42.8039680990587,4,1,0,70,0,0
88552,-42.6628258746626,4,1,0,70,0,0
88609,-42.5225933168941,4,1,0,70,0,0
88666,-42.3832975900857,4,1,0,70,0,0
88723,-42.2448936484802,4,1,0,70,0,0
88779,-42.1074084195447,4,1,0,70,0,0
88836,-41.9707975584748,4,1,0,70,0,0
88893,-41.8350877574636,4,1,0,70,0,0
88950,-41.6666666666667,4,1,0,70,0,0
89006,-41.49377593361,4,1,0,70,0,0
90374,-50,4,1,0,70,0,1
101283,-49.9490270179282,4,1,0,70,0,0
101620,-51.2820512820513,4,1,0,70,0,0
102131,-52.6315789473684,4,1,0,70,0,0
102922,-54.054054054054,4,1,0,70,0,0
103612,-55.5555555555556,4,1,0,70,0,0
104312,-54.054054054054,4,1,0,70,0,0
104942,-52.6315789473684,4,1,0,70,0,0
105662,-51.2820512820513,4,1,0,70,0,0
106382,-50,4,1,0,70,0,0
106960,-50,4,1,0,70,0,0
107074,-50.7117392605214,4,1,0,70,0,0
107188,-51.4440340353729,4,1,0,70,0,0
107301,-52.1978151038554,4,1,0,70,0,0
107415,-52.9739860646632,4,1,0,70,0,0
107529,-53.7735884567464,4,1,0,70,0,0
107642,-54.5976995805259,4,1,0,70,0,0
107756,-52.6315789473684,4,1,0,70,0,0
107843,-52.0833333333333,4,1,0,70,0,0
107928,-51.5463917525773,4,1,0,70,0,0
108101,-50,4,1,0,70,0,1
108267,-50,4,1,0,70,0,1
108779,-50,4,1,0,70,0,1
108949,-50,4,1,0,70,0,1
109464,-43.4782608695652,4,1,0,70,0,0
109517,-25,4,1,0,30,0,0
112131,-50,4,1,0,70,0,0
112245,-26.3157894736842,4,1,0,30,0,0
114858,-62.5,4,1,0,70,0,0
114972,-30.3030303030303,4,1,0,30,0,0
117585,-90.9090909090909,4,1,0,70,0,0
117699,-35.7142857142857,4,1,0,30,0,0
120313,-125,4,1,0,40,0,0
125767,-166.666666666667,4,1,0,40,0,0
131224,-50,4,1,0,70,0,0
131394,-50,4,1,0,50,0,0
134006,-55.5555555555556,4,1,0,60,0,0
134262,-53.3333333333333,4,1,0,60,0,0
134347,-52.6315789473684,4,1,0,60,0,0
134517,-51.2820512820513,4,1,0,60,0,0
134602,-50.6329113924051,4,1,0,60,0,0
134688,-50,4,1,0,60,0,0
134773,-49.3827160493827,4,1,0,60,0,0
134858,-48.780487804878,4,1,0,60,0,0
134943,-48.1927710843373,4,1,0,60,0,0
135029,-47.6190476190476,4,1,0,60,0,0
135114,-47.0588235294118,4,1,0,60,0,0
135199,-46.5116279069767,4,1,0,60,0,0
135284,-45.9770114942529,4,1,0,60,0,0
135370,-45.4545454545455,4,1,0,60,0,0
135455,-44.9438202247191,4,1,0,60,0,0
135540,-44.4444444444444,4,1,0,60,0,0
135625,-43.956043956044,4,1,0,60,0,0
135710,-43.4782608695652,4,1,0,60,0,0
135796,-43.010752688172,4,1,0,60,0,0
135881,-42.5531914893617,4,1,0,60,0,0
135966,-42.1052631578947,4,1,0,60,0,0
136051,-41.6666666666667,4,1,0,60,0,0

[HitObjects]
320,128,3101,5,0,0:0:0:0:
320,128,4805,1,0,0:0:0:0:
320,128,5146,1,0,0:0:0:0:
320,128,5487,1,8,0:0:0:0:
320,128,5828,1,8,0:0:0:0:
320,128,6339,1,0,0:0:0:0:
320,128,6851,1,0,0:0:0:0:
320,128,8555,1,8,0:0:0:0:
320,128,8896,1,0,0:0:0:0:
320,128,9067,1,0,0:0:0:0:
320,128,9408,1,0,0:0:0:0:
320,128,9578,1,8,0:0:0:0:
320,128,10601,1,8,0:0:0:0:
320,128,11283,1,8,0:0:0:0:
320,128,11624,1,0,0:0:0:0:
320,128,11794,1,0,0:0:0:0:
320,128,12135,1,0,0:0:0:0:
320,128,12305,1,8,0:0:0:0:
320,128,13669,1,0,0:0:0:0:
320,128,13839,1,0,0:0:0:0:
320,128,14010,1,8,0:0:0:0:
320,128,15714,1,0,0:0:0:0:
320,128,16055,1,0,0:0:0:0:
320,128,16396,1,8,0:0:0:0:
320,128,16737,1,8,0:0:0:0:
320,128,17249,1,0,0:0:0:0:
320,128,17760,1,0,0:0:0:0:
320,128,19464,1,8,0:0:0:0:
320,128,19805,1,0,0:0:0:0:
320,128,19976,1,0,0:0:0:0:
320,128,20487,1,0,0:0:0:0:
320,128,20828,1,8,0:0:0:0:
320,128,21510,1,8,0:0:0:0:
288,128,22192,1,0,0:0:0:0:
320,128,24919,5,0,0:0:0:0:
320,128,25089,1,8,0:0:0:0:
320,96,26964,1,8,0:0:0:0:
320,96,27646,1,0,0:0:0:0:
352,96,28328,1,8,0:0:0:0:
352,96,28413,1,8,0:0:0:0:
352,96,28499,1,8,0:0:0:0:
352,96,28669,1,8,0:0:0:0:
352,96,28839,1,0,0:0:0:0:
352,96,29010,1,8,0:0:0:0:
352,96,29351,1,8,0:0:0:0:
352,96,29521,1,0,0:0:0:0:
352,96,29606,1,0,0:0:0:0:
352,96,29692,1,0,0:0:0:0:
352,96,29862,1,8,0:0:0:0:
352,96,30033,1,0,0:0:0:0:
352,96,30374,1,12,0:0:0:0:
352,96,30714,1,0,0:0:0:0:
352,96,31055,1,8,0:0:0:0:
352,96,31396,1,0,0:0:0:0:
352,96,31567,1,0,0:0:0:0:
352,96,31737,1,0,0:0:0:0:
352,96,32078,1,0,0:0:0:0:
352,96,32419,1,8,0:0:0:0:
352,96,32760,1,0,0:0:0:0:
352,96,32930,1,0,0:0:0:0:
352,96,33101,1,8,0:0:0:0:
352,96,33442,1,0,0:0:0:0:
352,96,33783,1,8,0:0:0:0:
352,96,34124,1,0,0:0:0:0:
352,96,34294,1,8,0:0:0:0:
352,96,34464,1,8,0:0:0:0:
352,96,34635,1,0,0:0:0:0:
352,96,34805,1,8,0:0:0:0:
352,96,35146,1,8,0:0:0:0:
352,96,35658,1,0,0:0:0:0:
352,96,35828,1,8,0:0:0:0:
384,96,36169,1,0,0:0:0:0:
352,96,36510,1,8,0:0:0:0:
352,96,36851,1,0,0:0:0:0:
352,96,37021,1,0,0:0:0:0:
352,96,37192,1,0,0:0:0:0:
352,96,37533,1,0,0:0:0:0:
352,96,37874,1,8,0:0:0:0:
352,96,38214,1,0,0:0:0:0:
352,96,38385,1,0,0:0:0:0:
352,96,38555,1,8,0:0:0:0:
352,96,38896,1,0,0:0:0:0:
384,95,38981,1,0,0:0:0:0:
384,96,39067,1,0,0:0:0:0:
384,96,39237,1,8,0:0:0:0:
352,96,39408,1,8,0:0:0:0:
352,96,39578,1,0,0:0:0:0:
352,96,39749,1,0,0:0:0:0:
352,96,39919,1,12,0:0:0:0:
352,96,40260,1,0,0:0:0:0:
352,96,40601,1,12,0:0:0:0:
352,96,40942,1,0,0:0:0:0:
352,96,41283,1,12,0:0:0:0:
352,96,41964,1,8,0:0:0:0:
352,96,42305,1,0,0:0:0:0:
352,96,42646,1,0,0:0:0:0:
352,96,43328,1,8,0:0:0:0:
352,96,44010,1,0,0:0:0:0:
352,96,44692,1,8,0:0:0:0:
352,64,45203,1,8,0:0:0:0:
352,96,45288,1,8,0:0:0:0:
352,96,45374,1,8,0:0:0:0:
352,96,45714,1,0,0:0:0:0:
352,96,46055,1,8,0:0:0:0:
352,96,46226,1,8,0:0:0:0:
352,96,46396,1,0,0:0:0:0:
384,96,46567,1,0,0:0:0:0:
352,96,46737,1,8,0:0:0:0:
352,96,47078,1,0,0:0:0:0:
352,96,47419,1,8,0:0:0:0:
352,96,47760,1,8,0:0:0:0:
384,96,48101,1,8,0:0:0:0:
352,96,48442,1,0,0:0:0:0:
352,64,48527,1,0,0:0:0:0:
352,64,48612,1,0,0:0:0:0:
352,96,48783,1,8,0:0:0:0:
384,64,49464,1,8,0:0:0:0:
320,96,52192,1,0,0:0:0:0:
320,96,52533,1,0,0:0:0:0:
320,96,52874,1,0,0:0:0:0:
320,96,53214,1,0,0:0:0:0:
320,96,53555,1,0,0:0:0:0:
320,96,53896,1,0,0:0:0:0:
320,96,54237,1,8,0:0:0:0:
256,64,54919,1,4,0:0:0:0:
320,96,55601,1,0,0:0:0:0:
320,96,55942,1,8,0:0:0:0:
320,96,56112,1,0,0:0:0:0:
320,96,56283,1,0,0:0:0:0:
320,96,56624,1,0,0:0:0:0:
320,64,56794,1,0,0:0:0:0:
320,96,56964,1,8,0:0:0:0:
352,64,57305,1,0,0:0:0:0:
320,96,57419,1,0,0:0:0:0:
320,96,57533,1,8,0:0:0:0:
352,64,57646,1,8,0:0:0:0:
352,64,57987,1,8,0:0:0:0:
352,64,58158,1,0,0:0:0:0:
352,64,58243,1,0,0:0:0:0:
352,64,58328,1,0,0:0:0:0:
352,64,58499,1,0,0:0:0:0:
352,64,58669,1,8,0:0:0:0:
384,96,59010,1,8,0:0:0:0:
352,64,59180,1,0,0:0:0:0:
352,64,59351,1,8,0:0:0:0:
384,96,59521,1,0,0:0:0:0:
384,96,59692,1,8,0:0:0:0:
384,64,59805,1,8,0:0:0:0:
352,64,59919,1,8,0:0:0:0:
352,64,60033,1,0,0:0:0:0:
384,96,60203,1,12,0:0:0:0:
352,64,60544,1,0,0:0:0:0:
352,64,60714,1,8,0:0:0:0:
352,64,60885,1,0,0:0:0:0:
352,64,61055,1,8,0:0:0:0:
352,96,61226,1,8,0:0:0:0:
352,96,61396,1,0,0:0:0:0:
352,64,61737,1,4,0:0:0:0:
352,64,62078,1,8,0:0:0:0:
352,64,62249,1,4,0:0:0:0:
352,64,62589,1,8,0:0:0:0:
352,64,62760,1,4,0:0:0:0:
352,64,63101,1,4,0:0:0:0:
352,64,63271,1,8,0:0:0:0:
352,64,63442,1,8,0:0:0:0:
352,64,63612,1,4,0:0:0:0:
352,64,63783,1,8,0:0:0:0:
384,32,64124,1,12,0:0:0:0:
384,64,64294,1,0,0:0:0:0:
384,64,64464,1,0,0:0:0:0:
384,64,64635,1,12,0:0:0:0:
384,64,64805,1,0,0:0:0:0:
384,64,65146,1,8,0:0:0:0:
384,64,65658,1,8,0:0:0:0:
384,64,65828,1,4,0:0:0:0:
352,64,65999,1,8,0:0:0:0:
384,64,66169,1,8,0:0:0:0:
352,64,66339,1,0,0:0:0:0:
352,64,66510,1,8,0:0:0:0:
352,64,66595,1,8,0:0:0:0:
352,64,66680,1,8,0:0:0:0:
384,64,66851,1,0,0:0:0:0:
384,64,67192,1,0,0:0:0:0:
384,64,67277,1,0,0:0:0:0:
384,64,67362,1,0,0:0:0:0:
384,64,67533,1,8,0:0:0:0:
384,64,67874,1,8,0:0:0:0:
384,64,68044,1,0,0:0:0:0:
384,64,68214,1,8,0:0:0:0:
352,64,68385,1,8,0:0:0:0:
352,64,68555,1,0,0:0:0:0:
352,64,68726,1,8,0:0:0:0:
352,64,68896,1,8,0:0:0:0:
352,64,69067,1,0,0:0:0:0:
352,64,69237,1,8,0:0:0:0:
352,64,69322,1,8,0:0:0:0:
352,64,69408,1,8,0:0:0:0:
352,64,69578,1,0,0:0:0:0:
352,64,69919,1,0,0:0:0:0:
384,64,70004,1,0,0:0:0:0:
384,64,70089,1,0,0:0:0:0:
352,64,70260,1,8,0:0:0:0:
384,64,70601,1,8,0:0:0:0:
384,64,70771,1,0,0:0:0:0:
384,64,70942,1,8,0:0:0:0:
384,64,71283,1,0,0:0:0:0:
384,64,71453,1,8,0:0:0:0:
384,64,71624,1,8,0:0:0:0:
384,64,71794,1,0,0:0:0:0:
384,64,71964,1,8,0:0:0:0:
384,64,72050,1,8,0:0:0:0:
384,64,72135,1,8,0:0:0:0:
384,64,72305,1,0,0:0:0:0:
384,64,72646,1,8,0:0:0:0:
384,64,72731,1,8,0:0:0:0:
384,64,72817,1,8,0:0:0:0:
384,64,72987,1,8,0:0:0:0:
384,64,73072,1,8,0:0:0:0:
384,64,73158,1,8,0:0:0:0:
384,64,73328,1,8,0:0:0:0:
384,64,73413,1,8,0:0:0:0:
384,64,73499,1,8,0:0:0:0:
384,64,73669,1,8,0:0:0:0:
384,96,74351,1,0,0:0:0:0:
384,96,74692,1,0,0:0:0:0:
384,96,75033,1,0,0:0:0:0:
384,96,75374,1,0,0:0:0:0:
384,96,75714,1,0,0:0:0:0:
384,96,76055,1,0,0:0:0:0:
384,96,76396,1,0,0:0:0:0:
384,96,76737,1,8,0:0:0:0:
384,96,77078,1,8,0:0:0:0:
384,96,77419,1,8,0:0:0:0:
384,96,77760,1,8,0:0:0:0:
384,96,78101,1,0,0:0:0:0:
384,96,78442,1,0,0:0:0:0:
352,160,78783,1,0,0:0:0:0:
352,128,78953,1,8,0:0:0:0:
342,143,79038,1,8,0:0:0:0:
352,128,79464,1,4,0:0:0:0:
384,96,80146,1,0,0:0:0:0:
384,96,80828,1,0,0:0:0:0:
352,96,81510,1,0,0:0:0:0:
384,96,82192,1,0,0:0:0:0:
384,96,82874,1,0,0:0:0:0:
384,96,83555,1,0,0:0:0:0:
384,96,84237,1,0,0:0:0:0:
384,96,84919,1,0,0:0:0:0:
384,96,85260,1,0,0:0:0:0:
384,96,85601,1,8,0:0:0:0:
384,96,85942,1,0,0:0:0:0:
384,96,86283,1,8,0:0:0:0:
384,96,86510,1,0,0:0:0:0:
384,96,86624,1,0,0:0:0:0:
384,96,86964,1,8,0:0:0:0:
384,96,87192,1,0,0:0:0:0:
384,96,87305,1,0,0:0:0:0:
384,96,87646,1,8,0:0:0:0:
384,96,87817,1,0,0:0:0:0:
384,96,87987,1,0,0:0:0:0:
384,96,88158,1,0,0:0:0:0:
384,96,88328,1,8,0:0:0:0:
384,96,88413,1,8,0:0:0:0:
384,96,88499,1,8,0:0:0:0:
384,96,88669,1,0,0:0:0:0:
384,96,88839,1,8,0:0:0:0:
384,96,88925,1,8,0:0:0:0:
384,96,89010,1,8,0:0:0:0:
384,96,90374,1,12,0:0:0:0:
384,64,90714,1,0,0:0:0:0:
352,96,90828,1,0,0:0:0:0:
352,96,90942,1,0,0:0:0:0:
384,96,91055,1,8,0:0:0:0:
384,64,91283,1,0,0:0:0:0:
352,64,91396,1,8,0:0:0:0:
384,64,91737,1,8,0:0:0:0:
384,64,91964,1,8,0:0:0:0:
384,64,92078,1,8,0:0:0:0:
384,64,92192,1,0,0:0:0:0:
384,64,92419,1,8,0:0:0:0:
352,64,92646,1,8,0:0:0:0:
384,64,92760,1,0,0:0:0:0:
384,64,93101,1,8,0:0:0:0:
384,64,93442,1,0,0:0:0:0:
384,64,93555,1,0,0:0:0:0:
384,64,93669,1,0,0:0:0:0:
384,64,93783,1,8,0:0:0:0:
384,64,94010,1,0,0:0:0:0:
384,64,94124,1,8,0:0:0:0:
384,64,94464,1,8,0:0:0:0:
384,64,94692,1,8,0:0:0:0:
384,64,94805,1,0,0:0:0:0:
384,64,94919,1,0,0:0:0:0:
384,64,95146,1,8,0:0:0:0:
352,64,95374,1,8,0:0:0:0:
384,64,95487,1,8,0:0:0:0:
384,64,95828,1,8,0:0:0:0:
384,64,96169,1,0,0:0:0:0:
416,64,96283,1,0,0:0:0:0:
416,64,96396,1,0,0:0:0:0:
416,64,96510,1,8,0:0:0:0:
416,64,96737,1,0,0:0:0:0:
416,64,96851,1,8,0:0:0:0:
416,64,97192,1,8,0:0:0:0:
416,64,97419,1,0,0:0:0:0:
416,64,97533,1,0,0:0:0:0:
416,64,97646,1,8,0:0:0:0:
416,64,97874,1,8,0:0:0:0:
416,64,98101,1,0,0:0:0:0:
416,64,98214,1,8,0:0:0:0:
416,64,98555,1,8,0:0:0:0:
416,64,98783,1,8,0:0:0:0:
416,64,99010,1,0,0:0:0:0:
416,64,99237,1,8,0:0:0:0:
416,64,99464,1,0,0:0:0:0:
416,64,99692,1,0,0:0:0:0:
299,180,99919,2,0,L|364:154,7,70
448,64,101283,1,8,0:0:0:0:
416,64,101624,1,0,0:0:0:0:
448,64,101964,1,0,0:0:0:0:
448,96,102305,1,0,0:0:0:0:
448,64,102646,1,8,0:0:0:0:
448,64,102987,1,8,0:0:0:0:
448,64,103328,1,0,0:0:0:0:
448,64,104010,1,8,0:0:0:0:
448,64,104351,1,0,0:0:0:0:
448,64,104692,1,0,0:0:0:0:
448,64,105033,1,8,0:0:0:0:
448,64,105374,1,0,0:0:0:0:
448,64,105714,1,0,0:0:0:0:
448,64,106055,1,8,0:0:0:0:
448,64,106737,1,8,0:0:0:0:
448,64,107078,1,8,0:0:0:0:
448,64,107419,1,8,0:0:0:0:
448,64,107760,1,0,0:0:0:0:
448,64,107845,1,0,0:0:0:0:
448,64,107930,1,0,0:0:0:0:
448,64,108101,1,8,0:0:0:0:
384,96,108328,1,0,0:0:0:0:
384,64,108442,1,0,0:0:0:0:
416,64,108555,1,0,0:0:0:0:
416,64,108783,1,8,0:0:0:0:
416,64,109010,1,0,0:0:0:0:
416,64,109124,1,0,0:0:0:0:
416,64,109237,1,0,0:0:0:0:
416,64,109464,1,12,0:0:0:0:
256,192,109578,12,0,111979,0:0:0:0:
256,160,112192,5,8,0:0:0:0:
256,192,112305,12,0,114706,0:0:0:0:
288,128,114919,5,8,0:0:0:0:
256,192,115033,12,8,117433,0:0:0:0:
224,160,117646,5,8,0:0:0:0:
256,192,117760,12,8,120118,0:0:0:0:
320,128,120374,5,0,0:0:0:0:
320,128,122078,1,0,0:0:0:0:
288,128,122419,1,0,0:0:0:0:
320,128,122760,1,8,0:0:0:0:
320,128,123101,1,8,0:0:0:0:
320,128,123612,1,0,0:0:0:0:
320,128,124124,1,8,0:0:0:0:
256,192,125828,12,0,130601,0:0:0:0:
288,128,131283,5,12,0:0:0:0:
256,192,131453,12,0,133669,0:0:0:0:
320,96,134010,5,8,0:0:0:0:
320,96,134351,1,8,0:0:0:0:
334,88,134521,1,0,0:0:0:0:
334,88,134606,1,0,0:0:0:0:
334,89,134692,1,0,0:0:0:0:
334,89,134862,1,8,0:0:0:0:
334,89,135033,1,0,0:0:0:0:
334,89,135203,1,8,0:0:0:0:
334,89,135288,1,8,0:0:0:0:
334,89,135374,1,8,0:0:0:0:
331,81,135544,1,0,0:0:0:0:
331,81,135714,1,8,0:0:0:0:
320,86,135885,1,8,0:0:0:0:
320,86,135970,1,8,0:0:0:0:
320,86,136055,1,8,0:0:0:0:
