osu file format v14

[General]
AudioFilename: audio.mp3
AudioLeadIn: 0
PreviewTime: 89010
Countdown: 0
SampleSet: Normal
StackLeniency: 0.7
Mode: 1
LetterboxInBreaks: 0
WidescreenStoryboard: 0

[Editor]
DistanceSpacing: 1
BeatDivisor: 16
GridSize: 32
TimelineZoom: 2.599999

[Metadata]
Title:Made In Love
TitleUnicode:Made In Love
Artist:Chroma
ArtistUnicode:黒魔
Creator:Nifty
Version:Futsuu
Source:SOUND VOLTEX IV HEAVENLY HAVEN
Tags:sdvx electronic instrumental happy music sv robot & human
BeatmapID:2267974
BeatmapSetID:1016229

[Difficulty]
HPDrainRate:6
CircleSize:2
OverallDifficulty:3.5
ApproachRate:10
SliderMultiplier:1.4
SliderTickRate:1

[Events]
//Background and Video events
0,0,"O52ps5m.jpg",0,-140
//Break Periods
//Storyboard Layer 0 (Background)
//Storyboard Layer 1 (Fail)
//Storyboard Layer 2 (Pass)
//Storyboard Layer 3 (Foreground)
//Storyboard Layer 4 (Overlay)
//Storyboard Sound Samples

[TimingPoints]
374,681.818181818182,4,1,0,20,1,0
374,-71.4285714285714,4,1,0,20,0,0
28324,-66.6666666666667,4,1,0,30,0,0
30370,-62.5,4,1,0,40,0,0
41279,-62.5,4,1,0,50,0,0
49460,-62.5,4,1,0,30,0,0
52870,-62.5,4,1,0,40,0,0
53552,-62.5,4,1,0,50,0,0
54233,-62.5,4,1,0,60,0,0
54915,-62.5,4,1,0,80,0,0
65656,-52.6315789473684,4,1,0,60,0,0
72642,-52.6315789473684,4,1,0,70,0,0
74006,-58.8235294117647,4,1,0,20,0,0
75370,-58.8235294117647,4,1,0,30,0,0
76733,-58.8235294117647,4,1,0,40,0,0
78097,-58.8235294117647,4,1,0,50,0,0
78722,-55.5555555555556,4,1,0,30,0,0
79404,-62.5,4,1,0,70,0,0
80143,-62.5,4,1,0,50,0,0
84915,-58.8235294117647,4,1,0,60,0,0
87642,-55.5555555555556,4,1,0,70,0,0
90374,-55.5555555555556,4,1,0,70,0,1
101283,-55.5555555555556,4,1,0,70,0,0
108101,-55.5555555555556,4,1,0,70,0,1
109464,-55.5555555555556,4,1,0,70,0,0
109517,-55.5555555555556,4,1,0,30,0,0
112131,-58.8235294117647,4,1,0,70,0,0
112245,-58.8235294117647,4,1,0,30,0,0
114858,-62.5,4,1,0,70,0,0
114972,-62.5,4,1,0,30,0,0
117585,-66.6666666666667,4,1,0,70,0,0
117699,-66.6666666666667,4,1,0,30,0,0
120313,-71.4285714285714,4,1,0,40,0,0
125767,-55.5555555555556,4,1,0,40,0,0
131224,-50,4,1,0,70,0,0
131394,-50,4,1,0,50,0,0
134006,-55.5555555555556,4,1,0,60,0,0
134262,-55.5555555555556,4,1,0,60,0,0

[HitObjects]
320,128,3101,5,0,0:0:0:0:
320,128,4805,1,0,0:0:0:0:
320,128,5146,1,0,0:0:0:0:
320,128,5487,1,8,0:0:0:0:
320,128,5828,1,8,0:0:0:0:
320,128,6339,1,0,0:0:0:0:
320,128,6851,1,0,0:0:0:0:
320,128,8555,1,8,0:0:0:0:
320,128,8896,1,0,0:0:0:0:
320,128,9067,1,0,0:0:0:0:
320,128,9408,1,0,0:0:0:0:
320,128,9578,1,8,0:0:0:0:
320,128,10601,1,8,0:0:0:0:
320,128,11283,1,8,0:0:0:0:
320,128,11624,1,0,0:0:0:0:
320,128,11794,1,0,0:0:0:0:
320,128,12135,1,0,0:0:0:0:
320,128,12305,1,8,0:0:0:0:
320,128,13669,1,0,0:0:0:0:
320,128,13839,1,0,0:0:0:0:
320,128,14010,1,8,0:0:0:0:
320,128,15714,1,0,0:0:0:0:
320,128,16055,1,0,0:0:0:0:
320,128,16396,1,8,0:0:0:0:
320,128,16737,1,8,0:0:0:0:
320,128,17249,1,0,0:0:0:0:
320,128,17760,1,0,0:0:0:0:
320,128,19464,1,8,0:0:0:0:
320,128,19805,1,0,0:0:0:0:
320,128,19976,1,0,0:0:0:0:
320,128,20487,1,0,0:0:0:0:
320,128,20828,1,8,0:0:0:0:
320,128,21510,1,8,0:0:0:0:
288,128,22192,1,0,0:0:0:0:
320,128,24919,5,0,0:0:0:0:
320,128,25089,1,8,0:0:0:0:
320,96,26964,1,8,0:0:0:0:
320,96,27646,1,0,0:0:0:0:
352,96,28328,1,8,0:0:0:0:
352,96,28499,1,0,0:0:0:0:
352,96,28669,1,8,0:0:0:0:
352,96,28839,1,0,0:0:0:0:
352,96,29010,1,8,0:0:0:0:
352,96,29351,1,8,0:0:0:0:
352,96,29521,1,0,0:0:0:0:
352,96,29692,1,0,0:0:0:0:
352,96,29862,1,8,0:0:0:0:
352,96,30033,1,0,0:0:0:0:
352,96,30374,1,12,0:0:0:0:
352,96,31055,1,8,0:0:0:0:
352,96,31396,1,0,0:0:0:0:
352,96,31737,1,0,0:0:0:0:
352,96,32419,1,8,0:0:0:0:
352,96,32760,1,0,0:0:0:0:
352,96,33101,1,8,0:0:0:0:
352,96,33783,1,8,0:0:0:0:
352,96,34124,1,0,0:0:0:0:
352,96,34464,1,8,0:0:0:0:
352,96,34635,1,0,0:0:0:0:
352,96,34805,1,8,0:0:0:0:
352,96,35146,1,8,0:0:0:0:
352,96,35828,1,8,0:0:0:0:
352,96,36510,1,8,0:0:0:0:
352,96,36851,1,0,0:0:0:0:
352,96,37192,1,0,0:0:0:0:
352,96,37874,1,8,0:0:0:0:
352,96,38214,1,0,0:0:0:0:
352,96,38555,1,8,0:0:0:0:
352,96,38896,1,0,0:0:0:0:
384,96,39067,1,0,0:0:0:0:
384,96,39237,1,8,0:0:0:0:
352,96,39578,1,0,0:0:0:0:
352,96,39919,1,12,0:0:0:0:
352,96,40601,1,12,0:0:0:0:
352,96,41283,1,12,0:0:0:0:
352,96,41964,1,8,0:0:0:0:
352,96,42305,1,0,0:0:0:0:
352,96,42646,1,0,0:0:0:0:
352,96,43328,1,8,0:0:0:0:
352,96,44010,1,0,0:0:0:0:
352,96,44692,1,8,0:0:0:0:
352,64,45203,1,8,0:0:0:0:
352,96,45374,1,8,0:0:0:0:
352,96,45714,1,0,0:0:0:0:
352,96,46055,1,8,0:0:0:0:
352,96,46226,1,8,0:0:0:0:
352,96,46396,1,0,0:0:0:0:
352,96,46737,1,8,0:0:0:0:
352,96,47419,1,8,0:0:0:0:
352,96,47760,1,8,0:0:0:0:
384,96,48101,1,8,0:0:0:0:
352,96,48442,1,0,0:0:0:0:
352,64,48612,1,0,0:0:0:0:
352,96,48783,1,8,0:0:0:0:
384,64,49464,1,8,0:0:0:0:
320,96,52192,1,0,0:0:0:0:
320,96,52533,1,0,0:0:0:0:
320,96,52874,1,0,0:0:0:0:
320,96,53214,1,0,0:0:0:0:
320,96,53555,1,0,0:0:0:0:
320,96,53896,1,0,0:0:0:0:
320,96,54237,1,8,0:0:0:0:
256,64,54919,1,4,0:0:0:0:
320,96,55601,1,0,0:0:0:0:
320,96,55942,1,8,0:0:0:0:
320,96,56112,1,0,0:0:0:0:
320,96,56283,1,0,0:0:0:0:
320,96,56624,1,0,0:0:0:0:
320,64,56794,1,0,0:0:0:0:
320,96,56964,1,8,0:0:0:0:
352,64,57646,1,8,0:0:0:0:
352,64,57987,1,8,0:0:0:0:
352,64,58158,1,0,0:0:0:0:
352,64,58328,1,0,0:0:0:0:
352,64,58669,1,8,0:0:0:0:
384,96,59010,1,8,0:0:0:0:
352,64,59180,1,0,0:0:0:0:
352,64,59351,1,8,0:0:0:0:
384,96,59692,1,8,0:0:0:0:
352,64,60033,1,0,0:0:0:0:
384,96,60203,1,12,0:0:0:0:
352,64,60714,1,8,0:0:0:0:
352,64,60885,1,0,0:0:0:0:
352,64,61055,1,8,0:0:0:0:
352,96,61396,1,0,0:0:0:0:
352,64,61737,1,4,0:0:0:0:
352,64,62249,1,4,0:0:0:0:
352,64,62760,1,4,0:0:0:0:
352,64,63101,1,4,0:0:0:0:
352,64,63442,1,8,0:0:0:0:
352,64,63612,1,4,0:0:0:0:
384,32,64124,1,12,0:0:0:0:
384,64,64464,1,0,0:0:0:0:
384,64,64635,1,12,0:0:0:0:
384,64,65146,1,8,0:0:0:0:
384,64,65658,1,8,0:0:0:0:
384,64,65828,1,4,0:0:0:0:
384,64,66169,1,8,0:0:0:0:
352,64,66510,1,8,0:0:0:0:
352,64,66680,1,8,0:0:0:0:
384,64,66851,1,0,0:0:0:0:
384,64,67192,1,0,0:0:0:0:
384,64,67362,1,0,0:0:0:0:
384,64,67533,1,8,0:0:0:0:
384,64,67874,1,8,0:0:0:0:
352,64,68555,1,0,0:0:0:0:
352,64,68896,1,8,0:0:0:0:
352,64,69237,1,8,0:0:0:0:
352,64,69408,1,8,0:0:0:0:
352,64,69578,1,0,0:0:0:0:
352,64,69919,1,0,0:0:0:0:
384,64,70089,1,0,0:0:0:0:
352,64,70260,1,8,0:0:0:0:
384,64,70601,1,8,0:0:0:0:
384,64,70942,1,8,0:0:0:0:
384,64,71112,1,8,0:0:0:0:
384,64,71283,1,0,0:0:0:0:
384,64,71624,1,8,0:0:0:0:
384,64,71964,1,8,0:0:0:0:
384,64,72135,1,8,0:0:0:0:
384,64,72305,1,0,0:0:0:0:
384,64,72646,1,8,0:0:0:0:
384,64,72817,1,8,0:0:0:0:
384,64,72987,1,8,0:0:0:0:
384,64,73158,1,8,0:0:0:0:
384,64,73328,1,8,0:0:0:0:
384,64,73499,1,8,0:0:0:0:
384,64,73669,1,8,0:0:0:0:
384,96,74692,1,0,0:0:0:0:
384,96,75374,1,0,0:0:0:0:
384,96,76055,1,0,0:0:0:0:
384,96,76737,1,8,0:0:0:0:
384,96,77419,1,8,0:0:0:0:
384,96,78101,1,0,0:0:0:0:
352,160,78783,1,0,0:0:0:0:
352,128,79464,1,4,0:0:0:0:
384,96,80146,1,0,0:0:0:0:
384,96,80828,1,8,0:0:0:0:
384,96,82192,1,0,0:0:0:0:
384,96,82874,1,0,0:0:0:0:
384,96,83555,1,8,0:0:0:0:
384,96,84919,1,0,0:0:0:0:
384,96,85260,1,0,0:0:0:0:
384,96,85601,1,8,0:0:0:0:
384,96,86283,1,8,0:0:0:0:
384,96,86624,1,0,0:0:0:0:
384,96,86964,1,8,0:0:0:0:
384,96,87646,1,8,0:0:0:0:
384,96,87987,1,0,0:0:0:0:
384,96,88328,1,8,0:0:0:0:
384,96,88499,1,8,0:0:0:0:
384,96,88669,1,0,0:0:0:0:
384,96,88839,1,0,0:0:0:0:
384,96,89010,1,8,0:0:0:0:
384,96,90374,1,12,0:0:0:0:
384,64,90714,1,0,0:0:0:0:
352,96,90885,1,0,0:0:0:0:
384,96,91055,1,8,0:0:0:0:
352,64,91396,1,0,0:0:0:0:
384,64,91737,1,8,0:0:0:0:
384,64,92078,1,8,0:0:0:0:
384,64,92419,1,8,0:0:0:0:
384,64,92760,1,0,0:0:0:0:
384,64,93101,1,8,0:0:0:0:
384,64,93442,1,0,0:0:0:0:
384,64,93612,1,0,0:0:0:0:
384,64,93783,1,8,0:0:0:0:
384,64,94124,1,0,0:0:0:0:
384,64,94464,1,8,0:0:0:0:
384,64,94805,1,0,0:0:0:0:
384,64,95146,1,8,0:0:0:0:
384,64,95828,1,8,0:0:0:0:
384,64,96169,1,0,0:0:0:0:
416,64,96339,1,0,0:0:0:0:
416,64,96510,1,8,0:0:0:0:
416,64,96851,1,0,0:0:0:0:
416,64,97192,1,8,0:0:0:0:
416,64,97533,1,0,0:0:0:0:
416,64,97874,1,8,0:0:0:0:
416,64,98214,1,8,0:0:0:0:
416,64,98555,1,8,0:0:0:0:
416,64,99237,1,8,0:0:0:0:
416,64,99578,1,0,0:0:0:0:
270,191,99919,2,0,L|313:167,12,31.4999990386963
448,64,101283,1,8,0:0:0:0:
448,64,101964,1,0,0:0:0:0:
448,64,102646,1,8,0:0:0:0:
448,64,102987,1,8,0:0:0:0:
448,64,103328,1,0,0:0:0:0:
448,64,104010,1,8,0:0:0:0:
448,64,104692,1,0,0:0:0:0:
448,64,105374,1,0,0:0:0:0:
448,64,105714,1,0,0:0:0:0:
448,64,106055,1,8,0:0:0:0:
448,64,106737,1,8,0:0:0:0:
448,64,107419,1,8,0:0:0:0:
448,64,107760,1,0,0:0:0:0:
448,64,107930,1,0,0:0:0:0:
448,64,108101,1,8,0:0:0:0:
384,64,108442,1,0,0:0:0:0:
416,64,108783,1,8,0:0:0:0:
416,64,109124,1,0,0:0:0:0:
416,64,109464,1,12,0:0:0:0:
256,192,109635,12,0,111979,0:0:0:0:
256,160,112192,5,8,0:0:0:0:
256,192,112362,12,0,114706,0:0:0:0:
288,128,114919,5,8,0:0:0:0:
256,192,115089,12,8,117433,0:0:0:0:
224,160,117646,5,8,0:0:0:0:
256,192,117817,12,8,120118,0:0:0:0:
320,128,120374,5,0,0:0:0:0:
320,128,122078,1,0,0:0:0:0:
288,128,122419,1,0,0:0:0:0:
320,128,122760,1,8,0:0:0:0:
320,128,123101,1,8,0:0:0:0:
320,128,123612,1,0,0:0:0:0:
320,128,124124,1,8,0:0:0:0:
256,192,125828,12,0,130601,0:0:0:0:
288,128,131283,5,12,0:0:0:0:
256,192,131453,12,0,133669,0:0:0:0:
320,96,134010,5,8,0:0:0:0:
320,96,134351,1,8,0:0:0:0:
334,88,134521,1,0,0:0:0:0:
334,89,134692,1,0,0:0:0:0:
334,89,135033,1,0,0:0:0:0:
334,89,135203,1,8,0:0:0:0:
334,89,135374,1,8,0:0:0:0:
331,81,135714,1,8,0:0:0:0:
320,86,135885,1,0,0:0:0:0:
320,86,136055,1,8,0:0:0:0:
