osu file format v14

[General]
AudioFilename: audio.mp3
AudioLeadIn: 0
PreviewTime: 90580
Countdown: 1
SampleSet: Normal
StackLeniency: 0.7
Mode: 3
LetterboxInBreaks: 0
SpecialStyle: 0
WidescreenStoryboard: 1

[Editor]
Bookmarks: 25125,79670
DistanceSpacing: 1
BeatDivisor: 8
GridSize: 4
TimelineZoom: 2

[Metadata]
Title:Made In Love
TitleUnicode:Made In Love
Artist:Chroma
ArtistUnicode:黒魔
Creator:Captain Cusheen
Version:Endearment
Source:Sound Voltex Havenly Heaven
Tags:Odimension
BeatmapID:1750996
BeatmapSetID:836006

[Difficulty]
HPDrainRate:5
CircleSize:7
OverallDifficulty:5
ApproachRate:5
SliderMultiplier:1.4
SliderTickRate:1

[Events]
//Background and Video events
0,0,"woa.jpg",0,0
//Break Periods
//Storyboard Layer 0 (Background)
//Storyboard Layer 1 (Fail)
//Storyboard Layer 2 (Pass)
//Storyboard Layer 3 (Foreground)
//Storyboard Sound Samples

[TimingPoints]
580,681.818181818182,4,1,0,100,1,0
131446,681.818181818182,4,1,0,100,1,0

[HitObjects]
256,192,580,5,0,0:0:0:0:
36,192,3136,1,0,0:0:0:0:
109,192,3179,1,0,0:0:0:0:
182,192,3222,1,0,0:0:0:0:
256,192,3264,1,0,0:0:0:0:
329,192,3307,128,0,4585:0:0:0:0:
109,192,3989,1,0,0:0:0:0:
109,192,4330,1,0,0:0:0:0:
256,192,4330,1,0,0:0:0:0:
109,192,5011,128,0,5352:0:0:0:0:
182,192,5352,128,0,5693:0:0:0:0:
256,192,5693,128,0,6034:0:0:0:0:
475,192,6034,128,0,6545:0:0:0:0:
329,192,6034,1,0,0:0:0:0:
109,192,6034,1,0,0:0:0:0:
402,192,6545,128,0,7057:0:0:0:0:
182,192,6716,1,0,0:0:0:0:
36,192,7057,1,0,0:0:0:0:
329,192,7057,128,0,7994:0:0:0:0:
256,192,7057,1,0,0:0:0:0:
109,192,7994,1,0,0:0:0:0:
182,192,8037,1,0,0:0:0:0:
36,192,8080,1,0,0:0:0:0:
475,192,8080,1,0,0:0:0:0:
256,192,8080,1,0,0:0:0:0:
402,192,8761,128,0,9102:0:0:0:0:
182,192,8761,1,0,0:0:0:0:
329,192,8761,1,0,0:0:0:0:
109,192,9102,128,0,9187:0:0:0:0:
109,192,9273,128,0,9614:0:0:0:0:
182,192,9273,1,0,0:0:0:0:
256,192,9273,1,0,0:0:0:0:
182,192,9614,128,0,9784:0:0:0:0:
329,192,9784,128,0,10722:0:0:0:0:
402,192,9784,1,0,0:0:0:0:
256,192,9784,1,0,0:0:0:0:
475,192,10722,128,0,11489:0:0:0:0:
36,192,11489,128,0,11830:0:0:0:0:
182,192,11489,1,0,0:0:0:0:
329,192,11489,1,0,0:0:0:0:
402,192,11830,128,0,11915:0:0:0:0:
109,192,12000,1,0,0:0:0:0:
256,192,12000,1,0,0:0:0:0:
402,192,12000,128,0,12341:0:0:0:0:
256,192,12341,128,0,12511:0:0:0:0:
109,192,12511,128,0,13449:0:0:0:0:
329,192,12511,1,0,0:0:0:0:
475,192,12511,1,0,0:0:0:0:
182,192,13875,128,0,14045:0:0:0:0:
256,192,14045,128,0,14216:0:0:0:0:
402,192,14131,1,0,0:0:0:0:
329,192,14216,128,0,15494:0:0:0:0:
475,192,14216,1,0,0:0:0:0:
182,192,14898,1,0,0:0:0:0:
109,192,15239,1,0,0:0:0:0:
256,192,15239,1,0,0:0:0:0:
109,192,15920,128,0,16261:0:0:0:0:
182,192,16261,128,0,16602:0:0:0:0:
329,192,16602,128,0,16943:0:0:0:0:
475,192,16943,128,0,17455:0:0:0:0:
256,192,16943,1,0,0:0:0:0:
109,192,16943,1,0,0:0:0:0:
402,192,17455,128,0,17966:0:0:0:0:
256,192,17625,1,0,0:0:0:0:
109,192,17966,128,0,18903:0:0:0:0:
36,192,17966,1,0,0:0:0:0:
182,192,17966,1,0,0:0:0:0:
402,192,18946,1,0,0:0:0:0:
182,192,18989,1,0,0:0:0:0:
329,192,18989,1,0,0:0:0:0:
475,192,19670,128,0,20011:0:0:0:0:
182,192,19670,1,0,0:0:0:0:
329,192,20011,128,0,20182:0:0:0:0:
109,192,20011,1,0,0:0:0:0:
182,192,20182,128,0,20693:0:0:0:0:
109,192,20182,1,0,0:0:0:0:
256,192,20693,128,0,21034:0:0:0:0:
402,192,20693,1,0,0:0:0:0:
329,192,21034,128,0,21716:0:0:0:0:
475,192,21034,1,0,0:0:0:0:
182,192,21716,128,0,22398:0:0:0:0:
402,192,21716,1,0,0:0:0:0:
256,192,22312,1,0,0:0:0:0:
402,192,22355,1,0,0:0:0:0:
36,192,22398,128,0,27852:0:0:0:0:
329,192,22398,1,0,0:0:0:0:
109,192,23080,1,0,0:0:0:0:
182,192,23420,1,0,0:0:0:0:
256,192,23761,1,0,0:0:0:0:
402,192,23761,1,0,0:0:0:0:
329,192,24102,1,0,0:0:0:0:
475,192,24102,1,0,0:0:0:0:
256,192,24443,1,0,0:0:0:0:
475,192,24443,1,0,0:0:0:0:
256,192,24784,1,0,0:0:0:0:
402,192,24784,1,0,0:0:0:0:
329,192,25125,1,0,0:0:0:0:
182,192,25182,1,0,0:0:0:0:
402,192,25253,1,0,0:0:0:0:
475,192,27170,128,0,27852:0:0:0:0:
256,192,27170,128,0,27852:0:0:0:0:
182,192,27852,128,0,28364:0:0:0:0:
329,192,27852,128,0,28023:0:0:0:0:
402,192,28023,128,0,28193:0:0:0:0:
475,192,28193,128,0,28364:0:0:0:0:
182,192,28534,1,0,0:0:0:0:
36,192,28534,128,0,28705:0:0:0:0:
329,192,28534,128,0,28705:0:0:0:0:
402,192,28705,128,0,28875:0:0:0:0:
329,192,28875,1,0,0:0:0:0:
182,192,28875,128,0,29045:0:0:0:0:
475,192,28875,128,0,29216:0:0:0:0:
109,192,29045,128,0,29386:0:0:0:0:
256,192,29216,1,0,0:0:0:0:
182,192,29557,1,0,0:0:0:0:
36,192,29670,1,0,0:0:0:0:
475,192,29784,1,0,0:0:0:0:
329,192,29841,1,0,0:0:0:0:
182,192,29841,1,0,0:0:0:0:
182,192,30011,1,0,0:0:0:0:
329,192,30011,1,0,0:0:0:0:
329,192,30182,1,0,0:0:0:0:
182,192,30182,1,0,0:0:0:0:
256,192,30182,128,0,30580:0:0:0:0:
109,192,30409,128,0,30580:0:0:0:0:
402,192,30409,128,0,30580:0:0:0:0:
475,192,30580,128,0,31943:0:0:0:0:
36,192,30580,128,0,31432:0:0:0:0:
182,192,30580,1,0,0:0:0:0:
329,192,30580,1,0,0:0:0:0:
109,192,30920,1,0,0:0:0:0:
256,192,30920,1,0,0:0:0:0:
182,192,31261,1,0,0:0:0:0:
329,192,31261,1,0,0:0:0:0:
256,192,31261,1,0,0:0:0:0:
109,192,31432,128,0,31943:0:0:0:0:
256,192,31602,1,0,0:0:0:0:
402,192,31602,1,0,0:0:0:0:
256,192,31943,128,0,32625:0:0:0:0:
182,192,31943,128,0,32625:0:0:0:0:
329,192,31943,1,0,0:0:0:0:
402,192,31943,1,0,0:0:0:0:
36,192,32284,1,0,0:0:0:0:
109,192,32284,1,0,0:0:0:0:
36,192,32625,1,0,0:0:0:0:
402,192,32625,1,0,0:0:0:0:
475,192,32625,128,0,33307:0:0:0:0:
329,192,32625,128,0,33307:0:0:0:0:
109,192,32966,1,0,0:0:0:0:
256,192,32966,1,0,0:0:0:0:
402,192,33307,1,0,0:0:0:0:
36,192,33307,128,0,34670:0:0:0:0:
109,192,33307,128,0,34670:0:0:0:0:
182,192,33307,1,0,0:0:0:0:
256,192,33648,1,0,0:0:0:0:
329,192,33648,1,0,0:0:0:0:
329,192,33989,1,0,0:0:0:0:
475,192,33989,1,0,0:0:0:0:
256,192,34159,128,0,34244:0:0:0:0:
182,192,34330,128,0,34415:0:0:0:0:
256,192,34500,128,0,34585:0:0:0:0:
329,192,34670,128,0,34756:0:0:0:0:
182,192,34670,1,0,0:0:0:0:
402,192,34841,128,0,34926:0:0:0:0:
475,192,35011,128,0,35097:0:0:0:0:
182,192,35011,1,0,0:0:0:0:
329,192,35182,128,0,35267:0:0:0:0:
182,192,35352,128,0,35437:0:0:0:0:
36,192,35352,1,0,0:0:0:0:
402,192,35352,128,0,36034:0:0:0:0:
256,192,35352,128,0,36034:0:0:0:0:
36,192,35693,1,0,0:0:0:0:
329,192,35693,128,0,36034:0:0:0:0:
182,192,36034,128,0,37398:0:0:0:0:
109,192,36034,128,0,37398:0:0:0:0:
36,192,36034,1,0,0:0:0:0:
475,192,36034,1,0,0:0:0:0:
329,192,36375,1,0,0:0:0:0:
475,192,36375,1,0,0:0:0:0:
256,192,36716,1,0,0:0:0:0:
402,192,36716,1,0,0:0:0:0:
329,192,36716,1,0,0:0:0:0:
329,192,37057,128,0,37398:0:0:0:0:
475,192,37057,1,0,0:0:0:0:
256,192,37227,128,0,37398:0:0:0:0:
475,192,37398,128,0,38080:0:0:0:0:
402,192,37398,128,0,37568:0:0:0:0:
36,192,37398,1,0,0:0:0:0:
109,192,37739,1,0,0:0:0:0:
256,192,37739,1,0,0:0:0:0:
36,192,38080,128,0,38761:0:0:0:0:
329,192,38080,128,0,38761:0:0:0:0:
182,192,38080,1,0,0:0:0:0:
256,192,38080,1,0,0:0:0:0:
109,192,38420,1,0,0:0:0:0:
256,192,38420,1,0,0:0:0:0:
402,192,38761,128,0,40125:0:0:0:0:
109,192,38761,128,0,39273:0:0:0:0:
182,192,38761,1,0,0:0:0:0:
475,192,38761,1,0,0:0:0:0:
475,192,39102,1,0,0:0:0:0:
329,192,39102,1,0,0:0:0:0:
182,192,39273,128,0,40125:0:0:0:0:
256,192,39273,1,0,0:0:0:0:
329,192,39358,1,0,0:0:0:0:
256,192,39443,1,0,0:0:0:0:
36,192,39614,1,0,0:0:0:0:
109,192,39614,1,0,0:0:0:0:
256,192,39784,1,0,0:0:0:0:
329,192,39784,1,0,0:0:0:0:
475,192,39955,1,0,0:0:0:0:
109,192,39955,1,0,0:0:0:0:
36,192,40125,1,0,0:0:0:0:
329,192,40125,128,0,40466:0:0:0:0:
256,192,40125,128,0,40295:0:0:0:0:
109,192,40125,1,0,0:0:0:0:
475,192,40125,1,0,0:0:0:0:
182,192,40466,1,0,0:0:0:0:
256,192,40466,1,0,0:0:0:0:
182,192,40807,128,0,41148:0:0:0:0:
256,192,40807,128,0,40977:0:0:0:0:
475,192,40807,1,0,0:0:0:0:
36,192,40807,1,0,0:0:0:0:
109,192,40807,1,0,0:0:0:0:
402,192,40807,1,0,0:0:0:0:
36,192,40977,1,0,0:0:0:0:
475,192,40977,1,0,0:0:0:0:
109,192,40977,128,0,41148:0:0:0:0:
402,192,40977,128,0,41148:0:0:0:0:
36,192,41148,128,0,41489:0:0:0:0:
475,192,41148,128,0,41489:0:0:0:0:
329,192,41148,128,0,41489:0:0:0:0:
256,192,41148,1,0,0:0:0:0:
256,192,41318,128,0,41489:0:0:0:0:
109,192,41489,128,0,42852:0:0:0:0:
402,192,41489,128,0,42511:0:0:0:0:
182,192,41489,1,0,0:0:0:0:
182,192,41830,1,0,0:0:0:0:
36,192,41830,1,0,0:0:0:0:
329,192,42000,128,0,42170:0:0:0:0:
256,192,42170,128,0,42341:0:0:0:0:
182,192,42170,128,0,42511:0:0:0:0:
475,192,42341,128,0,42511:0:0:0:0:
329,192,42511,128,0,42682:0:0:0:0:
256,192,42682,128,0,42852:0:0:0:0:
182,192,42852,128,0,43534:0:0:0:0:
36,192,42852,128,0,44216:0:0:0:0:
475,192,42852,1,0,0:0:0:0:
402,192,42852,1,0,0:0:0:0:
329,192,43193,1,0,0:0:0:0:
256,192,43193,1,0,0:0:0:0:
402,192,43534,128,0,44216:0:0:0:0:
256,192,43534,128,0,44216:0:0:0:0:
109,192,43534,1,0,0:0:0:0:
109,192,43875,1,0,0:0:0:0:
329,192,43875,1,0,0:0:0:0:
475,192,44216,128,0,45239:0:0:0:0:
182,192,44216,128,0,44727:0:0:0:0:
109,192,44216,1,0,0:0:0:0:
329,192,44216,1,0,0:0:0:0:
256,192,44557,1,0,0:0:0:0:
329,192,44727,128,0,46261:0:0:0:0:
109,192,44727,128,0,46261:0:0:0:0:
256,192,44898,1,0,0:0:0:0:
402,192,44898,1,0,0:0:0:0:
182,192,45239,1,0,0:0:0:0:
475,192,45409,1,0,0:0:0:0:
182,192,45409,1,0,0:0:0:0:
256,192,45494,1,0,0:0:0:0:
402,192,45580,128,0,46091:0:0:0:0:
182,192,45580,128,0,46091:0:0:0:0:
36,192,45580,1,0,0:0:0:0:
36,192,45920,1,0,0:0:0:0:
256,192,46091,128,0,46943:0:0:0:0:
475,192,46091,128,0,46943:0:0:0:0:
36,192,46261,1,0,0:0:0:0:
182,192,46261,1,0,0:0:0:0:
182,192,46432,1,0,0:0:0:0:
36,192,46432,1,0,0:0:0:0:
109,192,46602,128,0,46943:0:0:0:0:
402,192,46602,128,0,46943:0:0:0:0:
329,192,46943,128,0,47284:0:0:0:0:
182,192,46943,128,0,47625:0:0:0:0:
256,192,47284,1,0,0:0:0:0:
36,192,47284,1,0,0:0:0:0:
475,192,47284,1,0,0:0:0:0:
109,192,47625,128,0,47966:0:0:0:0:
402,192,47625,128,0,48307:0:0:0:0:
256,192,47625,1,0,0:0:0:0:
329,192,47966,128,0,48307:0:0:0:0:
182,192,47966,128,0,48136:0:0:0:0:
36,192,47966,1,0,0:0:0:0:
256,192,47966,1,0,0:0:0:0:
475,192,47966,1,0,0:0:0:0:
36,192,48307,128,0,48989:0:0:0:0:
475,192,48307,128,0,48648:0:0:0:0:
256,192,48307,1,0,0:0:0:0:
402,192,48648,1,0,0:0:0:0:
256,192,48648,1,0,0:0:0:0:
109,192,48648,1,0,0:0:0:0:
182,192,48733,1,0,0:0:0:0:
256,192,48818,1,0,0:0:0:0:
329,192,48903,1,0,0:0:0:0:
109,192,48989,128,0,49670:0:0:0:0:
402,192,48989,128,0,49330:0:0:0:0:
182,192,48989,128,0,49670:0:0:0:0:
256,192,49670,128,0,54443:0:0:0:0:
475,192,49670,1,0,0:0:0:0:
36,192,50693,128,0,50778:0:0:0:0:
36,192,51034,128,0,51119:0:0:0:0:
36,192,51375,128,0,51460:0:0:0:0:
36,192,51716,128,0,51801:0:0:0:0:
36,192,52057,128,0,52142:0:0:0:0:
36,192,52398,128,0,52483:0:0:0:0:
36,192,52739,128,0,52824:0:0:0:0:
182,192,52739,128,0,52824:0:0:0:0:
36,192,53080,128,0,53165:0:0:0:0:
182,192,53080,128,0,53165:0:0:0:0:
36,192,53420,128,0,53506:0:0:0:0:
182,192,53420,128,0,53506:0:0:0:0:
329,192,53420,128,0,53506:0:0:0:0:
329,192,53761,128,0,53847:0:0:0:0:
182,192,53761,128,0,53847:0:0:0:0:
36,192,53761,128,0,53847:0:0:0:0:
475,192,54102,128,0,54187:0:0:0:0:
329,192,54102,128,0,54187:0:0:0:0:
182,192,54102,128,0,54187:0:0:0:0:
36,192,54102,128,0,54187:0:0:0:0:
109,192,54443,1,0,0:0:0:0:
402,192,54443,1,0,0:0:0:0:
329,192,54955,128,0,55125:0:0:0:0:
256,192,55125,128,0,55807:0:0:0:0:
402,192,55125,128,0,55636:0:0:0:0:
109,192,55125,128,0,55466:0:0:0:0:
182,192,55125,128,0,55295:0:0:0:0:
182,192,55466,1,0,0:0:0:0:
329,192,55466,128,0,55636:0:0:0:0:
36,192,55807,1,0,0:0:0:0:
475,192,55807,1,0,0:0:0:0:
36,192,56148,1,0,0:0:0:0:
182,192,56148,128,0,56489:0:0:0:0:
475,192,56148,128,0,56318:0:0:0:0:
329,192,56148,1,0,0:0:0:0:
256,192,56318,1,0,0:0:0:0:
109,192,56489,1,0,0:0:0:0:
402,192,56489,1,0,0:0:0:0:
256,192,56659,1,0,0:0:0:0:
182,192,56773,1,0,0:0:0:0:
329,192,56773,1,0,0:0:0:0:
109,192,57000,1,0,0:0:0:0:
402,192,57000,1,0,0:0:0:0:
182,192,57000,1,0,0:0:0:0:
329,192,57000,1,0,0:0:0:0:
36,192,57170,128,0,57511:0:0:0:0:
329,192,57170,128,0,57341:0:0:0:0:
475,192,57170,1,0,0:0:0:0:
182,192,57170,1,0,0:0:0:0:
256,192,57511,128,0,57682:0:0:0:0:
109,192,57511,1,0,0:0:0:0:
402,192,57682,128,0,57852:0:0:0:0:
109,192,57852,128,0,58193:0:0:0:0:
256,192,57852,128,0,58023:0:0:0:0:
329,192,58193,128,0,58534:0:0:0:0:
475,192,58193,128,0,58364:0:0:0:0:
36,192,58534,128,0,58875:0:0:0:0:
256,192,58534,128,0,58705:0:0:0:0:
182,192,58705,128,0,58875:0:0:0:0:
109,192,58875,1,0,0:0:0:0:
402,192,58875,1,0,0:0:0:0:
182,192,59216,1,0,0:0:0:0:
329,192,59216,1,0,0:0:0:0:
475,192,59216,1,0,0:0:0:0:
36,192,59386,1,0,0:0:0:0:
109,192,59557,1,0,0:0:0:0:
402,192,59557,1,0,0:0:0:0:
182,192,59642,1,0,0:0:0:0:
475,192,59642,1,0,0:0:0:0:
36,192,59727,1,0,0:0:0:0:
329,192,59727,1,0,0:0:0:0:
109,192,59812,1,0,0:0:0:0:
402,192,59812,1,0,0:0:0:0:
182,192,59898,128,0,60153:0:0:0:0:
475,192,59898,128,0,60153:0:0:0:0:
36,192,59983,128,0,60068:0:0:0:0:
329,192,59983,128,0,60068:0:0:0:0:
109,192,60068,128,0,60239:0:0:0:0:
402,192,60068,128,0,60239:0:0:0:0:
256,192,60409,1,0,0:0:0:0:
109,192,60409,1,0,0:0:0:0:
402,192,60409,1,0,0:0:0:0:
329,192,60409,1,0,0:0:0:0:
182,192,60409,1,0,0:0:0:0:
36,192,60750,1,0,0:0:0:0:
475,192,60750,1,0,0:0:0:0:
256,192,60750,128,0,61091:0:0:0:0:
182,192,60920,128,0,61091:0:0:0:0:
329,192,60920,128,0,61091:0:0:0:0:
109,192,61091,128,0,61432:0:0:0:0:
402,192,61091,128,0,61432:0:0:0:0:
36,192,61261,128,0,61432:0:0:0:0:
475,192,61261,128,0,61432:0:0:0:0:
182,192,61432,128,0,61602:0:0:0:0:
329,192,61432,128,0,61602:0:0:0:0:
256,192,61602,1,0,0:0:0:0:
36,192,61943,1,0,0:0:0:0:
256,192,61943,1,0,0:0:0:0:
109,192,61943,1,0,0:0:0:0:
475,192,61943,1,0,0:0:0:0:
182,192,62114,1,0,0:0:0:0:
329,192,62114,1,0,0:0:0:0:
109,192,62114,1,0,0:0:0:0:
256,192,62284,1,0,0:0:0:0:
182,192,62284,1,0,0:0:0:0:
402,192,62284,1,0,0:0:0:0:
256,192,62455,1,0,0:0:0:0:
36,192,62455,1,0,0:0:0:0:
475,192,62455,1,0,0:0:0:0:
402,192,62455,1,0,0:0:0:0:
182,192,62625,1,0,0:0:0:0:
402,192,62625,1,0,0:0:0:0:
329,192,62625,1,0,0:0:0:0:
329,192,62795,1,0,0:0:0:0:
256,192,62795,1,0,0:0:0:0:
109,192,62795,1,0,0:0:0:0:
182,192,62966,128,0,63136:0:0:0:0:
402,192,62966,1,0,0:0:0:0:
475,192,62966,1,0,0:0:0:0:
36,192,62966,128,0,63477:0:0:0:0:
256,192,63136,128,0,63307:0:0:0:0:
475,192,63136,128,0,64670:0:0:0:0:
109,192,63136,128,0,63562:0:0:0:0:
182,192,63307,128,0,63648:0:0:0:0:
329,192,63307,128,0,63477:0:0:0:0:
402,192,63477,128,0,63648:0:0:0:0:
256,192,63477,128,0,63818:0:0:0:0:
36,192,63562,128,0,64159:0:0:0:0:
109,192,63648,128,0,64074:0:0:0:0:
329,192,63648,128,0,63989:0:0:0:0:
402,192,63818,128,0,63989:0:0:0:0:
182,192,63818,128,0,64159:0:0:0:0:
256,192,63989,128,0,64330:0:0:0:0:
402,192,64074,128,0,64159:0:0:0:0:
109,192,64159,128,0,64330:0:0:0:0:
329,192,64159,128,0,64330:0:0:0:0:
402,192,64330,128,0,64500:0:0:0:0:
36,192,64330,128,0,65352:0:0:0:0:
182,192,64330,128,0,64500:0:0:0:0:
256,192,64415,128,0,64585:0:0:0:0:
329,192,64500,128,0,65011:0:0:0:0:
109,192,64500,128,0,65011:0:0:0:0:
182,192,64585,128,0,64841:0:0:0:0:
402,192,64670,128,0,64841:0:0:0:0:
256,192,64670,128,0,64756:0:0:0:0:
256,192,64841,128,0,65011:0:0:0:0:
475,192,64841,128,0,65011:0:0:0:0:
182,192,65011,128,0,65182:0:0:0:0:
402,192,65011,128,0,65097:0:0:0:0:
475,192,65097,128,0,65352:0:0:0:0:
109,192,65182,128,0,65352:0:0:0:0:
402,192,65182,128,0,65352:0:0:0:0:
329,192,65267,128,0,65352:0:0:0:0:
256,192,65352,128,0,65864:0:0:0:0:
36,192,65864,1,0,0:0:0:0:
475,192,65864,1,0,0:0:0:0:
36,192,66034,1,0,0:0:0:0:
256,192,66034,1,0,0:0:0:0:
402,192,66034,1,0,0:0:0:0:
475,192,66034,1,0,0:0:0:0:
109,192,66034,1,0,0:0:0:0:
182,192,66205,1,0,0:0:0:0:
256,192,66290,1,0,0:0:0:0:
329,192,66375,1,0,0:0:0:0:
475,192,66375,128,0,66545:0:0:0:0:
109,192,66545,1,0,0:0:0:0:
402,192,66545,1,0,0:0:0:0:
36,192,66545,128,0,66631:0:0:0:0:
182,192,66716,1,0,0:0:0:0:
256,192,66801,1,0,0:0:0:0:
329,192,66886,1,0,0:0:0:0:
36,192,66886,128,0,67057:0:0:0:0:
475,192,67057,1,0,0:0:0:0:
402,192,67057,128,0,67142:0:0:0:0:
182,192,67142,1,0,0:0:0:0:
329,192,67227,1,0,0:0:0:0:
36,192,67312,1,0,0:0:0:0:
109,192,67398,1,0,0:0:0:0:
182,192,67440,1,0,0:0:0:0:
402,192,67483,1,0,0:0:0:0:
256,192,67483,1,0,0:0:0:0:
475,192,67483,1,0,0:0:0:0:
329,192,67526,1,0,0:0:0:0:
109,192,67568,128,0,67739:0:0:0:0:
36,192,67739,1,0,0:0:0:0:
182,192,67739,1,0,0:0:0:0:
475,192,67739,1,0,0:0:0:0:
402,192,67739,1,0,0:0:0:0:
109,192,67909,1,0,0:0:0:0:
256,192,67909,1,0,0:0:0:0:
329,192,67909,1,0,0:0:0:0:
36,192,68080,1,0,0:0:0:0:
475,192,68080,1,0,0:0:0:0:
402,192,68080,1,0,0:0:0:0:
256,192,68080,128,0,68165:0:0:0:0:
109,192,68165,1,0,0:0:0:0:
329,192,68165,1,0,0:0:0:0:
36,192,68250,1,0,0:0:0:0:
402,192,68250,1,0,0:0:0:0:
475,192,68250,1,0,0:0:0:0:
109,192,68335,1,0,0:0:0:0:
329,192,68335,1,0,0:0:0:0:
256,192,68335,128,0,68506:0:0:0:0:
402,192,68420,1,0,0:0:0:0:
475,192,68420,1,0,0:0:0:0:
36,192,68420,1,0,0:0:0:0:
109,192,68591,1,0,0:0:0:0:
182,192,68591,1,0,0:0:0:0:
256,192,68591,1,0,0:0:0:0:
36,192,68761,1,0,0:0:0:0:
256,192,68761,1,0,0:0:0:0:
475,192,68761,1,0,0:0:0:0:
329,192,68932,1,0,0:0:0:0:
256,192,69017,1,0,0:0:0:0:
182,192,69102,1,0,0:0:0:0:
475,192,69102,128,0,69273:0:0:0:0:
109,192,69273,1,0,0:0:0:0:
402,192,69273,1,0,0:0:0:0:
36,192,69273,128,0,69358:0:0:0:0:
329,192,69443,1,0,0:0:0:0:
256,192,69528,1,0,0:0:0:0:
182,192,69614,1,0,0:0:0:0:
36,192,69699,128,0,69784:0:0:0:0:
109,192,69784,1,0,0:0:0:0:
402,192,69784,1,0,0:0:0:0:
256,192,69784,128,0,69869:0:0:0:0:
329,192,69869,1,0,0:0:0:0:
475,192,69869,1,0,0:0:0:0:
36,192,69955,1,0,0:0:0:0:
182,192,69955,1,0,0:0:0:0:
109,192,70040,1,0,0:0:0:0:
182,192,70125,1,0,0:0:0:0:
475,192,70125,1,0,0:0:0:0:
402,192,70168,1,0,0:0:0:0:
329,192,70210,1,0,0:0:0:0:
109,192,70253,1,0,0:0:0:0:
256,192,70253,1,0,0:0:0:0:
182,192,70295,1,0,0:0:0:0:
402,192,70295,128,0,70466:0:0:0:0:
36,192,70466,1,0,0:0:0:0:
329,192,70466,1,0,0:0:0:0:
182,192,70466,1,0,0:0:0:0:
109,192,70636,1,0,0:0:0:0:
402,192,70636,1,0,0:0:0:0:
475,192,70636,1,0,0:0:0:0:
329,192,70807,1,0,0:0:0:0:
36,192,70807,128,0,70892:0:0:0:0:
475,192,70892,1,0,0:0:0:0:
256,192,70892,1,0,0:0:0:0:
109,192,70892,1,0,0:0:0:0:
402,192,70977,1,0,0:0:0:0:
182,192,70977,1,0,0:0:0:0:
36,192,71062,1,0,0:0:0:0:
256,192,71062,1,0,0:0:0:0:
475,192,71062,1,0,0:0:0:0:
182,192,71148,1,0,0:0:0:0:
402,192,71148,128,0,71233:0:0:0:0:
256,192,71233,128,0,71489:0:0:0:0:
329,192,71233,128,0,71403:0:0:0:0:
109,192,71233,128,0,71318:0:0:0:0:
36,192,71233,1,0,0:0:0:0:
182,192,71489,128,0,71574:0:0:0:0:
36,192,71489,1,0,0:0:0:0:
402,192,71489,1,0,0:0:0:0:
475,192,71489,1,0,0:0:0:0:
402,192,71659,1,0,0:0:0:0:
475,192,71659,1,0,0:0:0:0:
402,192,71830,1,0,0:0:0:0:
475,192,71830,1,0,0:0:0:0:
402,192,72000,1,0,0:0:0:0:
475,192,72000,1,0,0:0:0:0:
182,192,72000,128,0,72170:0:0:0:0:
109,192,72000,128,0,72085:0:0:0:0:
36,192,72000,1,0,0:0:0:0:
402,192,72170,1,0,0:0:0:0:
475,192,72170,1,0,0:0:0:0:
402,192,72341,1,0,0:0:0:0:
475,192,72341,1,0,0:0:0:0:
475,192,72511,1,0,0:0:0:0:
402,192,72511,1,0,0:0:0:0:
182,192,72511,128,0,72682:0:0:0:0:
109,192,72511,128,0,72597:0:0:0:0:
36,192,72511,128,0,72852:0:0:0:0:
109,192,72852,1,0,0:0:0:0:
256,192,72852,1,0,0:0:0:0:
182,192,72852,1,0,0:0:0:0:
329,192,72937,1,0,0:0:0:0:
402,192,72937,1,0,0:0:0:0:
109,192,73023,1,0,0:0:0:0:
182,192,73023,1,0,0:0:0:0:
256,192,73023,1,0,0:0:0:0:
36,192,73108,1,0,0:0:0:0:
329,192,73108,1,0,0:0:0:0:
109,192,73193,1,0,0:0:0:0:
182,192,73193,1,0,0:0:0:0:
256,192,73193,1,0,0:0:0:0:
329,192,73278,1,0,0:0:0:0:
402,192,73278,1,0,0:0:0:0:
256,192,73364,1,0,0:0:0:0:
182,192,73364,1,0,0:0:0:0:
109,192,73364,1,0,0:0:0:0:
36,192,73449,1,0,0:0:0:0:
329,192,73449,1,0,0:0:0:0:
109,192,73534,1,0,0:0:0:0:
182,192,73534,1,0,0:0:0:0:
256,192,73534,1,0,0:0:0:0:
402,192,73619,1,0,0:0:0:0:
475,192,73619,1,0,0:0:0:0:
256,192,73705,1,0,0:0:0:0:
182,192,73705,1,0,0:0:0:0:
109,192,73705,1,0,0:0:0:0:
36,192,73790,1,0,0:0:0:0:
402,192,73875,128,0,74216:0:0:0:0:
329,192,73875,128,0,74131:0:0:0:0:
256,192,73875,128,0,74045:0:0:0:0:
182,192,73875,128,0,73960:0:0:0:0:
109,192,73875,1,0,0:0:0:0:
36,192,74898,1,0,0:0:0:0:
475,192,75239,1,0,0:0:0:0:
36,192,75580,1,0,0:0:0:0:
475,192,75920,1,0,0:0:0:0:
36,192,76261,128,0,78989:0:0:0:0:
475,192,76602,128,0,78989:0:0:0:0:
109,192,76943,128,0,77284:0:0:0:0:
402,192,77284,128,0,77625:0:0:0:0:
109,192,77625,128,0,78307:0:0:0:0:
402,192,77966,128,0,78648:0:0:0:0:
182,192,78307,128,0,78648:0:0:0:0:
329,192,78648,128,0,78989:0:0:0:0:
109,192,78989,1,0,0:0:0:0:
402,192,78989,1,0,0:0:0:0:
256,192,79670,128,0,84955:0:0:0:0:
475,192,79670,128,0,80352:0:0:0:0:
109,192,79670,128,0,80352:0:0:0:0:
402,192,79670,128,0,79784:0:0:0:0:
329,192,79784,128,0,79898:0:0:0:0:
182,192,79898,128,0,80011:0:0:0:0:
36,192,80011,128,0,80125:0:0:0:0:
402,192,80125,128,0,80239:0:0:0:0:
182,192,80239,128,0,80352:0:0:0:0:
329,192,80352,128,0,81034:0:0:0:0:
36,192,80352,128,0,81034:0:0:0:0:
402,192,80352,128,0,80466:0:0:0:0:
475,192,80466,128,0,80580:0:0:0:0:
109,192,80580,128,0,80693:0:0:0:0:
182,192,80693,128,0,80807:0:0:0:0:
475,192,80807,128,0,80920:0:0:0:0:
402,192,80920,128,0,81034:0:0:0:0:
475,192,81034,128,0,81716:0:0:0:0:
182,192,81034,128,0,81716:0:0:0:0:
109,192,81034,128,0,81148:0:0:0:0:
36,192,81148,128,0,81261:0:0:0:0:
402,192,81261,128,0,81375:0:0:0:0:
329,192,81375,128,0,81489:0:0:0:0:
36,192,81489,128,0,81602:0:0:0:0:
109,192,81602,128,0,81716:0:0:0:0:
402,192,81716,128,0,82398:0:0:0:0:
36,192,81716,128,0,82398:0:0:0:0:
329,192,81716,128,0,81830:0:0:0:0:
475,192,81830,128,0,81943:0:0:0:0:
109,192,81943,128,0,82057:0:0:0:0:
182,192,82057,128,0,82170:0:0:0:0:
329,192,82170,128,0,82284:0:0:0:0:
182,192,82284,128,0,82398:0:0:0:0:
109,192,82398,128,0,83080:0:0:0:0:
475,192,82398,128,0,83080:0:0:0:0:
329,192,82398,128,0,82511:0:0:0:0:
402,192,82511,128,0,82625:0:0:0:0:
182,192,82625,128,0,82739:0:0:0:0:
36,192,82739,128,0,82852:0:0:0:0:
329,192,82852,128,0,82966:0:0:0:0:
402,192,82966,128,0,83080:0:0:0:0:
182,192,83080,128,0,83761:0:0:0:0:
329,192,83080,128,0,83761:0:0:0:0:
36,192,83080,128,0,83165:0:0:0:0:
109,192,83193,128,0,83307:0:0:0:0:
475,192,83307,128,0,83420:0:0:0:0:
402,192,83420,128,0,83534:0:0:0:0:
36,192,83534,128,0,83648:0:0:0:0:
109,192,83648,128,0,83761:0:0:0:0:
36,192,83761,128,0,84443:0:0:0:0:
475,192,83761,128,0,84443:0:0:0:0:
402,192,83761,128,0,83875:0:0:0:0:
329,192,83875,128,0,83989:0:0:0:0:
109,192,83989,128,0,84102:0:0:0:0:
182,192,84102,128,0,84216:0:0:0:0:
402,192,84216,128,0,84330:0:0:0:0:
329,192,84330,128,0,84443:0:0:0:0:
402,192,84443,128,0,85125:0:0:0:0:
182,192,84443,128,0,84557:0:0:0:0:
109,192,84443,128,0,85125:0:0:0:0:
36,192,84557,128,0,84670:0:0:0:0:
475,192,84670,128,0,84784:0:0:0:0:
329,192,84784,128,0,84898:0:0:0:0:
182,192,84898,128,0,85011:0:0:0:0:
36,192,85011,128,0,85125:0:0:0:0:
475,192,85125,128,0,85807:0:0:0:0:
256,192,85125,1,0,0:0:0:0:
329,192,85125,1,0,0:0:0:0:
182,192,85239,1,0,0:0:0:0:
109,192,85239,1,0,0:0:0:0:
256,192,85352,1,0,0:0:0:0:
329,192,85352,1,0,0:0:0:0:
36,192,85466,1,0,0:0:0:0:
109,192,85466,1,0,0:0:0:0:
182,192,85580,1,0,0:0:0:0:
256,192,85580,1,0,0:0:0:0:
329,192,85693,1,0,0:0:0:0:
402,192,85693,1,0,0:0:0:0:
36,192,85807,128,0,86489:0:0:0:0:
109,192,85807,1,0,0:0:0:0:
182,192,85807,1,0,0:0:0:0:
256,192,85920,1,0,0:0:0:0:
329,192,85920,1,0,0:0:0:0:
109,192,86034,1,0,0:0:0:0:
182,192,86034,1,0,0:0:0:0:
475,192,86148,1,0,0:0:0:0:
402,192,86148,1,0,0:0:0:0:
329,192,86261,1,0,0:0:0:0:
256,192,86261,1,0,0:0:0:0:
109,192,86375,1,0,0:0:0:0:
402,192,86375,1,0,0:0:0:0:
182,192,86489,128,0,87852:0:0:0:0:
256,192,86489,1,0,0:0:0:0:
329,192,86489,1,0,0:0:0:0:
402,192,86602,1,0,0:0:0:0:
475,192,86602,1,0,0:0:0:0:
256,192,86716,1,0,0:0:0:0:
329,192,86716,1,0,0:0:0:0:
36,192,86830,1,0,0:0:0:0:
109,192,86830,1,0,0:0:0:0:
256,192,86943,1,0,0:0:0:0:
329,192,86943,1,0,0:0:0:0:
402,192,87057,1,0,0:0:0:0:
475,192,87057,1,0,0:0:0:0:
36,192,87170,1,0,0:0:0:0:
109,192,87170,1,0,0:0:0:0:
256,192,87284,1,0,0:0:0:0:
329,192,87284,1,0,0:0:0:0:
36,192,87398,1,0,0:0:0:0:
109,192,87398,1,0,0:0:0:0:
475,192,87511,1,0,0:0:0:0:
402,192,87511,1,0,0:0:0:0:
256,192,87625,1,0,0:0:0:0:
329,192,87625,1,0,0:0:0:0:
36,192,87739,1,0,0:0:0:0:
109,192,87739,1,0,0:0:0:0:
329,192,87852,128,0,88534:0:0:0:0:
475,192,87852,1,0,0:0:0:0:
402,192,87909,1,0,0:0:0:0:
256,192,87966,1,0,0:0:0:0:
182,192,88023,1,0,0:0:0:0:
109,192,88080,1,0,0:0:0:0:
36,192,88136,1,0,0:0:0:0:
109,192,88193,1,0,0:0:0:0:
182,192,88250,1,0,0:0:0:0:
256,192,88307,1,0,0:0:0:0:
402,192,88364,1,0,0:0:0:0:
475,192,88420,1,0,0:0:0:0:
36,192,88477,1,0,0:0:0:0:
402,192,88534,128,0,89216:0:0:0:0:
109,192,88534,1,0,0:0:0:0:
182,192,88591,1,0,0:0:0:0:
256,192,88648,1,0,0:0:0:0:
329,192,88705,1,0,0:0:0:0:
475,192,88761,1,0,0:0:0:0:
36,192,88818,1,0,0:0:0:0:
109,192,88875,1,0,0:0:0:0:
182,192,88932,1,0,0:0:0:0:
256,192,88989,1,0,0:0:0:0:
329,192,89045,1,0,0:0:0:0:
475,192,89102,1,0,0:0:0:0:
329,192,89159,1,0,0:0:0:0:
109,192,89216,128,0,89898:0:0:0:0:
256,192,89216,1,0,0:0:0:0:
182,192,89216,1,0,0:0:0:0:
256,192,89898,128,0,90580:0:0:0:0:
36,192,90580,128,0,90920:0:0:0:0:
475,192,90580,128,0,90920:0:0:0:0:
182,192,90580,1,0,0:0:0:0:
402,192,90580,1,0,0:0:0:0:
109,192,90920,128,0,91034:0:0:0:0:
329,192,90920,128,0,91034:0:0:0:0:
182,192,90977,128,0,91091:0:0:0:0:
402,192,90977,128,0,91091:0:0:0:0:
256,192,91034,128,0,91148:0:0:0:0:
475,192,91034,128,0,91148:0:0:0:0:
36,192,91091,128,0,91205:0:0:0:0:
329,192,91091,128,0,91205:0:0:0:0:
109,192,91148,128,0,91261:0:0:0:0:
402,192,91148,128,0,91261:0:0:0:0:
182,192,91205,128,0,91261:0:0:0:0:
475,192,91205,128,0,91261:0:0:0:0:
256,192,91261,128,0,91943:0:0:0:0:
36,192,91261,128,0,91943:0:0:0:0:
109,192,91489,128,0,91602:0:0:0:0:
329,192,91489,128,0,91602:0:0:0:0:
182,192,91602,128,0,91943:0:0:0:0:
402,192,91602,128,0,91716:0:0:0:0:
475,192,91716,128,0,91830:0:0:0:0:
402,192,91830,128,0,91943:0:0:0:0:
475,192,91943,128,0,93307:0:0:0:0:
329,192,91943,128,0,92170:0:0:0:0:
109,192,91943,128,0,92170:0:0:0:0:
36,192,92057,128,0,92170:0:0:0:0:
402,192,92057,128,0,92170:0:0:0:0:
182,192,92170,128,0,92284:0:0:0:0:
256,192,92170,128,0,92284:0:0:0:0:
109,192,92284,128,0,92398:0:0:0:0:
329,192,92284,128,0,92398:0:0:0:0:
36,192,92398,128,0,92625:0:0:0:0:
402,192,92398,128,0,92625:0:0:0:0:
256,192,92511,128,0,92625:0:0:0:0:
182,192,92625,128,0,92739:0:0:0:0:
329,192,92625,128,0,92739:0:0:0:0:
402,192,92739,128,0,92966:0:0:0:0:
36,192,92739,128,0,92966:0:0:0:0:
256,192,92852,128,0,93080:0:0:0:0:
109,192,92852,128,0,93080:0:0:0:0:
182,192,92966,128,0,93193:0:0:0:0:
329,192,92966,128,0,93193:0:0:0:0:
36,192,93080,128,0,93193:0:0:0:0:
109,192,93193,128,0,93307:0:0:0:0:
402,192,93307,128,0,93648:0:0:0:0:
36,192,93307,128,0,93648:0:0:0:0:
475,192,93648,128,0,93989:0:0:0:0:
329,192,93648,128,0,93818:0:0:0:0:
256,192,93705,128,0,93875:0:0:0:0:
182,192,93761,128,0,93932:0:0:0:0:
109,192,93818,128,0,93932:0:0:0:0:
36,192,93875,128,0,93989:0:0:0:0:
402,192,93875,128,0,93989:0:0:0:0:
329,192,93932,128,0,93989:0:0:0:0:
109,192,93989,128,0,94670:0:0:0:0:
256,192,93989,128,0,94670:0:0:0:0:
36,192,94216,128,0,94330:0:0:0:0:
182,192,94216,128,0,94330:0:0:0:0:
329,192,94330,128,0,94670:0:0:0:0:
475,192,94330,128,0,94443:0:0:0:0:
402,192,94443,128,0,94557:0:0:0:0:
182,192,94557,128,0,94670:0:0:0:0:
36,192,94670,128,0,96034:0:0:0:0:
475,192,94670,128,0,95011:0:0:0:0:
402,192,94670,128,0,95011:0:0:0:0:
109,192,94784,128,0,95011:0:0:0:0:
182,192,94784,128,0,94898:0:0:0:0:
256,192,94898,128,0,95011:0:0:0:0:
329,192,95011,128,0,95125:0:0:0:0:
182,192,95011,128,0,95352:0:0:0:0:
402,192,95125,128,0,95239:0:0:0:0:
475,192,95239,128,0,95352:0:0:0:0:
256,192,95352,128,0,96034:0:0:0:0:
109,192,95352,128,0,95466:0:0:0:0:
329,192,95352,128,0,95466:0:0:0:0:
182,192,95466,128,0,95580:0:0:0:0:
402,192,95466,128,0,95580:0:0:0:0:
329,192,95580,128,0,95693:0:0:0:0:
475,192,95580,128,0,95693:0:0:0:0:
109,192,95693,128,0,96034:0:0:0:0:
402,192,95693,128,0,95807:0:0:0:0:
182,192,95693,128,0,95807:0:0:0:0:
329,192,95807,128,0,95920:0:0:0:0:
475,192,95807,128,0,95920:0:0:0:0:
182,192,95920,128,0,96034:0:0:0:0:
402,192,95920,128,0,96034:0:0:0:0:
475,192,96034,128,0,96375:0:0:0:0:
329,192,96034,128,0,96375:0:0:0:0:
36,192,96375,128,0,96432:0:0:0:0:
256,192,96375,128,0,96432:0:0:0:0:
109,192,96432,128,0,96489:0:0:0:0:
329,192,96432,128,0,96489:0:0:0:0:
182,192,96489,128,0,96545:0:0:0:0:
402,192,96489,128,0,96545:0:0:0:0:
256,192,96545,128,0,96602:0:0:0:0:
475,192,96545,128,0,96602:0:0:0:0:
36,192,96602,128,0,96659:0:0:0:0:
329,192,96602,128,0,96659:0:0:0:0:
402,192,96659,128,0,96716:0:0:0:0:
109,192,96659,128,0,96716:0:0:0:0:
182,192,96716,128,0,97398:0:0:0:0:
475,192,96716,128,0,97398:0:0:0:0:
256,192,96716,128,0,96943:0:0:0:0:
329,192,96830,128,0,97057:0:0:0:0:
402,192,96943,128,0,97170:0:0:0:0:
109,192,97057,128,0,97284:0:0:0:0:
256,192,97170,128,0,97398:0:0:0:0:
329,192,97284,128,0,97398:0:0:0:0:
36,192,97398,128,0,98761:0:0:0:0:
109,192,97398,128,0,97625:0:0:0:0:
402,192,97398,128,0,97625:0:0:0:0:
182,192,97511,128,0,97739:0:0:0:0:
475,192,97511,128,0,97739:0:0:0:0:
256,192,97625,128,0,97852:0:0:0:0:
329,192,97625,128,0,97852:0:0:0:0:
402,192,97739,128,0,97966:0:0:0:0:
109,192,97739,128,0,97966:0:0:0:0:
182,192,97852,128,0,98080:0:0:0:0:
475,192,97852,128,0,98080:0:0:0:0:
256,192,97966,128,0,98193:0:0:0:0:
329,192,97966,128,0,98080:0:0:0:0:
402,192,98080,128,0,98193:0:0:0:0:
109,192,98080,128,0,98307:0:0:0:0:
329,192,98193,128,0,98307:0:0:0:0:
182,192,98193,128,0,98420:0:0:0:0:
256,192,98307,128,0,98761:0:0:0:0:
475,192,98420,128,0,98534:0:0:0:0:
402,192,98534,128,0,98648:0:0:0:0:
475,192,98648,128,0,98761:0:0:0:0:
402,192,98761,128,0,99102:0:0:0:0:
182,192,98761,128,0,99102:0:0:0:0:
109,192,98875,128,0,99216:0:0:0:0:
329,192,98875,128,0,99216:0:0:0:0:
36,192,98989,128,0,99102:0:0:0:0:
256,192,98989,128,0,99102:0:0:0:0:
475,192,99102,128,0,99443:0:0:0:0:
36,192,99216,128,0,99443:0:0:0:0:
182,192,99216,128,0,99443:0:0:0:0:
256,192,99216,128,0,99443:0:0:0:0:
109,192,99443,128,0,99670:0:0:0:0:
329,192,99443,128,0,99670:0:0:0:0:
182,192,99557,128,0,99784:0:0:0:0:
402,192,99557,128,0,99784:0:0:0:0:
256,192,99670,128,0,99898:0:0:0:0:
475,192,99670,128,0,99898:0:0:0:0:
36,192,99784,128,0,100125:0:0:0:0:
109,192,99898,128,0,100125:0:0:0:0:
329,192,99898,128,0,100125:0:0:0:0:
402,192,99898,128,0,100125:0:0:0:0:
182,192,100125,128,0,100182:0:0:0:0:
475,192,100125,128,0,100807:0:0:0:0:
256,192,100182,128,0,100239:0:0:0:0:
329,192,100239,128,0,100295:0:0:0:0:
402,192,100295,128,0,100352:0:0:0:0:
109,192,100295,128,0,100352:0:0:0:0:
182,192,100352,128,0,100409:0:0:0:0:
256,192,100409,128,0,100466:0:0:0:0:
329,192,100466,128,0,100523:0:0:0:0:
402,192,100523,128,0,100580:0:0:0:0:
36,192,100580,128,0,100636:0:0:0:0:
109,192,100636,128,0,100693:0:0:0:0:
329,192,100636,128,0,100693:0:0:0:0:
182,192,100693,128,0,100750:0:0:0:0:
402,192,100693,128,0,100750:0:0:0:0:
256,192,100750,128,0,100807:0:0:0:0:
329,192,100750,128,0,100807:0:0:0:0:
36,192,100807,128,0,101489:0:0:0:0:
182,192,100807,128,0,100864:0:0:0:0:
109,192,100864,128,0,100920:0:0:0:0:
475,192,100920,128,0,100977:0:0:0:0:
256,192,100920,128,0,100977:0:0:0:0:
402,192,100977,128,0,101034:0:0:0:0:
182,192,100977,128,0,101034:0:0:0:0:
329,192,101034,128,0,101091:0:0:0:0:
109,192,101034,128,0,101091:0:0:0:0:
256,192,101091,128,0,101148:0:0:0:0:
182,192,101091,128,0,101148:0:0:0:0:
402,192,101148,128,0,101205:0:0:0:0:
475,192,101148,128,0,101205:0:0:0:0:
329,192,101205,128,0,101261:0:0:0:0:
256,192,101261,128,0,101318:0:0:0:0:
182,192,101318,128,0,101375:0:0:0:0:
109,192,101375,128,0,101489:0:0:0:0:
475,192,101489,128,0,102170:0:0:0:0:
256,192,101489,128,0,101830:0:0:0:0:
402,192,101489,128,0,101830:0:0:0:0:
329,192,101830,128,0,102057:0:0:0:0:
182,192,101830,128,0,102057:0:0:0:0:
256,192,102057,128,0,102170:0:0:0:0:
109,192,102057,128,0,102170:0:0:0:0:
36,192,102170,128,0,102511:0:0:0:0:
182,192,102170,128,0,102511:0:0:0:0:
256,192,102511,128,0,102852:0:0:0:0:
402,192,102511,128,0,102852:0:0:0:0:
36,192,102852,128,0,104216:0:0:0:0:
329,192,102852,128,0,103193:0:0:0:0:
475,192,102852,128,0,103193:0:0:0:0:
109,192,103193,128,0,103534:0:0:0:0:
256,192,103193,128,0,103534:0:0:0:0:
182,192,103534,128,0,104216:0:0:0:0:
329,192,103534,128,0,104216:0:0:0:0:
402,192,104216,128,0,104557:0:0:0:0:
109,192,104216,128,0,104557:0:0:0:0:
182,192,104557,128,0,104898:0:0:0:0:
475,192,104557,128,0,104898:0:0:0:0:
36,192,104784,128,0,104898:0:0:0:0:
256,192,104784,128,0,104898:0:0:0:0:
109,192,104898,128,0,105239:0:0:0:0:
329,192,104898,128,0,105239:0:0:0:0:
182,192,105239,128,0,105580:0:0:0:0:
402,192,105239,128,0,105580:0:0:0:0:
256,192,105580,128,0,105920:0:0:0:0:
329,192,105580,128,0,106261:0:0:0:0:
475,192,105580,128,0,106261:0:0:0:0:
36,192,105920,128,0,106261:0:0:0:0:
109,192,105920,128,0,106261:0:0:0:0:
182,192,106261,128,0,106943:0:0:0:0:
402,192,106261,128,0,106943:0:0:0:0:
256,192,106261,128,0,106943:0:0:0:0:
36,192,106943,128,0,107284:0:0:0:0:
329,192,106943,128,0,107284:0:0:0:0:
475,192,107284,128,0,107625:0:0:0:0:
182,192,107284,128,0,107625:0:0:0:0:
109,192,107511,128,0,107625:0:0:0:0:
402,192,107511,128,0,107625:0:0:0:0:
329,192,107625,128,0,107966:0:0:0:0:
36,192,107625,128,0,107966:0:0:0:0:
109,192,107966,128,0,108023:0:0:0:0:
182,192,108023,128,0,108080:0:0:0:0:
256,192,108080,128,0,108136:0:0:0:0:
329,192,108136,128,0,108193:0:0:0:0:
402,192,108193,128,0,108250:0:0:0:0:
475,192,108250,128,0,108307:0:0:0:0:
36,192,108307,128,0,108989:0:0:0:0:
256,192,108307,128,0,108989:0:0:0:0:
182,192,108989,128,0,109670:0:0:0:0:
329,192,108989,128,0,109670:0:0:0:0:
256,192,109443,128,0,109670:0:0:0:0:
402,192,109670,128,0,112114:0:0:0:0:
109,192,109670,128,0,112114:0:0:0:0:
36,192,109670,128,0,112114:0:0:0:0:
256,192,110352,128,0,112114:0:0:0:0:
475,192,111034,128,0,112114:0:0:0:0:
182,192,112114,1,0,0:0:0:0:
109,192,112398,128,0,114898:0:0:0:0:
402,192,112398,128,0,114898:0:0:0:0:
475,192,112398,128,0,114898:0:0:0:0:
256,192,113080,128,0,114898:0:0:0:0:
36,192,113761,128,0,114898:0:0:0:0:
329,192,114898,1,0,0:0:0:0:
109,192,115125,128,0,117568:0:0:0:0:
402,192,115125,128,0,117568:0:0:0:0:
256,192,115125,128,0,117568:0:0:0:0:
475,192,115807,128,0,117568:0:0:0:0:
36,192,116489,128,0,117568:0:0:0:0:
182,192,117568,1,0,0:0:0:0:
475,192,117852,128,0,120239:0:0:0:0:
109,192,117852,128,0,120239:0:0:0:0:
402,192,117852,128,0,120239:0:0:0:0:
36,192,117852,128,0,120239:0:0:0:0:
329,192,117852,128,0,120239:0:0:0:0:
182,192,118534,128,0,119216:0:0:0:0:
256,192,119216,128,0,120239:0:0:0:0:
256,192,120580,128,0,121943:0:0:0:0:
109,192,120580,1,0,0:0:0:0:
402,192,120693,1,0,0:0:0:0:
182,192,120807,1,0,0:0:0:0:
329,192,120920,1,0,0:0:0:0:
109,192,121034,1,0,0:0:0:0:
402,192,121148,1,0,0:0:0:0:
182,192,121261,1,0,0:0:0:0:
329,192,121375,1,0,0:0:0:0:
109,192,121489,1,0,0:0:0:0:
402,192,121602,1,0,0:0:0:0:
182,192,121716,1,0,0:0:0:0:
329,192,121830,1,0,0:0:0:0:
475,192,121943,1,0,0:0:0:0:
109,192,122057,1,0,0:0:0:0:
402,192,122170,1,0,0:0:0:0:
182,192,122284,1,0,0:0:0:0:
256,192,122284,128,0,122625:0:0:0:0:
329,192,122398,1,0,0:0:0:0:
36,192,122511,1,0,0:0:0:0:
109,192,122625,128,0,122966:0:0:0:0:
402,192,122625,1,0,0:0:0:0:
182,192,122739,1,0,0:0:0:0:
475,192,122852,1,0,0:0:0:0:
329,192,122966,128,0,123307:0:0:0:0:
36,192,122966,1,0,0:0:0:0:
182,192,123080,1,0,0:0:0:0:
402,192,123193,1,0,0:0:0:0:
475,192,123307,128,0,123761:0:0:0:0:
109,192,123307,1,0,0:0:0:0:
329,192,123420,1,0,0:0:0:0:
182,192,123534,1,0,0:0:0:0:
402,192,123648,1,0,0:0:0:0:
182,192,123761,128,0,124330:0:0:0:0:
36,192,123761,1,0,0:0:0:0:
475,192,123875,1,0,0:0:0:0:
109,192,123989,1,0,0:0:0:0:
402,192,124102,1,0,0:0:0:0:
109,192,124216,1,0,0:0:0:0:
475,192,124330,1,0,0:0:0:0:
36,192,124330,1,0,0:0:0:0:
329,192,124330,128,0,125920:0:0:0:0:
402,192,124443,1,0,0:0:0:0:
109,192,124557,1,0,0:0:0:0:
402,192,124670,1,0,0:0:0:0:
182,192,124784,1,0,0:0:0:0:
475,192,124898,1,0,0:0:0:0:
36,192,125011,1,0,0:0:0:0:
402,192,125125,1,0,0:0:0:0:
109,192,125239,1,0,0:0:0:0:
256,192,125352,1,0,0:0:0:0:
475,192,125466,1,0,0:0:0:0:
109,192,125580,1,0,0:0:0:0:
402,192,125693,1,0,0:0:0:0:
256,192,125807,1,0,0:0:0:0:
109,192,125920,1,0,0:0:0:0:
256,192,125977,1,0,0:0:0:0:
329,192,126034,1,0,0:0:0:0:
256,192,126091,1,0,0:0:0:0:
329,192,126148,1,0,0:0:0:0:
256,192,126205,128,0,126418:0:0:0:0:
36,192,126205,128,0,130807:0:0:0:0:
256,192,126460,128,0,126631:0:0:0:0:
256,192,126716,128,0,126801:0:0:0:0:
329,192,126830,128,0,127057:0:0:0:0:
329,192,127142,128,0,127227:0:0:0:0:
329,192,127270,128,0,127355:0:0:0:0:
329,192,127398,128,0,127440:0:0:0:0:
329,192,127483,128,0,127696:0:0:0:0:
475,192,127483,128,0,130807:0:0:0:0:
329,192,127781,128,0,127824:0:0:0:0:
329,192,127866,128,0,127909:0:0:0:0:
329,192,127994,128,0,128037:0:0:0:0:
329,192,128122,128,0,128207:0:0:0:0:
329,192,128293,128,0,128378:0:0:0:0:
329,192,128463,128,0,128548:0:0:0:0:
329,192,128633,128,0,128761:0:0:0:0:
329,192,128847,128,0,129060:0:0:0:0:
329,192,129145,128,0,129358:0:0:0:0:
329,192,129486,128,0,129784:0:0:0:0:
109,192,129486,128,0,130807:0:0:0:0:
329,192,129869,128,0,130168:0:0:0:0:
329,192,130295,128,0,130807:0:0:0:0:
256,192,130807,1,0,0:0:0:0:
256,192,131446,128,0,134173:0:0:0:0:
402,192,131446,128,0,134173:0:0:0:0:
36,192,131446,128,0,136218:0:0:0:0:
475,192,131446,128,0,134173:0:0:0:0:
329,192,134173,1,0,0:0:0:0:
109,192,134428,1,0,0:0:0:0:
256,192,134514,1,0,0:0:0:0:
182,192,134556,1,0,0:0:0:0:
402,192,134684,1,0,0:0:0:0:
256,192,134769,1,0,0:0:0:0:
329,192,134855,1,0,0:0:0:0:
329,192,134940,1,0,0:0:0:0:
182,192,135025,1,0,0:0:0:0:
256,192,135110,1,0,0:0:0:0:
329,192,135153,1,0,0:0:0:0:
402,192,135196,1,0,0:0:0:0:
109,192,135281,1,0,0:0:0:0:
182,192,135323,1,0,0:0:0:0:
256,192,135366,1,0,0:0:0:0:
329,192,135409,1,0,0:0:0:0:
475,192,135451,1,0,0:0:0:0:
402,192,135536,1,0,0:0:0:0:
329,192,135622,1,0,0:0:0:0:
402,192,135707,1,0,0:0:0:0:
256,192,135792,1,0,0:0:0:0:
329,192,135877,1,0,0:0:0:0:
109,192,135963,1,0,0:0:0:0:
182,192,136048,1,0,0:0:0:0:
475,192,136133,1,0,0:0:0:0:
256,192,136218,1,0,0:0:0:0:
329,192,136218,1,0,0:0:0:0:
402,192,136218,1,0,0:0:0:0:
