osu file format v14

[General]
AudioFilename: audio.mp3
AudioLeadIn: 0
PreviewTime: 120030
Countdown: 0
SampleSet: Normal
StackLeniency: 0.7
Mode: 1
LetterboxInBreaks: 0
WidescreenStoryboard: 1

[Editor]
Bookmarks: 31,1403,23345,45288,67231,87803,93288,98774,109745,120717,142660,153631,163917
DistanceSpacing: 3.5
BeatDivisor: 4
GridSize: 32
TimelineZoom: 1.500004

[Metadata]
Title:Lonely departure
TitleUnicode:Lonely departure
Artist:Chroma
ArtistUnicode:黒魔
Creator:Fynbi
Version:Oni
Source:Lanota
Tags:Noxy Games Expansion Chapter C OverRapid Collaboration Act.3 Avant-garde electronic instrumental chiptune
BeatmapID:3012613
BeatmapSetID:1466955

[Difficulty]
HPDrainRate:5
CircleSize:5
OverallDifficulty:6
ApproachRate:7
SliderMultiplier:1.4
SliderTickRate:3

[Events]
//Background and Video events
0,0,"fantasy-art-digital-art-artwork-nature-wallpaper.jpg",0,-60
//Break Periods
2,88144,91744
//Storyboard Layer 0 (Background)
//Storyboard Layer 1 (Fail)
//Storyboard Layer 2 (Pass)
//Storyboard Layer 3 (Foreground)
//Storyboard Layer 4 (Overlay)
//Storyboard Sound Samples

[TimingPoints]
31,342.857142857143,4,1,0,5,1,0
31,-125,4,1,0,5,0,0
459,-125,4,1,0,85,0,0
1402,342.857142857143,4,1,0,85,1,0
2044,-111.111111111111,4,1,0,85,0,0
12330,-99.9999999999999,4,1,0,85,0,0
12844,-111.111111111111,4,1,0,85,0,0
12930,-110.687022900763,4,1,0,85,0,0
13016,-110.266159695817,4,1,0,85,0,0
13530,-109.848484848485,4,1,0,85,0,0
13702,-109.433962264151,4,1,0,85,0,0
13873,-109.022556390977,4,1,0,85,0,0
14044,-108.614232209738,4,1,0,85,0,0
14130,-108.208955223881,4,1,0,85,0,0
14216,-107.806691449814,4,1,0,85,0,0
14387,-107.407407407407,4,1,0,85,0,0
14902,-107.011070110701,4,1,0,85,0,0
14987,-106.617647058824,4,1,0,85,0,0
15073,-106.227106227106,4,1,0,85,0,0
15330,-105.839416058394,4,1,0,85,0,0
15587,-105.454545454545,4,1,0,85,0,0
15759,-105.072463768116,4,1,0,85,0,0
16273,-104.693140794224,4,1,0,85,0,0
16359,-104.31654676259,4,1,0,85,0,0
16444,-103.942652329749,4,1,0,85,0,0
16616,-103.571428571429,4,1,0,85,0,0
16959,-103.202846975089,4,1,0,85,0,0
17044,-102.836879432624,4,1,0,85,0,0
17130,-102.473498233216,4,1,0,85,0,0
17302,-102.112676056338,4,1,0,85,0,0
17644,-101.754385964912,4,1,0,85,0,0
17730,-101.398601398601,4,1,0,85,0,0
17816,-101.045296167247,4,1,0,85,0,0
18330,-100.694444444444,4,1,0,85,0,0
18416,-100.346020761246,4,1,0,85,0,0
18502,-100,4,1,0,85,0,0
18673,-99.6563573883161,4,1,0,85,0,0
18759,-99.3150684931507,4,1,0,85,0,0
18844,-98.976109215017,4,1,0,85,0,0
19187,-98.6394557823129,4,1,0,85,0,0
19273,-98.3050847457627,4,1,0,85,0,0
19359,-97.972972972973,4,1,0,85,0,0
19530,-97.6430976430976,4,1,0,85,0,0
19616,-97.3154362416107,4,1,0,85,0,0
19702,-96.989966555184,4,1,0,85,0,0
19873,-96.6666666666667,4,1,0,85,0,0
20044,-96.3455149501661,4,1,0,85,0,0
20130,-96.0264900662252,4,1,0,85,0,0
20216,-95.7095709570957,4,1,0,85,0,0
20387,-95.3947368421053,4,1,0,85,0,0
20473,-95.0819672131148,4,1,0,85,0,0
20559,-94.7712418300654,4,1,0,85,0,0
20816,-94.4625407166124,4,1,0,85,0,0
21073,-94.1558441558442,4,1,0,85,0,0
21244,-93.8511326860841,4,1,0,85,0,0
21416,-93.5483870967742,4,1,0,85,0,0
21502,-93.2475884244373,4,1,0,85,0,0
21587,-92.9487179487179,4,1,0,85,0,0
21673,-92.6517571884984,4,1,0,85,0,0
21759,-92.3566878980892,4,1,0,85,0,0
21930,-92.0634920634921,4,1,0,85,0,0
22102,-91.7721518987342,4,1,0,85,0,0
22273,-91.4826498422713,4,1,0,85,0,0
22444,-91.1949685534591,4,1,0,85,0,0
22616,-90.9090909090909,4,1,0,85,0,0
22744,-125,4,1,0,5,0,0
23259,-125,4,1,0,55,0,0
44687,-111.111111111111,4,1,0,85,0,0
45244,-90.9090909090909,4,1,0,85,0,0
45587,-100,4,1,0,85,0,0
49102,-98.7654320987654,4,1,0,85,0,0
49187,-97.5609756097561,4,1,0,85,0,0
49273,-96.3855421686747,4,1,0,85,0,0
49359,-95.2380952380952,4,1,0,85,0,0
49702,-95.8083832335329,4,1,0,85,0,0
49873,-96.3855421686747,4,1,0,85,0,0
50044,-96.969696969697,4,1,0,85,0,0
50216,-97.5609756097561,4,1,0,85,0,0
50387,-98.159509202454,4,1,0,85,0,0
50473,-98.7654320987654,4,1,0,85,0,0
50559,-99.3788819875776,4,1,0,85,0,0
50730,-100,4,1,0,85,0,0
54587,-98.7654320987654,4,1,0,85,0,0
54672,-97.5609756097561,4,1,0,85,0,0
54758,-96.3855421686747,4,1,0,85,0,0
54844,-95.2380952380952,4,1,0,85,0,0
55016,-95.8083832335329,4,1,0,85,0,0
55187,-96.3855421686747,4,1,0,85,0,0
55359,-96.969696969697,4,1,0,85,0,0
55530,-97.5609756097561,4,1,0,85,0,0
55787,-98.159509202454,4,1,0,85,0,0
55873,-98.7654320987654,4,1,0,85,0,0
56044,-99.3788819875776,4,1,0,85,0,0
56216,-90.9090909090909,4,1,0,85,0,0
56559,-100,4,1,0,85,0,0
60073,-98.7654320987654,4,1,0,85,0,0
60158,-97.5609756097561,4,1,0,85,0,0
60244,-96.3855421686747,4,1,0,85,0,0
60330,-95.2380952380952,4,1,0,85,0,0
60502,-95.6521739130435,4,1,0,85,0,0
60587,-96.0698689956332,4,1,0,85,0,0
60673,-96.4912280701754,4,1,0,85,0,0
60844,-96.9162995594714,4,1,0,85,0,0
60930,-97.3451327433628,4,1,0,85,0,0
61016,-97.7777777777778,4,1,0,85,0,0
61187,-98.2142857142857,4,1,0,85,0,0
61359,-98.6547085201794,4,1,0,85,0,0
61444,-99.0990990990991,4,1,0,85,0,0
61530,-99.5475113122172,4,1,0,85,0,0
61702,-100,4,1,0,85,0,0
61873,-99.3377483443709,4,1,0,85,0,0
61959,-98.6842105263158,4,1,0,85,0,0
62044,-98.0392156862745,4,1,0,85,0,0
62387,-100,4,1,0,85,0,0
62559,-98.6842105263158,4,1,0,85,0,0
62644,-97.4025974025974,4,1,0,85,0,0
62730,-96.1538461538461,4,1,0,85,0,0
63073,-100,4,1,0,85,0,0
63244,-98.0392156862745,4,1,0,85,0,0
63330,-96.1538461538461,4,1,0,85,0,0
63416,-94.3396226415094,4,1,0,85,0,0
63759,-100,4,1,0,85,0,0
63930,-97.4025974025974,4,1,0,85,0,0
64016,-94.9367088607595,4,1,0,85,0,0
64102,-92.5925925925926,4,1,0,85,0,0
64444,-100,4,1,0,85,0,0
64530,-99.009900990099,4,1,0,85,0,0
64616,-98.0392156862745,4,1,0,85,0,0
64787,-97.0873786407767,4,1,0,85,0,0
64959,-96.1538461538461,4,1,0,85,0,0
65130,-95.2380952380952,4,1,0,85,0,0
65216,-94.3396226415094,4,1,0,85,0,0
65302,-93.4579439252336,4,1,0,85,0,0
65473,-92.5925925925926,4,1,0,85,0,0
65644,-91.743119266055,4,1,0,85,0,0
65816,-90.9090909090909,4,1,0,85,0,0
65902,-91.743119266055,4,1,0,85,0,0
65987,-92.5925925925926,4,1,0,85,0,0
66073,-93.4579439252336,4,1,0,85,0,0
66159,-94.3396226415094,4,1,0,85,0,0
66330,-95.2380952380952,4,1,0,85,0,0
66416,-96.1538461538461,4,1,0,85,0,0
66502,-97.0873786407767,4,1,0,85,0,0
66587,-98.0392156862745,4,1,0,85,0,0
66673,-99.009900990099,4,1,0,85,0,0
66844,-100,4,1,0,85,0,0
67187,-90.9090909090909,4,1,0,85,0,0
67359,-100,4,1,0,85,0,0
67530,-99.644128113879,4,1,0,85,0,0
67702,-99.290780141844,4,1,0,85,0,0
67873,-98.9399293286219,4,1,0,85,0,0
68044,-98.5915492957747,4,1,0,85,0,0
68215,-98.2456140350877,4,1,0,85,0,0
68387,-97.9020979020979,4,1,0,85,0,0
68558,-97.5609756097561,4,1,0,85,0,0
68730,-97.2222222222222,4,1,0,85,0,0
68901,-96.8858131487889,4,1,0,85,0,0
69073,-96.551724137931,4,1,0,85,0,0
69244,-96.2199312714777,4,1,0,85,0,0
69587,-95.8904109589041,4,1,0,85,0,0
69759,-95.5631399317406,4,1,0,85,0,0
69930,-95.2380952380952,4,1,0,85,0,0
70102,-94.9152542372881,4,1,0,85,0,0
70273,-94.5945945945946,4,1,0,85,0,0
70445,-94.2760942760943,4,1,0,85,0,0
70616,-93.9597315436242,4,1,0,85,0,0
70787,-93.6454849498328,4,1,0,85,0,0
70958,-93.3333333333333,4,1,0,85,0,0
71130,-93.0232558139535,4,1,0,85,0,0
71301,-92.7152317880795,4,1,0,85,0,0
71473,-92.4092409240924,4,1,0,85,0,0
71644,-92.1052631578947,4,1,0,85,0,0
71816,-91.8032786885246,4,1,0,85,0,0
71987,-91.5032679738562,4,1,0,85,0,0
72159,-91.2052117263844,4,1,0,85,0,0
72330,-90.9090909090909,4,1,0,85,0,0
72673,-105.263157894737,4,1,0,85,0,0
72844,-104.918032786885,4,1,0,85,0,0
73015,-104.575163398693,4,1,0,85,0,0
73187,-104.234527687296,4,1,0,85,0,0
73358,-103.896103896104,4,1,0,85,0,0
73530,-103.559870550162,4,1,0,85,0,0
73701,-103.225806451613,4,1,0,85,0,0
73873,-102.893890675241,4,1,0,85,0,0
73959,-102.564102564103,4,1,0,85,0,0
74044,-102.23642172524,4,1,0,85,0,0
74216,-101.910828025478,4,1,0,85,0,0
74387,-101.587301587302,4,1,0,85,0,0
74559,-101.26582278481,4,1,0,85,0,0
74730,-100.946372239748,4,1,0,85,0,0
75073,-100.62893081761,4,1,0,85,0,0
75245,-100.313479623824,4,1,0,85,0,0
75416,-100,4,1,0,85,0,0
75587,-99.6884735202492,4,1,0,85,0,0
75758,-99.3788819875776,4,1,0,85,0,0
75930,-99.0712074303406,4,1,0,85,0,0
76101,-98.7654320987654,4,1,0,85,0,0
76273,-98.4615384615385,4,1,0,85,0,0
76444,-98.159509202454,4,1,0,85,0,0
76616,-97.8593272171254,4,1,0,85,0,0
76787,-97.5609756097561,4,1,0,85,0,0
76959,-97.2644376899696,4,1,0,85,0,0
77044,-96.969696969697,4,1,0,85,0,0
77130,-96.6767371601208,4,1,0,85,0,0
77302,-96.3855421686747,4,1,0,85,0,0
77473,-96.0960960960961,4,1,0,85,0,0
77559,-95.8083832335329,4,1,0,85,0,0
77644,-95.5223880597015,4,1,0,85,0,0
77815,-95.2380952380952,4,1,0,85,0,0
78158,-111.111111111111,4,1,0,85,0,0
80902,-100,4,1,0,85,0,0
81416,-90.9090909090909,4,1,0,85,0,0
82102,-83.3333333333333,4,1,0,85,0,0
82616,-105.263157894737,4,1,0,85,0,0
82702,-103.092783505155,4,1,0,85,0,0
82787,-101.010101010101,4,1,0,85,0,0
82873,-99.009900990099,4,1,0,85,0,0
82959,-97.0873786407767,4,1,0,85,0,0
83302,-95.2380952380954,4,1,0,85,0,0
83644,-90.9090909090909,4,1,0,85,0,0
83987,-100,4,1,0,85,0,0
86216,-100,4,1,0,85,0,0
86387,-100,4,1,0,85,0,0
86559,-100,4,1,0,85,0,0
86730,-100,4,1,0,85,0,0
86816,-100,4,1,0,85,0,0
86902,-100,4,1,0,85,0,0
87073,-100,4,1,0,85,0,0
87244,-100,4,1,0,85,0,0
87330,-100,4,1,0,85,0,0
87416,-100,4,1,0,85,0,0
87502,-100,4,1,0,85,0,0
87587,-100,4,1,0,85,0,0
87759,-100,4,1,0,85,0,0
87973,-166.666666666667,4,1,0,5,0,0
90502,-142.857142857143,4,1,0,5,0,0
91873,-125,4,1,0,5,0,0
93202,-111.111111111111,4,1,0,85,0,0
93416,-110.429447852761,4,1,0,85,0,0
93587,-109.756097560976,4,1,0,85,0,0
93759,-109.090909090909,4,1,0,85,0,0
93844,-108.433734939759,4,1,0,85,0,0
93930,-107.784431137725,4,1,0,85,0,0
94102,-107.142857142857,4,1,0,85,0,0
94273,-106.508875739645,4,1,0,85,0,0
94616,-105.882352941176,4,1,0,85,0,0
94787,-105.263157894737,4,1,0,85,0,0
94959,-104.651162790698,4,1,0,85,0,0
95130,-104.046242774566,4,1,0,85,0,0
95216,-103.448275862069,4,1,0,85,0,0
95302,-102.857142857143,4,1,0,85,0,0
95473,-102.272727272727,4,1,0,85,0,0
95644,-101.694915254237,4,1,0,85,0,0
95816,-101.123595505618,4,1,0,85,0,0
95902,-100.558659217877,4,1,0,85,0,0
95987,-100,4,1,0,85,0,0
96159,-99.4475138121547,4,1,0,85,0,0
96330,-98.9010989010989,4,1,0,85,0,0
96416,-98.3606557377049,4,1,0,85,0,0
96502,-97.8260869565217,4,1,0,85,0,0
96673,-97.2972972972973,4,1,0,85,0,0
96759,-96.7741935483871,4,1,0,85,0,0
96844,-96.2566844919786,4,1,0,85,0,0
96930,-95.7446808510638,4,1,0,85,0,0
97016,-95.2380952380952,4,1,0,85,0,0
97187,-94.7368421052632,4,1,0,85,0,0
97359,-94.2408376963351,4,1,0,85,0,0
97444,-93.75,4,1,0,85,0,0
97530,-93.2642487046632,4,1,0,85,0,0
97702,-92.7835051546392,4,1,0,85,0,0
97787,-92.3076923076923,4,1,0,85,0,0
97873,-91.8367346938775,4,1,0,85,0,0
98044,-91.3705583756345,4,1,0,85,0,0
98687,-90.9090909090909,4,1,0,65,0,0
99244,-133.333333333333,4,1,0,65,0,0
109659,-125,4,1,0,75,0,0
109873,-124.306326304107,4,1,0,75,0,0
110044,-123.620309050773,4,1,0,75,0,0
110216,-122.941822173436,4,1,0,75,0,0
110302,-122.270742358079,4,1,0,75,0,0
110387,-121.606948968512,4,1,0,75,0,0
110559,-120.950323974082,4,1,0,75,0,0
110730,-120.300751879699,4,1,0,75,0,0
111073,-119.65811965812,4,1,0,75,0,0
111244,-119.022316684378,4,1,0,75,0,0
111416,-118.393234672304,4,1,0,75,0,0
111587,-117.770767613039,4,1,0,75,0,0
111673,-117.154811715481,4,1,0,75,0,0
111844,-116.545265348595,4,1,0,75,0,0
111930,-115.942028985507,4,1,0,75,0,0
112102,-115.345005149331,4,1,0,75,0,0
112444,-114.754098360656,4,1,0,75,0,0
112616,-114.169215086646,4,1,0,75,0,0
112787,-113.590263691684,4,1,0,75,0,0
112959,-113.017154389506,4,1,0,75,0,0
113044,-112.449799196787,4,1,0,75,0,0
113130,-111.888111888112,4,1,0,75,0,0
113302,-111.332007952286,4,1,0,75,0,0
113473,-110.781404549951,4,1,0,75,0,0
113816,-110.236220472441,4,1,0,75,0,0
113987,-109.696376101861,4,1,0,75,0,0
114159,-109.16179337232,4,1,0,75,0,0
114330,-108.632395732299,4,1,0,75,0,0
114416,-108.108108108108,4,1,0,75,0,0
114502,-107.588856868396,4,1,0,75,0,0
114673,-107.074569789675,4,1,0,75,0,0
114844,-106.565176022835,4,1,0,75,0,0
115187,-106.060606060606,4,1,0,75,0,0
115359,-105.560791705938,4,1,0,75,0,0
115530,-105.065666041276,4,1,0,75,0,0
115702,-104.575163398693,4,1,0,75,0,0
115787,-104.089219330855,4,1,0,75,0,0
115873,-103.607770582794,4,1,0,75,0,0
116044,-103.130755064457,4,1,0,75,0,0
116216,-102.658111824015,4,1,0,75,0,0
116559,-102.189781021898,4,1,0,75,0,0
116730,-101.72570390554,4,1,0,75,0,0
116902,-101.26582278481,4,1,0,75,0,0
117073,-100.810081008101,4,1,0,75,0,0
117159,-100.358422939068,4,1,0,75,0,0
117244,-99.9107939339875,4,1,0,75,0,0
117416,-99.4671403197158,4,1,0,75,0,0
117587,-99.0274093722369,4,1,0,75,0,0
117930,-98.5915492957747,4,1,0,75,0,0
118102,-98.159509202454,4,1,0,75,0,0
118273,-97.7312390924956,4,1,0,75,0,0
118444,-97.3066898349261,4,1,0,75,0,0
118530,-96.8858131487889,4,1,0,75,0,0
118616,-96.4685615848407,4,1,0,75,0,0
118787,-96.0548885077187,4,1,0,75,0,0
118959,-95.6447480785653,4,1,0,75,0,0
119302,-95.2380952380952,4,1,0,75,0,0
120716,-95.2380952380952,4,1,0,100,0,1
142659,-86.9565217391304,4,1,0,100,0,0
142830,-111.111111111111,4,1,0,85,0,0
153287,-100,4,1,0,25,0,1
153630,-100,4,1,0,85,0,0
153930,-111.111111111111,4,1,0,85,0,0
154102,-110.743801652893,4,1,0,85,0,0
154187,-110.378912685338,4,1,0,85,0,0
154273,-110.016420361248,4,1,0,85,0,0
154444,-109.656301145663,4,1,0,85,0,0
154616,-109.298531810767,4,1,0,85,0,0
154959,-108.943089430894,4,1,0,85,0,0
155130,-108.589951377634,4,1,0,85,0,0
155216,-108.239095315024,4,1,0,85,0,0
155387,-107.890499194847,4,1,0,85,0,0
155473,-107.544141252006,4,1,0,85,0,0
155644,-107.2,4,1,0,85,0,0
155816,-106.858054226475,4,1,0,85,0,0
155902,-106.518282988871,4,1,0,85,0,0
155987,-106.180665610143,4,1,0,85,0,0
156159,-105.845181674566,4,1,0,85,0,0
156330,-105.511811023622,4,1,0,85,0,0
156673,-105.180533751962,4,1,0,85,0,0
156844,-104.851330203443,4,1,0,85,0,0
156930,-104.524180967239,4,1,0,85,0,0
157016,-104.199066874028,4,1,0,85,0,0
157187,-103.875968992248,4,1,0,85,0,0
157359,-103.55486862442,4,1,0,85,0,0
157702,-103.235747303544,4,1,0,85,0,0
157873,-102.918586789555,4,1,0,85,0,0
157959,-102.60336906585,4,1,0,85,0,0
158130,-102.290076335878,4,1,0,85,0,0
158216,-101.978691019787,4,1,0,85,0,0
158387,-101.669195751138,4,1,0,85,0,0
158559,-101.361573373676,4,1,0,85,0,0
158644,-101.05580693816,4,1,0,85,0,0
158730,-100.751879699248,4,1,0,85,0,0
158902,-100.449775112444,4,1,0,85,0,0
159073,-100.149476831091,4,1,0,85,0,0
159244,-99.8509687034277,4,1,0,85,0,0
159416,-99.554234769688,4,1,0,85,0,0
159587,-99.2592592592593,4,1,0,85,0,0
159759,-98.9660265878877,4,1,0,85,0,0
159930,-98.6745213549337,4,1,0,85,0,0
160102,-98.3847283406755,4,1,0,85,0,0
160444,-98.0966325036603,4,1,0,85,0,0
160616,-97.8102189781022,4,1,0,85,0,0
160787,-97.5254730713246,4,1,0,85,0,0
160959,-97.2423802612482,4,1,0,85,0,0
161130,-96.9609261939218,4,1,0,85,0,0
161302,-96.6810966810967,4,1,0,85,0,0
161387,-96.4028776978417,4,1,0,85,0,0
161473,-96.1262553802008,4,1,0,85,0,0
161644,-95.8512160228898,4,1,0,85,0,0
161730,-95.5777460770328,4,1,0,85,0,0
161816,-95.3058321479374,4,1,0,85,0,0
161987,-95.0354609929078,4,1,0,85,0,0
162073,-94.7666195190947,4,1,0,85,0,0
162159,-94.4992947813822,4,1,0,85,0,0
162330,-94.2334739803094,4,1,0,85,0,0
162502,-93.969144460028,4,1,0,85,0,0
162587,-93.7062937062937,4,1,0,85,0,0
162673,-93.4449093444909,4,1,0,85,0,0
162759,-93.1849791376912,4,1,0,85,0,0
162844,-92.9264909847434,4,1,0,85,0,0
163016,-92.6694329183956,4,1,0,85,0,0
163187,-92.4137931034483,4,1,0,85,0,0
163273,-92.1595598349381,4,1,0,85,0,0
163359,-91.9067215363512,4,1,0,85,0,0
163530,-91.6552667578659,4,1,0,85,0,0
163616,-91.4051841746248,4,1,0,85,0,0
163702,-91.156462585034,4,1,0,85,0,0
163873,-90.9090909090909,4,1,0,85,0,0
164259,-100,4,1,0,5,0,0

[HitObjects]
242,199,545,5,0,0:0:0:0:
242,199,716,1,8,0:0:0:0:
238,197,1402,1,4,0:0:0:0:
244,194,2087,1,8,0:0:0:0:
223,203,3116,1,0,0:0:0:0:
221,202,3459,1,8,0:0:0:0:
221,202,4144,1,0,0:0:0:0:
221,202,4830,1,8,0:0:0:0:
221,202,5859,1,0,0:0:0:0:
221,202,6202,1,8,0:0:0:0:
221,202,6887,1,0,0:0:0:0:
221,202,7573,1,8,0:0:0:0:
221,202,8602,1,0,0:0:0:0:
221,202,8944,1,8,0:0:0:0:
221,202,9630,1,0,0:0:0:0:
221,202,10316,1,8,0:0:0:0:
221,202,10830,1,0,0:0:0:0:
192,226,11173,1,0,0:0:0:0:
221,202,11344,1,0,0:0:0:0:
175,190,11516,1,0,0:0:0:0:
220,201,11687,1,8,0:0:0:0:
219,201,12030,1,0,0:0:0:0:
219,201,12116,1,8,0:0:0:0:
219,201,12202,1,8,0:0:0:0:
219,201,12373,1,4,0:0:0:0:
227,209,12887,1,0,0:0:0:0:
222,210,12973,1,0,0:0:0:0:
227,209,13059,1,8,0:0:0:0:
229,200,13573,1,0,0:0:0:0:
229,200,13916,1,0,0:0:0:0:
229,200,14087,1,0,0:0:0:0:
229,200,14173,1,0,0:0:0:0:
229,200,14259,1,0,0:0:0:0:
229,200,14430,1,8,0:0:0:0:
231,207,14944,1,0,0:0:0:0:
231,207,15030,1,0,0:0:0:0:
231,207,15116,1,0,0:0:0:0:
229,207,15373,1,0,0:0:0:0:
229,207,15630,1,0,0:0:0:0:
229,207,15802,1,8,0:0:0:0:
204,182,16316,1,8,0:0:0:0:
209,179,16402,1,8,0:0:0:0:
210,177,16487,1,8,0:0:0:0:
202,176,16659,1,0,0:0:0:0:
201,176,17002,1,0,0:0:0:0:
201,176,17087,1,0,0:0:0:0:
206,176,17173,1,8,0:0:0:0:
206,176,17344,1,0,0:0:0:0:
204,175,17687,1,0,0:0:0:0:
204,175,17773,1,0,0:0:0:0:
204,175,17859,1,0,0:0:0:0:
205,174,18373,1,0,0:0:0:0:
205,174,18459,1,0,0:0:0:0:
205,174,18544,1,8,0:0:0:0:
212,170,18716,1,8,0:0:0:0:
205,174,18802,1,8,0:0:0:0:
205,174,18887,1,8,0:0:0:0:
211,170,19230,1,8,0:0:0:0:
211,170,19316,1,8,0:0:0:0:
211,170,19402,1,0,0:0:0:0:
211,170,19573,1,0,0:0:0:0:
211,170,19659,1,0,0:0:0:0:
216,168,19744,1,0,0:0:0:0:
211,170,19916,1,8,0:0:0:0:
202,192,20087,1,8,0:0:0:0:
202,192,20173,1,8,0:0:0:0:
202,192,20259,1,8,0:0:0:0:
202,192,20430,1,0,0:0:0:0:
202,192,20516,1,0,0:0:0:0:
200,187,20602,1,0,0:0:0:0:
200,187,20859,1,0,0:0:0:0:
199,220,21116,1,0,0:0:0:0:
201,214,21287,1,8,0:0:0:0:
201,214,21459,1,8,0:0:0:0:
201,214,21544,1,8,0:0:0:0:
207,210,21630,1,8,0:0:0:0:
201,214,21716,1,8,0:0:0:0:
207,210,21802,1,0,0:0:0:0:
205,210,22144,1,0,0:0:0:0:
205,210,22316,1,0,0:0:0:0:
205,210,22487,1,0,0:0:0:0:
205,210,22659,1,8,0:0:0:0:
200,219,23344,1,0,0:0:0:0:
197,222,23859,1,0,0:0:0:0:
197,222,24030,1,8,0:0:0:0:
215,206,25059,1,0,0:0:0:0:
215,206,25230,1,0,0:0:0:0:
215,206,25402,1,0,0:0:0:0:
215,206,25744,1,8,0:0:0:0:
215,206,26087,1,8,0:0:0:0:
215,206,26602,1,0,0:0:0:0:
215,206,26773,1,8,0:0:0:0:
210,211,28830,1,0,0:0:0:0:
210,211,29344,1,0,0:0:0:0:
210,211,29516,1,8,0:0:0:0:
210,211,30544,1,0,0:0:0:0:
210,211,30716,1,0,0:0:0:0:
210,211,30887,1,0,0:0:0:0:
210,211,31230,1,8,0:0:0:0:
210,211,31573,1,0,0:0:0:0:
211,212,32087,1,8,0:0:0:0:
211,212,32259,1,0,0:0:0:0:
222,220,33973,1,0,0:0:0:0:
222,220,34144,1,8,0:0:0:0:
222,220,34316,1,8,0:0:0:0:
221,220,34830,1,8,0:0:0:0:
221,220,34916,1,8,0:0:0:0:
221,220,35002,1,0,0:0:0:0:
215,232,36030,1,0,0:0:0:0:
227,222,36202,1,0,0:0:0:0:
215,232,36373,1,8,0:0:0:0:
201,232,36630,1,8,0:0:0:0:
198,235,36887,1,0,0:0:0:0:
198,235,37059,1,0,0:0:0:0:
200,232,37573,1,8,0:0:0:0:
200,232,37659,1,0,0:0:0:0:
200,232,37744,1,0,0:0:0:0:
207,201,39459,1,0,0:0:0:0:
207,201,39802,1,0,0:0:0:0:
207,201,40316,1,0,0:0:0:0:
207,201,40487,1,8,0:0:0:0:
207,201,41516,1,0,0:0:0:0:
207,201,41687,1,0,0:0:0:0:
207,201,41859,1,0,0:0:0:0:
204,198,42202,1,8,0:0:0:0:
204,198,42544,1,0,0:0:0:0:
203,198,43573,1,0,0:0:0:0:
203,198,43744,1,8,0:0:0:0:
203,198,43830,1,0,0:0:0:0:
203,198,43916,1,0,0:0:0:0:
203,199,44430,1,0,0:0:0:0:
203,199,44516,1,8,0:0:0:0:
203,199,44602,1,8,0:0:0:0:
220,215,44773,1,0,0:0:0:0:
219,198,44944,1,8,0:0:0:0:
230,213,45287,1,4,0:0:0:0:
206,228,45630,1,8,0:0:0:0:
206,228,45802,1,0,0:0:0:0:
209,273,45973,1,0,0:0:0:0:
210,268,46059,1,0,0:0:0:0:
209,268,46144,1,0,0:0:0:0:
209,268,46316,1,8,0:0:0:0:
206,262,46659,1,0,0:0:0:0:
204,260,47002,1,8,0:0:0:0:
204,260,47173,1,8,0:0:0:0:
224,256,47259,1,8,0:0:0:0:
204,260,47344,1,0,0:0:0:0:
238,217,47516,1,0,0:0:0:0:
206,255,47687,1,8,0:0:0:0:
222,232,48030,1,0,0:0:0:0:
218,238,48373,1,8,0:0:0:0:
185,252,48544,1,0,0:0:0:0:
192,256,48630,1,0,0:0:0:0:
185,252,48716,1,8,0:0:0:0:
197,273,48887,1,0,0:0:0:0:
196,254,49059,1,8,0:0:0:0:
231,233,49144,1,0,0:0:0:0:
190,237,49230,1,0,0:0:0:0:
204,232,49316,1,0,0:0:0:0:
182,252,49402,1,8,0:0:0:0:
194,246,49744,1,8,0:0:0:0:
194,246,49916,1,0,0:0:0:0:
194,246,50087,1,8,0:0:0:0:
191,238,50259,1,0,0:0:0:0:
188,248,50430,1,8,0:0:0:0:
191,238,50516,1,8,0:0:0:0:
190,235,50602,1,8,0:0:0:0:
198,217,50773,1,0,0:0:0:0:
192,251,51116,1,8,0:0:0:0:
192,251,51287,1,0,0:0:0:0:
192,251,51459,1,0,0:0:0:0:
192,251,51544,1,0,0:0:0:0:
191,245,51630,1,0,0:0:0:0:
208,278,51802,1,8,0:0:0:0:
208,278,52144,1,0,0:0:0:0:
208,278,52487,1,8,0:0:0:0:
208,278,52659,1,8,0:0:0:0:
211,239,52744,1,8,0:0:0:0:
208,278,52830,1,0,0:0:0:0:
198,246,53002,1,0,0:0:0:0:
218,249,53173,1,8,0:0:0:0:
212,229,53516,1,0,0:0:0:0:
209,230,53859,1,8,0:0:0:0:
206,218,54030,1,8,0:0:0:0:
206,218,54116,1,0,0:0:0:0:
205,212,54202,1,8,0:0:0:0:
201,237,54373,1,0,0:0:0:0:
201,237,54544,1,8,0:0:0:0:
188,195,54630,1,0,0:0:0:0:
192,289,54716,1,0,0:0:0:0:
203,222,54802,1,0,0:0:0:0:
214,214,54887,1,8,0:0:0:0:
207,225,55059,1,8,0:0:0:0:
207,225,55230,1,8,0:0:0:0:
207,225,55402,1,0,0:0:0:0:
207,225,55573,1,8,0:0:0:0:
209,236,55830,1,8,0:0:0:0:
209,236,55916,1,8,0:0:0:0:
209,236,56087,1,8,0:0:0:0:
209,236,56259,1,4,0:0:0:0:
212,238,56602,1,8,0:0:0:0:
212,238,56773,1,8,0:0:0:0:
212,238,56859,1,8,0:0:0:0:
212,238,56944,1,0,0:0:0:0:
212,238,57116,1,0,0:0:0:0:
212,238,57287,1,8,0:0:0:0:
212,238,57630,1,0,0:0:0:0:
203,236,57973,1,8,0:0:0:0:
203,236,58144,1,0,0:0:0:0:
203,236,58316,1,8,0:0:0:0:
203,236,58487,1,0,0:0:0:0:
203,236,58573,1,8,0:0:0:0:
203,236,58744,1,0,0:0:0:0:
203,236,58830,1,8,0:0:0:0:
217,238,59002,1,0,0:0:0:0:
220,241,59344,1,8,0:0:0:0:
220,241,59516,1,8,0:0:0:0:
220,241,59602,1,0,0:0:0:0:
220,233,59687,1,0,0:0:0:0:
220,233,59859,1,0,0:0:0:0:
214,221,60030,1,8,0:0:0:0:
214,221,60116,1,8,0:0:0:0:
214,221,60202,1,0,0:0:0:0:
220,216,60287,1,0,0:0:0:0:
181,226,60373,1,8,0:0:0:0:
214,227,60544,1,8,0:0:0:0:
214,227,60630,1,0,0:0:0:0:
214,227,60716,1,8,0:0:0:0:
228,244,60887,1,0,0:0:0:0:
228,244,60973,1,0,0:0:0:0:
182,232,61059,1,8,0:0:0:0:
200,222,61230,1,0,0:0:0:0:
209,216,61402,1,8,0:0:0:0:
208,215,61487,1,8,0:0:0:0:
206,242,61573,1,0,0:0:0:0:
216,216,61744,1,0,0:0:0:0:
208,226,61916,1,0,0:0:0:0:
208,226,62002,1,0,0:0:0:0:
214,221,62087,1,8,0:0:0:0:
186,227,62430,1,0,0:0:0:0:
214,221,62602,1,0,0:0:0:0:
214,221,62687,1,8,0:0:0:0:
214,221,62773,1,8,0:0:0:0:
231,232,63116,1,0,0:0:0:0:
214,221,63287,1,8,0:0:0:0:
214,221,63373,1,0,0:0:0:0:
214,221,63459,1,8,0:0:0:0:
211,242,63802,1,0,0:0:0:0:
215,217,63973,1,8,0:0:0:0:
215,217,64059,1,8,0:0:0:0:
215,217,64144,1,8,0:0:0:0:
215,217,64487,1,8,0:0:0:0:
215,217,64573,1,0,0:0:0:0:
215,217,64659,1,8,0:0:0:0:
215,217,64830,1,8,0:0:0:0:
215,217,65002,1,0,0:0:0:0:
215,217,65173,1,8,0:0:0:0:
215,217,65259,1,0,0:0:0:0:
215,217,65344,1,8,0:0:0:0:
215,217,65516,1,8,0:0:0:0:
215,217,65687,1,0,0:0:0:0:
209,202,65859,1,8,0:0:0:0:
209,226,65944,1,8,0:0:0:0:
209,226,66030,1,0,0:0:0:0:
178,210,66116,1,0,0:0:0:0:
208,226,66202,1,8,0:0:0:0:
209,226,66373,1,0,0:0:0:0:
178,207,66459,1,0,0:0:0:0:
184,207,66544,1,8,0:0:0:0:
209,226,66630,1,8,0:0:0:0:
209,226,66716,1,0,0:0:0:0:
209,226,66887,1,8,0:0:0:0:
268,214,67230,1,4,0:0:0:0:
221,225,67402,1,8,0:0:0:0:
221,225,67573,1,8,0:0:0:0:
202,235,67744,1,0,0:0:0:0:
228,223,67916,1,8,0:0:0:0:
228,223,68087,1,8,0:0:0:0:
228,223,68259,1,0,0:0:0:0:
228,223,68430,1,8,0:0:0:0:
228,223,68602,1,0,0:0:0:0:
228,223,68773,1,0,0:0:0:0:
237,225,68944,1,8,0:0:0:0:
228,223,69116,1,0,0:0:0:0:
237,225,69287,1,8,0:0:0:0:
237,225,69630,1,8,0:0:0:0:
237,225,69802,1,8,0:0:0:0:
237,225,69973,1,0,0:0:0:0:
237,225,70144,1,8,0:0:0:0:
237,225,70316,1,8,0:0:0:0:
230,218,70487,1,0,0:0:0:0:
245,225,70659,1,8,0:0:0:0:
245,225,70830,1,0,0:0:0:0:
245,225,71002,1,0,0:0:0:0:
245,225,71173,1,8,0:0:0:0:
235,223,71344,1,0,0:0:0:0:
235,223,71516,1,8,0:0:0:0:
235,223,71687,1,8,0:0:0:0:
235,223,71859,1,0,0:0:0:0:
235,223,72030,1,8,0:0:0:0:
235,223,72202,1,8,0:0:0:0:
235,223,72373,1,8,0:0:0:0:
207,216,72716,1,0,0:0:0:0:
220,224,72887,1,8,0:0:0:0:
220,224,73059,1,0,0:0:0:0:
225,219,73230,1,8,0:0:0:0:
220,224,73402,1,8,0:0:0:0:
220,224,73573,1,0,0:0:0:0:
225,219,73744,1,8,0:0:0:0:
225,219,73916,1,0,0:0:0:0:
231,219,74002,1,0,0:0:0:0:
225,219,74087,1,0,0:0:0:0:
231,219,74259,1,0,0:0:0:0:
231,219,74430,1,0,0:0:0:0:
231,219,74602,1,8,0:0:0:0:
231,219,74773,1,8,0:0:0:0:
231,219,75116,1,0,0:0:0:0:
231,219,75287,1,8,0:0:0:0:
231,219,75459,1,8,0:0:0:0:
231,219,75630,1,0,0:0:0:0:
231,219,75802,1,0,0:0:0:0:
231,219,75973,1,8,0:0:0:0:
231,219,76144,1,8,0:0:0:0:
231,219,76316,1,0,0:0:0:0:
231,219,76487,1,8,0:0:0:0:
231,219,76659,1,0,0:0:0:0:
231,219,76830,1,0,0:0:0:0:
236,224,77002,1,8,0:0:0:0:
236,224,77087,1,0,0:0:0:0:
236,224,77173,1,0,0:0:0:0:
220,221,77344,1,0,0:0:0:0:
220,221,77516,1,8,0:0:0:0:
220,221,77602,1,8,0:0:0:0:
220,221,77687,1,0,0:0:0:0:
220,221,77859,1,12,0:0:0:0:
223,226,78202,1,0,0:0:0:0:
231,242,78373,1,0,0:0:0:0:
192,240,78459,1,8,0:0:0:0:
208,206,78544,1,0,0:0:0:0:
208,206,78716,1,0,0:0:0:0:
214,208,78887,1,0,0:0:0:0:
214,208,79059,1,8,0:0:0:0:
214,227,79144,1,0,0:0:0:0:
214,208,79230,1,8,0:0:0:0:
214,208,79402,1,0,0:0:0:0:
226,199,79573,1,8,0:0:0:0:
224,206,79916,1,0,0:0:0:0:
225,199,80259,1,8,0:0:0:0:
218,221,80430,1,0,0:0:0:0:
225,199,80602,1,8,0:0:0:0:
228,196,80944,1,4,0:0:0:0:
232,206,81459,1,0,0:0:0:0:
232,206,81544,1,0,0:0:0:0:
221,213,81630,1,8,0:0:0:0:
221,209,82144,1,8,0:0:0:0:
219,217,82230,1,0,0:0:0:0:
221,209,82316,1,8,0:0:0:0:
199,229,82659,1,0,0:0:0:0:
211,231,82744,1,0,0:0:0:0:
207,232,82830,1,0,0:0:0:0:
211,231,82916,1,0,0:0:0:0:
207,232,83002,1,8,0:0:0:0:
222,245,83344,1,8,0:0:0:0:
213,240,83687,1,4,0:0:0:0:
194,227,84030,1,0,0:0:0:0:
187,223,84373,1,0,0:0:0:0:
187,223,84716,1,0,0:0:0:0:
187,223,85059,1,0,0:0:0:0:
187,223,85402,1,0,0:0:0:0:
186,223,85744,1,0,0:0:0:0:
185,223,86087,1,0,0:0:0:0:
177,216,86259,1,0,0:0:0:0:
186,235,86430,1,8,0:0:0:0:
191,242,86602,1,0,0:0:0:0:
185,238,86773,1,8,0:0:0:0:
191,242,86859,1,8,0:0:0:0:
191,242,86944,1,0,0:0:0:0:
185,238,87116,1,0,0:0:0:0:
191,242,87287,1,0,0:0:0:0:
191,242,87373,1,0,0:0:0:0:
185,238,87459,1,8,0:0:0:0:
191,242,87544,1,8,0:0:0:0:
191,242,87630,1,0,0:0:0:0:
191,242,87802,1,12,0:0:0:0:
225,192,93287,5,0,0:0:0:0:
225,192,93459,1,0,0:0:0:0:
225,192,93630,1,8,0:0:0:0:
225,192,93802,1,0,0:0:0:0:
225,192,93887,1,0,0:0:0:0:
225,192,93973,1,0,0:0:0:0:
225,192,94144,1,0,0:0:0:0:
225,192,94316,1,8,0:0:0:0:
217,197,94659,1,0,0:0:0:0:
217,197,94830,1,0,0:0:0:0:
217,197,95002,1,8,0:0:0:0:
217,197,95173,1,0,0:0:0:0:
217,197,95259,1,0,0:0:0:0:
223,195,95344,1,0,0:0:0:0:
223,195,95516,1,0,0:0:0:0:
206,205,95687,1,8,0:0:0:0:
237,220,95859,1,0,0:0:0:0:
206,205,95944,1,0,0:0:0:0:
206,205,96030,1,8,0:0:0:0:
206,205,96202,1,0,0:0:0:0:
206,205,96373,1,8,0:0:0:0:
206,205,96459,1,8,0:0:0:0:
206,205,96544,1,0,0:0:0:0:
206,205,96716,1,0,0:0:0:0:
148,228,96802,1,0,0:0:0:0:
206,205,96887,1,0,0:0:0:0:
206,205,96973,1,0,0:0:0:0:
206,205,97059,1,8,0:0:0:0:
206,205,97230,1,0,0:0:0:0:
206,205,97402,1,8,0:0:0:0:
217,206,97487,1,0,0:0:0:0:
206,205,97573,1,0,0:0:0:0:
217,206,97744,1,8,0:0:0:0:
206,205,97830,1,8,0:0:0:0:
217,206,97916,1,0,0:0:0:0:
211,214,98087,1,8,0:0:0:0:
251,238,98773,1,4,0:0:0:0:
229,238,99287,1,0,0:0:0:0:
228,238,99802,1,0,0:0:0:0:
228,238,100144,1,8,0:0:0:0:
211,233,101516,1,8,0:0:0:0:
211,236,102030,1,0,0:0:0:0:
210,233,102544,1,0,0:0:0:0:
210,232,102887,1,8,0:0:0:0:
211,232,103573,1,0,0:0:0:0:
211,232,103916,1,8,0:0:0:0:
211,232,104259,1,8,0:0:0:0:
211,232,104430,1,8,0:0:0:0:
211,232,104602,1,0,0:0:0:0:
211,230,105630,1,8,0:0:0:0:
213,229,106144,1,0,0:0:0:0:
213,227,106659,1,8,0:0:0:0:
215,223,107002,1,8,0:0:0:0:
209,225,107516,1,0,0:0:0:0:
240,221,109059,1,0,0:0:0:0:
240,221,109230,1,0,0:0:0:0:
240,221,109402,1,8,0:0:0:0:
240,221,109744,1,0,0:0:0:0:
240,221,109916,1,0,0:0:0:0:
240,221,110087,1,8,0:0:0:0:
240,221,110259,1,0,0:0:0:0:
240,221,110344,1,8,0:0:0:0:
240,221,110430,1,0,0:0:0:0:
240,221,110602,1,0,0:0:0:0:
234,225,110773,1,8,0:0:0:0:
234,225,111116,1,0,0:0:0:0:
234,225,111287,1,0,0:0:0:0:
234,225,111459,1,8,0:0:0:0:
234,225,111630,1,0,0:0:0:0:
234,225,111716,1,8,0:0:0:0:
237,217,111887,1,8,0:0:0:0:
237,217,111973,1,0,0:0:0:0:
237,217,112144,1,8,0:0:0:0:
225,217,112487,1,0,0:0:0:0:
225,217,112659,1,0,0:0:0:0:
225,217,112830,1,8,0:0:0:0:
225,217,113002,1,0,0:0:0:0:
225,217,113087,1,8,0:0:0:0:
225,217,113173,1,0,0:0:0:0:
225,217,113344,1,0,0:0:0:0:
225,217,113516,1,8,0:0:0:0:
211,235,113859,1,0,0:0:0:0:
211,235,114030,1,0,0:0:0:0:
211,235,114202,1,8,0:0:0:0:
211,235,114373,1,0,0:0:0:0:
220,227,114459,1,8,0:0:0:0:
218,226,114544,1,8,0:0:0:0:
218,226,114716,1,0,0:0:0:0:
218,226,114887,1,8,0:0:0:0:
216,227,115230,1,8,0:0:0:0:
216,227,115402,1,0,0:0:0:0:
216,227,115573,1,8,0:0:0:0:
216,227,115744,1,8,0:0:0:0:
216,227,115830,1,8,0:0:0:0:
228,239,115916,1,0,0:0:0:0:
216,227,116087,1,0,0:0:0:0:
216,227,116259,1,8,0:0:0:0:
223,220,116602,1,8,0:0:0:0:
224,224,116773,1,0,0:0:0:0:
224,224,116944,1,8,0:0:0:0:
224,224,117116,1,0,0:0:0:0:
224,224,117202,1,8,0:0:0:0:
186,235,117287,1,8,0:0:0:0:
197,227,117459,1,0,0:0:0:0:
196,227,117630,1,8,0:0:0:0:
196,227,117973,1,8,0:0:0:0:
201,227,118144,1,0,0:0:0:0:
196,227,118316,1,8,0:0:0:0:
196,227,118487,1,8,0:0:0:0:
205,231,118573,1,8,0:0:0:0:
206,231,118659,1,8,0:0:0:0:
211,220,118830,1,0,0:0:0:0:
211,220,119002,1,8,0:0:0:0:
195,200,119344,2,0,L|243:199,6,48.9999985046387
228,220,120716,1,12,0:0:0:0:
216,216,120887,1,8,0:0:0:0:
219,221,120973,1,8,0:0:0:0:
219,221,121230,1,0,0:0:0:0:
211,234,121402,1,0,0:0:0:0:
219,221,121487,1,0,0:0:0:0:
219,221,121744,1,8,0:0:0:0:
211,234,121916,1,0,0:0:0:0:
211,234,122002,1,0,0:0:0:0:
219,221,122087,1,8,0:0:0:0:
211,234,122259,1,0,0:0:0:0:
219,221,122344,1,8,0:0:0:0:
211,230,122516,1,0,0:0:0:0:
219,221,122602,1,8,0:0:0:0:
211,230,122773,1,0,0:0:0:0:
219,221,122859,1,8,0:0:0:0:
211,230,123030,1,0,0:0:0:0:
211,230,123116,1,8,0:0:0:0:
212,237,123287,1,8,0:0:0:0:
212,237,123373,1,0,0:0:0:0:
219,221,123459,1,8,0:0:0:0:
216,216,123630,1,8,0:0:0:0:
219,221,123716,1,8,0:0:0:0:
219,221,123973,1,0,0:0:0:0:
211,234,124144,1,0,0:0:0:0:
219,221,124230,1,0,0:0:0:0:
219,221,124487,1,8,0:0:0:0:
211,234,124659,1,0,0:0:0:0:
211,234,124744,1,0,0:0:0:0:
219,221,124830,1,8,0:0:0:0:
200,235,125002,1,0,0:0:0:0:
219,221,125087,1,8,0:0:0:0:
200,235,125259,1,0,0:0:0:0:
219,221,125344,1,8,0:0:0:0:
219,221,125516,1,8,0:0:0:0:
219,221,125859,1,8,0:0:0:0:
202,228,126030,1,0,0:0:0:0:
202,228,126116,1,8,0:0:0:0:
219,221,126202,1,8,0:0:0:0:
219,221,126373,1,8,0:0:0:0:
219,221,126544,1,0,0:0:0:0:
205,226,126716,1,8,0:0:0:0:
219,221,126802,1,0,0:0:0:0:
205,226,126973,1,8,0:0:0:0:
219,221,127059,1,0,0:0:0:0:
205,226,127230,1,8,0:0:0:0:
219,221,127316,1,0,0:0:0:0:
221,220,127573,1,8,0:0:0:0:
206,225,127744,1,8,0:0:0:0:
221,220,127830,1,8,0:0:0:0:
221,220,128087,1,0,0:0:0:0:
206,225,128259,1,8,0:0:0:0:
221,220,128344,1,8,0:0:0:0:
221,220,128602,1,8,0:0:0:0:
221,220,128773,1,0,0:0:0:0:
221,220,128859,1,8,0:0:0:0:
221,220,128944,1,8,0:0:0:0:
210,227,129116,1,0,0:0:0:0:
221,220,129202,1,8,0:0:0:0:
221,220,129459,1,0,0:0:0:0:
210,227,129630,1,0,0:0:0:0:
221,220,129716,1,0,0:0:0:0:
221,220,129973,1,0,0:0:0:0:
221,220,130144,1,8,0:0:0:0:
221,220,130230,1,8,0:0:0:0:
221,220,130316,1,8,0:0:0:0:
210,225,130487,1,0,0:0:0:0:
208,220,130659,1,8,0:0:0:0:
208,220,130744,1,8,0:0:0:0:
208,220,130830,1,0,0:0:0:0:
208,220,131002,1,0,0:0:0:0:
208,220,131087,1,0,0:0:0:0:
214,219,131173,1,0,0:0:0:0:
208,220,131259,1,0,0:0:0:0:
208,220,131344,1,8,0:0:0:0:
228,220,131687,1,12,0:0:0:0:
216,216,131859,1,8,0:0:0:0:
219,221,131944,1,8,0:0:0:0:
219,221,132202,1,0,0:0:0:0:
211,234,132373,1,0,0:0:0:0:
219,221,132459,1,0,0:0:0:0:
219,221,132716,1,8,0:0:0:0:
211,234,132887,1,0,0:0:0:0:
211,234,132973,1,0,0:0:0:0:
219,221,133059,1,8,0:0:0:0:
211,234,133230,1,0,0:0:0:0:
219,221,133316,1,8,0:0:0:0:
211,230,133487,1,0,0:0:0:0:
219,221,133573,1,8,0:0:0:0:
211,230,133744,1,0,0:0:0:0:
219,221,133830,1,8,0:0:0:0:
211,230,134002,1,0,0:0:0:0:
211,230,134087,1,8,0:0:0:0:
212,237,134259,1,8,0:0:0:0:
212,237,134344,1,0,0:0:0:0:
219,221,134430,1,8,0:0:0:0:
216,216,134602,1,8,0:0:0:0:
219,221,134687,1,8,0:0:0:0:
219,221,134944,1,0,0:0:0:0:
211,234,135116,1,0,0:0:0:0:
219,221,135202,1,0,0:0:0:0:
219,221,135459,1,8,0:0:0:0:
211,234,135630,1,0,0:0:0:0:
211,234,135716,1,0,0:0:0:0:
219,221,135802,1,8,0:0:0:0:
200,235,135973,1,0,0:0:0:0:
219,221,136059,1,8,0:0:0:0:
200,235,136230,1,0,0:0:0:0:
219,221,136316,1,8,0:0:0:0:
219,221,136487,1,8,0:0:0:0:
219,221,136830,1,8,0:0:0:0:
202,228,137002,1,0,0:0:0:0:
202,228,137087,1,8,0:0:0:0:
219,221,137173,1,8,0:0:0:0:
219,221,137344,1,8,0:0:0:0:
219,221,137516,1,0,0:0:0:0:
205,226,137687,1,8,0:0:0:0:
219,221,137773,1,0,0:0:0:0:
205,226,137944,1,8,0:0:0:0:
219,221,138030,1,0,0:0:0:0:
205,226,138202,1,8,0:0:0:0:
219,221,138287,1,0,0:0:0:0:
221,220,138544,1,8,0:0:0:0:
206,225,138716,1,8,0:0:0:0:
221,220,138802,1,8,0:0:0:0:
221,220,139059,1,0,0:0:0:0:
206,225,139230,1,8,0:0:0:0:
221,220,139316,1,8,0:0:0:0:
221,220,139573,1,8,0:0:0:0:
221,220,139744,1,0,0:0:0:0:
221,220,139830,1,8,0:0:0:0:
221,220,139916,1,8,0:0:0:0:
210,227,140087,1,0,0:0:0:0:
221,220,140173,1,8,0:0:0:0:
203,231,140430,1,8,0:0:0:0:
203,231,140602,1,8,0:0:0:0:
203,231,140687,1,8,0:0:0:0:
188,231,140859,1,8,0:0:0:0:
188,231,140944,1,8,0:0:0:0:
175,242,141116,1,8,0:0:0:0:
145,263,141202,1,8,0:0:0:0:
203,231,141287,1,0,0:0:0:0:
188,231,141459,1,8,0:0:0:0:
203,231,141544,1,0,0:0:0:0:
188,231,141716,1,8,0:0:0:0:
203,231,141802,1,0,0:0:0:0:
188,231,141973,1,8,0:0:0:0:
203,231,142059,1,0,0:0:0:0:
188,231,142230,1,8,0:0:0:0:
203,231,142316,1,0,0:0:0:0:
188,231,142487,1,8,0:0:0:0:
238,228,142659,1,4,0:0:0:0:
239,218,143859,1,0,0:0:0:0:
239,218,144202,1,0,0:0:0:0:
239,218,144373,1,0,0:0:0:0:
239,218,145402,1,0,0:0:0:0:
239,218,146602,1,0,0:0:0:0:
239,218,146944,1,0,0:0:0:0:
239,218,147116,1,0,0:0:0:0:
241,217,147802,1,8,0:0:0:0:
239,217,148144,1,0,0:0:0:0:
239,217,148830,1,8,0:0:0:0:
239,217,149344,1,0,0:0:0:0:
239,217,149687,1,0,0:0:0:0:
239,217,149859,1,0,0:0:0:0:
239,217,150202,1,8,0:0:0:0:
230,208,150887,1,0,0:0:0:0:
232,209,151573,1,8,0:0:0:0:
221,208,152087,1,0,0:0:0:0:
221,206,152430,1,0,0:0:0:0:
226,203,152602,1,0,0:0:0:0:
226,203,152773,1,0,0:0:0:0:
226,203,152944,1,8,0:0:0:0:
226,203,153030,1,8,0:0:0:0:
226,203,153116,1,0,0:0:0:0:
242,203,153630,1,4,0:0:0:0:
242,203,153973,1,8,0:0:0:0:
244,213,154144,1,8,0:0:0:0:
231,219,154230,1,0,0:0:0:0:
242,203,154316,1,0,0:0:0:0:
222,220,154487,1,0,0:0:0:0:
242,203,154659,1,8,0:0:0:0:
242,203,155002,1,8,0:0:0:0:
245,213,155173,1,0,0:0:0:0:
206,222,155259,1,8,0:0:0:0:
244,199,155430,1,0,0:0:0:0:
217,197,155516,1,8,0:0:0:0:
244,199,155687,1,0,0:0:0:0:
237,198,155859,1,8,0:0:0:0:
213,200,155944,1,8,0:0:0:0:
248,197,156030,1,8,0:0:0:0:
248,197,156202,1,8,0:0:0:0:
231,220,156373,1,0,0:0:0:0:
219,209,156716,1,8,0:0:0:0:
232,209,156887,1,8,0:0:0:0:
228,215,156973,1,0,0:0:0:0:
248,219,157059,1,0,0:0:0:0:
228,215,157230,1,0,0:0:0:0:
229,209,157402,1,8,0:0:0:0:
241,219,157744,1,8,0:0:0:0:
224,235,157916,1,0,0:0:0:0:
241,219,158002,1,8,0:0:0:0:
197,235,158173,1,0,0:0:0:0:
201,231,158259,1,8,0:0:0:0:
250,220,158430,1,0,0:0:0:0:
236,245,158602,1,0,0:0:0:0:
236,245,158687,1,0,0:0:0:0:
250,220,158773,1,8,0:0:0:0:
257,216,158944,1,8,0:0:0:0:
242,225,159116,1,0,0:0:0:0:
249,227,159287,1,0,0:0:0:0:
242,225,159459,1,8,0:0:0:0:
231,222,159630,1,8,0:0:0:0:
242,225,159802,1,0,0:0:0:0:
242,225,159973,1,0,0:0:0:0:
242,225,160144,1,8,0:0:0:0:
242,225,160487,1,0,0:0:0:0:
242,225,160659,1,0,0:0:0:0:
242,225,160830,1,8,0:0:0:0:
233,234,161002,1,0,0:0:0:0:
231,220,161173,1,0,0:0:0:0:
226,227,161344,1,8,0:0:0:0:
226,229,161430,1,8,0:0:0:0:
231,220,161516,1,8,0:0:0:0:
231,220,161687,1,0,0:0:0:0:
231,220,161773,1,0,0:0:0:0:
226,227,161859,1,8,0:0:0:0:
231,220,162030,1,8,0:0:0:0:
233,215,162116,1,8,0:0:0:0:
251,229,162202,1,0,0:0:0:0:
232,213,162373,1,8,0:0:0:0:
245,204,162544,1,0,0:0:0:0:
224,224,162630,1,0,0:0:0:0:
232,213,162716,1,0,0:0:0:0:
245,204,162802,1,0,0:0:0:0:
232,213,162887,1,8,0:0:0:0:
238,209,163059,1,0,0:0:0:0:
244,202,163230,1,8,0:0:0:0:
243,202,163316,1,0,0:0:0:0:
238,209,163402,1,0,0:0:0:0:
238,209,163573,1,8,0:0:0:0:
238,209,163659,1,8,0:0:0:0:
238,209,163744,1,0,0:0:0:0:
238,209,163916,1,8,0:0:0:0:
