osu file format v14

[General]
AudioFilename: audio.mp3
AudioLeadIn: 0
PreviewTime: 120030
Countdown: 0
SampleSet: Normal
StackLeniency: 0.7
Mode: 1
LetterboxInBreaks: 0
WidescreenStoryboard: 1

[Editor]
Bookmarks: 31,1403,23345,45288,67231,87803,93288,98774,109745,120717,142660,153631,163917
DistanceSpacing: 3.4
BeatDivisor: 2
GridSize: 32
TimelineZoom: 1.200004

[Metadata]
Title:Lonely departure
TitleUnicode:Lonely departure
Artist:Chroma
ArtistUnicode:黒魔
Creator:Fynbi
Version:Kantan
Source:Lanota
Tags:Noxy Games Expansion Chapter C OverRapid Collaboration Act.3 Avant-garde electronic instrumental chiptune
BeatmapID:3031167
BeatmapSetID:1466955

[Difficulty]
HPDrainRate:8
CircleSize:5
OverallDifficulty:3
ApproachRate:7
SliderMultiplier:1.4
SliderTickRate:3

[Events]
//Background and Video events
0,0,"fantasy-art-digital-art-artwork-nature-wallpaper.jpg",0,-60
//Break Periods
2,88144,91744
//Storyboard Layer 0 (Background)
//Storyboard Layer 1 (Fail)
//Storyboard Layer 2 (Pass)
//Storyboard Layer 3 (Foreground)
//Storyboard Layer 4 (Overlay)
//Storyboard Sound Samples

[TimingPoints]
31,342.857142857143,4,1,0,5,1,0
459,-100,4,1,0,85,0,0
1402,342.857142857143,4,1,0,85,1,0
22744,-100,4,1,0,5,0,0
23259,-100,4,1,0,55,0,0
44687,-100,4,1,0,85,0,0
45202,-100,4,1,0,85,0,0
87973,-100,4,1,0,5,0,0
93202,-100,4,1,0,85,0,0
98687,-100,4,1,0,65,0,0
109659,-100,4,1,0,75,0,0
120716,-100,4,1,0,100,0,1
142659,-100,4,1,0,100,0,0
142830,-100,4,1,0,85,0,0
153287,-100,4,1,0,25,0,1
153630,-100,4,1,0,85,0,0
164259,-100,4,1,0,5,0,0

[HitObjects]
242,199,716,5,8,0:0:0:0:
238,197,1402,1,4,0:0:0:0:
244,194,2087,1,8,0:0:0:0:
223,203,3116,1,0,0:0:0:0:
221,202,3459,1,8,0:0:0:0:
221,202,4144,1,0,0:0:0:0:
221,202,4830,1,8,0:0:0:0:
221,202,5859,1,0,0:0:0:0:
221,202,6202,1,8,0:0:0:0:
221,202,6887,1,0,0:0:0:0:
221,202,7573,1,8,0:0:0:0:
221,202,8602,1,0,0:0:0:0:
221,202,8944,1,8,0:0:0:0:
221,202,9630,1,0,0:0:0:0:
221,202,10316,1,8,0:0:0:0:
221,202,10830,1,0,0:0:0:0:
221,202,11344,1,0,0:0:0:0:
220,201,11687,1,8,0:0:0:0:
219,201,12373,1,4,0:0:0:0:
227,209,13059,1,8,0:0:0:0:
229,200,14087,1,0,0:0:0:0:
229,200,14430,1,8,0:0:0:0:
231,207,15116,1,0,0:0:0:0:
229,207,15802,1,8,0:0:0:0:
184,202,16659,1,0,0:0:0:0:
206,176,17173,1,8,0:0:0:0:
205,174,18544,1,8,0:0:0:0:
205,174,18887,1,8,0:0:0:0:
211,170,19230,1,0,0:0:0:0:
211,170,19916,1,8,0:0:0:0:
161,252,20259,1,8,0:0:0:0:
200,187,20602,1,0,0:0:0:0:
201,214,21287,1,8,0:0:0:0:
207,210,21802,1,0,0:0:0:0:
205,210,22316,1,0,0:0:0:0:
205,210,22659,1,8,0:0:0:0:
200,219,23344,1,0,0:0:0:0:
197,222,24030,1,8,0:0:0:0:
215,206,25059,1,0,0:0:0:0:
215,206,25402,1,0,0:0:0:0:
215,206,26087,1,8,0:0:0:0:
215,206,26773,1,8,0:0:0:0:
210,211,28830,1,0,0:0:0:0:
210,211,29516,1,8,0:0:0:0:
210,211,30544,1,0,0:0:0:0:
210,211,30887,1,0,0:0:0:0:
210,211,31573,1,0,0:0:0:0:
211,212,32259,1,8,0:0:0:0:
222,220,33973,1,0,0:0:0:0:
222,220,34316,1,8,0:0:0:0:
221,220,35002,1,0,0:0:0:0:
215,232,36030,1,0,0:0:0:0:
215,232,36373,1,8,0:0:0:0:
198,235,37059,1,0,0:0:0:0:
200,232,37744,1,0,0:0:0:0:
207,201,39459,1,0,0:0:0:0:
207,201,39802,1,0,0:0:0:0:
207,201,40487,1,8,0:0:0:0:
207,201,41516,1,0,0:0:0:0:
207,201,41859,1,0,0:0:0:0:
204,198,42544,1,8,0:0:0:0:
203,198,43573,1,0,0:0:0:0:
203,198,43916,1,0,0:0:0:0:
203,199,44602,1,8,0:0:0:0:
230,213,45287,1,4,0:0:0:0:
209,273,45973,1,8,0:0:0:0:
204,260,47002,1,0,0:0:0:0:
204,260,47344,1,0,0:0:0:0:
206,255,47687,1,8,0:0:0:0:
222,232,48030,1,8,0:0:0:0:
185,252,48716,1,8,0:0:0:0:
182,252,49402,1,8,0:0:0:0:
194,246,49744,1,0,0:0:0:0:
194,246,50087,1,8,0:0:0:0:
188,248,50430,1,8,0:0:0:0:
198,217,50773,1,0,0:0:0:0:
192,251,51459,1,8,0:0:0:0:
208,278,52487,1,0,0:0:0:0:
208,278,52830,1,0,0:0:0:0:
218,249,53173,1,8,0:0:0:0:
212,229,53516,1,0,0:0:0:0:
205,212,54202,1,8,0:0:0:0:
214,214,54887,1,0,0:0:0:0:
207,225,55230,1,8,0:0:0:0:
207,225,55573,1,8,0:0:0:0:
209,236,56259,1,4,0:0:0:0:
212,238,56944,1,0,0:0:0:0:
203,236,57973,1,8,0:0:0:0:
203,236,58316,1,0,0:0:0:0:
203,236,58659,1,8,0:0:0:0:
217,238,59002,1,0,0:0:0:0:
220,233,59687,1,8,0:0:0:0:
181,226,60373,1,8,0:0:0:0:
214,227,60716,1,8,0:0:0:0:
182,232,61059,1,0,0:0:0:0:
216,216,61744,1,0,0:0:0:0:
186,227,62431,1,8,0:0:0:0:
214,221,63459,1,8,0:0:0:0:
211,242,63802,1,0,0:0:0:0:
215,217,64144,1,8,0:0:0:0:
215,217,64487,1,8,0:0:0:0:
163,239,65002,1,0,0:0:0:0:
215,217,65516,1,0,0:0:0:0:
209,202,65859,1,8,0:0:0:0:
183,234,66887,1,8,0:0:0:0:
268,214,67230,1,4,0:0:0:0:
228,223,67916,1,8,0:0:0:0:
237,225,68944,1,0,0:0:0:0:
237,225,69287,1,8,0:0:0:0:
237,225,69973,1,0,0:0:0:0:
245,225,70659,1,8,0:0:0:0:
245,225,71173,1,0,0:0:0:0:
235,223,71687,1,0,0:0:0:0:
235,223,72030,1,8,0:0:0:0:
235,223,72373,1,8,0:0:0:0:
220,224,73402,1,8,0:0:0:0:
225,219,74087,1,0,0:0:0:0:
231,219,74430,1,0,0:0:0:0:
231,219,74773,1,8,0:0:0:0:
231,219,75459,1,0,0:0:0:0:
231,219,76144,1,8,0:0:0:0:
231,219,76659,1,0,0:0:0:0:
236,224,77002,1,8,0:0:0:0:
220,221,77516,1,0,0:0:0:0:
220,221,77859,1,12,0:0:0:0:
208,206,78544,1,0,0:0:0:0:
214,208,78887,1,0,0:0:0:0:
214,208,79230,1,8,0:0:0:0:
226,199,79573,1,0,0:0:0:0:
225,199,80259,1,8,0:0:0:0:
228,196,80944,1,4,0:0:0:0:
221,213,81630,1,12,0:0:0:0:
221,209,82316,1,12,0:0:0:0:
213,240,83687,1,4,0:0:0:0:
187,223,84373,1,0,0:0:0:0:
187,223,85059,1,0,0:0:0:0:
186,223,85744,1,0,0:0:0:0:
185,223,86087,1,0,0:0:0:0:
186,235,86430,1,8,0:0:0:0:
185,238,87116,1,8,0:0:0:0:
192,220,87459,1,0,0:0:0:0:
191,242,87802,1,12,0:0:0:0:
225,192,93287,5,0,0:0:0:0:
225,192,93973,1,0,0:0:0:0:
225,192,94316,1,8,0:0:0:0:
217,197,94659,1,0,0:0:0:0:
223,195,95344,1,0,0:0:0:0:
206,205,95687,1,8,0:0:0:0:
206,205,96030,1,0,0:0:0:0:
206,205,96716,1,0,0:0:0:0:
206,205,97059,1,8,0:0:0:0:
206,205,97402,1,0,0:0:0:0:
217,206,97744,1,8,0:0:0:0:
211,214,98087,1,8,0:0:0:0:
251,238,98773,1,4,0:0:0:0:
173,228,99287,1,0,0:0:0:0:
228,238,100144,1,8,0:0:0:0:
182,213,101516,1,8,0:0:0:0:
181,213,102030,1,0,0:0:0:0:
210,232,102887,1,8,0:0:0:0:
211,232,103573,1,0,0:0:0:0:
211,232,103916,1,8,0:0:0:0:
211,232,104259,1,8,0:0:0:0:
211,232,104602,1,0,0:0:0:0:
211,230,105630,1,8,0:0:0:0:
147,207,106144,1,0,0:0:0:0:
215,223,107002,1,8,0:0:0:0:
145,207,107516,1,8,0:0:0:0:
240,221,109059,1,0,0:0:0:0:
240,221,109402,1,8,0:0:0:0:
240,221,109744,1,8,0:0:0:0:
240,221,110259,1,0,0:0:0:0:
234,225,110773,1,0,0:0:0:0:
234,225,111116,1,8,0:0:0:0:
225,217,112487,1,8,0:0:0:0:
225,217,113002,1,0,0:0:0:0:
225,217,113516,1,0,0:0:0:0:
211,235,113859,1,8,0:0:0:0:
218,226,114544,1,0,0:0:0:0:
218,226,114887,1,8,0:0:0:0:
216,227,115230,1,8,0:0:0:0:
216,227,115573,1,0,0:0:0:0:
223,220,116602,1,8,0:0:0:0:
224,224,117116,1,0,0:0:0:0:
196,227,117630,1,8,0:0:0:0:
196,227,117973,1,0,0:0:0:0:
196,227,118487,1,8,0:0:0:0:
195,200,119344,2,0,L|268:200,6,46.6666666666667
228,220,120716,1,12,0:0:0:0:
219,221,121230,1,0,0:0:0:0:
219,221,121744,1,0,0:0:0:0:
219,221,122087,1,8,0:0:0:0:
219,221,122602,1,8,0:0:0:0:
211,230,123116,1,8,0:0:0:0:
219,221,123459,1,8,0:0:0:0:
219,221,123973,1,0,0:0:0:0:
219,221,124487,1,0,0:0:0:0:
219,221,124830,1,8,0:0:0:0:
212,245,125516,1,0,0:0:0:0:
219,221,125859,1,8,0:0:0:0:
219,221,126202,1,8,0:0:0:0:
214,216,126544,1,0,0:0:0:0:
221,220,127573,1,8,0:0:0:0:
221,220,128087,1,0,0:0:0:0:
221,220,128602,1,8,0:0:0:0:
221,220,128944,1,8,0:0:0:0:
221,220,129459,1,0,0:0:0:0:
221,220,129973,1,0,0:0:0:0:
221,220,130316,1,8,0:0:0:0:
228,220,131687,1,12,0:0:0:0:
219,221,132202,1,0,0:0:0:0:
219,221,132716,1,0,0:0:0:0:
219,221,133059,1,8,0:0:0:0:
219,221,133573,1,8,0:0:0:0:
211,230,134087,1,8,0:0:0:0:
219,221,134430,1,8,0:0:0:0:
219,221,134944,1,0,0:0:0:0:
219,221,135459,1,0,0:0:0:0:
219,221,135802,1,8,0:0:0:0:
219,221,136487,1,0,0:0:0:0:
219,221,136830,1,8,0:0:0:0:
219,221,137173,1,8,0:0:0:0:
219,221,137516,1,0,0:0:0:0:
221,220,138544,1,8,0:0:0:0:
221,220,139059,1,0,0:0:0:0:
221,220,139573,1,8,0:0:0:0:
221,220,139916,1,0,0:0:0:0:
203,231,140430,1,8,0:0:0:0:
188,231,140944,1,8,0:0:0:0:
203,231,141287,1,0,0:0:0:0:
203,231,141802,1,0,0:0:0:0:
203,231,142316,1,0,0:0:0:0:
238,228,142659,1,4,0:0:0:0:
239,218,143859,1,0,0:0:0:0:
239,218,144373,1,0,0:0:0:0:
239,218,145402,1,0,0:0:0:0:
239,218,146602,1,0,0:0:0:0:
239,218,147116,1,0,0:0:0:0:
241,217,147802,1,8,0:0:0:0:
239,217,148144,1,0,0:0:0:0:
239,217,148830,1,8,0:0:0:0:
239,217,149344,1,0,0:0:0:0:
239,217,149859,1,0,0:0:0:0:
239,217,150202,1,8,0:0:0:0:
230,208,150887,1,0,0:0:0:0:
232,209,151573,1,8,0:0:0:0:
221,208,152087,1,0,0:0:0:0:
226,203,152602,1,0,0:0:0:0:
226,203,152944,1,8,0:0:0:0:
242,203,153630,1,4,0:0:0:0:
242,203,155002,1,0,0:0:0:0:
244,199,155687,1,0,0:0:0:0:
248,197,156030,1,8,0:0:0:0:
231,220,156373,1,0,0:0:0:0:
241,219,157744,1,0,0:0:0:0:
215,236,158430,1,8,0:0:0:0:
241,219,158773,1,8,0:0:0:0:
242,225,159116,1,0,0:0:0:0:
242,225,159802,1,0,0:0:0:0:
111,217,160144,1,8,0:0:0:0:
242,225,160487,1,0,0:0:0:0:
231,220,161173,1,0,0:0:0:0:
214,218,161516,1,8,0:0:0:0:
226,227,161859,1,0,0:0:0:0:
232,213,162544,1,0,0:0:0:0:
251,229,162887,1,8,0:0:0:0:
244,202,163230,1,0,0:0:0:0:
238,209,163573,1,8,0:0:0:0:
238,209,163916,1,8,0:0:0:0:
