osu file format v14

[General]
AudioFilename: audio.mp3
AudioLeadIn: 0
PreviewTime: 60701
Countdown: 0
SampleSet: Normal
StackLeniency: 0.7
Mode: 1
LetterboxInBreaks: 0
WidescreenStoryboard: 0

[Editor]
DistanceSpacing: 1.2
BeatDivisor: 4
GridSize: 32
TimelineZoom: 3.1

[Metadata]
Title:Little Heart no Bouken
TitleUnicode:リトルハートの冒険
Artist:Chroma
ArtistUnicode:黒魔
Creator:Hivie
Version:Wish
Source:
Tags:cynplytholowazy walozy fa featured artist electronic instrumental chiptune mpg mg mappers' guild kuroma くろま
BeatmapID:3569386
BeatmapSetID:1745081

[Difficulty]
HPDrainRate:5
CircleSize:10
OverallDifficulty:7
ApproachRate:10
SliderMultiplier:1.4
SliderTickRate:1

[Events]
//Background and Video events
0,0,"bg.jpg",0,30
//Break Periods
2,200217,210090
//Storyboard Layer 0 (Background)
//Storyboard Layer 1 (Fail)
//Storyboard Layer 2 (Pass)
//Storyboard Layer 3 (Foreground)
//Storyboard Layer 4 (Overlay)
//Storyboard Sound Samples

[TimingPoints]
218,322.58064516129,4,1,0,5,1,8
1427,-100,4,1,0,80,0,0
1508,322.58064516129,4,1,0,80,1,0
1508,-125,4,1,0,80,0,0
10540,-10,4,1,0,5,0,0
11749,-83.3333333333333,4,1,0,100,0,0
16236,-84.2743621915517,4,1,0,100,0,0
16289,-85.2188623387608,4,1,0,100,0,0
16343,-86.2032085561497,4,1,0,100,0,0
16585,-90.9090909090909,4,1,0,100,0,0
16827,-96.1584347411119,4,1,0,100,0,0
16988,-100,4,1,0,80,0,0
17314,-103.451961098643,4,1,0,80,0,0
17637,-107.150763781271,4,1,0,80,0,0
17959,-111.111111111111,4,1,0,80,0,0
18282,-115.389200143044,4,1,0,80,0,0
18604,-119.99504152721,4,1,0,80,0,0
18927,-125,4,1,0,80,0,0
19088,-111.130254996554,4,1,0,80,0,0
19169,-105.254569190601,4,1,0,80,0,0
19249,-100.031017369727,4,1,0,80,0,0
19411,-90.896279594138,4,1,0,80,0,0
19572,-83.333333333333,4,1,0,80,0,0
19733,-100,4,1,0,80,0,0
27472,-97.9057364609981,4,1,0,80,0,0
27634,-95.8851755913202,4,1,0,80,0,0
27714,-94.917819160116,4,1,0,80,0,0
27795,-93.9580559254327,4,1,0,80,0,0
27956,-92.1068733428513,4,1,0,80,0,0
28117,-90.3272261780943,4,1,0,80,0,0
28198,-89.4576284616299,4,1,0,80,0,0
28359,-87.7779505520137,4,1,0,80,0,0
28440,-86.9565217391304,4,1,0,80,0,0
28601,-85.3686200378072,4,1,0,80,0,0
28763,-83.8283338283338,4,1,0,80,0,0
28843,-83.0880188401531,4,1,0,80,0,0
28924,-82.3516539625807,4,1,0,80,0,0
29004,-81.6370801547417,4,1,0,80,0,0
29085,-80.9260984875636,4,1,0,80,0,0
29166,-80.2273938532599,4,1,0,80,0,0
29246,-79.5490576008455,4,1,0,80,0,0
29327,-78.8738298169624,4,1,0,80,0,0
29408,-78.2099684804821,4,1,0,80,0,0
29448,-77.8862405574144,4,1,0,80,0,0
29569,-76.9230769230769,4,1,0,80,0,0
29814,-83.3333333333333,4,1,0,80,0,0
29975,-100,4,1,0,80,0,0
39085,-95.2451269935027,4,1,0,80,0,0
39246,-90.9219058359177,4,1,0,80,0,0
39408,-86.9506605554058,4,1,0,80,0,0
39569,-83.3333333333333,4,1,0,80,0,0
39730,-90.9090909090909,4,1,0,80,0,0
39811,-88.2245716368939,4,1,0,80,0,0
39892,-85.6940509915014,4,1,0,80,0,0
40053,-81.07202680067,4,1,0,80,0,0
40217,-76.9230769230769,4,1,0,100,0,1
40378,-92.5925925925926,4,1,0,100,0,1
48120,-62.5,4,1,0,80,0,0
48198,-64.1782138831797,4,1,0,80,0,0
48279,-65.9490393786619,4,1,0,80,0,0
48359,-67.7966101694915,4,1,0,80,0,0
48440,-69.7758235421322,4,1,0,80,0,0
48521,-71.8740718740719,4,1,0,80,0,0
48601,-74.0740740740741,4,1,0,80,0,0
48682,-76.4431809207929,4,1,0,80,0,0
48763,-78.9688366780878,4,1,0,80,0,0
48843,-81.6326530612245,4,1,0,80,0,0
48924,-84.5193399109404,4,1,0,80,0,0
49005,-87.6176683562636,4,1,0,80,0,0
49085,-90.9090909090909,4,1,0,80,0,0
49166,-94.5035634091575,4,1,0,80,0,0
49247,-98.3939825167717,4,1,0,80,0,0
49327,-102.564102564103,4,1,0,80,0,0
49408,-107.162625927156,4,1,0,80,0,0
49489,-112.192860454335,4,1,0,80,0,0
49569,-117.647058823529,4,1,0,80,0,0
49650,-123.737696535856,4,1,0,80,0,0
49731,-130.493394445942,4,1,0,80,0,0
49811,-137.931034482759,4,1,0,80,0,0
49892,-146.378345682746,4,1,0,80,0,0
49973,-155.927835051546,4,1,0,80,0,0
50053,-166.666666666667,4,1,0,80,0,0
50217,-50,4,1,0,100,0,1
50540,-100,4,1,0,100,0,0
50698,-99.0728120860768,4,1,0,100,0,0
50859,-98.1626597687158,4,1,0,100,0,0
51021,-97.2635784553918,4,1,0,100,0,0
51101,-96.8256350605981,4,1,0,100,0,0
51182,-96.3862172004856,4,1,0,100,0,0
51343,-95.5245428296439,4,1,0,100,0,0
51424,-95.096828877301,4,1,0,100,0,0
51504,-94.6781383573958,4,1,0,100,0,0
51666,-93.8414822626689,4,1,0,100,0,0
51827,-93.0245133381399,4,1,0,100,0,0
51988,-92.2216464449726,4,1,0,100,0,0
52150,-91.4276603659941,4,1,0,100,0,0
52311,-90.6520059017776,4,1,0,100,0,0
52392,-90.2667249672059,4,1,0,100,0,0
52472,-89.8894017242881,4,1,0,100,0,0
52553,-89.5105622810365,4,1,0,100,0,0
52634,-89.1349026787102,4,1,0,100,0,0
52714,-88.7669630725306,4,1,0,100,0,0
52795,-88.3975061660729,4,1,0,100,0,0
52956,-87.6722102366351,4,1,0,100,0,0
53037,-87.3117915750296,4,1,0,100,0,0
53117,-86.9587194608256,4,1,0,100,0,0
53279,-86.2524232903269,4,1,0,100,0,0
53440,-85.5617632918318,4,1,0,100,0,0
53601,-84.8820762474919,4,1,0,100,0,0
53682,-84.5441887132443,4,1,0,100,0,0
53763,-84.2089805508419,4,1,0,100,0,0
53924,-83.5505334218323,4,1,0,100,0,0
54004,-83.2271693731757,4,1,0,100,0,0
54085,-82.9023034664439,4,1,0,100,0,0
54246,-82.2640547045603,4,1,0,100,0,0
54408,-81.6316846717176,4,1,0,100,0,0
54569,-81.0127774463944,4,1,0,100,0,0
54730,-80.4031843462275,4,1,0,100,0,0
54892,-79.7989949748744,4,1,0,100,0,0
54972,-79.5039667257182,4,1,0,100,0,0
55053,-79.2074649313975,4,1,0,100,0,0
55134,-78.9131664653446,4,1,0,100,0,0
55214,-78.62464008775,4,1,0,100,0,0
55295,-78.3346487766377,4,1,0,100,0,0
55375,-78.0503296836247,4,1,0,100,0,0
55537,-77.4808587299204,4,1,0,100,0,0
55620,-76.9230769230769,4,1,0,100,0,0
59730,-78.4281952602795,4,1,0,100,0,0
59811,-79.2079207920792,4,1,0,100,0,0
59892,-80.0033059217323,4,1,0,100,0,0
59972,-80.8047080429066,4,1,0,100,0,0
60053,-81.6326530612245,4,1,0,100,0,0
60134,-82.4777403825672,4,1,0,100,0,0
60214,-83.3297464812982,4,1,0,100,0,0
60295,-84.2105263157895,4,1,0,100,0,0
60375,-85.0989010989011,4,1,0,100,0,0
60416,-85.5614973262032,4,1,0,100,0,0
60537,-66.6666666666667,4,1,0,100,0,0
60862,-92.5925925925926,4,1,0,100,0,1
76346,-92.5925925925926,4,1,0,100,0,0
76507,-100,4,1,0,100,0,0
78601,-96.1595801777089,4,1,0,100,0,0
78763,-94.3368630433511,4,1,0,100,0,0
78927,-92.5925925925926,4,1,0,100,0,1
81666,-89.6744668630612,4,1,0,100,0,1
81827,-86.95105410188,4,1,0,100,0,1
81988,-84.3881856540084,4,1,0,100,0,1
82150,-81.9574972483278,4,1,0,100,0,1
82311,-79.6766838695871,4,1,0,100,0,1
82392,-78.5765309435678,4,1,0,100,0,1
82472,-77.5193798449612,4,1,0,100,0,1
82634,-75.4634610287354,4,1,0,100,0,1
82714,-74.487895716946,4,1,0,100,0,1
82795,-73.5255022596939,4,1,0,100,0,1
82875,-72.5990925113436,4,1,0,100,0,1
82956,-71.6845878136201,4,1,0,100,0,1
83037,-70.7928358820217,4,1,0,100,0,1
83117,-69.9336064211766,4,1,0,100,0,1
83198,-69.0846286701209,4,1,0,100,0,1
83279,-68.2560164716999,4,1,0,100,0,1
83359,-67.4569160760702,4,1,0,100,0,1
83443,-50,4,1,0,100,0,0
84007,-83.3333333333333,4,1,0,100,0,0
84169,-100,4,1,0,80,0,0
93277,-95.2451269935027,4,1,0,80,0,0
93438,-90.9219058359177,4,1,0,80,0,0
93600,-86.9506605554058,4,1,0,80,0,0
93761,-83.3333333333333,4,1,0,80,0,0
93922,-90.9090909090909,4,1,0,80,0,0
94003,-88.2245716368939,4,1,0,80,0,0
94084,-85.6940509915014,4,1,0,80,0,0
94245,-81.07202680067,4,1,0,80,0,0
94409,-76.9230769230769,4,1,0,80,0,0
94572,-111.111111111111,4,1,0,80,0,0
96588,-66.6666666666667,4,1,0,80,0,0
97072,-111.111111111111,4,1,0,80,0,0
98440,-107.69817800248,4,1,0,80,0,0
98601,-104.488662656178,4,1,0,80,0,0
98682,-102.945199234066,4,1,0,80,0,0
98763,-101.446670859916,4,1,0,80,0,0
98843,-100.00885818053,4,1,0,80,0,0
98924,-98.5940092568335,4,1,0,80,0,0
99085,-95.8973923384014,4,1,0,80,0,0
99246,-93.3443571723853,4,1,0,80,0,0
99408,-86.9565217391304,4,1,0,80,0,0
99572,-86.9565217391304,4,1,0,100,0,1
99653,-92.5925925925926,4,1,0,100,0,1
102314,-62.5,4,1,0,80,0,0
102392,-65.5887736424649,4,1,0,80,0,0
102472,-68.9544579858884,4,1,0,80,0,0
102553,-72.7334235453315,4,1,0,80,0,0
102634,-76.9506084466714,4,1,0,80,0,0
102714,-81.6249050873197,4,1,0,80,0,0
102795,-86.9741100323625,4,1,0,80,0,0
102875,-92.9930795847751,4,1,0,80,0,0
102956,-100,4,1,0,80,0,0
103120,-50,4,1,0,100,0,1
103362,-83.3333333333333,4,1,0,100,0,1
103604,-62.5,4,1,0,80,0,0
103682,-65.5887736424649,4,1,0,80,0,0
103762,-68.9544579858884,4,1,0,80,0,0
103843,-72.7334235453315,4,1,0,80,0,0
103924,-76.9506084466714,4,1,0,80,0,0
104004,-81.6249050873197,4,1,0,80,0,0
104085,-86.9741100323625,4,1,0,80,0,0
104165,-92.9930795847751,4,1,0,80,0,0
104246,-100,4,1,0,80,0,0
104411,-50,4,1,0,100,0,1
104655,-83.3333333333333,4,1,0,100,0,1
104895,-100,4,1,0,80,0,0
104972,-93.7864077669903,4,1,0,80,0,0
105053,-88.2352941176471,4,1,0,80,0,0
105134,-83.3045877888927,4,1,0,80,0,0
105214,-78.9473684210526,4,1,0,80,0,0
105295,-74.9767153058057,4,1,0,80,0,0
105375,-71.4285714285714,4,1,0,100,0,0
105537,-90.9090909090909,4,1,0,80,0,0
105617,-85.7447186224037,4,1,0,80,0,0
105698,-81.0810810810811,4,1,0,80,0,0
105779,-76.8985830281802,4,1,0,80,0,0
105859,-73.1707317073171,4,1,0,80,0,0
105940,-69.7472924187726,4,1,0,80,0,0
106020,-66.6666666666667,4,1,0,100,0,0
106182,-83.3333333333333,4,1,0,80,0,0
106263,-80.6322529011605,4,1,0,80,0,0
106343,-78.1310585498255,4,1,0,100,0,0
106504,-73.5401459854015,4,1,0,80,0,0
106585,-71.4285714285714,4,1,0,80,0,0
106665,-69.4588073078249,4,1,0,100,0,0
106827,-65.7851779301339,4,1,0,80,0,0
106988,-62.5,4,1,0,100,0,0
107314,-50,4,1,0,100,0,0
107475,-125,4,1,0,80,0,0
126830,-114.942528735632,4,1,0,80,0,0
126911,-109.89010989011,4,1,0,80,0,0
126988,-105.288932419197,4,1,0,80,0,0
127069,-101.271785209609,4,1,0,80,0,0
127150,-97.5499092558984,4,1,0,80,0,0
127230,-94.1330998248687,4,1,0,80,0,0
127311,-90.9090909090909,4,1,0,80,0,0
127392,-87.8986099754702,4,1,0,80,0,0
127472,-85.1148060174188,4,1,0,80,0,0
127553,-82.4702723436901,4,1,0,80,0,0
127634,-79.9851190476191,4,1,0,80,0,0
127714,-77.6734104046243,4,1,0,80,0,0
127795,-75.4650754650755,4,1,0,80,0,0
127875,-73.4038921133493,4,1,0,80,0,0
127956,-71.4285714285714,4,1,0,80,0,0
128120,-117.647058823529,4,1,0,80,0,0
136991,-10,4,1,0,5,0,0
138201,-83.3333333333333,4,1,0,100,0,0
142688,-84.2743621915517,4,1,0,100,0,0
142741,-85.2188623387608,4,1,0,100,0,0
142795,-86.2032085561497,4,1,0,100,0,0
143037,-90.9090909090909,4,1,0,100,0,0
143279,-96.1584347411119,4,1,0,100,0,0
143440,-100,4,1,0,80,0,0
143763,-103.451961098643,4,1,0,80,0,0
144086,-107.150763781271,4,1,0,80,0,0
144408,-111.111111111111,4,1,0,80,0,0
144731,-115.389200143044,4,1,0,80,0,0
145053,-119.99504152721,4,1,0,80,0,0
145376,-125,4,1,0,80,0,0
145537,-111.130254996554,4,1,0,80,0,0
145618,-105.254569190601,4,1,0,80,0,0
145698,-100.031017369727,4,1,0,80,0,0
145860,-90.896279594138,4,1,0,80,0,0
146021,-83.333333333333,4,1,0,80,0,0
146182,-100,4,1,0,80,0,0
151185,-100,4,1,0,100,0,0
151263,-99.1699543987293,4,1,0,100,0,0
151343,-98.3635716826752,4,1,0,100,0,0
151424,-97.5603609052876,4,1,0,100,0,0
151504,-96.7798389919496,4,1,0,100,0,0
151585,-96.002182431427,4,1,0,100,0,0
151666,-95.2369236825272,4,1,0,100,0,0
151746,-94.4929941903042,4,1,0,100,0,0
151827,-93.7515136837007,4,1,0,100,0,0
151908,-93.0215792762051,4,1,0,100,0,0
151988,-92.3117279534507,4,1,0,100,0,0
152069,-91.6039566472621,4,1,0,100,0,0
152150,-90.9069559907942,4,1,0,100,0,0
152230,-90.2288937578668,4,1,0,100,0,0
152311,-89.5525840929071,4,1,0,100,0,0
152392,-88.886337543054,4,1,0,100,0,0
152472,-88.2379758377023,4,1,0,100,0,0
152526,-87.8056525881232,4,1,0,100,0,0
152580,-87.377545031827,4,1,0,100,0,0
152634,-86.9535918055618,4,1,0,100,0,0
152714,-86.3330210981756,4,1,0,100,0,0
152795,-85.713653071166,4,1,0,100,0,0
152849,-85.3056547225528,4,1,0,100,0,0
152902,-84.9089712656284,4,1,0,100,0,0
152956,-84.508579662053,4,1,0,100,0,0
153037,-83.9150227617602,4,1,0,100,0,0
153117,-83.3369214208827,4,1,0,100,0,0
153171,-82.9511850169288,4,1,0,100,0,0
153225,-82.569003028881,4,1,0,100,0,0
153279,-82.1903265531445,4,1,0,100,0,0
153359,-81.6356657809271,4,1,0,100,0,0
153440,-81.0816471869633,4,1,0,100,0,0
153494,-80.7164602360399,4,1,0,100,0,0
153548,-80.3545480964836,4,1,0,100,0,0
153601,-80.0024800562146,4,1,0,100,0,0
153682,-79.4703346335455,4,1,0,100,0,0
153763,-78.9452216829139,4,1,0,100,0,0
153816,-78.6053689639768,4,1,0,100,0,0
153870,-78.2621001981319,4,1,0,100,0,0
153924,-77.9218164982487,4,1,0,100,0,0
154004,-77.423096923877,4,1,0,100,0,0
154085,-76.9246055403203,4,1,0,100,0,0
154139,-76.5958288812379,4,1,0,100,0,0
154193,-76.2698506521654,4,1,0,100,0,0
154246,-75.9525958482125,4,1,0,100,0,0
154327,-75.4728017157341,4,1,0,100,0,0
154408,-74.9990312705855,4,1,0,100,0,0
154461,-74.6922394165091,4,1,0,100,0,0
154515,-74.3822297375197,4,1,0,100,0,0
154569,-74.0747828083738,4,1,0,100,0,0
154623,-73.7698669817433,4,1,0,100,0,0
154677,-73.4674511292465,4,1,0,100,0,0
154730,-73.1730369362217,4,1,0,100,0,0
154811,-72.7276143238267,4,1,0,100,0,0
154892,-72.2875816993464,4,1,0,100,0,0
154972,-71.8581770930017,4,1,0,100,0,0
155053,-71.4285714285714,4,1,0,100,0,0
156346,-92.5925925925926,4,1,0,100,0,1
171830,-92.5925925925926,4,1,0,100,0,0
171991,-100,4,1,0,100,0,0
174085,-96.1595801777089,4,1,0,100,0,0
174247,-94.3368630433511,4,1,0,100,0,0
174411,-92.5925925925926,4,1,0,100,0,1
177150,-89.6744668630612,4,1,0,100,0,1
177311,-86.95105410188,4,1,0,100,0,1
177472,-84.3881856540084,4,1,0,100,0,1
177634,-81.9574972483278,4,1,0,100,0,1
177795,-79.6766838695871,4,1,0,100,0,1
177876,-78.5765309435678,4,1,0,100,0,1
177956,-77.5193798449612,4,1,0,100,0,1
178118,-75.4634610287354,4,1,0,100,0,1
178198,-74.487895716946,4,1,0,100,0,1
178279,-73.5255022596939,4,1,0,100,0,1
178359,-72.5990925113436,4,1,0,100,0,1
178440,-71.6845878136201,4,1,0,100,0,1
178521,-70.7928358820217,4,1,0,100,0,1
178601,-69.9336064211766,4,1,0,100,0,1
178682,-69.0846286701209,4,1,0,100,0,1
178763,-68.2560164716999,4,1,0,100,0,1
178843,-67.4569160760702,4,1,0,100,0,1
178924,-58.8235294117647,4,1,0,100,0,1
179031,-61.2167300380228,4,1,0,100,0,1
179139,-63.8382236320381,4,1,0,100,0,1
179246,-66.6666666666667,4,1,0,100,0,1
179895,-111.111111111111,4,1,0,100,0,0
189408,-105.246008471815,4,1,0,100,0,0
189569,-100,4,1,0,100,0,0
189730,-95.2521380123857,4,1,0,100,0,0
189892,-90.9090909090909,4,1,0,100,0,0
190056,-100,4,1,0,100,0,0
196424,-98.4550829677666,4,1,0,100,0,0
196504,-96.9753898177719,4,1,0,100,0,0
196585,-95.5218356772761,4,1,0,100,0,0
196666,-94.1112123974476,4,1,0,100,0,0
196746,-92.7583108715184,4,1,0,100,0,0
196827,-91.4275593340418,4,1,0,100,0,0
196908,-90.1344508468657,4,1,0,100,0,0
196988,-88.8927156879628,4,1,0,100,0,0
197069,-87.6698369565217,4,1,0,100,0,0
197150,-86.48014742838,4,1,0,100,0,0
197230,-85.3364192428501,4,1,0,100,0,0
197311,-84.2088091353997,4,1,0,100,0,0
197392,-83.110610207696,4,1,0,100,0,0
197472,-82.0537275472898,4,1,0,100,0,0
197553,-81.0106716886378,4,1,0,100,0,0
197634,-79.9938013327135,4,1,0,100,0,0
197714,-79.0142354201745,4,1,0,100,0,0
197795,-78.0465678863018,4,1,0,100,0,0
197875,-77.1138332835375,4,1,0,100,0,0
197956,-76.1918819188192,4,1,0,100,0,0
198037,-75.291715285881,4,1,0,100,0,0
198117,-74.4232987312572,4,1,0,100,0,0
198198,-73.564201225595,4,1,0,100,0,0
198279,-72.7247111862497,4,1,0,100,0,0
198359,-71.9141822234606,4,1,0,100,0,0
198440,-71.1117233778757,4,1,0,100,0,0
198521,-70.3269754768392,4,1,0,100,0,0
198601,-69.5687331536388,4,1,0,100,0,0
198682,-68.8174910011998,4,1,0,100,0,0
198763,-68.0823001846478,4,1,0,100,0,0
198843,-67.3714434873401,4,1,0,100,0,0
198924,-33.3333333333333,4,1,0,5,0,0
200137,-200,4,1,0,20,0,0
210378,-142.857142857143,4,1,0,50,0,0
219572,322.58064516129,6,1,0,50,1,0
219572,-142.857142857143,6,1,0,50,0,0
221507,322.58064516129,4,1,0,100,1,0
221507,-83.3333333333333,4,1,0,100,0,0
222794,-100,4,1,0,100,0,0
222874,-97.5806451612903,4,1,0,100,0,0
222955,-95.2474662993211,4,1,0,100,0,0
223036,-93.0232558139535,4,1,0,100,0,0
223116,-90.9261694533158,4,1,0,100,0,0
223197,-88.8970520708972,4,1,0,100,0,0
223278,-86.9565217391304,4,1,0,100,0,0
223358,-85.1213506858952,4,1,0,100,0,0
223439,-83.3405079638399,4,1,0,100,0,0
223520,-81.6326530612245,4,1,0,100,0,0
223600,-80.0132253265002,4,1,0,100,0,0
223681,-78.4377278988737,4,1,0,100,0,0
223762,-76.9230769230769,4,1,0,100,0,0
224087,-92.5925925925926,4,1,0,100,0,1
231184,-78.125,4,1,0,100,0,0
231262,-79.6886582653818,4,1,0,100,0,0
231342,-81.2956894378624,4,1,0,100,0,0
231423,-82.9902213072568,4,1,0,100,0,0
231503,-84.7346295323174,4,1,0,100,0,0
231584,-86.5771812080537,4,1,0,100,0,0
231665,-88.5016465422612,4,1,0,100,0,0
231745,-90.4882154882155,4,1,0,100,0,0
231829,-92.5925925925926,4,1,0,100,0,1
236990,-92.5925925925926,4,1,0,100,0,0
237152,-100,4,1,0,100,0,0
239248,-96.1538461538461,4,1,0,100,0,0
239410,-94.3396226415094,4,1,0,100,0,0
239571,-92.5925925925926,4,1,0,100,0,1
242471,-89.4360587636246,4,1,0,100,0,1
242632,-86.4876460149379,4,1,0,100,0,1
242794,-83.7108342770857,4,1,0,100,0,1
242955,-81.1223603222945,4,1,0,100,0,1
243036,-79.8796851641721,4,1,0,100,0,1
243116,-78.6891644931779,4,1,0,100,0,1
243278,-76.3838655230616,4,1,0,100,0,1
243358,-75.2945570608808,4,1,0,100,0,1
243439,-74.2228358646082,4,1,0,100,0,1
243519,-73.1938771300078,4,1,0,100,0,1
243600,-72.1807203424312,4,1,0,100,0,1
243681,-71.1952290367374,4,1,0,100,0,1
243761,-70.2479666104366,4,1,0,100,0,1
243842,-69.3142035508877,4,1,0,100,0,1
243923,-68.404938728609,4,1,0,100,0,1
244003,-67.5300154550092,4,1,0,100,0,1
244087,-66.6666666666667,4,1,0,100,0,0
244245,-71.4285714285714,4,1,0,100,0,0
244299,-72.5854829034193,4,1,0,100,0,0
244353,-73.780487804878,4,1,0,100,0,0
244407,-75.0154990700558,4,1,0,100,0,0
244460,-76.2685156003782,4,1,0,100,0,0
244514,-77.5889708239821,4,1,0,100,0,0
244568,-78.9559543230016,4,1,0,100,0,0
244729,-83.3333333333333,4,1,0,100,0,0
244813,-92.5925925925926,4,1,0,100,0,0
244971,-91.8223859461494,4,1,0,100,0,0
245052,-91.0554974541776,4,1,0,100,0,0
245133,-90.3013127653773,4,1,0,100,0,0
245213,-89.5686024496735,4,1,0,100,0,0
245294,-88.8387489281386,4,1,0,100,0,0
245374,-88.1294878557613,4,1,0,100,0,0
245455,-87.4228067694338,4,1,0,100,0,0
245536,-86.727368809948,4,1,0,100,0,0
245616,-86.0512920454176,4,1,0,100,0,0
245697,-85.3774192954349,4,1,0,100,0,0
245778,-84.7140188111259,4,1,0,100,0,0
245858,-84.0688507794898,4,1,0,100,0,0
245939,-83.4255535462046,4,1,0,100,0,0
246020,-82.7920266077368,4,1,0,100,0,0
246100,-82.1756951368118,4,1,0,100,0,0
246181,-81.5609387094504,4,1,0,100,0,0
246262,-80.9553119693378,4,1,0,100,0,0
246342,-80.3659260607479,4,1,0,100,0,0
246423,-79.777852343219,4,1,0,100,0,0
246503,-79.2054258599629,4,1,0,100,0,0
246584,-78.6341529602822,4,1,0,100,0,0
246665,-78.0710617159215,4,1,0,100,0,0
246745,-77.5227823760555,4,1,0,100,0,0
246826,-76.9754400820186,4,1,0,100,0,0
246907,-76.435772518568,4,1,0,100,0,0
246987,-75.9101440020958,4,1,0,100,0,0
247068,-75.3852595293553,4,1,0,100,0,0
247149,-74.8675838904499,4,1,0,100,0,0
247229,-74.3632310011869,4,1,0,100,0,0
247310,-73.8594499870562,4,1,0,100,0,0
247364,-73.5273710545201,4,1,0,100,0,0
247417,-73.2043326543824,4,1,0,100,0,0
247471,-72.8781055229382,4,1,0,100,0,0
247552,-72.3941803589065,4,1,0,100,0,0
247633,-71.9166395209952,4,1,0,100,0,0
247686,-71.6075696672729,4,1,0,100,0,0
247740,-71.2953885781289,4,1,0,100,0,0
247794,-70.9859176494456,4,1,0,100,0,0
247874,-70.5323490371925,4,1,0,100,0,0
247955,-70.0789781959717,4,1,0,100,0,0
248009,-69.7799551481766,4,1,0,100,0,0
248063,-69.4834730870969,4,1,0,100,0,0
248116,-69.1949211039845,4,1,0,100,0,0
248197,-68.7585276146408,4,1,0,100,0,0
248278,-68.3276040572854,4,1,0,100,0,0
248358,-67.9072696846862,4,1,0,100,0,0
248439,-67.486917472725,4,1,0,100,0,0
248520,-67.0717372827718,4,1,0,100,0,0
248600,-66.6666666666667,4,1,0,100,0,0
249326,-69.7808535178777,4,1,0,100,0,0
249407,-73.200241984271,4,1,0,100,0,0
249487,-76.9230769230769,4,1,0,100,0,0
249568,-81.0991957104558,4,1,0,100,0,0
249649,-85.7547838412473,4,1,0,100,0,0
249729,-90.9090909090909,4,1,0,100,0,0
249810,-96.8,4,1,0,100,0,0
249894,322.58064516129,4,1,0,100,1,8
249894,-103.507271171942,4,1,0,100,0,8
249971,-111.111111111111,4,1,0,100,0,8
250052,-120.039682539683,4,1,0,100,0,8
250133,-130.528586839266,4,1,0,100,0,8
250539,322.58064516129,4,1,0,100,1,0
250539,-50,4,1,0,100,0,0
250700,-125,4,1,0,80,0,0

[HitObjects]
322,512,1508,5,0,0:0:0:0:
213,512,1830,1,0,0:0:0:0:
274,512,1991,1,0,0:0:0:0:
219,512,2153,1,0,0:0:0:0:
271,512,2314,1,0,0:0:0:0:
223,512,2475,1,8,0:0:0:0:
265,512,2637,1,8,0:0:0:0:
255,512,3120,1,0,0:0:0:0:
255,512,3443,1,0,0:0:0:0:
255,512,3766,1,0,0:0:0:0:
255,512,4088,1,0,0:0:0:0:
255,512,4411,1,8,0:0:0:0:
255,512,4572,1,0,0:0:0:0:
255,512,4895,1,0,0:0:0:0:
255,512,5056,1,8,0:0:0:0:
271,512,5701,1,0,0:0:0:0:
271,512,6024,1,8,0:0:0:0:
271,512,6346,1,0,0:0:0:0:
271,512,6669,1,8,0:0:0:0:
196,512,7475,1,0,0:0:0:0:
196,512,7637,1,0,0:0:0:0:
196,512,7798,1,0,0:0:0:0:
196,512,7959,1,8,0:0:0:0:
196,512,8282,1,0,0:0:0:0:
196,512,8443,1,8,0:0:0:0:
196,512,8766,1,8,0:0:0:0:
154,512,9088,1,0,0:0:0:0:
310,512,11830,1,12,0:0:0:0:
255,512,12959,1,4,0:0:0:0:
171,512,13120,1,4,0:0:0:0:
497,512,13766,1,4,0:0:0:0:
340,512,14088,1,4,0:0:0:0:
183,512,14411,1,4,0:0:0:0:
509,512,15056,1,4,0:0:0:0:
195,512,15701,1,4,0:0:0:0:
332,512,16024,1,4,0:0:0:0:
264,512,16185,1,0,0:0:0:0:
264,512,16239,1,0,0:0:0:0:
264,512,16292,1,0,0:0:0:0:
264,512,16346,1,8,0:0:0:0:
264,512,16588,1,8,0:0:0:0:
264,512,16830,1,8,0:0:0:0:
264,512,16991,1,0,0:0:0:0:
110,512,17314,1,0,0:0:0:0:
249,512,17637,1,0,0:0:0:0:
249,512,17959,1,0,0:0:0:0:
249,512,18282,1,0,0:0:0:0:
249,512,18604,1,0,0:0:0:0:
249,512,18927,1,0,0:0:0:0:
249,512,19088,1,0,0:0:0:0:
249,512,19169,1,0,0:0:0:0:
249,512,19249,1,8,0:0:0:0:
249,512,19411,1,0,0:0:0:0:
228,512,19572,1,12,0:0:0:0:
273,512,19814,1,0,0:0:0:0:
287,512,19895,1,8,0:0:0:0:
260,512,20056,1,0,0:0:0:0:
261,512,20217,1,8,0:0:0:0:
261,512,20378,1,0,0:0:0:0:
261,512,20459,1,0,0:0:0:0:
261,512,20540,1,8,0:0:0:0:
261,512,20701,1,8,0:0:0:0:
345,512,20862,1,0,0:0:0:0:
345,512,20916,1,0,0:0:0:0:
345,512,20970,1,0,0:0:0:0:
345,512,21024,1,8,0:0:0:0:
314,512,21104,1,8,0:0:0:0:
377,512,21185,1,0,0:0:0:0:
388,512,21239,1,0,0:0:0:0:
399,512,21292,1,0,0:0:0:0:
410,512,21346,1,8,0:0:0:0:
372,512,21427,1,8,0:0:0:0:
336,512,21507,1,0,0:0:0:0:
261,512,21669,1,8,0:0:0:0:
224,512,21749,1,8,0:0:0:0:
187,512,21830,1,0,0:0:0:0:
261,512,21991,1,8,0:0:0:0:
261,512,22072,1,0,0:0:0:0:
261,512,22153,1,8,0:0:0:0:
183,512,22314,1,8,0:0:0:0:
261,512,22475,1,0,0:0:0:0:
183,512,22637,1,8,0:0:0:0:
183,512,22717,1,8,0:0:0:0:
183,512,22798,1,0,0:0:0:0:
183,512,22959,1,8,0:0:0:0:
206,512,23120,1,0,0:0:0:0:
183,512,23201,1,0,0:0:0:0:
194,512,23282,1,8,0:0:0:0:
183,512,23362,1,8,0:0:0:0:
222,512,23443,1,0,0:0:0:0:
282,512,23604,1,8,0:0:0:0:
344,495,23766,1,0,0:0:0:0:
246,512,23927,1,8,0:0:0:0:
246,512,24007,1,8,0:0:0:0:
214,512,24088,1,0,0:0:0:0:
246,512,24249,1,8,0:0:0:0:
246,512,24330,1,8,0:0:0:0:
191,512,24411,1,0,0:0:0:0:
191,512,24464,1,0,0:0:0:0:
191,512,24518,1,0,0:0:0:0:
191,512,24572,1,8,0:0:0:0:
262,512,24653,1,0,0:0:0:0:
262,512,24733,1,8,0:0:0:0:
246,512,24895,1,8,0:0:0:0:
246,512,25056,1,0,0:0:0:0:
246,512,25137,1,8,0:0:0:0:
246,512,25217,1,0,0:0:0:0:
262,512,25378,1,8,0:0:0:0:
262,512,25540,1,0,0:0:0:0:
262,512,25620,1,8,0:0:0:0:
246,512,25782,1,0,0:0:0:0:
246,512,25862,1,8,0:0:0:0:
246,512,26024,1,0,0:0:0:0:
262,512,26185,1,8,0:0:0:0:
262,512,26346,1,0,0:0:0:0:
262,512,26427,1,8,0:0:0:0:
262,512,26507,1,8,0:0:0:0:
246,512,26588,1,8,0:0:0:0:
246,512,26669,1,0,0:0:0:0:
246,512,26830,1,8,0:0:0:0:
246,512,26911,1,8,0:0:0:0:
262,512,26991,1,0,0:0:0:0:
262,512,27045,1,0,0:0:0:0:
262,512,27099,1,0,0:0:0:0:
242,512,27153,1,8,0:0:0:0:
213,512,27233,1,0,0:0:0:0:
205,512,27314,1,8,0:0:0:0:
205,512,27475,1,8,0:0:0:0:
205,512,27637,1,0,0:0:0:0:
205,512,27717,1,8,0:0:0:0:
205,512,27798,1,0,0:0:0:0:
205,512,27959,1,8,0:0:0:0:
174,512,28120,1,0,0:0:0:0:
174,512,28201,1,8,0:0:0:0:
174,512,28362,1,0,0:0:0:0:
174,512,28443,1,8,0:0:0:0:
174,512,28604,1,0,0:0:0:0:
257,512,28766,1,0,0:0:0:0:
299,512,28846,1,8,0:0:0:0:
265,512,28927,1,0,0:0:0:0:
238,512,29007,1,0,0:0:0:0:
228,512,29088,1,8,0:0:0:0:
228,512,29169,1,8,0:0:0:0:
228,512,29249,1,0,0:0:0:0:
253,512,29330,1,0,0:0:0:0:
228,512,29411,1,8,0:0:0:0:
228,512,29451,1,8,0:0:0:0:
165,512,29572,1,4,0:0:0:0:
331,512,29895,1,12,0:0:0:0:
276,512,30056,1,0,0:0:0:0:
248,512,30137,1,8,0:0:0:0:
221,512,30217,1,0,0:0:0:0:
188,512,30298,1,0,0:0:0:0:
216,512,30378,1,8,0:0:0:0:
255,512,30459,1,0,0:0:0:0:
255,512,30540,1,8,0:0:0:0:
171,512,30701,1,8,0:0:0:0:
213,512,30782,1,0,0:0:0:0:
213,512,30862,1,8,0:0:0:0:
202,512,31024,1,8,0:0:0:0:
202,512,31185,1,0,0:0:0:0:
202,512,31266,1,8,0:0:0:0:
202,512,31346,1,0,0:0:0:0:
202,512,31507,1,8,0:0:0:0:
202,512,31588,1,8,0:0:0:0:
202,512,31669,1,0,0:0:0:0:
202,512,31830,1,8,0:0:0:0:
202,512,31911,1,0,0:0:0:0:
202,512,31991,1,0,0:0:0:0:
202,512,32153,1,0,0:0:0:0:
202,512,32314,1,8,0:0:0:0:
202,512,32395,1,0,0:0:0:0:
202,512,32475,1,8,0:0:0:0:
330,512,32556,1,8,0:0:0:0:
330,512,32637,1,0,0:0:0:0:
246,512,32798,1,0,0:0:0:0:
283,512,32878,1,8,0:0:0:0:
220,512,32959,1,0,0:0:0:0:
243,512,33120,1,0,0:0:0:0:
322,512,33201,1,8,0:0:0:0:
220,512,33362,1,0,0:0:0:0:
243,512,33443,1,8,0:0:0:0:
243,512,33524,1,8,0:0:0:0:
243,512,33604,1,0,0:0:0:0:
243,512,33685,1,8,0:0:0:0:
243,512,33766,1,0,0:0:0:0:
243,512,33846,1,8,0:0:0:0:
243,512,33927,1,0,0:0:0:0:
238,512,34088,1,0,0:0:0:0:
238,512,34169,1,8,0:0:0:0:
238,512,34249,1,0,0:0:0:0:
238,512,34411,1,0,0:0:0:0:
238,512,34491,1,8,0:0:0:0:
238,512,34653,1,0,0:0:0:0:
238,512,34733,1,8,0:0:0:0:
268,512,34814,1,8,0:0:0:0:
268,512,34895,1,0,0:0:0:0:
268,512,35056,1,12,0:0:0:0:
232,512,35217,1,0,0:0:0:0:
232,512,35298,1,0,0:0:0:0:
232,512,35378,1,8,0:0:0:0:
232,512,35459,1,8,0:0:0:0:
232,512,35540,1,0,0:0:0:0:
232,512,35620,1,0,0:0:0:0:
232,512,35701,1,8,0:0:0:0:
232,512,35782,1,0,0:0:0:0:
232,512,35862,1,8,0:0:0:0:
232,512,35943,1,8,0:0:0:0:
232,512,36024,1,0,0:0:0:0:
232,512,36104,1,0,0:0:0:0:
232,512,36185,1,8,0:0:0:0:
232,512,36266,1,8,0:0:0:0:
232,512,36346,1,0,0:0:0:0:
232,512,36427,1,8,0:0:0:0:
232,512,36507,1,0,0:0:0:0:
232,512,36588,1,0,0:0:0:0:
246,512,36669,1,8,0:0:0:0:
232,512,36749,1,0,0:0:0:0:
232,512,36830,1,8,0:0:0:0:
232,512,36911,1,8,0:0:0:0:
232,512,36991,1,8,0:0:0:0:
232,512,37072,1,0,0:0:0:0:
232,512,37153,1,8,0:0:0:0:
232,512,37233,1,8,0:0:0:0:
232,512,37314,1,0,0:0:0:0:
232,512,37395,1,0,0:0:0:0:
232,512,37475,1,8,0:0:0:0:
232,512,37556,1,0,0:0:0:0:
232,512,37637,1,8,0:0:0:0:
269,512,37798,1,0,0:0:0:0:
269,512,37878,1,8,0:0:0:0:
269,512,37959,1,0,0:0:0:0:
270,512,38040,1,0,0:0:0:0:
270,512,38120,1,8,0:0:0:0:
273,512,38201,1,0,0:0:0:0:
269,512,38282,1,8,0:0:0:0:
269,512,38362,1,8,0:0:0:0:
269,512,38443,1,0,0:0:0:0:
269,512,38524,1,0,0:0:0:0:
269,512,38604,1,8,0:0:0:0:
269,512,38685,1,0,0:0:0:0:
269,512,38766,1,8,0:0:0:0:
269,512,38846,1,8,0:0:0:0:
269,512,38927,1,0,0:0:0:0:
271,512,39088,1,0,0:0:0:0:
269,512,39249,1,8,0:0:0:0:
275,512,39411,1,0,0:0:0:0:
275,512,39572,1,4,0:0:0:0:
180,512,39733,1,8,0:0:0:0:
180,512,39814,1,8,0:0:0:0:
138,512,39895,1,0,0:0:0:0:
141,512,40056,1,8,0:0:0:0:
244,512,40217,1,12,0:0:0:0:
283,512,40378,1,0,0:0:0:0:
283,512,40459,1,8,0:0:0:0:
283,512,40539,1,0,0:0:0:0:
283,512,40620,1,0,0:0:0:0:
283,512,40700,1,8,0:0:0:0:
283,512,40782,1,0,0:0:0:0:
283,512,40862,1,8,0:0:0:0:
283,512,40942,1,8,0:0:0:0:
283,512,41023,1,0,0:0:0:0:
283,512,41104,1,0,0:0:0:0:
283,512,41184,1,8,0:0:0:0:
283,512,41265,1,0,0:0:0:0:
283,512,41345,1,8,0:0:0:0:
283,512,41427,1,8,0:0:0:0:
283,512,41507,1,0,0:0:0:0:
283,512,41669,1,0,0:0:0:0:
283,512,41723,1,8,0:0:0:0:
283,512,41776,1,8,0:0:0:0:
283,512,41830,1,0,0:0:0:0:
283,512,41911,1,0,0:0:0:0:
283,512,41991,1,8,0:0:0:0:
283,512,42072,1,8,0:0:0:0:
283,512,42153,1,0,0:0:0:0:
283,512,42233,1,0,0:0:0:0:
283,512,42314,1,8,0:0:0:0:
283,512,42395,1,8,0:0:0:0:
283,512,42475,1,0,0:0:0:0:
283,512,42637,1,0,0:0:0:0:
238,512,42798,1,12,0:0:0:0:
283,512,42959,1,0,0:0:0:0:
283,512,43040,1,8,0:0:0:0:
283,512,43120,1,8,0:0:0:0:
283,512,43201,1,8,0:0:0:0:
283,512,43282,1,0,0:0:0:0:
283,512,43362,1,8,0:0:0:0:
283,512,43443,1,8,0:0:0:0:
283,512,43524,1,0,0:0:0:0:
283,512,43604,1,0,0:0:0:0:
283,512,43685,1,0,0:0:0:0:
283,512,43766,1,8,0:0:0:0:
283,512,43846,1,8,0:0:0:0:
283,512,43927,5,0,0:0:0:0:
283,512,43981,1,0,0:0:0:0:
283,512,44034,1,0,0:0:0:0:
283,512,44088,1,8,0:0:0:0:
283,512,44169,1,0,0:0:0:0:
283,512,44249,1,8,0:0:0:0:
283,512,44330,1,8,0:0:0:0:
283,512,44411,1,0,0:0:0:0:
283,512,44491,1,8,0:0:0:0:
283,512,44572,1,0,0:0:0:0:
283,512,44653,1,0,0:0:0:0:
283,512,44733,1,8,0:0:0:0:
283,512,44814,1,8,0:0:0:0:
283,512,44895,1,0,0:0:0:0:
283,512,44975,1,8,0:0:0:0:
283,512,45056,1,0,0:0:0:0:
283,512,45137,1,0,0:0:0:0:
283,512,45217,1,8,0:0:0:0:
238,512,45378,5,12,0:0:0:0:
283,512,45540,1,0,0:0:0:0:
283,512,45620,1,0,0:0:0:0:
283,512,45701,1,8,0:0:0:0:
283,512,45782,1,0,0:0:0:0:
283,512,45862,1,8,0:0:0:0:
283,512,45943,1,8,0:0:0:0:
283,512,46024,1,0,0:0:0:0:
283,512,46104,1,0,0:0:0:0:
283,512,46185,1,0,0:0:0:0:
283,512,46266,1,0,0:0:0:0:
283,512,46346,1,8,0:0:0:0:
283,512,46427,1,8,0:0:0:0:
283,512,46507,1,0,0:0:0:0:
283,512,46561,1,0,0:0:0:0:
283,512,46615,1,0,0:0:0:0:
283,512,46669,1,8,0:0:0:0:
283,512,46830,1,0,0:0:0:0:
283,512,46911,1,0,0:0:0:0:
283,512,46991,1,8,0:0:0:0:
283,512,47072,1,8,0:0:0:0:
283,512,47153,1,0,0:0:0:0:
283,512,47233,1,8,0:0:0:0:
283,512,47314,1,8,0:0:0:0:
283,512,47395,1,0,0:0:0:0:
283,512,47475,1,0,0:0:0:0:
283,512,47556,1,0,0:0:0:0:
283,512,47637,1,8,0:0:0:0:
283,512,47798,1,8,0:0:0:0:
283,512,47878,1,0,0:0:0:0:
283,512,47959,1,8,0:0:0:0:
283,512,48120,1,0,0:0:0:0:
283,512,48201,1,0,0:0:0:0:
283,512,48282,1,0,0:0:0:0:
283,512,48362,1,0,0:0:0:0:
283,512,48443,1,0,0:0:0:0:
283,512,48524,1,0,0:0:0:0:
283,512,48604,1,0,0:0:0:0:
283,512,48685,1,0,0:0:0:0:
283,512,48766,1,0,0:0:0:0:
283,512,48846,1,0,0:0:0:0:
283,512,48927,1,0,0:0:0:0:
283,512,49008,1,0,0:0:0:0:
283,512,49088,1,0,0:0:0:0:
283,512,49169,1,0,0:0:0:0:
283,512,49250,1,0,0:0:0:0:
283,512,49330,1,0,0:0:0:0:
283,512,49411,1,0,0:0:0:0:
283,512,49492,1,0,0:0:0:0:
283,512,49572,1,0,0:0:0:0:
283,512,49653,1,0,0:0:0:0:
283,512,49734,1,0,0:0:0:0:
283,512,49814,1,0,0:0:0:0:
283,512,49895,1,0,0:0:0:0:
283,512,49976,1,0,0:0:0:0:
283,512,50056,1,0,0:0:0:0:
238,512,50218,1,12,0:0:0:0:
238,512,50540,1,4,0:0:0:0:
271,512,50701,1,8,0:0:0:0:
271,512,50862,1,0,0:0:0:0:
271,512,51024,1,8,0:0:0:0:
271,512,51104,1,8,0:0:0:0:
271,512,51185,1,0,0:0:0:0:
271,512,51346,1,8,0:0:0:0:
271,512,51427,1,8,0:0:0:0:
271,512,51507,1,0,0:0:0:0:
256,512,51669,1,8,0:0:0:0:
256,512,51830,1,0,0:0:0:0:
256,512,51991,1,8,0:0:0:0:
257,512,52153,1,0,0:0:0:0:
257,512,52314,1,8,0:0:0:0:
257,512,52395,1,8,0:0:0:0:
256,512,52475,1,0,0:0:0:0:
256,512,52556,1,0,0:0:0:0:
256,512,52637,1,8,0:0:0:0:
256,512,52717,1,8,0:0:0:0:
256,512,52798,1,0,0:0:0:0:
257,512,52959,1,8,0:0:0:0:
257,512,53040,1,0,0:0:0:0:
257,512,53120,1,8,0:0:0:0:
270,512,53282,1,8,0:0:0:0:
270,512,53443,1,0,0:0:0:0:
270,512,53604,1,8,0:0:0:0:
270,512,53685,1,8,0:0:0:0:
270,512,53766,1,0,0:0:0:0:
270,512,53927,1,8,0:0:0:0:
270,512,54007,1,8,0:0:0:0:
270,512,54088,1,0,0:0:0:0:
270,512,54249,1,8,0:0:0:0:
270,512,54411,1,0,0:0:0:0:
270,512,54572,1,8,0:0:0:0:
270,512,54733,1,0,0:0:0:0:
270,512,54895,1,8,0:0:0:0:
270,512,54975,1,8,0:0:0:0:
270,512,55056,1,0,0:0:0:0:
268,512,55137,1,0,0:0:0:0:
270,512,55217,1,8,0:0:0:0:
270,512,55298,1,8,0:0:0:0:
270,512,55378,1,0,0:0:0:0:
270,512,55540,1,0,0:0:0:0:
270,512,55701,1,12,0:0:0:0:
274,512,56830,1,4,0:0:0:0:
274,512,56991,1,12,0:0:0:0:
274,512,58120,1,4,0:0:0:0:
274,512,58282,1,12,0:0:0:0:
274,512,58766,1,4,0:0:0:0:
274,512,58927,1,12,0:0:0:0:
274,512,59411,1,4,0:0:0:0:
274,512,59572,1,12,0:0:0:0:
336,512,59733,1,0,0:0:0:0:
283,512,59814,1,0,0:0:0:0:
252,512,59895,1,8,0:0:0:0:
274,512,59975,1,0,0:0:0:0:
274,512,60056,1,8,0:0:0:0:
274,512,60137,1,8,0:0:0:0:
274,512,60217,1,0,0:0:0:0:
274,512,60298,1,0,0:0:0:0:
274,512,60378,1,8,0:0:0:0:
173,512,60419,1,8,0:0:0:0:
173,512,60540,1,4,0:0:0:0:
270,512,60862,1,12,0:0:0:0:
260,512,61024,1,8,0:0:0:0:
260,512,61104,1,0,0:0:0:0:
264,512,61266,1,0,0:0:0:0:
264,512,61346,1,8,0:0:0:0:
280,512,61507,1,8,0:0:0:0:
280,512,61588,1,0,0:0:0:0:
280,512,61749,1,0,0:0:0:0:
280,512,61830,1,8,0:0:0:0:
280,512,61911,1,8,0:0:0:0:
280,512,61991,1,0,0:0:0:0:
280,512,62072,1,0,0:0:0:0:
280,512,62153,1,8,0:0:0:0:
280,512,62233,1,0,0:0:0:0:
280,512,62314,1,8,0:0:0:0:
280,512,62395,1,8,0:0:0:0:
280,512,62475,1,0,0:0:0:0:
280,512,62637,1,8,0:0:0:0:
280,512,62798,1,8,0:0:0:0:
280,512,62878,1,0,0:0:0:0:
280,512,62959,1,8,0:0:0:0:
202,512,63013,1,0,0:0:0:0:
202,512,63067,1,0,0:0:0:0:
280,512,63120,1,8,0:0:0:0:
280,512,63201,1,0,0:0:0:0:
280,512,63282,1,8,0:0:0:0:
202,512,63335,1,8,0:0:0:0:
202,512,63389,1,8,0:0:0:0:
220,512,63443,1,0,0:0:0:0:
220,512,63524,1,0,0:0:0:0:
220,512,63604,1,8,0:0:0:0:
220,512,63766,1,0,0:0:0:0:
220,512,63846,1,0,0:0:0:0:
220,512,63927,1,8,0:0:0:0:
220,512,64007,1,0,0:0:0:0:
220,512,64088,1,8,0:0:0:0:
220,512,64169,1,8,0:0:0:0:
220,512,64249,1,0,0:0:0:0:
220,512,64330,1,8,0:0:0:0:
220,512,64411,1,0,0:0:0:0:
220,512,64491,1,0,0:0:0:0:
221,512,64572,1,8,0:0:0:0:
221,512,64653,1,8,0:0:0:0:
210,512,64733,1,0,0:0:0:0:
210,512,64814,1,0,0:0:0:0:
210,512,64895,1,8,0:0:0:0:
210,512,65056,1,0,0:0:0:0:
210,512,65137,1,0,0:0:0:0:
210,512,65217,1,0,0:0:0:0:
210,512,65298,1,0,0:0:0:0:
210,512,65378,1,8,0:0:0:0:
210,512,65459,1,8,0:0:0:0:
210,512,65540,1,0,0:0:0:0:
210,512,65620,1,8,0:0:0:0:
210,512,65701,1,0,0:0:0:0:
210,512,65782,1,0,0:0:0:0:
210,512,65862,1,8,0:0:0:0:
210,512,65943,1,0,0:0:0:0:
210,512,66024,1,8,0:0:0:0:
210,512,66185,1,8,0:0:0:0:
210,512,66266,1,0,0:0:0:0:
210,512,66427,1,0,0:0:0:0:
210,512,66507,1,8,0:0:0:0:
210,512,66669,1,8,0:0:0:0:
210,512,66749,1,0,0:0:0:0:
212,512,66911,1,0,0:0:0:0:
212,512,66991,1,8,0:0:0:0:
212,512,67072,1,8,0:0:0:0:
212,512,67153,1,0,0:0:0:0:
212,512,67233,1,0,0:0:0:0:
212,512,67314,1,8,0:0:0:0:
212,512,67395,1,0,0:0:0:0:
212,512,67475,1,8,0:0:0:0:
212,512,67556,1,8,0:0:0:0:
212,512,67637,1,0,0:0:0:0:
212,512,67798,1,8,0:0:0:0:
212,512,67959,1,8,0:0:0:0:
212,512,68040,1,0,0:0:0:0:
212,512,68120,1,8,0:0:0:0:
215,512,68174,1,0,0:0:0:0:
215,512,68228,1,0,0:0:0:0:
227,512,68282,1,8,0:0:0:0:
227,512,68362,1,0,0:0:0:0:
227,512,68443,1,8,0:0:0:0:
215,512,68497,1,8,0:0:0:0:
215,512,68551,1,8,0:0:0:0:
215,512,68604,1,0,0:0:0:0:
209,512,68685,1,0,0:0:0:0:
209,512,68766,1,8,0:0:0:0:
218,512,68927,1,8,0:0:0:0:
218,512,69007,1,0,0:0:0:0:
218,512,69088,1,0,0:0:0:0:
218,512,69169,1,8,0:0:0:0:
218,512,69249,1,0,0:0:0:0:
218,512,69330,1,0,0:0:0:0:
218,512,69411,1,8,0:0:0:0:
218,512,69491,1,0,0:0:0:0:
218,512,69572,1,8,0:0:0:0:
218,512,69653,1,8,0:0:0:0:
218,512,69733,1,0,0:0:0:0:
218,512,69814,1,8,0:0:0:0:
241,512,69895,1,0,0:0:0:0:
241,512,69975,1,0,0:0:0:0:
241,512,70056,1,8,0:0:0:0:
241,512,70217,1,0,0:0:0:0:
241,512,70298,1,0,0:0:0:0:
241,512,70378,1,8,0:0:0:0:
241,512,70459,1,8,0:0:0:0:
241,512,70540,1,0,0:0:0:0:
241,512,70701,1,8,0:0:0:0:
241,512,70782,1,8,0:0:0:0:
241,512,70862,1,0,0:0:0:0:
241,512,71024,1,8,0:0:0:0:
241,512,71104,1,0,0:0:0:0:
241,512,71185,1,8,0:0:0:0:
271,512,71346,1,0,0:0:0:0:
271,512,71507,1,8,0:0:0:0:
271,512,71669,1,0,0:0:0:0:
271,512,71749,1,8,0:0:0:0:
271,512,71830,1,0,0:0:0:0:
207,512,71991,1,0,0:0:0:0:
206,512,72072,1,0,0:0:0:0:
206,512,72153,1,8,0:0:0:0:
268,512,72233,1,8,0:0:0:0:
202,512,72314,1,0,0:0:0:0:
295,512,72475,1,8,0:0:0:0:
294,512,72637,1,0,0:0:0:0:
294,512,72717,1,0,0:0:0:0:
294,512,72798,1,8,0:0:0:0:
294,512,72959,1,8,0:0:0:0:
294,512,73040,1,8,0:0:0:0:
294,512,73120,1,0,0:0:0:0:
209,512,73282,1,0,0:0:0:0:
209,512,73362,1,0,0:0:0:0:
209,512,73443,1,8,0:0:0:0:
209,512,73604,1,0,0:0:0:0:
209,512,73766,1,8,0:0:0:0:
209,512,73927,1,0,0:0:0:0:
209,512,74007,1,8,0:0:0:0:
209,512,74088,1,0,0:0:0:0:
202,512,74249,1,8,0:0:0:0:
202,512,74330,1,0,0:0:0:0:
202,512,74411,1,8,0:0:0:0:
209,512,74572,1,8,0:0:0:0:
209,512,74653,1,8,0:0:0:0:
209,512,74733,1,0,0:0:0:0:
268,512,74814,1,8,0:0:0:0:
214,512,74895,1,0,0:0:0:0:
214,512,75056,1,8,0:0:0:0:
214,512,75217,1,0,0:0:0:0:
214,512,75298,1,0,0:0:0:0:
214,512,75378,1,8,0:0:0:0:
214,512,75540,1,0,0:0:0:0:
214,512,75620,1,8,0:0:0:0:
214,512,75701,1,0,0:0:0:0:
214,512,75862,1,0,0:0:0:0:
214,512,76024,1,8,0:0:0:0:
268,512,76104,1,0,0:0:0:0:
110,512,76185,1,0,0:0:0:0:
214,512,76346,1,12,0:0:0:0:
210,512,76830,1,0,0:0:0:0:
210,512,76884,1,0,0:0:0:0:
210,512,76938,1,0,0:0:0:0:
210,512,76991,1,8,0:0:0:0:
225,512,77314,1,0,0:0:0:0:
225,512,77395,1,0,0:0:0:0:
225,512,77475,1,0,0:0:0:0:
225,512,77556,1,0,0:0:0:0:
225,512,77637,1,8,0:0:0:0:
206,512,77959,1,0,0:0:0:0:
206,512,78067,1,0,0:0:0:0:
206,512,78174,1,0,0:0:0:0:
206,512,78282,1,8,0:0:0:0:
223,512,78604,1,0,0:0:0:0:
223,512,78766,1,0,0:0:0:0:
223,512,78927,1,12,0:0:0:0:
215,512,79088,1,0,0:0:0:0:
215,512,79169,1,8,0:0:0:0:
215,512,79249,1,0,0:0:0:0:
215,512,79411,1,0,0:0:0:0:
215,512,79491,1,0,0:0:0:0:
215,512,79572,1,8,0:0:0:0:
215,512,79733,1,8,0:0:0:0:
215,512,79814,1,8,0:0:0:0:
215,512,79895,1,0,0:0:0:0:
215,512,79975,1,8,0:0:0:0:
214,512,80056,1,0,0:0:0:0:
214,512,80217,1,8,0:0:0:0:
214,512,80378,1,0,0:0:0:0:
214,512,80459,1,8,0:0:0:0:
214,512,80540,1,0,0:0:0:0:
214,512,80701,1,0,0:0:0:0:
214,512,80782,1,0,0:0:0:0:
214,512,80862,1,8,0:0:0:0:
194,512,81024,1,8,0:0:0:0:
194,512,81104,1,8,0:0:0:0:
194,512,81185,1,0,0:0:0:0:
194,512,81346,1,0,0:0:0:0:
194,512,81507,1,12,0:0:0:0:
206,512,81669,1,0,0:0:0:0:
206,512,81830,1,0,0:0:0:0:
206,512,81991,1,0,0:0:0:0:
154,512,82153,1,0,0:0:0:0:
178,512,82314,1,0,0:0:0:0:
178,512,82395,1,0,0:0:0:0:
178,512,82475,1,0,0:0:0:0:
178,512,82637,1,0,0:0:0:0:
178,512,82717,1,0,0:0:0:0:
178,512,82798,1,0,0:0:0:0:
227,512,82878,1,0,0:0:0:0:
227,512,82959,1,0,0:0:0:0:
227,512,83040,1,0,0:0:0:0:
227,512,83120,1,0,0:0:0:0:
227,512,83201,1,0,0:0:0:0:
227,512,83282,1,0,0:0:0:0:
227,512,83362,1,0,0:0:0:0:
256,192,83443,12,0,83927,0:0:0:0:
338,512,84088,5,4,0:0:0:0:
282,512,84249,1,0,0:0:0:0:
254,512,84330,1,8,0:0:0:0:
227,512,84410,1,0,0:0:0:0:
194,512,84491,1,0,0:0:0:0:
222,512,84571,1,8,0:0:0:0:
261,512,84652,1,0,0:0:0:0:
261,512,84733,1,8,0:0:0:0:
177,512,84894,1,8,0:0:0:0:
219,512,84975,1,0,0:0:0:0:
219,512,85055,1,8,0:0:0:0:
208,512,85217,1,8,0:0:0:0:
208,512,85378,1,0,0:0:0:0:
208,512,85459,1,8,0:0:0:0:
208,512,85539,1,0,0:0:0:0:
208,512,85700,1,8,0:0:0:0:
208,512,85781,1,8,0:0:0:0:
208,512,85862,1,0,0:0:0:0:
208,512,86023,1,8,0:0:0:0:
208,512,86104,1,0,0:0:0:0:
208,512,86184,1,0,0:0:0:0:
208,512,86346,1,0,0:0:0:0:
208,512,86507,1,8,0:0:0:0:
208,512,86588,1,0,0:0:0:0:
208,512,86668,1,8,0:0:0:0:
336,512,86749,1,8,0:0:0:0:
336,512,86830,1,0,0:0:0:0:
252,512,86991,1,0,0:0:0:0:
289,512,87071,1,8,0:0:0:0:
227,512,87152,1,0,0:0:0:0:
249,512,87313,1,0,0:0:0:0:
328,512,87394,1,8,0:0:0:0:
227,512,87555,1,0,0:0:0:0:
249,512,87636,1,8,0:0:0:0:
249,512,87717,1,8,0:0:0:0:
249,512,87797,1,0,0:0:0:0:
249,512,87878,1,8,0:0:0:0:
249,512,87959,1,0,0:0:0:0:
249,512,88039,1,8,0:0:0:0:
249,512,88120,1,0,0:0:0:0:
244,512,88281,1,0,0:0:0:0:
244,512,88362,1,8,0:0:0:0:
244,512,88442,1,0,0:0:0:0:
244,512,88604,1,0,0:0:0:0:
244,512,88684,1,8,0:0:0:0:
244,512,88846,1,0,0:0:0:0:
244,512,88926,1,8,0:0:0:0:
274,512,89007,1,8,0:0:0:0:
274,512,89088,1,8,0:0:0:0:
274,512,89249,1,4,0:0:0:0:
238,512,89411,1,8,0:0:0:0:
238,512,89491,1,0,0:0:0:0:
238,512,89571,1,8,0:0:0:0:
238,512,89652,1,8,0:0:0:0:
238,512,89733,1,0,0:0:0:0:
238,512,89813,1,8,0:0:0:0:
238,512,89894,1,0,0:0:0:0:
238,512,89975,1,0,0:0:0:0:
238,512,90055,1,8,0:0:0:0:
238,512,90136,1,8,0:0:0:0:
238,512,90217,1,0,0:0:0:0:
238,512,90297,1,0,0:0:0:0:
238,512,90378,1,8,0:0:0:0:
238,512,90459,1,8,0:0:0:0:
238,512,90539,1,0,0:0:0:0:
238,512,90620,1,8,0:0:0:0:
238,512,90700,1,0,0:0:0:0:
238,512,90781,1,0,0:0:0:0:
253,512,90862,1,8,0:0:0:0:
238,512,90942,1,0,0:0:0:0:
238,512,91023,1,8,0:0:0:0:
238,512,91104,1,8,0:0:0:0:
238,512,91184,1,8,0:0:0:0:
238,512,91265,1,0,0:0:0:0:
238,512,91346,1,8,0:0:0:0:
238,512,91426,1,8,0:0:0:0:
238,512,91507,1,0,0:0:0:0:
238,512,91588,1,0,0:0:0:0:
238,512,91668,1,8,0:0:0:0:
238,512,91749,1,0,0:0:0:0:
238,512,91830,1,8,0:0:0:0:
275,512,91991,1,0,0:0:0:0:
275,512,92071,1,8,0:0:0:0:
275,512,92152,1,0,0:0:0:0:
276,512,92233,1,0,0:0:0:0:
276,512,92313,1,8,0:0:0:0:
279,512,92394,1,0,0:0:0:0:
275,512,92475,1,8,0:0:0:0:
275,512,92555,1,8,0:0:0:0:
275,512,92636,1,0,0:0:0:0:
275,512,92717,1,0,0:0:0:0:
275,512,92797,1,8,0:0:0:0:
275,512,92878,1,0,0:0:0:0:
275,512,92959,1,8,0:0:0:0:
275,512,93039,1,8,0:0:0:0:
275,512,93120,1,0,0:0:0:0:
277,512,93281,1,0,0:0:0:0:
275,512,93442,1,8,0:0:0:0:
281,512,93604,1,0,0:0:0:0:
281,512,93765,1,4,0:0:0:0:
186,512,93926,1,8,0:0:0:0:
186,512,94007,1,8,0:0:0:0:
144,512,94088,1,0,0:0:0:0:
147,512,94249,1,8,0:0:0:0:
250,512,94411,1,4,0:0:0:0:
340,512,94895,1,0,0:0:0:0:
340,512,94975,1,0,0:0:0:0:
340,512,95056,1,8,0:0:0:0:
340,512,95217,1,0,0:0:0:0:
340,512,95298,1,0,0:0:0:0:
341,512,95378,1,8,0:0:0:0:
341,512,95540,1,0,0:0:0:0:
341,512,95862,1,8,0:0:0:0:
340,512,96024,1,0,0:0:0:0:
338,512,96185,1,0,0:0:0:0:
337,512,96346,1,8,0:0:0:0:
341,512,96507,1,0,0:0:0:0:
338,512,96669,1,12,0:0:0:0:
337,512,96991,1,4,0:0:0:0:
337,512,97475,1,0,0:0:0:0:
337,512,97556,1,0,0:0:0:0:
337,512,97637,1,8,0:0:0:0:
341,512,97798,1,0,0:0:0:0:
337,512,97959,1,8,0:0:0:0:
337,512,98120,1,8,0:0:0:0:
224,512,98174,1,8,0:0:0:0:
224,512,98228,1,8,0:0:0:0:
224,512,98282,1,0,0:0:0:0:
216,512,98443,1,8,0:0:0:0:
280,512,98604,1,0,0:0:0:0:
341,512,98685,1,8,0:0:0:0:
233,512,98766,1,0,0:0:0:0:
233,512,98846,1,0,0:0:0:0:
186,512,98927,1,8,0:0:0:0:
216,512,99088,5,0,0:0:0:0:
151,512,99249,1,0,0:0:0:0:
216,512,99411,1,8,0:0:0:0:
216,512,99464,1,8,0:0:0:0:
216,512,99518,1,8,0:0:0:0:
244,512,99572,5,0,0:0:0:0:
283,512,99733,1,0,0:0:0:0:
283,512,99813,1,0,0:0:0:0:
283,512,99894,1,8,0:0:0:0:
283,512,99975,1,0,0:0:0:0:
283,512,100055,1,8,0:0:0:0:
283,512,100136,1,8,0:0:0:0:
283,512,100217,1,0,0:0:0:0:
283,512,100297,1,0,0:0:0:0:
283,512,100378,1,0,0:0:0:0:
283,512,100459,1,0,0:0:0:0:
283,512,100539,1,8,0:0:0:0:
283,512,100620,1,8,0:0:0:0:
283,512,100700,1,0,0:0:0:0:
283,512,100754,1,0,0:0:0:0:
283,512,100808,1,0,0:0:0:0:
283,512,100862,1,8,0:0:0:0:
283,512,101023,1,0,0:0:0:0:
283,512,101104,1,0,0:0:0:0:
283,512,101184,1,8,0:0:0:0:
283,512,101265,1,8,0:0:0:0:
283,512,101346,1,0,0:0:0:0:
283,512,101426,1,8,0:0:0:0:
283,512,101507,1,8,0:0:0:0:
283,512,101588,1,0,0:0:0:0:
283,512,101668,1,0,0:0:0:0:
283,512,101749,1,0,0:0:0:0:
283,512,101830,1,8,0:0:0:0:
283,512,101991,1,8,0:0:0:0:
283,512,102071,1,0,0:0:0:0:
283,512,102152,1,8,0:0:0:0:
283,512,102314,1,0,0:0:0:0:
283,512,102395,1,0,0:0:0:0:
283,512,102475,1,0,0:0:0:0:
283,512,102556,1,0,0:0:0:0:
283,512,102637,1,0,0:0:0:0:
283,512,102717,1,0,0:0:0:0:
283,512,102798,1,0,0:0:0:0:
283,512,102878,1,0,0:0:0:0:
283,512,102959,1,0,0:0:0:0:
238,512,103120,1,12,0:0:0:0:
238,512,103443,1,12,0:0:0:0:
283,512,103604,1,0,0:0:0:0:
283,512,103685,1,0,0:0:0:0:
283,512,103766,1,0,0:0:0:0:
283,512,103846,1,0,0:0:0:0:
283,512,103927,1,0,0:0:0:0:
283,512,104007,1,0,0:0:0:0:
283,512,104088,1,0,0:0:0:0:
283,512,104168,1,0,0:0:0:0:
283,512,104249,1,0,0:0:0:0:
238,512,104411,1,12,0:0:0:0:
238,512,104733,1,12,0:0:0:0:
283,512,104895,1,0,0:0:0:0:
283,512,104975,1,0,0:0:0:0:
283,512,105056,1,0,0:0:0:0:
283,512,105137,1,0,0:0:0:0:
283,512,105217,1,0,0:0:0:0:
283,512,105298,1,0,0:0:0:0:
238,512,105378,1,12,0:0:0:0:
283,512,105540,1,0,0:0:0:0:
283,512,105620,1,0,0:0:0:0:
283,512,105701,1,0,0:0:0:0:
283,512,105782,1,0,0:0:0:0:
283,512,105862,1,0,0:0:0:0:
283,512,105943,1,0,0:0:0:0:
238,512,106023,1,12,0:0:0:0:
283,512,106185,1,0,0:0:0:0:
283,512,106266,1,0,0:0:0:0:
238,512,106346,1,12,0:0:0:0:
283,512,106507,1,0,0:0:0:0:
283,512,106588,1,0,0:0:0:0:
238,512,106668,1,12,0:0:0:0:
283,512,106830,1,0,0:0:0:0:
238,512,106991,1,12,0:0:0:0:
238,512,107314,1,4,0:0:0:0:
213,512,107637,1,0,0:0:0:0:
274,512,107798,1,0,0:0:0:0:
219,512,107960,1,0,0:0:0:0:
271,512,108121,1,0,0:0:0:0:
223,512,108282,1,8,0:0:0:0:
265,512,108444,1,8,0:0:0:0:
255,512,108927,1,0,0:0:0:0:
255,512,109250,1,0,0:0:0:0:
255,512,109573,1,0,0:0:0:0:
255,512,109895,1,0,0:0:0:0:
255,512,110218,1,8,0:0:0:0:
255,512,110379,1,0,0:0:0:0:
255,512,110702,1,0,0:0:0:0:
255,512,110863,1,8,0:0:0:0:
271,512,111508,1,0,0:0:0:0:
271,512,111831,1,8,0:0:0:0:
271,512,112153,1,0,0:0:0:0:
271,512,112476,1,8,0:0:0:0:
196,512,113282,1,0,0:0:0:0:
196,512,113444,1,0,0:0:0:0:
196,512,113605,1,0,0:0:0:0:
196,512,113766,1,8,0:0:0:0:
196,512,114089,1,0,0:0:0:0:
196,512,114250,1,8,0:0:0:0:
196,512,114573,1,8,0:0:0:0:
154,512,114895,1,0,0:0:0:0:
283,512,115702,1,0,0:0:0:0:
283,512,115862,1,0,0:0:0:0:
283,512,116024,1,8,0:0:0:0:
283,512,116185,1,8,0:0:0:0:
283,512,116507,1,8,0:0:0:0:
283,512,116669,1,0,0:0:0:0:
283,512,116830,1,0,0:0:0:0:
283,512,117959,1,0,0:0:0:0:
283,512,118120,1,0,0:0:0:0:
283,512,118282,1,0,0:0:0:0:
283,512,118443,1,8,0:0:0:0:
283,512,118604,1,8,0:0:0:0:
283,512,118766,1,8,0:0:0:0:
283,512,118927,1,0,0:0:0:0:
283,512,119249,1,8,0:0:0:0:
283,512,119572,1,8,0:0:0:0:
283,512,119895,1,8,0:0:0:0:
283,512,120217,1,0,0:0:0:0:
283,512,120540,1,0,0:0:0:0:
283,512,120701,1,8,0:0:0:0:
283,512,121024,1,8,0:0:0:0:
283,512,121185,1,0,0:0:0:0:
283,512,122314,1,0,0:0:0:0:
283,512,122475,1,8,0:0:0:0:
283,512,122637,1,8,0:0:0:0:
283,512,122798,1,0,0:0:0:0:
283,512,122959,1,8,0:0:0:0:
283,512,123120,1,8,0:0:0:0:
283,512,123282,1,8,0:0:0:0:
283,512,123604,1,0,0:0:0:0:
283,512,123766,1,8,0:0:0:0:
283,512,123927,1,0,0:0:0:0:
283,512,124249,1,0,0:0:0:0:
283,512,124411,1,8,0:0:0:0:
283,512,124572,1,0,0:0:0:0:
283,512,124895,1,0,0:0:0:0:
283,512,125057,1,8,0:0:0:0:
283,512,125218,1,0,0:0:0:0:
283,512,125378,1,8,0:0:0:0:
283,512,125862,1,8,0:0:0:0:
283,512,126346,1,0,0:0:0:0:
283,512,126830,1,0,0:0:0:0:
283,512,126911,1,0,0:0:0:0:
267,512,126991,5,0,0:0:0:0:
267,512,127072,5,0,0:0:0:0:
267,512,127153,5,0,0:0:0:0:
267,512,127233,5,0,0:0:0:0:
267,512,127314,5,0,0:0:0:0:
274,512,127395,1,0,0:0:0:0:
274,512,127475,1,0,0:0:0:0:
274,512,127556,1,0,0:0:0:0:
274,512,127637,1,0,0:0:0:0:
274,512,127717,1,0,0:0:0:0:
274,512,127798,1,0,0:0:0:0:
274,512,127878,1,0,0:0:0:0:
274,512,127959,1,12,0:0:0:0:
213,512,128282,1,0,0:0:0:0:
274,512,128443,1,0,0:0:0:0:
219,512,128605,1,0,0:0:0:0:
271,512,128766,1,0,0:0:0:0:
223,512,128927,1,8,0:0:0:0:
265,512,129089,1,8,0:0:0:0:
255,512,129572,1,0,0:0:0:0:
255,512,129895,1,0,0:0:0:0:
255,512,130218,1,0,0:0:0:0:
255,512,130540,1,0,0:0:0:0:
255,512,130863,1,8,0:0:0:0:
255,512,131024,1,0,0:0:0:0:
255,512,131347,1,0,0:0:0:0:
255,512,131508,1,8,0:0:0:0:
271,512,132153,1,0,0:0:0:0:
271,512,132476,1,8,0:0:0:0:
271,512,132798,1,0,0:0:0:0:
271,512,133121,1,8,0:0:0:0:
196,512,133927,1,0,0:0:0:0:
196,512,134089,1,0,0:0:0:0:
196,512,134250,1,0,0:0:0:0:
196,512,134411,1,8,0:0:0:0:
196,512,134734,1,0,0:0:0:0:
196,512,134895,1,8,0:0:0:0:
196,512,135218,1,8,0:0:0:0:
154,512,135540,1,0,0:0:0:0:
238,512,138282,1,12,0:0:0:0:
255,512,139411,1,4,0:0:0:0:
171,512,139572,1,4,0:0:0:0:
497,512,140218,1,4,0:0:0:0:
340,512,140540,1,4,0:0:0:0:
183,512,140863,1,4,0:0:0:0:
509,512,141508,1,4,0:0:0:0:
195,512,142153,1,4,0:0:0:0:
332,512,142476,1,4,0:0:0:0:
264,512,142637,1,0,0:0:0:0:
264,512,142691,1,0,0:0:0:0:
264,512,142744,1,0,0:0:0:0:
264,512,142798,1,8,0:0:0:0:
264,512,143040,1,8,0:0:0:0:
264,512,143282,1,8,0:0:0:0:
264,512,143443,1,0,0:0:0:0:
110,512,143766,1,0,0:0:0:0:
249,512,144089,1,0,0:0:0:0:
249,512,144411,1,0,0:0:0:0:
249,512,144734,1,0,0:0:0:0:
249,512,145056,1,0,0:0:0:0:
249,512,145379,1,0,0:0:0:0:
249,512,145540,1,0,0:0:0:0:
249,512,145621,1,0,0:0:0:0:
249,512,145701,1,8,0:0:0:0:
249,512,145863,1,0,0:0:0:0:
228,512,146024,1,12,0:0:0:0:
276,512,146266,1,8,0:0:0:0:
276,512,146346,1,0,0:0:0:0:
282,512,146507,1,8,0:0:0:0:
284,512,146669,1,0,0:0:0:0:
183,512,146749,1,0,0:0:0:0:
217,512,146830,1,8,0:0:0:0:
166,512,146911,1,0,0:0:0:0:
183,512,146991,1,0,0:0:0:0:
183,512,147153,1,8,0:0:0:0:
247,512,147314,1,0,0:0:0:0:
247,512,147368,1,0,0:0:0:0:
247,512,147421,1,0,0:0:0:0:
247,512,147475,1,8,0:0:0:0:
307,512,147556,1,8,0:0:0:0:
245,512,147637,1,0,0:0:0:0:
245,512,147690,1,0,0:0:0:0:
245,512,147744,1,0,0:0:0:0:
245,512,147798,1,8,0:0:0:0:
307,512,147878,1,8,0:0:0:0:
307,512,147959,1,0,0:0:0:0:
307,512,148120,1,8,0:0:0:0:
307,512,148201,1,8,0:0:0:0:
307,512,148282,1,0,0:0:0:0:
307,512,148443,1,8,0:0:0:0:
307,512,148524,1,0,0:0:0:0:
307,512,148604,1,8,0:0:0:0:
305,512,148766,1,0,0:0:0:0:
314,512,148927,1,8,0:0:0:0:
199,512,149007,1,8,0:0:0:0:
314,512,149088,1,0,0:0:0:0:
150,512,149169,1,8,0:0:0:0:
314,512,149249,1,0,0:0:0:0:
314,512,149411,1,8,0:0:0:0:
314,512,149572,1,0,0:0:0:0:
314,512,149653,1,8,0:0:0:0:
314,512,149733,1,0,0:0:0:0:
238,512,149895,1,8,0:0:0:0:
238,512,149948,1,8,0:0:0:0:
238,512,150002,1,8,0:0:0:0:
238,512,150056,1,0,0:0:0:0:
314,512,150137,1,0,0:0:0:0:
238,512,150217,1,8,0:0:0:0:
238,512,150271,1,8,0:0:0:0:
238,512,150325,1,8,0:0:0:0:
238,512,150378,1,0,0:0:0:0:
314,512,150459,1,0,0:0:0:0:
314,512,150540,1,8,0:0:0:0:
314,512,150701,1,0,0:0:0:0:
314,512,150782,1,0,0:0:0:0:
314,512,150862,1,8,0:0:0:0:
319,512,151024,1,0,0:0:0:0:
294,512,151185,1,0,0:0:0:0:
294,512,151266,1,0,0:0:0:0:
294,512,151346,1,0,0:0:0:0:
294,512,151427,1,0,0:0:0:0:
294,512,151507,1,0,0:0:0:0:
294,512,151588,1,0,0:0:0:0:
294,512,151669,1,0,0:0:0:0:
294,512,151749,1,0,0:0:0:0:
294,512,151830,1,0,0:0:0:0:
294,512,151911,1,0,0:0:0:0:
294,512,151991,1,0,0:0:0:0:
294,512,152072,1,0,0:0:0:0:
400,512,152153,1,0,0:0:0:0:
400,512,152233,1,0,0:0:0:0:
400,512,152314,1,0,0:0:0:0:
400,512,152395,1,0,0:0:0:0:
238,512,152475,1,8,0:0:0:0:
238,512,152529,1,0,0:0:0:0:
238,512,152583,1,0,0:0:0:0:
238,512,152637,1,8,0:0:0:0:
257,512,152717,1,0,0:0:0:0:
238,512,152798,1,8,0:0:0:0:
238,512,152852,1,0,0:0:0:0:
238,512,152905,1,0,0:0:0:0:
238,512,152959,1,8,0:0:0:0:
261,512,153040,1,0,0:0:0:0:
238,512,153120,1,8,0:0:0:0:
238,512,153174,1,8,0:0:0:0:
238,512,153228,1,8,0:0:0:0:
238,512,153282,1,0,0:0:0:0:
259,512,153362,1,0,0:0:0:0:
238,512,153443,1,8,0:0:0:0:
238,512,153497,1,8,0:0:0:0:
238,512,153551,1,8,0:0:0:0:
238,512,153604,1,0,0:0:0:0:
261,512,153685,1,0,0:0:0:0:
229,512,153766,1,8,0:0:0:0:
229,512,153819,1,0,0:0:0:0:
229,512,153873,1,0,0:0:0:0:
229,512,153927,1,8,0:0:0:0:
262,512,154007,1,0,0:0:0:0:
229,512,154088,1,8,0:0:0:0:
229,512,154142,1,8,0:0:0:0:
229,512,154196,1,8,0:0:0:0:
229,512,154249,1,0,0:0:0:0:
265,512,154330,1,0,0:0:0:0:
461,512,154411,1,8,0:0:0:0:
461,512,154464,1,8,0:0:0:0:
461,512,154518,1,8,0:0:0:0:
461,512,154572,1,0,0:0:0:0:
456,512,154626,1,0,0:0:0:0:
466,512,154680,1,0,0:0:0:0:
270,512,154733,1,8,0:0:0:0:
270,512,154814,1,0,0:0:0:0:
270,512,154895,1,8,0:0:0:0:
270,512,154975,1,8,0:0:0:0:
270,512,155056,1,0,0:0:0:0:
270,512,155137,1,0,0:0:0:0:
241,512,155217,1,8,0:0:0:0:
241,512,155271,1,8,0:0:0:0:
241,512,155325,1,8,0:0:0:0:
241,512,155378,1,0,0:0:0:0:
270,512,155459,1,0,0:0:0:0:
211,512,155540,1,8,0:0:0:0:
211,512,155620,1,8,0:0:0:0:
226,512,155701,1,0,0:0:0:0:
226,512,155782,1,0,0:0:0:0:
226,512,155862,1,8,0:0:0:0:
267,512,156024,1,4,0:0:0:0:
270,512,156346,1,12,0:0:0:0:
260,512,156508,1,8,0:0:0:0:
260,512,156588,1,0,0:0:0:0:
264,512,156750,1,0,0:0:0:0:
264,512,156830,1,8,0:0:0:0:
280,512,156991,1,8,0:0:0:0:
280,512,157072,1,0,0:0:0:0:
280,512,157233,1,0,0:0:0:0:
280,512,157314,1,8,0:0:0:0:
280,512,157395,1,8,0:0:0:0:
280,512,157475,1,0,0:0:0:0:
280,512,157556,1,0,0:0:0:0:
280,512,157637,1,8,0:0:0:0:
280,512,157717,1,0,0:0:0:0:
280,512,157798,1,8,0:0:0:0:
280,512,157879,1,8,0:0:0:0:
280,512,157959,1,0,0:0:0:0:
280,512,158121,1,8,0:0:0:0:
280,512,158282,1,8,0:0:0:0:
280,512,158362,1,0,0:0:0:0:
280,512,158443,1,8,0:0:0:0:
202,512,158497,1,0,0:0:0:0:
202,512,158551,1,0,0:0:0:0:
280,512,158604,1,8,0:0:0:0:
280,512,158685,1,0,0:0:0:0:
280,512,158766,1,8,0:0:0:0:
202,512,158819,1,8,0:0:0:0:
202,512,158873,1,8,0:0:0:0:
220,512,158927,1,0,0:0:0:0:
220,512,159008,1,0,0:0:0:0:
220,512,159088,1,8,0:0:0:0:
220,512,159250,1,0,0:0:0:0:
220,512,159330,1,0,0:0:0:0:
220,512,159411,1,8,0:0:0:0:
220,512,159491,1,0,0:0:0:0:
220,512,159572,1,8,0:0:0:0:
220,512,159653,1,8,0:0:0:0:
220,512,159733,1,0,0:0:0:0:
220,512,159814,1,8,0:0:0:0:
220,512,159895,1,0,0:0:0:0:
220,512,159975,1,0,0:0:0:0:
221,512,160056,1,8,0:0:0:0:
221,512,160137,1,8,0:0:0:0:
210,512,160217,1,0,0:0:0:0:
210,512,160298,1,0,0:0:0:0:
210,512,160379,1,8,0:0:0:0:
210,512,160540,1,0,0:0:0:0:
210,512,160620,1,8,0:0:0:0:
210,512,160701,1,0,0:0:0:0:
210,512,160782,1,0,0:0:0:0:
210,512,160862,1,8,0:0:0:0:
210,512,160943,1,8,0:0:0:0:
210,512,161024,1,0,0:0:0:0:
210,512,161104,1,8,0:0:0:0:
210,512,161185,1,0,0:0:0:0:
210,512,161266,1,0,0:0:0:0:
210,512,161346,1,8,0:0:0:0:
210,512,161427,1,0,0:0:0:0:
210,512,161508,1,8,0:0:0:0:
210,512,161669,1,8,0:0:0:0:
210,512,161750,1,0,0:0:0:0:
210,512,161911,1,0,0:0:0:0:
210,512,161991,1,8,0:0:0:0:
210,512,162153,1,8,0:0:0:0:
210,512,162233,1,0,0:0:0:0:
212,512,162395,1,0,0:0:0:0:
212,512,162475,1,8,0:0:0:0:
212,512,162556,1,8,0:0:0:0:
212,512,162637,1,0,0:0:0:0:
212,512,162717,1,0,0:0:0:0:
212,512,162798,1,8,0:0:0:0:
212,512,162879,1,0,0:0:0:0:
212,512,162959,1,8,0:0:0:0:
212,512,163040,1,8,0:0:0:0:
212,512,163121,1,0,0:0:0:0:
212,512,163282,1,8,0:0:0:0:
212,512,163443,1,8,0:0:0:0:
212,512,163524,1,0,0:0:0:0:
212,512,163604,1,8,0:0:0:0:
215,512,163658,1,0,0:0:0:0:
215,512,163712,1,0,0:0:0:0:
227,512,163766,1,8,0:0:0:0:
227,512,163846,1,0,0:0:0:0:
227,512,163927,1,8,0:0:0:0:
215,512,163981,1,8,0:0:0:0:
215,512,164035,1,8,0:0:0:0:
215,512,164088,1,0,0:0:0:0:
209,512,164169,1,0,0:0:0:0:
209,512,164250,1,8,0:0:0:0:
218,512,164411,1,8,0:0:0:0:
218,512,164491,1,0,0:0:0:0:
218,512,164572,1,0,0:0:0:0:
218,512,164653,1,8,0:0:0:0:
218,512,164733,1,0,0:0:0:0:
218,512,164814,1,0,0:0:0:0:
218,512,164895,1,8,0:0:0:0:
218,512,164975,1,0,0:0:0:0:
218,512,165056,1,8,0:0:0:0:
218,512,165137,1,8,0:0:0:0:
218,512,165217,1,0,0:0:0:0:
218,512,165298,1,8,0:0:0:0:
241,512,165379,1,0,0:0:0:0:
241,512,165459,1,0,0:0:0:0:
241,512,165540,1,8,0:0:0:0:
241,512,165701,1,0,0:0:0:0:
241,512,165782,1,0,0:0:0:0:
241,512,165862,1,8,0:0:0:0:
241,512,165943,1,8,0:0:0:0:
241,512,166024,1,0,0:0:0:0:
241,512,166185,1,8,0:0:0:0:
241,512,166266,1,8,0:0:0:0:
241,512,166346,1,0,0:0:0:0:
241,512,166508,1,8,0:0:0:0:
241,512,166588,1,0,0:0:0:0:
241,512,166669,1,8,0:0:0:0:
271,512,166830,1,0,0:0:0:0:
271,512,166991,1,8,0:0:0:0:
271,512,167153,1,0,0:0:0:0:
271,512,167233,1,8,0:0:0:0:
271,512,167314,1,0,0:0:0:0:
207,512,167475,1,0,0:0:0:0:
206,512,167556,1,0,0:0:0:0:
206,512,167637,1,8,0:0:0:0:
268,512,167717,1,8,0:0:0:0:
202,512,167798,1,0,0:0:0:0:
295,512,167959,1,8,0:0:0:0:
294,512,168121,1,0,0:0:0:0:
294,512,168201,1,0,0:0:0:0:
294,512,168282,1,8,0:0:0:0:
294,512,168443,1,8,0:0:0:0:
294,512,168524,1,8,0:0:0:0:
294,512,168604,1,0,0:0:0:0:
209,512,168766,1,0,0:0:0:0:
209,512,168846,1,0,0:0:0:0:
209,512,168927,1,8,0:0:0:0:
209,512,169088,1,0,0:0:0:0:
209,512,169250,1,8,0:0:0:0:
209,512,169411,1,0,0:0:0:0:
209,512,169491,1,8,0:0:0:0:
209,512,169572,1,0,0:0:0:0:
202,512,169733,1,8,0:0:0:0:
202,512,169814,1,0,0:0:0:0:
202,512,169895,1,8,0:0:0:0:
209,512,170056,1,8,0:0:0:0:
209,512,170137,1,8,0:0:0:0:
209,512,170217,1,0,0:0:0:0:
268,512,170298,1,0,0:0:0:0:
214,512,170379,1,0,0:0:0:0:
214,512,170540,1,8,0:0:0:0:
214,512,170701,1,0,0:0:0:0:
214,512,170782,1,0,0:0:0:0:
214,512,170862,1,8,0:0:0:0:
214,512,171024,1,0,0:0:0:0:
214,512,171104,1,8,0:0:0:0:
214,512,171185,1,0,0:0:0:0:
214,512,171346,1,0,0:0:0:0:
214,512,171508,1,8,0:0:0:0:
268,512,171588,1,0,0:0:0:0:
110,512,171669,1,0,0:0:0:0:
214,512,171830,1,12,0:0:0:0:
210,512,172314,1,0,0:0:0:0:
210,512,172368,1,0,0:0:0:0:
210,512,172422,1,0,0:0:0:0:
210,512,172475,1,8,0:0:0:0:
225,512,172798,1,0,0:0:0:0:
225,512,172879,1,0,0:0:0:0:
225,512,172959,1,0,0:0:0:0:
225,512,173040,1,0,0:0:0:0:
225,512,173121,1,8,0:0:0:0:
206,512,173443,1,0,0:0:0:0:
206,512,173551,1,0,0:0:0:0:
206,512,173658,1,0,0:0:0:0:
206,512,173766,1,8,0:0:0:0:
223,512,174088,1,0,0:0:0:0:
223,512,174250,1,0,0:0:0:0:
223,512,174411,1,12,0:0:0:0:
215,512,174572,1,0,0:0:0:0:
215,512,174653,1,8,0:0:0:0:
215,512,174733,1,0,0:0:0:0:
215,512,174895,1,0,0:0:0:0:
215,512,174975,1,0,0:0:0:0:
215,512,175056,1,8,0:0:0:0:
215,512,175217,1,8,0:0:0:0:
215,512,175298,1,8,0:0:0:0:
215,512,175379,1,0,0:0:0:0:
215,512,175459,1,0,0:0:0:0:
214,512,175540,1,0,0:0:0:0:
214,512,175701,1,8,0:0:0:0:
214,512,175862,1,0,0:0:0:0:
214,512,175943,1,8,0:0:0:0:
214,512,176024,1,0,0:0:0:0:
214,512,176185,1,0,0:0:0:0:
214,512,176266,1,0,0:0:0:0:
214,512,176346,1,8,0:0:0:0:
194,512,176508,1,8,0:0:0:0:
194,512,176588,1,8,0:0:0:0:
194,512,176669,1,0,0:0:0:0:
194,512,176830,1,0,0:0:0:0:
194,512,176991,1,12,0:0:0:0:
206,512,177153,1,0,0:0:0:0:
206,512,177314,1,0,0:0:0:0:
206,512,177475,1,0,0:0:0:0:
154,512,177637,1,0,0:0:0:0:
178,512,177798,1,0,0:0:0:0:
178,512,177879,1,0,0:0:0:0:
178,512,177959,1,0,0:0:0:0:
178,512,178121,1,0,0:0:0:0:
178,512,178201,1,0,0:0:0:0:
178,512,178282,1,0,0:0:0:0:
227,512,178362,1,0,0:0:0:0:
227,512,178443,1,0,0:0:0:0:
227,512,178524,1,0,0:0:0:0:
227,512,178604,1,0,0:0:0:0:
227,512,178685,1,0,0:0:0:0:
227,512,178766,1,0,0:0:0:0:
227,512,178846,1,0,0:0:0:0:
227,512,178927,1,8,0:0:0:0:
227,512,179034,1,0,0:0:0:0:
227,512,179142,1,8,0:0:0:0:
227,512,179249,1,0,0:0:0:0:
238,512,179572,1,12,0:0:0:0:
345,512,180056,1,0,0:0:0:0:
345,512,180137,1,0,0:0:0:0:
345,512,180217,1,8,0:0:0:0:
273,512,180378,1,0,0:0:0:0:
240,512,180862,1,0,0:0:0:0:
240,512,181346,1,0,0:0:0:0:
240,512,181427,1,0,0:0:0:0:
240,512,181507,1,8,0:0:0:0:
240,512,181669,1,0,0:0:0:0:
240,512,181830,1,0,0:0:0:0:
280,512,182153,1,0,0:0:0:0:
280,512,182637,1,0,0:0:0:0:
280,512,182717,1,0,0:0:0:0:
280,512,182798,1,8,0:0:0:0:
294,512,182959,1,0,0:0:0:0:
291,512,183443,1,0,0:0:0:0:
328,512,183927,1,0,0:0:0:0:
328,512,184007,1,0,0:0:0:0:
328,512,184088,1,8,0:0:0:0:
328,512,184330,1,0,0:0:0:0:
328,512,184572,1,0,0:0:0:0:
328,512,184733,1,8,0:0:0:0:
328,512,185217,1,0,0:0:0:0:
328,512,185298,1,0,0:0:0:0:
328,512,185378,1,8,0:0:0:0:
317,512,185540,1,0,0:0:0:0:
295,512,186024,1,0,0:0:0:0:
293,512,186507,1,0,0:0:0:0:
293,512,186588,1,0,0:0:0:0:
293,512,186669,1,8,0:0:0:0:
293,512,186830,1,0,0:0:0:0:
293,512,186991,1,0,0:0:0:0:
293,512,187314,1,0,0:0:0:0:
293,512,187798,1,0,0:0:0:0:
293,512,187878,1,0,0:0:0:0:
293,512,187959,1,8,0:0:0:0:
293,512,188120,1,0,0:0:0:0:
293,512,188604,1,0,0:0:0:0:
293,512,189088,1,0,0:0:0:0:
293,512,189169,1,0,0:0:0:0:
293,512,189249,1,8,0:0:0:0:
285,512,189411,1,0,0:0:0:0:
285,512,189572,1,8,0:0:0:0:
285,512,189733,1,0,0:0:0:0:
285,512,189895,1,12,0:0:0:0:
308,512,190137,1,0,0:0:0:0:
308,512,190217,1,8,0:0:0:0:
306,512,190378,1,0,0:0:0:0:
307,512,190459,1,0,0:0:0:0:
307,512,190540,1,8,0:0:0:0:
256,512,190701,1,0,0:0:0:0:
256,512,190862,1,8,0:0:0:0:
256,512,190943,1,0,0:0:0:0:
256,512,191024,1,8,0:0:0:0:
256,512,191104,1,8,0:0:0:0:
256,512,191185,1,0,0:0:0:0:
241,512,191346,1,0,0:0:0:0:
185,512,191427,1,0,0:0:0:0:
242,512,191507,1,8,0:0:0:0:
245,512,191669,1,0,0:0:0:0:
246,512,191830,1,8,0:0:0:0:
196,512,191911,1,8,0:0:0:0:
241,512,191991,1,0,0:0:0:0:
236,512,192072,1,0,0:0:0:0:
240,512,192153,1,8,0:0:0:0:
245,512,192314,1,8,0:0:0:0:
219,512,192475,1,0,0:0:0:0:
250,512,192637,1,0,0:0:0:0:
250,512,192717,1,0,0:0:0:0:
250,512,192798,1,8,0:0:0:0:
264,512,192959,1,0,0:0:0:0:
264,512,193120,1,8,0:0:0:0:
265,512,193201,1,8,0:0:0:0:
264,512,193282,1,0,0:0:0:0:
264,512,193362,1,8,0:0:0:0:
264,512,193443,1,0,0:0:0:0:
270,512,193604,1,0,0:0:0:0:
271,512,193766,1,8,0:0:0:0:
271,512,193927,1,0,0:0:0:0:
271,512,194007,1,0,0:0:0:0:
271,512,194088,1,8,0:0:0:0:
271,512,194249,1,8,0:0:0:0:
270,512,194330,1,8,0:0:0:0:
271,512,194411,1,0,0:0:0:0:
271,512,194491,1,8,0:0:0:0:
271,512,194572,1,0,0:0:0:0:
271,512,194653,1,0,0:0:0:0:
271,512,194733,1,8,0:0:0:0:
188,512,194814,1,8,0:0:0:0:
188,512,194895,1,0,0:0:0:0:
210,512,195056,1,8,0:0:0:0:
210,512,195217,1,0,0:0:0:0:
210,512,195298,1,0,0:0:0:0:
210,512,195378,5,8,0:0:0:0:
209,512,195540,1,0,0:0:0:0:
210,512,195701,1,0,0:0:0:0:
210,512,195782,1,8,0:0:0:0:
210,512,195862,1,0,0:0:0:0:
210,512,195943,1,0,0:0:0:0:
210,512,196024,1,8,0:0:0:0:
209,512,196185,1,0,0:0:0:0:
372,512,196346,5,8,0:0:0:0:
372,512,196427,5,8,0:0:0:0:
372,512,196507,5,0,0:0:0:0:
372,512,196588,5,8,0:0:0:0:
372,512,196669,5,0,0:0:0:0:
372,512,196749,5,0,0:0:0:0:
372,512,196830,5,8,0:0:0:0:
372,512,196911,5,0,0:0:0:0:
372,512,196991,5,8,0:0:0:0:
372,512,197072,5,8,0:0:0:0:
372,512,197153,5,0,0:0:0:0:
372,512,197233,5,8,0:0:0:0:
372,512,197314,5,0,0:0:0:0:
425,512,197395,1,0,0:0:0:0:
425,512,197475,1,8,0:0:0:0:
425,512,197556,1,0,0:0:0:0:
425,512,197637,1,8,0:0:0:0:
425,512,197717,1,8,0:0:0:0:
425,512,197798,1,8,0:0:0:0:
425,512,197878,1,8,0:0:0:0:
425,512,197959,1,8,0:0:0:0:
425,512,198040,1,8,0:0:0:0:
425,512,198120,1,8,0:0:0:0:
425,512,198201,1,8,0:0:0:0:
425,512,198282,1,8,0:0:0:0:
425,512,198362,1,8,0:0:0:0:
425,512,198443,1,8,0:0:0:0:
425,512,198524,1,8,0:0:0:0:
425,512,198604,1,8,0:0:0:0:
425,512,198685,1,8,0:0:0:0:
425,512,198766,1,8,0:0:0:0:
425,512,198846,1,8,0:0:0:0:
331,512,210540,5,0,0:0:0:0:
331,512,210862,1,0,0:0:0:0:
331,512,211024,1,0,0:0:0:0:
331,512,211104,1,0,0:0:0:0:
331,512,211185,1,8,0:0:0:0:
357,512,211346,1,0,0:0:0:0:
357,512,211669,1,0,0:0:0:0:
357,512,211830,1,0,0:0:0:0:
357,512,211991,1,8,0:0:0:0:
357,512,212153,1,0,0:0:0:0:
357,512,212314,1,0,0:0:0:0:
357,512,212475,1,8,0:0:0:0:
357,512,212798,1,0,0:0:0:0:
357,512,213120,1,0,0:0:0:0:
357,512,213443,1,0,0:0:0:0:
357,512,213604,1,0,0:0:0:0:
357,512,213685,1,0,0:0:0:0:
357,512,213766,1,8,0:0:0:0:
362,512,213927,1,0,0:0:0:0:
363,512,214088,1,0,0:0:0:0:
232,512,214249,1,8,0:0:0:0:
232,512,214330,1,8,0:0:0:0:
363,512,214411,1,0,0:0:0:0:
281,512,214572,1,8,0:0:0:0:
281,512,214733,1,0,0:0:0:0:
280,512,214895,1,0,0:0:0:0:
280,512,214975,1,0,0:0:0:0:
280,512,215056,1,8,0:0:0:0:
279,512,215217,1,0,0:0:0:0:
279,512,215378,1,8,0:0:0:0:
280,512,215701,1,0,0:0:0:0:
303,512,216024,1,0,0:0:0:0:
303,512,216185,1,0,0:0:0:0:
303,512,216266,1,0,0:0:0:0:
303,512,216346,1,8,0:0:0:0:
303,512,216507,1,0,0:0:0:0:
303,512,216830,1,0,0:0:0:0:
303,512,216991,1,0,0:0:0:0:
303,512,217153,1,8,0:0:0:0:
305,512,217314,1,0,0:0:0:0:
303,512,217475,1,0,0:0:0:0:
303,512,217637,1,8,0:0:0:0:
305,512,217959,1,0,0:0:0:0:
306,512,218282,1,0,0:0:0:0:
307,512,218604,1,0,0:0:0:0:
306,512,218766,1,0,0:0:0:0:
306,512,218846,1,0,0:0:0:0:
306,512,218927,1,8,0:0:0:0:
306,512,219088,1,0,0:0:0:0:
307,512,219249,1,0,0:0:0:0:
286,512,219411,1,8,0:0:0:0:
286,512,219491,1,8,0:0:0:0:
306,512,219572,1,0,0:0:0:0:
256,192,219733,12,0,220540,0:0:0:0:
238,512,221507,5,12,0:0:0:0:
298,512,222797,5,8,0:0:0:0:
298,512,222877,1,0,0:0:0:0:
298,512,222958,1,0,0:0:0:0:
298,512,223039,1,0,0:0:0:0:
298,512,223119,1,8,0:0:0:0:
298,512,223200,1,0,0:0:0:0:
298,512,223281,1,8,0:0:0:0:
298,512,223361,1,0,0:0:0:0:
298,512,223442,1,8,0:0:0:0:
298,512,223523,1,8,0:0:0:0:
298,512,223603,1,8,0:0:0:0:
298,512,223684,1,8,0:0:0:0:
371,512,224087,1,4,0:0:0:0:
325,512,224248,1,8,0:0:0:0:
325,512,224410,1,0,0:0:0:0:
330,512,224490,1,0,0:0:0:0:
330,512,224571,1,8,0:0:0:0:
330,512,224652,1,0,0:0:0:0:
324,512,224732,1,0,0:0:0:0:
324,512,224813,1,8,0:0:0:0:
324,512,224894,1,8,0:0:0:0:
316,512,224974,1,0,0:0:0:0:
310,512,225055,1,8,0:0:0:0:
310,512,225136,1,0,0:0:0:0:
310,512,225216,1,8,0:0:0:0:
310,512,225297,1,8,0:0:0:0:
355,512,225377,1,0,0:0:0:0:
355,512,225458,1,0,0:0:0:0:
355,512,225539,1,8,0:0:0:0:
265,512,225619,1,0,0:0:0:0:
354,512,225700,1,8,0:0:0:0:
359,512,225781,1,8,0:0:0:0:
355,512,225861,1,0,0:0:0:0:
355,512,225942,1,8,0:0:0:0:
355,512,226023,1,0,0:0:0:0:
355,512,226103,1,0,0:0:0:0:
355,512,226184,1,8,0:0:0:0:
355,512,226265,1,0,0:0:0:0:
358,512,226345,1,0,0:0:0:0:
358,512,226426,1,8,0:0:0:0:
358,512,226507,1,8,0:0:0:0:
358,512,226587,1,0,0:0:0:0:
354,512,226668,1,8,0:0:0:0:
210,512,226829,1,8,0:0:0:0:
210,512,226910,1,0,0:0:0:0:
210,512,227071,1,0,0:0:0:0:
210,512,227151,1,8,0:0:0:0:
210,512,227313,1,8,0:0:0:0:
210,512,227393,1,0,0:0:0:0:
212,512,227555,1,0,0:0:0:0:
212,512,227635,1,8,0:0:0:0:
212,512,227716,1,8,0:0:0:0:
212,512,227797,1,0,0:0:0:0:
212,512,227877,1,0,0:0:0:0:
212,512,227958,1,8,0:0:0:0:
212,512,228039,1,0,0:0:0:0:
212,512,228119,1,8,0:0:0:0:
212,512,228200,1,8,0:0:0:0:
212,512,228281,1,0,0:0:0:0:
212,512,228442,1,8,0:0:0:0:
212,512,228603,1,8,0:0:0:0:
212,512,228684,1,0,0:0:0:0:
212,512,228764,1,8,0:0:0:0:
215,512,228818,1,0,0:0:0:0:
215,512,228872,1,0,0:0:0:0:
227,512,228926,1,8,0:0:0:0:
227,512,229006,1,0,0:0:0:0:
227,512,229087,1,8,0:0:0:0:
215,512,229141,1,8,0:0:0:0:
215,512,229195,1,8,0:0:0:0:
215,512,229248,1,0,0:0:0:0:
209,512,229329,1,0,0:0:0:0:
209,512,229410,1,8,0:0:0:0:
218,512,229571,1,8,0:0:0:0:
218,512,229651,1,0,0:0:0:0:
218,512,229732,1,0,0:0:0:0:
218,512,229813,1,8,0:0:0:0:
218,512,229893,1,0,0:0:0:0:
218,512,229974,1,0,0:0:0:0:
218,512,230055,1,8,0:0:0:0:
218,512,230135,1,0,0:0:0:0:
218,512,230216,1,8,0:0:0:0:
218,512,230297,1,8,0:0:0:0:
218,512,230377,1,0,0:0:0:0:
218,512,230458,1,8,0:0:0:0:
241,512,230539,1,0,0:0:0:0:
241,512,230619,1,0,0:0:0:0:
241,512,230700,1,8,0:0:0:0:
241,512,230861,1,0,0:0:0:0:
241,512,230942,1,8,0:0:0:0:
241,512,231023,1,0,0:0:0:0:
241,512,231184,1,8,0:0:0:0:
238,512,231265,1,8,0:0:0:0:
241,512,231345,1,8,0:0:0:0:
241,512,231426,1,8,0:0:0:0:
241,512,231506,1,0,0:0:0:0:
253,512,231587,1,0,0:0:0:0:
241,512,231668,1,0,0:0:0:0:
241,512,231748,1,0,0:0:0:0:
241,512,231829,1,12,0:0:0:0:
271,512,231990,1,0,0:0:0:0:
271,512,232151,1,8,0:0:0:0:
271,512,232313,1,0,0:0:0:0:
271,512,232393,1,8,0:0:0:0:
271,512,232474,1,0,0:0:0:0:
207,512,232635,1,0,0:0:0:0:
206,512,232716,1,0,0:0:0:0:
206,512,232797,1,8,0:0:0:0:
268,512,232877,1,8,0:0:0:0:
202,512,232958,1,0,0:0:0:0:
295,512,233119,1,8,0:0:0:0:
294,512,233281,1,0,0:0:0:0:
294,512,233361,1,0,0:0:0:0:
294,512,233442,1,8,0:0:0:0:
294,512,233603,1,8,0:0:0:0:
294,512,233684,1,8,0:0:0:0:
294,512,233764,1,0,0:0:0:0:
283,512,233845,1,8,0:0:0:0:
209,512,233926,1,0,0:0:0:0:
209,512,234006,1,0,0:0:0:0:
209,512,234087,1,8,0:0:0:0:
209,512,234248,1,0,0:0:0:0:
209,512,234410,1,8,0:0:0:0:
209,512,234571,1,0,0:0:0:0:
209,512,234651,1,8,0:0:0:0:
209,512,234732,1,0,0:0:0:0:
202,512,234893,1,8,0:0:0:0:
202,512,234974,1,0,0:0:0:0:
202,512,235055,1,8,0:0:0:0:
209,512,235216,1,8,0:0:0:0:
209,512,235297,1,8,0:0:0:0:
209,512,235377,1,0,0:0:0:0:
268,512,235458,1,0,0:0:0:0:
214,512,235539,1,0,0:0:0:0:
214,512,235700,1,8,0:0:0:0:
214,512,235861,1,0,0:0:0:0:
214,512,235942,1,0,0:0:0:0:
214,512,236022,1,8,0:0:0:0:
214,512,236184,1,0,0:0:0:0:
214,512,236264,1,8,0:0:0:0:
214,512,236345,1,0,0:0:0:0:
214,512,236506,1,0,0:0:0:0:
214,512,236668,1,8,0:0:0:0:
268,512,236748,1,0,0:0:0:0:
110,512,236829,1,0,0:0:0:0:
214,512,236990,1,12,0:0:0:0:
210,512,237474,1,0,0:0:0:0:
210,512,237528,1,0,0:0:0:0:
210,512,237582,1,0,0:0:0:0:
210,512,237635,1,8,0:0:0:0:
225,512,237958,1,0,0:0:0:0:
225,512,238039,1,0,0:0:0:0:
225,512,238119,1,0,0:0:0:0:
225,512,238200,1,0,0:0:0:0:
225,512,238281,1,8,0:0:0:0:
206,512,238603,1,0,0:0:0:0:
206,512,238711,1,0,0:0:0:0:
206,512,238818,1,0,0:0:0:0:
206,512,238926,1,8,0:0:0:0:
223,512,239248,1,0,0:0:0:0:
223,512,239410,1,0,0:0:0:0:
223,512,239571,1,12,0:0:0:0:
215,512,239732,1,0,0:0:0:0:
215,512,239813,1,8,0:0:0:0:
215,512,239893,1,0,0:0:0:0:
215,512,240055,1,0,0:0:0:0:
215,512,240135,1,0,0:0:0:0:
215,512,240216,1,8,0:0:0:0:
215,512,240377,1,8,0:0:0:0:
215,512,240458,1,8,0:0:0:0:
215,512,240539,1,0,0:0:0:0:
215,512,240619,1,0,0:0:0:0:
214,512,240700,1,0,0:0:0:0:
214,512,240861,1,8,0:0:0:0:
214,512,241022,1,0,0:0:0:0:
214,512,241103,1,8,0:0:0:0:
214,512,241184,1,0,0:0:0:0:
214,512,241345,1,0,0:0:0:0:
214,512,241426,1,0,0:0:0:0:
214,512,241506,1,8,0:0:0:0:
194,512,241668,1,8,0:0:0:0:
194,512,241748,1,8,0:0:0:0:
194,512,241829,1,0,0:0:0:0:
194,512,241990,1,0,0:0:0:0:
194,512,242151,1,12,0:0:0:0:
206,512,242313,1,0,0:0:0:0:
206,512,242474,1,0,0:0:0:0:
206,512,242635,1,0,0:0:0:0:
154,512,242797,1,0,0:0:0:0:
178,512,242958,1,0,0:0:0:0:
178,512,243039,1,0,0:0:0:0:
178,512,243119,1,0,0:0:0:0:
178,512,243281,1,0,0:0:0:0:
178,512,243361,1,0,0:0:0:0:
178,512,243442,1,0,0:0:0:0:
227,512,243522,1,0,0:0:0:0:
227,512,243603,1,0,0:0:0:0:
227,512,243684,1,0,0:0:0:0:
227,512,243764,1,0,0:0:0:0:
227,512,243845,1,0,0:0:0:0:
227,512,243926,1,0,0:0:0:0:
227,512,244006,1,0,0:0:0:0:
283,512,244087,1,8,0:0:0:0:
283,512,244248,1,0,0:0:0:0:
283,512,244302,1,0,0:0:0:0:
283,512,244356,1,0,0:0:0:0:
283,512,244410,1,8,0:0:0:0:
283,512,244463,1,8,0:0:0:0:
283,512,244517,1,8,0:0:0:0:
283,512,244571,1,0,0:0:0:0:
238,512,244732,1,12,0:0:0:0:
262,512,244894,1,0,0:0:0:0:
262,512,244974,1,8,0:0:0:0:
262,512,245055,1,0,0:0:0:0:
262,512,245136,1,0,0:0:0:0:
262,512,245216,1,8,0:0:0:0:
262,512,245297,1,0,0:0:0:0:
262,512,245377,1,0,0:0:0:0:
262,512,245458,1,8,0:0:0:0:
262,512,245539,1,0,0:0:0:0:
262,512,245619,1,0,0:0:0:0:
262,512,245700,1,8,0:0:0:0:
262,512,245781,1,8,0:0:0:0:
262,512,245861,1,0,0:0:0:0:
262,512,245942,1,0,0:0:0:0:
262,512,246023,1,8,0:0:0:0:
262,512,246103,1,0,0:0:0:0:
262,512,246184,1,0,0:0:0:0:
262,512,246265,1,8,0:0:0:0:
262,512,246345,1,0,0:0:0:0:
262,512,246426,1,0,0:0:0:0:
262,512,246506,1,8,0:0:0:0:
262,512,246587,1,0,0:0:0:0:
262,512,246668,1,8,0:0:0:0:
262,512,246748,1,8,0:0:0:0:
262,512,246829,1,0,0:0:0:0:
262,512,246910,1,0,0:0:0:0:
262,512,246990,1,8,0:0:0:0:
262,512,247071,1,8,0:0:0:0:
262,512,247152,1,0,0:0:0:0:
262,512,247232,1,0,0:0:0:0:
262,512,247313,1,8,0:0:0:0:
159,512,247367,1,0,0:0:0:0:
159,512,247420,1,0,0:0:0:0:
159,512,247474,1,8,0:0:0:0:
225,512,247555,1,0,0:0:0:0:
215,512,247636,1,8,0:0:0:0:
215,512,247689,1,8,0:0:0:0:
215,512,247743,1,8,0:0:0:0:
215,512,247797,1,0,0:0:0:0:
225,512,247877,1,0,0:0:0:0:
225,512,247958,1,8,0:0:0:0:
225,512,248012,1,0,0:0:0:0:
225,512,248066,1,0,0:0:0:0:
225,512,248119,1,8,0:0:0:0:
225,512,248200,1,0,0:0:0:0:
225,512,248281,1,8,0:0:0:0:
458,512,248361,1,0,0:0:0:0:
240,512,248442,1,8,0:0:0:0:
240,512,248523,1,8,0:0:0:0:
240,512,248603,1,0,0:0:0:0:
240,512,248684,1,0,0:0:0:0:
254,512,248765,1,8,0:0:0:0:
254,512,248818,1,8,0:0:0:0:
254,512,248872,1,8,0:0:0:0:
254,512,248926,1,0,0:0:0:0:
240,512,249006,1,0,0:0:0:0:
282,512,249087,1,8,0:0:0:0:
356,512,249168,1,0,0:0:0:0:
282,512,249248,1,8,0:0:0:0:
282,512,249329,1,8,0:0:0:0:
282,512,249410,1,8,0:0:0:0:
282,512,249490,1,8,0:0:0:0:
282,512,249571,1,8,0:0:0:0:
282,512,249652,1,8,0:0:0:0:
282,512,249732,1,8,0:0:0:0:
282,512,249813,1,8,0:0:0:0:
284,512,249894,1,8,0:0:0:0:
284,512,249974,1,8,0:0:0:0:
284,512,250055,1,8,0:0:0:0:
284,512,250136,1,8,0:0:0:0:
287,512,250539,1,12,0:0:0:0:
213,512,250861,1,0,0:0:0:0:
274,512,251022,1,0,0:0:0:0:
219,512,251184,1,0,0:0:0:0:
271,512,251345,1,0,0:0:0:0:
223,512,251506,1,8,0:0:0:0:
265,512,251668,1,8,0:0:0:0:
255,512,252151,1,0,0:0:0:0:
255,512,252474,1,0,0:0:0:0:
255,512,252797,1,0,0:0:0:0:
255,512,253119,1,0,0:0:0:0:
255,512,253442,1,8,0:0:0:0:
255,512,253603,1,0,0:0:0:0:
255,512,253926,1,0,0:0:0:0:
255,512,254087,1,8,0:0:0:0:
271,512,254732,1,0,0:0:0:0:
271,512,255055,1,8,0:0:0:0:
271,512,255377,1,0,0:0:0:0:
271,512,255700,1,8,0:0:0:0:
196,512,256506,1,0,0:0:0:0:
196,512,256668,1,0,0:0:0:0:
196,512,256829,1,0,0:0:0:0:
196,512,256990,1,8,0:0:0:0:
196,512,257313,1,0,0:0:0:0:
196,512,257474,1,8,0:0:0:0:
196,512,257797,1,8,0:0:0:0:
154,512,258119,1,0,0:0:0:0:
283,512,258926,1,0,0:0:0:0:
283,512,259086,1,0,0:0:0:0:
283,512,259248,1,8,0:0:0:0:
283,512,259409,1,8,0:0:0:0:
283,512,259731,1,8,0:0:0:0:
283,512,259893,1,0,0:0:0:0:
283,512,260054,1,0,0:0:0:0:
283,512,261183,1,0,0:0:0:0:
283,512,261344,1,0,0:0:0:0:
283,512,261506,1,0,0:0:0:0:
283,512,261667,1,8,0:0:0:0:
283,512,261828,1,8,0:0:0:0:
283,512,261990,1,8,0:0:0:0:
283,512,262151,1,0,0:0:0:0:
283,512,262473,1,8,0:0:0:0:
283,512,262796,1,8,0:0:0:0:
283,512,263119,1,8,0:0:0:0:
283,512,263441,1,0,0:0:0:0:
283,512,263764,1,0,0:0:0:0:
283,512,263925,1,8,0:0:0:0:
283,512,264248,1,8,0:0:0:0:
283,512,264409,1,0,0:0:0:0:
283,512,265538,1,0,0:0:0:0:
283,512,265699,1,8,0:0:0:0:
283,512,265861,1,8,0:0:0:0:
283,512,266022,1,0,0:0:0:0:
283,512,266183,1,8,0:0:0:0:
283,512,266344,1,8,0:0:0:0:
283,512,266506,1,8,0:0:0:0:
283,512,266828,1,0,0:0:0:0:
283,512,266990,1,8,0:0:0:0:
283,512,267151,1,0,0:0:0:0:
283,512,267473,1,0,0:0:0:0:
283,512,267635,1,8,0:0:0:0:
283,512,267796,1,0,0:0:0:0:
283,512,268119,1,0,0:0:0:0:
283,512,268281,1,8,0:0:0:0:
283,512,268442,1,0,0:0:0:0:
283,512,268602,1,8,0:0:0:0:
283,512,269086,1,8,0:0:0:0:
283,512,269570,1,0,0:0:0:0:
283,512,271184,1,8,0:0:0:0:
