osu file format v14

[General]
AudioFilename: audio.ogg
AudioLeadIn: 0
PreviewTime: 223798
Countdown: 0
SampleSet: Normal
StackLeniency: 0.7
Mode: 3
LetterboxInBreaks: 0
SpecialStyle: 0
WidescreenStoryboard: 1

[Editor]
DistanceSpacing: 0.8
BeatDivisor: 8
GridSize: 32
TimelineZoom: 2.3

[Metadata]
Title:Kapposuru Kemono
TitleUnicode:闊歩するケモノ
Artist:Chroma
ArtistUnicode:黒魔
Creator:CuB-03
Version:the howls of painful love // 7K
Source:
Tags:electronic downtempo down tempo pop chiptune japanese full album 愛を喜ぶ街 ai o yorokobu machi a city that rejoices in love 12th track tr 12 not records
BeatmapID:4371098
BeatmapSetID:2086208

[Difficulty]
HPDrainRate:8
CircleSize:7
OverallDifficulty:7
ApproachRate:5
SliderMultiplier:1.4
SliderTickRate:1

[Events]
//Background and Video events
0,0,"kapposurukemono.png",0,0
//Break Periods
//Storyboard Layer 0 (Background)
//Storyboard Layer 1 (Fail)
//Storyboard Layer 2 (Pass)
//Storyboard Layer 3 (Foreground)
//Storyboard Layer 4 (Overlay)
//Storyboard Sound Samples

[TimingPoints]
941,714.285714285714,4,1,1,30,1,0
92369,-100,4,1,1,30,0,1
123798,-100,4,1,1,30,0,0
183798,-100,4,1,1,30,0,1
215226,-100,4,1,1,30,0,0
269512,-100,4,1,1,30,0,1
306655,-100,4,1,1,30,0,0

[HitObjects]
36,192,941,5,0,0:0:0:0:
402,192,941,128,0,1119:0:0:0:0:
36,192,1119,1,0,0:0:0:0:
329,192,1119,128,0,1298:0:0:0:0:
402,192,1298,128,0,1476:0:0:0:0:
329,192,1476,128,0,1655:0:0:0:0:
402,192,1655,128,0,1833:0:0:0:0:
182,192,1655,1,0,0:0:0:0:
109,192,1655,1,0,0:0:0:0:
329,192,1833,128,0,2012:0:0:0:0:
402,192,2012,128,0,2190:0:0:0:0:
109,192,2012,128,0,2190:0:0:0:0:
329,192,2190,128,0,2369:0:0:0:0:
402,192,2369,128,0,2548:0:0:0:0:
329,192,2548,128,0,2726:0:0:0:0:
36,192,2548,1,0,0:0:0:0:
402,192,2726,128,0,2905:0:0:0:0:
36,192,2726,1,0,0:0:0:0:
329,192,2905,128,0,3083:0:0:0:0:
402,192,3083,128,0,3262:0:0:0:0:
182,192,3083,1,0,0:0:0:0:
109,192,3083,1,0,0:0:0:0:
329,192,3262,128,0,3440:0:0:0:0:
402,192,3440,128,0,3619:0:0:0:0:
36,192,3440,1,0,0:0:0:0:
109,192,3530,1,0,0:0:0:0:
329,192,3619,128,0,3798:0:0:0:0:
182,192,3619,1,0,0:0:0:0:
256,192,3708,1,0,0:0:0:0:
36,192,3798,1,0,0:0:0:0:
402,192,3798,128,0,3976:0:0:0:0:
36,192,3976,1,0,0:0:0:0:
329,192,3976,128,0,4155:0:0:0:0:
402,192,4155,128,0,4333:0:0:0:0:
329,192,4333,128,0,4512:0:0:0:0:
109,192,4512,1,0,0:0:0:0:
182,192,4512,1,0,0:0:0:0:
402,192,4512,128,0,4690:0:0:0:0:
329,192,4690,128,0,4869:0:0:0:0:
402,192,4869,128,0,5048:0:0:0:0:
109,192,4869,128,0,5048:0:0:0:0:
329,192,5048,128,0,5226:0:0:0:0:
402,192,5226,128,0,5405:0:0:0:0:
36,192,5405,1,0,0:0:0:0:
329,192,5405,128,0,5583:0:0:0:0:
36,192,5583,1,0,0:0:0:0:
402,192,5583,128,0,5762:0:0:0:0:
329,192,5762,128,0,5940:0:0:0:0:
109,192,5940,1,0,0:0:0:0:
182,192,5940,1,0,0:0:0:0:
402,192,5940,128,0,6119:0:0:0:0:
256,192,6119,1,0,0:0:0:0:
36,192,6298,1,0,0:0:0:0:
109,192,6387,1,0,0:0:0:0:
182,192,6476,1,0,0:0:0:0:
256,192,6565,1,0,0:0:0:0:
475,192,6655,1,0,0:0:0:0:
109,192,6655,128,0,6833:0:0:0:0:
475,192,6833,1,0,0:0:0:0:
182,192,6833,128,0,7012:0:0:0:0:
109,192,7012,128,0,7190:0:0:0:0:
182,192,7190,128,0,7369:0:0:0:0:
109,192,7369,128,0,7548:0:0:0:0:
329,192,7369,1,0,0:0:0:0:
402,192,7369,1,0,0:0:0:0:
182,192,7548,128,0,7726:0:0:0:0:
109,192,7726,128,0,7905:0:0:0:0:
402,192,7726,128,0,7905:0:0:0:0:
182,192,7905,128,0,8083:0:0:0:0:
109,192,8083,128,0,8262:0:0:0:0:
182,192,8262,128,0,8440:0:0:0:0:
475,192,8262,1,0,0:0:0:0:
109,192,8440,128,0,8619:0:0:0:0:
475,192,8440,1,0,0:0:0:0:
182,192,8619,128,0,8798:0:0:0:0:
109,192,8798,128,0,8976:0:0:0:0:
329,192,8798,1,0,0:0:0:0:
402,192,8798,1,0,0:0:0:0:
182,192,8976,128,0,9155:0:0:0:0:
109,192,9155,128,0,9333:0:0:0:0:
475,192,9155,1,0,0:0:0:0:
402,192,9244,1,0,0:0:0:0:
182,192,9333,128,0,9512:0:0:0:0:
329,192,9333,1,0,0:0:0:0:
256,192,9423,1,0,0:0:0:0:
475,192,9512,1,0,0:0:0:0:
109,192,9512,128,0,9690:0:0:0:0:
475,192,9690,1,0,0:0:0:0:
182,192,9690,128,0,9869:0:0:0:0:
109,192,9869,128,0,10048:0:0:0:0:
182,192,10048,128,0,10226:0:0:0:0:
402,192,10226,1,0,0:0:0:0:
329,192,10226,1,0,0:0:0:0:
109,192,10226,128,0,10405:0:0:0:0:
182,192,10405,128,0,10583:0:0:0:0:
109,192,10583,128,0,10762:0:0:0:0:
402,192,10583,128,0,10762:0:0:0:0:
182,192,10762,128,0,10940:0:0:0:0:
109,192,10940,128,0,11119:0:0:0:0:
475,192,11119,1,0,0:0:0:0:
182,192,11119,128,0,11298:0:0:0:0:
475,192,11298,1,0,0:0:0:0:
109,192,11298,128,0,11476:0:0:0:0:
182,192,11476,128,0,11655:0:0:0:0:
402,192,11655,1,0,0:0:0:0:
256,192,11655,1,0,0:0:0:0:
109,192,11655,128,0,11833:0:0:0:0:
36,192,12369,5,0,0:0:0:0:
402,192,12369,128,0,12548:0:0:0:0:
329,192,12548,128,0,12726:0:0:0:0:
36,192,12548,1,0,0:0:0:0:
402,192,12726,128,0,12905:0:0:0:0:
109,192,12726,1,0,0:0:0:0:
329,192,12905,128,0,13083:0:0:0:0:
109,192,13083,1,0,0:0:0:0:
182,192,13083,1,0,0:0:0:0:
402,192,13083,128,0,13262:0:0:0:0:
329,192,13262,128,0,13440:0:0:0:0:
109,192,13440,128,0,13619:0:0:0:0:
402,192,13440,128,0,13619:0:0:0:0:
329,192,13619,128,0,13798:0:0:0:0:
402,192,13798,128,0,13976:0:0:0:0:
182,192,13798,1,0,0:0:0:0:
36,192,13976,1,0,0:0:0:0:
329,192,13976,128,0,14155:0:0:0:0:
402,192,14155,128,0,14333:0:0:0:0:
36,192,14155,1,0,0:0:0:0:
329,192,14333,128,0,14512:0:0:0:0:
109,192,14512,1,0,0:0:0:0:
402,192,14512,128,0,14690:0:0:0:0:
182,192,14512,1,0,0:0:0:0:
329,192,14690,128,0,14869:0:0:0:0:
402,192,14869,128,0,15048:0:0:0:0:
36,192,14869,1,0,0:0:0:0:
109,192,14958,1,0,0:0:0:0:
182,192,15048,1,0,0:0:0:0:
329,192,15048,128,0,15226:0:0:0:0:
256,192,15137,1,0,0:0:0:0:
402,192,15226,128,0,15405:0:0:0:0:
36,192,15226,1,0,0:0:0:0:
329,192,15405,128,0,15583:0:0:0:0:
36,192,15405,1,0,0:0:0:0:
402,192,15583,128,0,15762:0:0:0:0:
109,192,15583,1,0,0:0:0:0:
329,192,15762,128,0,15940:0:0:0:0:
402,192,15940,128,0,16119:0:0:0:0:
109,192,15940,1,0,0:0:0:0:
182,192,15940,1,0,0:0:0:0:
329,192,16119,128,0,16298:0:0:0:0:
109,192,16298,128,0,16476:0:0:0:0:
402,192,16298,128,0,16476:0:0:0:0:
329,192,16476,128,0,16655:0:0:0:0:
402,192,16655,128,0,16833:0:0:0:0:
182,192,16655,1,0,0:0:0:0:
329,192,16833,128,0,17012:0:0:0:0:
36,192,16833,1,0,0:0:0:0:
402,192,17012,128,0,17190:0:0:0:0:
36,192,17012,1,0,0:0:0:0:
329,192,17190,128,0,17369:0:0:0:0:
402,192,17369,128,0,17548:0:0:0:0:
182,192,17369,1,0,0:0:0:0:
109,192,17369,1,0,0:0:0:0:
256,192,17548,1,0,0:0:0:0:
36,192,17726,1,0,0:0:0:0:
109,192,17815,1,0,0:0:0:0:
182,192,17905,1,0,0:0:0:0:
256,192,17994,1,0,0:0:0:0:
475,192,18083,5,0,0:0:0:0:
109,192,18083,128,0,18262:0:0:0:0:
182,192,18262,128,0,18440:0:0:0:0:
475,192,18262,1,0,0:0:0:0:
109,192,18440,128,0,18619:0:0:0:0:
402,192,18440,1,0,0:0:0:0:
182,192,18619,128,0,18798:0:0:0:0:
402,192,18798,1,0,0:0:0:0:
329,192,18798,1,0,0:0:0:0:
109,192,18798,128,0,18976:0:0:0:0:
182,192,18976,128,0,19155:0:0:0:0:
402,192,19155,128,0,19333:0:0:0:0:
109,192,19155,128,0,19333:0:0:0:0:
182,192,19333,128,0,19512:0:0:0:0:
109,192,19512,128,0,19690:0:0:0:0:
329,192,19512,1,0,0:0:0:0:
475,192,19690,1,0,0:0:0:0:
182,192,19690,128,0,19869:0:0:0:0:
109,192,19869,128,0,20048:0:0:0:0:
475,192,19869,1,0,0:0:0:0:
182,192,20048,128,0,20226:0:0:0:0:
402,192,20226,1,0,0:0:0:0:
109,192,20226,128,0,20405:0:0:0:0:
329,192,20226,1,0,0:0:0:0:
182,192,20405,128,0,20583:0:0:0:0:
109,192,20583,128,0,20762:0:0:0:0:
475,192,20583,1,0,0:0:0:0:
402,192,20673,1,0,0:0:0:0:
329,192,20762,1,0,0:0:0:0:
182,192,20762,128,0,20940:0:0:0:0:
256,192,20851,1,0,0:0:0:0:
109,192,20940,128,0,21119:0:0:0:0:
475,192,20940,1,0,0:0:0:0:
182,192,21119,128,0,21298:0:0:0:0:
475,192,21119,1,0,0:0:0:0:
109,192,21298,128,0,21476:0:0:0:0:
402,192,21298,1,0,0:0:0:0:
182,192,21476,128,0,21655:0:0:0:0:
109,192,21655,128,0,21833:0:0:0:0:
402,192,21655,1,0,0:0:0:0:
329,192,21655,1,0,0:0:0:0:
182,192,21833,128,0,22012:0:0:0:0:
402,192,22012,128,0,22190:0:0:0:0:
109,192,22012,128,0,22190:0:0:0:0:
182,192,22190,128,0,22369:0:0:0:0:
109,192,22369,128,0,22548:0:0:0:0:
329,192,22369,1,0,0:0:0:0:
182,192,22548,128,0,22726:0:0:0:0:
475,192,22548,1,0,0:0:0:0:
109,192,22726,128,0,22905:0:0:0:0:
475,192,22726,1,0,0:0:0:0:
182,192,22905,128,0,23083:0:0:0:0:
109,192,23083,128,0,23262:0:0:0:0:
329,192,23083,1,0,0:0:0:0:
402,192,23083,1,0,0:0:0:0:
36,192,23798,128,0,29512:0:0:0:0:
402,192,23798,1,0,0:0:0:0:
402,192,23976,1,0,0:0:0:0:
256,192,23976,1,0,0:0:0:0:
109,192,24155,128,0,24333:0:0:0:0:
329,192,24333,1,0,0:0:0:0:
402,192,24512,1,0,0:0:0:0:
475,192,24512,1,0,0:0:0:0:
109,192,24512,128,0,24690:0:0:0:0:
182,192,24690,128,0,25048:0:0:0:0:
256,192,24869,1,0,0:0:0:0:
329,192,24869,1,0,0:0:0:0:
109,192,25048,1,0,0:0:0:0:
402,192,25226,128,0,25405:0:0:0:0:
475,192,25405,128,0,25583:0:0:0:0:
256,192,25405,1,0,0:0:0:0:
256,192,25583,1,0,0:0:0:0:
182,192,25583,1,0,0:0:0:0:
475,192,25762,128,0,26119:0:0:0:0:
109,192,25940,1,0,0:0:0:0:
182,192,25940,1,0,0:0:0:0:
329,192,25940,1,0,0:0:0:0:
402,192,26119,128,0,26298:0:0:0:0:
256,192,26298,128,0,26476:0:0:0:0:
475,192,26476,1,0,0:0:0:0:
475,192,26655,128,0,27012:0:0:0:0:
109,192,26655,1,0,0:0:0:0:
109,192,26833,1,0,0:0:0:0:
182,192,26833,1,0,0:0:0:0:
329,192,27012,1,0,0:0:0:0:
329,192,27190,128,0,28440:0:0:0:0:
475,192,27369,1,0,0:0:0:0:
402,192,27369,1,0,0:0:0:0:
182,192,27369,1,0,0:0:0:0:
256,192,27548,1,0,0:0:0:0:
475,192,27726,1,0,0:0:0:0:
109,192,27726,1,0,0:0:0:0:
402,192,27905,1,0,0:0:0:0:
109,192,27905,1,0,0:0:0:0:
182,192,28083,1,0,0:0:0:0:
475,192,28262,1,0,0:0:0:0:
256,192,28262,1,0,0:0:0:0:
109,192,28440,1,0,0:0:0:0:
475,192,28440,1,0,0:0:0:0:
182,192,28619,1,0,0:0:0:0:
329,192,28798,1,0,0:0:0:0:
402,192,28798,1,0,0:0:0:0:
109,192,28798,1,0,0:0:0:0:
256,192,28976,1,0,0:0:0:0:
402,192,29155,1,0,0:0:0:0:
475,192,29155,1,0,0:0:0:0:
329,192,29244,1,0,0:0:0:0:
256,192,29333,1,0,0:0:0:0:
182,192,29423,1,0,0:0:0:0:
475,192,29512,128,0,34512:0:0:0:0:
109,192,29512,1,0,0:0:0:0:
256,192,29690,1,0,0:0:0:0:
109,192,29690,1,0,0:0:0:0:
402,192,29869,128,0,30048:0:0:0:0:
329,192,30048,128,0,30226:0:0:0:0:
402,192,30226,128,0,30405:0:0:0:0:
109,192,30226,1,0,0:0:0:0:
36,192,30226,1,0,0:0:0:0:
256,192,30405,1,0,0:0:0:0:
329,192,30583,128,0,30940:0:0:0:0:
402,192,30583,1,0,0:0:0:0:
182,192,30762,1,0,0:0:0:0:
109,192,30940,128,0,31119:0:0:0:0:
256,192,31119,1,0,0:0:0:0:
36,192,31119,128,0,31298:0:0:0:0:
402,192,31298,1,0,0:0:0:0:
256,192,31298,1,0,0:0:0:0:
36,192,31476,128,0,31833:0:0:0:0:
109,192,31476,1,0,0:0:0:0:
329,192,31655,1,0,0:0:0:0:
182,192,31655,1,0,0:0:0:0:
402,192,31655,1,0,0:0:0:0:
109,192,31833,128,0,32012:0:0:0:0:
329,192,32012,128,0,32190:0:0:0:0:
36,192,32190,1,0,0:0:0:0:
36,192,32369,128,0,32726:0:0:0:0:
402,192,32369,1,0,0:0:0:0:
402,192,32548,1,0,0:0:0:0:
256,192,32548,1,0,0:0:0:0:
182,192,32726,1,0,0:0:0:0:
182,192,32905,128,0,33976:0:0:0:0:
36,192,33083,1,0,0:0:0:0:
109,192,33083,1,0,0:0:0:0:
402,192,33083,1,0,0:0:0:0:
256,192,33262,1,0,0:0:0:0:
329,192,33440,1,0,0:0:0:0:
36,192,33440,1,0,0:0:0:0:
402,192,33619,1,0,0:0:0:0:
36,192,33798,1,0,0:0:0:0:
109,192,33976,1,0,0:0:0:0:
256,192,33976,1,0,0:0:0:0:
109,192,34155,1,0,0:0:0:0:
402,192,34155,1,0,0:0:0:0:
329,192,34333,1,0,0:0:0:0:
109,192,34512,1,0,0:0:0:0:
182,192,34512,1,0,0:0:0:0:
256,192,34512,128,0,34601:0:0:0:0:
402,192,34869,128,0,35048:0:0:0:0:
36,192,35048,128,0,35940:0:0:0:0:
329,192,35226,128,0,36655:0:0:0:0:
182,192,35226,1,0,0:0:0:0:
182,192,35405,1,0,0:0:0:0:
475,192,35405,1,0,0:0:0:0:
256,192,35583,1,0,0:0:0:0:
109,192,35762,1,0,0:0:0:0:
256,192,35940,128,0,36119:0:0:0:0:
182,192,35940,1,0,0:0:0:0:
475,192,35940,1,0,0:0:0:0:
402,192,36119,1,0,0:0:0:0:
109,192,36298,128,0,36476:0:0:0:0:
182,192,36298,1,0,0:0:0:0:
475,192,36476,128,0,37012:0:0:0:0:
36,192,36655,128,0,38083:0:0:0:0:
402,192,36833,1,0,0:0:0:0:
182,192,36833,1,0,0:0:0:0:
402,192,37012,1,0,0:0:0:0:
109,192,37012,1,0,0:0:0:0:
329,192,37190,1,0,0:0:0:0:
256,192,37369,1,0,0:0:0:0:
475,192,37369,1,0,0:0:0:0:
182,192,37369,128,0,37726:0:0:0:0:
109,192,37548,1,0,0:0:0:0:
329,192,37726,128,0,38083:0:0:0:0:
256,192,37905,1,0,0:0:0:0:
182,192,38083,128,0,39512:0:0:0:0:
475,192,38083,128,0,38440:0:0:0:0:
109,192,38262,1,0,0:0:0:0:
36,192,38262,1,0,0:0:0:0:
402,192,38440,128,0,38798:0:0:0:0:
329,192,38619,1,0,0:0:0:0:
256,192,38798,128,0,38976:0:0:0:0:
109,192,38798,1,0,0:0:0:0:
475,192,38798,1,0,0:0:0:0:
36,192,38976,128,0,39155:0:0:0:0:
256,192,39155,1,0,0:0:0:0:
402,192,39155,1,0,0:0:0:0:
36,192,39333,128,0,39512:0:0:0:0:
475,192,39512,128,0,40940:0:0:0:0:
109,192,39512,128,0,40226:0:0:0:0:
329,192,39690,1,0,0:0:0:0:
402,192,39690,1,0,0:0:0:0:
329,192,39869,1,0,0:0:0:0:
182,192,39869,1,0,0:0:0:0:
256,192,40048,1,0,0:0:0:0:
36,192,40226,1,0,0:0:0:0:
182,192,40226,1,0,0:0:0:0:
402,192,40226,1,0,0:0:0:0:
329,192,40405,1,0,0:0:0:0:
36,192,40583,128,0,40762:0:0:0:0:
182,192,40673,1,0,0:0:0:0:
256,192,40762,1,0,0:0:0:0:
109,192,40851,1,0,0:0:0:0:
329,192,40940,128,0,42369:0:0:0:0:
256,192,40940,128,0,41298:0:0:0:0:
109,192,41119,1,0,0:0:0:0:
36,192,41119,1,0,0:0:0:0:
182,192,41298,1,0,0:0:0:0:
182,192,41476,128,0,42012:0:0:0:0:
475,192,41655,1,0,0:0:0:0:
402,192,41655,1,0,0:0:0:0:
109,192,41655,1,0,0:0:0:0:
256,192,41833,1,0,0:0:0:0:
36,192,42012,1,0,0:0:0:0:
402,192,42012,1,0,0:0:0:0:
36,192,42190,128,0,42369:0:0:0:0:
256,192,42369,128,0,44512:0:0:0:0:
109,192,42369,128,0,42905:0:0:0:0:
475,192,42548,1,0,0:0:0:0:
402,192,42548,1,0,0:0:0:0:
475,192,42726,1,0,0:0:0:0:
182,192,42726,1,0,0:0:0:0:
36,192,42905,1,0,0:0:0:0:
36,192,43083,128,0,44512:0:0:0:0:
329,192,43083,1,0,0:0:0:0:
402,192,43083,1,0,0:0:0:0:
182,192,43262,1,0,0:0:0:0:
475,192,43440,1,0,0:0:0:0:
402,192,43530,1,0,0:0:0:0:
329,192,43619,1,0,0:0:0:0:
182,192,43708,1,0,0:0:0:0:
109,192,43798,1,0,0:0:0:0:
475,192,43798,1,0,0:0:0:0:
109,192,43976,1,0,0:0:0:0:
402,192,43976,1,0,0:0:0:0:
329,192,44155,1,0,0:0:0:0:
182,192,44333,1,0,0:0:0:0:
475,192,44512,1,0,0:0:0:0:
402,192,44512,1,0,0:0:0:0:
109,192,44512,1,0,0:0:0:0:
182,192,44690,1,0,0:0:0:0:
329,192,44869,128,0,45048:0:0:0:0:
402,192,44869,1,0,0:0:0:0:
36,192,45048,1,0,0:0:0:0:
475,192,45226,1,0,0:0:0:0:
402,192,45226,1,0,0:0:0:0:
109,192,45226,128,0,45940:0:0:0:0:
329,192,45405,1,0,0:0:0:0:
182,192,45405,1,0,0:0:0:0:
182,192,45762,1,0,0:0:0:0:
329,192,45762,1,0,0:0:0:0:
402,192,45940,1,0,0:0:0:0:
36,192,45940,1,0,0:0:0:0:
475,192,45940,1,0,0:0:0:0:
36,192,46298,1,0,0:0:0:0:
256,192,46298,1,0,0:0:0:0:
329,192,46298,1,0,0:0:0:0:
109,192,46655,1,0,0:0:0:0:
402,192,46655,1,0,0:0:0:0:
109,192,46833,1,0,0:0:0:0:
329,192,46833,1,0,0:0:0:0:
256,192,47012,128,0,47190:0:0:0:0:
402,192,47012,1,0,0:0:0:0:
329,192,47190,1,0,0:0:0:0:
256,192,47369,128,0,47548:0:0:0:0:
36,192,47369,1,0,0:0:0:0:
402,192,47369,1,0,0:0:0:0:
182,192,47548,128,0,47905:0:0:0:0:
329,192,47548,1,0,0:0:0:0:
109,192,47726,1,0,0:0:0:0:
402,192,47726,1,0,0:0:0:0:
329,192,47905,1,0,0:0:0:0:
402,192,48083,128,0,48262:0:0:0:0:
109,192,48083,128,0,48262:0:0:0:0:
329,192,48262,128,0,48440:0:0:0:0:
36,192,48262,128,0,48440:0:0:0:0:
402,192,48440,128,0,48619:0:0:0:0:
475,192,48440,1,0,0:0:0:0:
329,192,48619,128,0,48798:0:0:0:0:
36,192,48619,128,0,48976:0:0:0:0:
402,192,48798,128,0,48976:0:0:0:0:
182,192,48798,1,0,0:0:0:0:
256,192,48798,1,0,0:0:0:0:
329,192,48976,128,0,49155:0:0:0:0:
109,192,48976,128,0,49155:0:0:0:0:
402,192,49155,128,0,49333:0:0:0:0:
182,192,49155,128,0,49333:0:0:0:0:
329,192,49333,128,0,49512:0:0:0:0:
36,192,49333,1,0,0:0:0:0:
475,192,49512,128,0,49690:0:0:0:0:
36,192,49512,128,0,49869:0:0:0:0:
329,192,49690,128,0,49869:0:0:0:0:
109,192,49690,1,0,0:0:0:0:
475,192,49869,128,0,50048:0:0:0:0:
182,192,49869,1,0,0:0:0:0:
329,192,50048,128,0,50226:0:0:0:0:
182,192,50048,128,0,51298:0:0:0:0:
475,192,50226,128,0,50405:0:0:0:0:
402,192,50226,1,0,0:0:0:0:
36,192,50226,1,0,0:0:0:0:
329,192,50405,128,0,50583:0:0:0:0:
475,192,50583,128,0,50762:0:0:0:0:
109,192,50583,1,0,0:0:0:0:
329,192,50762,128,0,50940:0:0:0:0:
475,192,50940,1,0,0:0:0:0:
36,192,51119,1,0,0:0:0:0:
329,192,51119,1,0,0:0:0:0:
36,192,51298,1,0,0:0:0:0:
475,192,51298,1,0,0:0:0:0:
329,192,51476,1,0,0:0:0:0:
182,192,51655,1,0,0:0:0:0:
109,192,51655,1,0,0:0:0:0:
402,192,51655,1,0,0:0:0:0:
256,192,51833,1,0,0:0:0:0:
36,192,52012,1,0,0:0:0:0:
475,192,52012,1,0,0:0:0:0:
109,192,52101,1,0,0:0:0:0:
182,192,52190,1,0,0:0:0:0:
256,192,52280,1,0,0:0:0:0:
329,192,52369,1,0,0:0:0:0:
109,192,52369,1,0,0:0:0:0:
329,192,52548,1,0,0:0:0:0:
182,192,52548,1,0,0:0:0:0:
475,192,52726,128,0,52905:0:0:0:0:
109,192,52726,1,0,0:0:0:0:
402,192,52905,128,0,53083:0:0:0:0:
182,192,52905,1,0,0:0:0:0:
475,192,53083,128,0,53262:0:0:0:0:
36,192,53083,1,0,0:0:0:0:
109,192,53083,1,0,0:0:0:0:
329,192,53262,128,0,53798:0:0:0:0:
182,192,53262,1,0,0:0:0:0:
256,192,53440,1,0,0:0:0:0:
109,192,53440,1,0,0:0:0:0:
182,192,53619,1,0,0:0:0:0:
109,192,53798,128,0,53976:0:0:0:0:
402,192,53798,128,0,53976:0:0:0:0:
182,192,53976,128,0,54155:0:0:0:0:
475,192,53976,128,0,54155:0:0:0:0:
109,192,54155,128,0,54333:0:0:0:0:
36,192,54155,1,0,0:0:0:0:
182,192,54333,128,0,54512:0:0:0:0:
475,192,54333,128,0,54690:0:0:0:0:
109,192,54512,128,0,54690:0:0:0:0:
329,192,54512,1,0,0:0:0:0:
256,192,54512,1,0,0:0:0:0:
182,192,54690,128,0,54869:0:0:0:0:
402,192,54690,128,0,54869:0:0:0:0:
109,192,54869,128,0,55048:0:0:0:0:
329,192,54869,128,0,55048:0:0:0:0:
182,192,55048,128,0,55226:0:0:0:0:
475,192,55048,1,0,0:0:0:0:
36,192,55226,128,0,55405:0:0:0:0:
475,192,55226,128,0,55583:0:0:0:0:
182,192,55405,128,0,55583:0:0:0:0:
402,192,55405,1,0,0:0:0:0:
36,192,55583,128,0,55762:0:0:0:0:
329,192,55583,1,0,0:0:0:0:
182,192,55762,128,0,55940:0:0:0:0:
329,192,55762,128,0,57012:0:0:0:0:
36,192,55940,128,0,56119:0:0:0:0:
109,192,55940,1,0,0:0:0:0:
475,192,55940,1,0,0:0:0:0:
182,192,56119,128,0,56298:0:0:0:0:
36,192,56298,128,0,56476:0:0:0:0:
402,192,56298,1,0,0:0:0:0:
182,192,56476,128,0,56655:0:0:0:0:
475,192,56655,1,0,0:0:0:0:
36,192,56655,1,0,0:0:0:0:
402,192,56833,1,0,0:0:0:0:
182,192,56833,1,0,0:0:0:0:
402,192,57012,1,0,0:0:0:0:
36,192,57012,1,0,0:0:0:0:
109,192,57190,1,0,0:0:0:0:
475,192,57369,1,0,0:0:0:0:
329,192,57369,1,0,0:0:0:0:
256,192,57369,128,0,57458:0:0:0:0:
182,192,57726,128,0,57905:0:0:0:0:
475,192,57905,128,0,58798:0:0:0:0:
109,192,58083,128,0,58262:0:0:0:0:
402,192,58083,1,0,0:0:0:0:
182,192,58262,128,0,58440:0:0:0:0:
402,192,58262,1,0,0:0:0:0:
109,192,58440,128,0,58619:0:0:0:0:
182,192,58619,128,0,58798:0:0:0:0:
256,192,58798,128,0,58976:0:0:0:0:
36,192,58798,1,0,0:0:0:0:
109,192,58798,1,0,0:0:0:0:
182,192,58976,1,0,0:0:0:0:
329,192,59155,128,0,59333:0:0:0:0:
109,192,59155,1,0,0:0:0:0:
36,192,59333,128,0,59869:0:0:0:0:
182,192,59333,1,0,0:0:0:0:
402,192,59512,128,0,59690:0:0:0:0:
256,192,59512,1,0,0:0:0:0:
329,192,59690,128,0,59869:0:0:0:0:
182,192,59690,1,0,0:0:0:0:
402,192,59869,128,0,60048:0:0:0:0:
182,192,59869,1,0,0:0:0:0:
329,192,60048,128,0,60226:0:0:0:0:
109,192,60226,128,0,60583:0:0:0:0:
402,192,60226,1,0,0:0:0:0:
475,192,60226,1,0,0:0:0:0:
329,192,60405,1,0,0:0:0:0:
402,192,60583,1,0,0:0:0:0:
256,192,60583,128,0,60940:0:0:0:0:
329,192,60762,1,0,0:0:0:0:
182,192,60940,128,0,61119:0:0:0:0:
475,192,60940,128,0,61298:0:0:0:0:
36,192,61119,128,0,61298:0:0:0:0:
329,192,61119,1,0,0:0:0:0:
182,192,61298,128,0,61476:0:0:0:0:
402,192,61298,128,0,61655:0:0:0:0:
36,192,61476,128,0,61655:0:0:0:0:
475,192,61476,1,0,0:0:0:0:
329,192,61655,128,0,61833:0:0:0:0:
182,192,61655,1,0,0:0:0:0:
109,192,61655,1,0,0:0:0:0:
36,192,61833,1,0,0:0:0:0:
256,192,61833,128,0,62012:0:0:0:0:
182,192,62012,1,0,0:0:0:0:
475,192,62012,1,0,0:0:0:0:
36,192,62190,1,0,0:0:0:0:
256,192,62190,128,0,62369:0:0:0:0:
329,192,62369,128,0,62548:0:0:0:0:
109,192,62369,128,0,63083:0:0:0:0:
475,192,62548,128,0,62726:0:0:0:0:
182,192,62548,1,0,0:0:0:0:
329,192,62726,128,0,62905:0:0:0:0:
182,192,62726,1,0,0:0:0:0:
475,192,62905,128,0,63083:0:0:0:0:
329,192,63083,1,0,0:0:0:0:
402,192,63083,1,0,0:0:0:0:
475,192,63262,1,0,0:0:0:0:
402,192,63440,1,0,0:0:0:0:
36,192,63440,128,0,63619:0:0:0:0:
329,192,63530,1,0,0:0:0:0:
256,192,63619,1,0,0:0:0:0:
182,192,63708,1,0,0:0:0:0:
109,192,63798,128,0,63976:0:0:0:0:
256,192,63798,128,0,64155:0:0:0:0:
182,192,63976,128,0,64155:0:0:0:0:
402,192,63976,1,0,0:0:0:0:
109,192,64155,128,0,64333:0:0:0:0:
329,192,64155,1,0,0:0:0:0:
182,192,64333,128,0,64512:0:0:0:0:
329,192,64333,128,0,64869:0:0:0:0:
109,192,64512,1,0,0:0:0:0:
36,192,64512,1,0,0:0:0:0:
475,192,64512,1,0,0:0:0:0:
182,192,64690,1,0,0:0:0:0:
475,192,64869,128,0,65048:0:0:0:0:
109,192,64869,1,0,0:0:0:0:
402,192,64869,1,0,0:0:0:0:
182,192,65048,1,0,0:0:0:0:
402,192,65226,128,0,65405:0:0:0:0:
36,192,65226,128,0,65405:0:0:0:0:
329,192,65405,128,0,65583:0:0:0:0:
109,192,65405,128,0,65762:0:0:0:0:
402,192,65583,128,0,65762:0:0:0:0:
182,192,65583,1,0,0:0:0:0:
329,192,65762,128,0,65940:0:0:0:0:
36,192,65762,1,0,0:0:0:0:
402,192,65940,1,0,0:0:0:0:
36,192,65940,128,0,67369:0:0:0:0:
475,192,65940,1,0,0:0:0:0:
329,192,66119,1,0,0:0:0:0:
402,192,66298,1,0,0:0:0:0:
109,192,66298,1,0,0:0:0:0:
182,192,66387,1,0,0:0:0:0:
329,192,66476,1,0,0:0:0:0:
109,192,66565,1,0,0:0:0:0:
402,192,66655,1,0,0:0:0:0:
182,192,66655,1,0,0:0:0:0:
329,192,66833,1,0,0:0:0:0:
182,192,66833,1,0,0:0:0:0:
402,192,67012,1,0,0:0:0:0:
329,192,67190,1,0,0:0:0:0:
402,192,67369,1,0,0:0:0:0:
475,192,67369,1,0,0:0:0:0:
182,192,67369,1,0,0:0:0:0:
256,192,67548,1,0,0:0:0:0:
329,192,67726,128,0,67905:0:0:0:0:
109,192,67726,1,0,0:0:0:0:
402,192,67905,1,0,0:0:0:0:
36,192,68083,1,0,0:0:0:0:
182,192,68083,1,0,0:0:0:0:
475,192,68083,128,0,68798:0:0:0:0:
256,192,68262,1,0,0:0:0:0:
329,192,68262,1,0,0:0:0:0:
256,192,68619,1,0,0:0:0:0:
329,192,68619,1,0,0:0:0:0:
36,192,68798,1,0,0:0:0:0:
182,192,68798,1,0,0:0:0:0:
402,192,68798,1,0,0:0:0:0:
109,192,69155,1,0,0:0:0:0:
329,192,69155,1,0,0:0:0:0:
402,192,69155,1,0,0:0:0:0:
182,192,69512,1,0,0:0:0:0:
256,192,69512,1,0,0:0:0:0:
475,192,69512,128,0,70940:0:0:0:0:
36,192,69512,128,0,69690:0:0:0:0:
109,192,69690,128,0,69869:0:0:0:0:
182,192,69869,128,0,70048:0:0:0:0:
402,192,69869,1,0,0:0:0:0:
256,192,70048,128,0,70226:0:0:0:0:
36,192,70226,128,0,70405:0:0:0:0:
329,192,70226,1,0,0:0:0:0:
402,192,70226,1,0,0:0:0:0:
182,192,70405,128,0,70583:0:0:0:0:
329,192,70583,128,0,70762:0:0:0:0:
109,192,70583,1,0,0:0:0:0:
402,192,70762,128,0,70940:0:0:0:0:
109,192,70762,1,0,0:0:0:0:
256,192,70940,128,0,72369:0:0:0:0:
182,192,70940,128,0,71119:0:0:0:0:
109,192,71119,128,0,71298:0:0:0:0:
329,192,71119,1,0,0:0:0:0:
402,192,71119,1,0,0:0:0:0:
36,192,71298,128,0,71476:0:0:0:0:
182,192,71476,1,0,0:0:0:0:
475,192,71476,128,0,71655:0:0:0:0:
329,192,71655,128,0,72012:0:0:0:0:
182,192,71655,1,0,0:0:0:0:
402,192,71655,1,0,0:0:0:0:
36,192,72012,128,0,72190:0:0:0:0:
182,192,72190,128,0,73798:0:0:0:0:
475,192,72369,128,0,75226:0:0:0:0:
109,192,72369,1,0,0:0:0:0:
36,192,72726,1,0,0:0:0:0:
329,192,72726,1,0,0:0:0:0:
256,192,73083,1,0,0:0:0:0:
36,192,73083,1,0,0:0:0:0:
402,192,73083,1,0,0:0:0:0:
109,192,73440,1,0,0:0:0:0:
329,192,73440,1,0,0:0:0:0:
109,192,73619,1,0,0:0:0:0:
256,192,73619,1,0,0:0:0:0:
329,192,73798,128,0,73976:0:0:0:0:
36,192,73798,1,0,0:0:0:0:
402,192,73976,128,0,74155:0:0:0:0:
182,192,73976,1,0,0:0:0:0:
109,192,73976,1,0,0:0:0:0:
256,192,74155,128,0,74333:0:0:0:0:
329,192,74333,128,0,74512:0:0:0:0:
36,192,74333,1,0,0:0:0:0:
182,192,74512,128,0,74690:0:0:0:0:
36,192,74512,1,0,0:0:0:0:
402,192,74512,1,0,0:0:0:0:
256,192,74690,128,0,74869:0:0:0:0:
109,192,74869,128,0,75048:0:0:0:0:
329,192,74869,1,0,0:0:0:0:
182,192,75048,128,0,75226:0:0:0:0:
36,192,75226,128,0,76655:0:0:0:0:
402,192,75226,128,0,75405:0:0:0:0:
329,192,75405,128,0,75583:0:0:0:0:
256,192,75583,128,0,75762:0:0:0:0:
109,192,75583,1,0,0:0:0:0:
182,192,75762,128,0,75940:0:0:0:0:
475,192,75940,128,0,76119:0:0:0:0:
329,192,75940,1,0,0:0:0:0:
109,192,75940,1,0,0:0:0:0:
402,192,76119,128,0,76298:0:0:0:0:
109,192,76298,128,0,76655:0:0:0:0:
329,192,76298,1,0,0:0:0:0:
329,192,76476,1,0,0:0:0:0:
475,192,76476,1,0,0:0:0:0:
256,192,76655,128,0,78083:0:0:0:0:
182,192,76655,128,0,77012:0:0:0:0:
402,192,76833,1,0,0:0:0:0:
475,192,76833,1,0,0:0:0:0:
36,192,76833,1,0,0:0:0:0:
109,192,77012,128,0,77190:0:0:0:0:
36,192,77190,128,0,77369:0:0:0:0:
329,192,77190,1,0,0:0:0:0:
182,192,77369,128,0,77726:0:0:0:0:
329,192,77369,1,0,0:0:0:0:
475,192,77369,1,0,0:0:0:0:
475,192,77726,128,0,77905:0:0:0:0:
402,192,77905,128,0,78798:0:0:0:0:
36,192,78083,128,0,80940:0:0:0:0:
109,192,78083,128,0,78262:0:0:0:0:
182,192,78262,128,0,78440:0:0:0:0:
329,192,78440,128,0,78619:0:0:0:0:
109,192,78440,1,0,0:0:0:0:
475,192,78619,128,0,78798:0:0:0:0:
109,192,78798,128,0,78976:0:0:0:0:
182,192,78798,1,0,0:0:0:0:
256,192,78798,1,0,0:0:0:0:
329,192,78976,128,0,79155:0:0:0:0:
402,192,79155,128,0,79333:0:0:0:0:
182,192,79155,1,0,0:0:0:0:
475,192,79333,128,0,79512:0:0:0:0:
182,192,79333,1,0,0:0:0:0:
109,192,79512,128,0,79869:0:0:0:0:
182,192,79690,1,0,0:0:0:0:
329,192,79690,1,0,0:0:0:0:
475,192,79690,1,0,0:0:0:0:
256,192,79869,128,0,80226:0:0:0:0:
402,192,80048,1,0,0:0:0:0:
182,192,80048,1,0,0:0:0:0:
475,192,80226,128,0,80583:0:0:0:0:
109,192,80226,1,0,0:0:0:0:
182,192,80226,1,0,0:0:0:0:
182,192,80583,128,0,80762:0:0:0:0:
256,192,80762,128,0,81298:0:0:0:0:
475,192,80940,128,0,82369:0:0:0:0:
109,192,80940,1,0,0:0:0:0:
182,192,81298,1,0,0:0:0:0:
329,192,81298,1,0,0:0:0:0:
36,192,81655,1,0,0:0:0:0:
109,192,81655,1,0,0:0:0:0:
256,192,81655,1,0,0:0:0:0:
402,192,82012,1,0,0:0:0:0:
182,192,82012,1,0,0:0:0:0:
402,192,82190,128,0,82369:0:0:0:0:
256,192,82190,1,0,0:0:0:0:
36,192,82369,128,0,83798:0:0:0:0:
109,192,82369,128,0,82905:0:0:0:0:
182,192,82548,1,0,0:0:0:0:
329,192,82548,1,0,0:0:0:0:
402,192,82548,1,0,0:0:0:0:
475,192,82726,1,0,0:0:0:0:
182,192,82905,128,0,83083:0:0:0:0:
256,192,82905,1,0,0:0:0:0:
402,192,83083,128,0,83440:0:0:0:0:
475,192,83083,1,0,0:0:0:0:
256,192,83083,1,0,0:0:0:0:
329,192,83440,128,0,83619:0:0:0:0:
182,192,83619,128,0,84690:0:0:0:0:
475,192,83798,128,0,85226:0:0:0:0:
109,192,83798,1,0,0:0:0:0:
36,192,84155,1,0,0:0:0:0:
256,192,84155,1,0,0:0:0:0:
402,192,84512,1,0,0:0:0:0:
329,192,84512,1,0,0:0:0:0:
109,192,84512,1,0,0:0:0:0:
256,192,84869,1,0,0:0:0:0:
36,192,84869,1,0,0:0:0:0:
182,192,85048,1,0,0:0:0:0:
256,192,85048,1,0,0:0:0:0:
36,192,85226,128,0,86655:0:0:0:0:
109,192,85405,1,0,0:0:0:0:
329,192,85405,1,0,0:0:0:0:
402,192,85405,1,0,0:0:0:0:
256,192,85583,1,0,0:0:0:0:
182,192,85762,1,0,0:0:0:0:
475,192,85762,1,0,0:0:0:0:
109,192,85940,128,0,86119:0:0:0:0:
402,192,85940,1,0,0:0:0:0:
182,192,85940,1,0,0:0:0:0:
475,192,86119,128,0,86476:0:0:0:0:
109,192,86476,128,0,86655:0:0:0:0:
256,192,86655,128,0,89512:0:0:0:0:
475,192,86655,128,0,87190:0:0:0:0:
36,192,87012,1,0,0:0:0:0:
182,192,87012,1,0,0:0:0:0:
402,192,87190,128,0,87369:0:0:0:0:
36,192,87369,128,0,88440:0:0:0:0:
329,192,87369,1,0,0:0:0:0:
109,192,87369,1,0,0:0:0:0:
182,192,87726,1,0,0:0:0:0:
329,192,87726,1,0,0:0:0:0:
182,192,87905,1,0,0:0:0:0:
475,192,87905,1,0,0:0:0:0:
109,192,88262,1,0,0:0:0:0:
475,192,88262,1,0,0:0:0:0:
402,192,88262,1,0,0:0:0:0:
329,192,88440,1,0,0:0:0:0:
182,192,88619,1,0,0:0:0:0:
182,192,88798,1,0,0:0:0:0:
475,192,88798,128,0,89512:0:0:0:0:
36,192,88798,128,0,89512:0:0:0:0:
109,192,89512,1,0,0:0:0:0:
402,192,89512,1,0,0:0:0:0:
329,192,89512,128,0,90048:0:0:0:0:
182,192,90048,128,0,90226:0:0:0:0:
329,192,90226,128,0,90762:0:0:0:0:
182,192,90762,128,0,90940:0:0:0:0:
329,192,90940,128,0,91298:0:0:0:0:
402,192,91298,128,0,91655:0:0:0:0:
475,192,91655,128,0,92190:0:0:0:0:
182,192,91655,1,0,0:0:0:0:
109,192,91655,128,0,92190:0:0:0:0:
402,192,92369,1,0,0:0:0:0:
36,192,92369,128,0,93083:0:0:0:0:
329,192,92369,128,0,92905:0:0:0:0:
182,192,92369,128,0,92726:0:0:0:0:
475,192,92726,1,0,0:0:0:0:
182,192,92905,1,0,0:0:0:0:
109,192,93083,128,0,93262:0:0:0:0:
402,192,93083,128,0,93619:0:0:0:0:
256,192,93083,128,0,93440:0:0:0:0:
36,192,93440,1,0,0:0:0:0:
475,192,93619,128,0,93798:0:0:0:0:
182,192,93619,128,0,93798:0:0:0:0:
402,192,93798,128,0,93976:0:0:0:0:
109,192,93798,128,0,93976:0:0:0:0:
256,192,93798,1,0,0:0:0:0:
36,192,93976,128,0,94155:0:0:0:0:
329,192,93976,128,0,94155:0:0:0:0:
402,192,94155,128,0,94512:0:0:0:0:
109,192,94155,128,0,94512:0:0:0:0:
182,192,94155,1,0,0:0:0:0:
256,192,94333,1,0,0:0:0:0:
182,192,94512,128,0,94869:0:0:0:0:
475,192,94512,128,0,95048:0:0:0:0:
36,192,94512,128,0,94690:0:0:0:0:
402,192,94869,1,0,0:0:0:0:
109,192,95048,1,0,0:0:0:0:
182,192,95226,128,0,95940:0:0:0:0:
475,192,95226,128,0,95583:0:0:0:0:
36,192,95226,128,0,95583:0:0:0:0:
109,192,95583,128,0,95940:0:0:0:0:
402,192,95583,128,0,96298:0:0:0:0:
329,192,95762,1,0,0:0:0:0:
475,192,95940,128,0,96298:0:0:0:0:
256,192,95940,128,0,96119:0:0:0:0:
36,192,95940,128,0,96476:0:0:0:0:
256,192,96298,1,0,0:0:0:0:
475,192,96476,1,0,0:0:0:0:
109,192,96476,1,0,0:0:0:0:
329,192,96655,128,0,97369:0:0:0:0:
36,192,96655,128,0,97012:0:0:0:0:
182,192,96655,1,0,0:0:0:0:
475,192,96833,1,0,0:0:0:0:
182,192,96833,1,0,0:0:0:0:
402,192,96833,1,0,0:0:0:0:
109,192,97012,128,0,97726:0:0:0:0:
256,192,97012,128,0,97369:0:0:0:0:
402,192,97190,1,0,0:0:0:0:
475,192,97369,128,0,97905:0:0:0:0:
182,192,97369,128,0,97548:0:0:0:0:
36,192,97369,128,0,97726:0:0:0:0:
329,192,97726,1,0,0:0:0:0:
402,192,97905,1,0,0:0:0:0:
36,192,98083,128,0,98619:0:0:0:0:
256,192,98083,1,0,0:0:0:0:
182,192,98083,128,0,98440:0:0:0:0:
329,192,98083,128,0,98798:0:0:0:0:
475,192,98440,1,0,0:0:0:0:
182,192,98619,1,0,0:0:0:0:
402,192,98798,128,0,98976:0:0:0:0:
109,192,98798,128,0,99333:0:0:0:0:
256,192,98798,128,0,99155:0:0:0:0:
36,192,99155,1,0,0:0:0:0:
475,192,99333,128,0,99512:0:0:0:0:
182,192,99333,128,0,99512:0:0:0:0:
402,192,99512,128,0,99690:0:0:0:0:
256,192,99512,1,0,0:0:0:0:
109,192,99512,128,0,99690:0:0:0:0:
36,192,99690,128,0,99869:0:0:0:0:
329,192,99690,128,0,99869:0:0:0:0:
402,192,99869,128,0,100226:0:0:0:0:
182,192,99869,1,0,0:0:0:0:
109,192,99869,128,0,100226:0:0:0:0:
256,192,100048,1,0,0:0:0:0:
475,192,100226,128,0,100405:0:0:0:0:
182,192,100226,128,0,100583:0:0:0:0:
36,192,100226,128,0,100762:0:0:0:0:
402,192,100583,1,0,0:0:0:0:
329,192,100762,1,0,0:0:0:0:
475,192,100940,128,0,101655:0:0:0:0:
182,192,100940,128,0,101476:0:0:0:0:
109,192,100940,128,0,101298:0:0:0:0:
329,192,101298,1,0,0:0:0:0:
36,192,101476,1,0,0:0:0:0:
109,192,101655,128,0,101833:0:0:0:0:
402,192,101655,128,0,101833:0:0:0:0:
256,192,101655,1,0,0:0:0:0:
36,192,101833,128,0,102190:0:0:0:0:
329,192,101833,128,0,102190:0:0:0:0:
256,192,102012,1,0,0:0:0:0:
182,192,102190,128,0,102369:0:0:0:0:
402,192,102190,128,0,102369:0:0:0:0:
36,192,102369,128,0,103083:0:0:0:0:
475,192,102369,128,0,102905:0:0:0:0:
109,192,102369,128,0,102548:0:0:0:0:
329,192,102548,1,0,0:0:0:0:
256,192,102548,128,0,102726:0:0:0:0:
402,192,102548,1,0,0:0:0:0:
182,192,102726,128,0,102905:0:0:0:0:
109,192,102726,1,0,0:0:0:0:
329,192,102905,128,0,103083:0:0:0:0:
402,192,102994,1,0,0:0:0:0:
256,192,103083,128,0,103262:0:0:0:0:
475,192,103083,1,0,0:0:0:0:
182,192,103083,1,0,0:0:0:0:
402,192,103262,128,0,103440:0:0:0:0:
36,192,103262,1,0,0:0:0:0:
109,192,103262,1,0,0:0:0:0:
329,192,103440,128,0,103619:0:0:0:0:
182,192,103440,1,0,0:0:0:0:
36,192,103619,128,0,103798:0:0:0:0:
182,192,103798,128,0,104333:0:0:0:0:
329,192,103798,128,0,104155:0:0:0:0:
109,192,103798,1,0,0:0:0:0:
475,192,103798,128,0,104512:0:0:0:0:
36,192,104155,1,0,0:0:0:0:
329,192,104333,1,0,0:0:0:0:
256,192,104512,128,0,104869:0:0:0:0:
109,192,104512,128,0,105048:0:0:0:0:
402,192,104512,128,0,104690:0:0:0:0:
475,192,104869,1,0,0:0:0:0:
329,192,105048,128,0,105226:0:0:0:0:
36,192,105048,128,0,105226:0:0:0:0:
256,192,105226,1,0,0:0:0:0:
402,192,105226,128,0,105405:0:0:0:0:
109,192,105226,128,0,105405:0:0:0:0:
182,192,105405,128,0,105583:0:0:0:0:
475,192,105405,128,0,105583:0:0:0:0:
36,192,105583,1,0,0:0:0:0:
402,192,105583,128,0,105940:0:0:0:0:
109,192,105583,128,0,105940:0:0:0:0:
256,192,105762,1,0,0:0:0:0:
475,192,105940,128,0,106119:0:0:0:0:
36,192,105940,128,0,106476:0:0:0:0:
329,192,105940,128,0,106298:0:0:0:0:
109,192,106298,1,0,0:0:0:0:
402,192,106476,1,0,0:0:0:0:
109,192,106655,128,0,107012:0:0:0:0:
329,192,106655,128,0,107369:0:0:0:0:
475,192,106655,128,0,107012:0:0:0:0:
182,192,107012,128,0,107726:0:0:0:0:
402,192,107012,128,0,107369:0:0:0:0:
109,192,107190,1,0,0:0:0:0:
475,192,107369,128,0,107905:0:0:0:0:
36,192,107369,128,0,107548:0:0:0:0:
256,192,107369,128,0,107726:0:0:0:0:
329,192,107726,1,0,0:0:0:0:
109,192,107905,1,0,0:0:0:0:
402,192,107905,1,0,0:0:0:0:
182,192,108083,1,0,0:0:0:0:
36,192,108083,128,0,108440:0:0:0:0:
256,192,108083,128,0,108798:0:0:0:0:
402,192,108262,1,0,0:0:0:0:
182,192,108262,1,0,0:0:0:0:
475,192,108262,1,0,0:0:0:0:
329,192,108440,128,0,108798:0:0:0:0:
109,192,108440,128,0,109155:0:0:0:0:
402,192,108619,1,0,0:0:0:0:
36,192,108798,128,0,109333:0:0:0:0:
182,192,108798,128,0,109155:0:0:0:0:
475,192,108798,128,0,108976:0:0:0:0:
256,192,109155,1,0,0:0:0:0:
402,192,109333,1,0,0:0:0:0:
329,192,109512,128,0,109869:0:0:0:0:
182,192,109512,128,0,110226:0:0:0:0:
475,192,109512,128,0,110048:0:0:0:0:
256,192,109512,1,0,0:0:0:0:
36,192,109869,1,0,0:0:0:0:
329,192,110048,1,0,0:0:0:0:
256,192,110226,128,0,110583:0:0:0:0:
402,192,110226,128,0,110762:0:0:0:0:
109,192,110226,128,0,110405:0:0:0:0:
475,192,110583,1,0,0:0:0:0:
329,192,110762,128,0,110940:0:0:0:0:
36,192,110762,128,0,110940:0:0:0:0:
402,192,110940,128,0,111119:0:0:0:0:
256,192,110940,1,0,0:0:0:0:
109,192,110940,128,0,111119:0:0:0:0:
182,192,111119,128,0,111298:0:0:0:0:
475,192,111119,128,0,111298:0:0:0:0:
402,192,111298,128,0,111655:0:0:0:0:
36,192,111298,1,0,0:0:0:0:
109,192,111298,128,0,111655:0:0:0:0:
256,192,111476,1,0,0:0:0:0:
475,192,111655,128,0,112190:0:0:0:0:
329,192,111655,128,0,112012:0:0:0:0:
36,192,111655,128,0,111833:0:0:0:0:
109,192,112012,1,0,0:0:0:0:
182,192,112190,1,0,0:0:0:0:
475,192,112369,128,0,112548:0:0:0:0:
329,192,112369,128,0,112905:0:0:0:0:
36,192,112369,128,0,113083:0:0:0:0:
256,192,112548,128,0,112726:0:0:0:0:
182,192,112726,128,0,112905:0:0:0:0:
109,192,112905,128,0,113083:0:0:0:0:
256,192,113083,1,0,0:0:0:0:
182,192,113083,128,0,113262:0:0:0:0:
402,192,113083,128,0,113262:0:0:0:0:
109,192,113262,128,0,113619:0:0:0:0:
329,192,113262,128,0,113440:0:0:0:0:
36,192,113440,1,0,0:0:0:0:
256,192,113440,128,0,113619:0:0:0:0:
182,192,113619,128,0,113798:0:0:0:0:
402,192,113619,128,0,113798:0:0:0:0:
36,192,113798,128,0,114512:0:0:0:0:
475,192,113798,128,0,114869:0:0:0:0:
329,192,113798,128,0,114155:0:0:0:0:
256,192,113976,1,0,0:0:0:0:
182,192,113976,1,0,0:0:0:0:
109,192,114155,128,0,114512:0:0:0:0:
402,192,114155,1,0,0:0:0:0:
329,192,114512,1,0,0:0:0:0:
402,192,114512,1,0,0:0:0:0:
256,192,114512,1,0,0:0:0:0:
402,192,114631,1,0,0:0:0:0:
329,192,114631,1,0,0:0:0:0:
182,192,114750,1,0,0:0:0:0:
109,192,114750,1,0,0:0:0:0:
182,192,114869,1,0,0:0:0:0:
109,192,114869,128,0,115226:0:0:0:0:
329,192,115048,1,0,0:0:0:0:
402,192,115048,1,0,0:0:0:0:
329,192,115226,1,0,0:0:0:0:
182,192,115226,1,0,0:0:0:0:
36,192,115226,1,0,0:0:0:0:
475,192,115226,128,0,115940:0:0:0:0:
402,192,115583,128,0,116298:0:0:0:0:
109,192,115583,1,0,0:0:0:0:
36,192,115762,1,0,0:0:0:0:
256,192,115940,128,0,116655:0:0:0:0:
109,192,115940,1,0,0:0:0:0:
182,192,115940,1,0,0:0:0:0:
109,192,116298,128,0,116655:0:0:0:0:
182,192,116298,1,0,0:0:0:0:
182,192,116476,1,0,0:0:0:0:
329,192,116476,1,0,0:0:0:0:
36,192,116655,128,0,118083:0:0:0:0:
475,192,116833,1,0,0:0:0:0:
329,192,116833,1,0,0:0:0:0:
256,192,116833,1,0,0:0:0:0:
109,192,117012,1,0,0:0:0:0:
256,192,117190,1,0,0:0:0:0:
329,192,117190,1,0,0:0:0:0:
329,192,117369,128,0,118798:0:0:0:0:
475,192,117369,1,0,0:0:0:0:
182,192,117369,1,0,0:0:0:0:
109,192,117726,1,0,0:0:0:0:
109,192,118083,128,0,119333:0:0:0:0:
475,192,118083,1,0,0:0:0:0:
475,192,118440,1,0,0:0:0:0:
36,192,118440,1,0,0:0:0:0:
256,192,118619,1,0,0:0:0:0:
402,192,118798,128,0,119512:0:0:0:0:
36,192,118798,1,0,0:0:0:0:
182,192,118798,1,0,0:0:0:0:
329,192,119155,1,0,0:0:0:0:
182,192,119155,1,0,0:0:0:0:
475,192,119333,128,0,119512:0:0:0:0:
182,192,119333,1,0,0:0:0:0:
329,192,119512,128,0,120226:0:0:0:0:
256,192,119690,1,0,0:0:0:0:
182,192,119690,1,0,0:0:0:0:
36,192,119690,1,0,0:0:0:0:
109,192,119869,128,0,120583:0:0:0:0:
475,192,120048,1,0,0:0:0:0:
182,192,120048,1,0,0:0:0:0:
182,192,120226,128,0,120940:0:0:0:0:
402,192,120226,1,0,0:0:0:0:
256,192,120226,1,0,0:0:0:0:
329,192,120583,128,0,120940:0:0:0:0:
475,192,120940,128,0,123798:0:0:0:0:
256,192,120940,1,0,0:0:0:0:
36,192,120940,1,0,0:0:0:0:
109,192,120940,128,0,121476:0:0:0:0:
256,192,121298,1,0,0:0:0:0:
402,192,121298,1,0,0:0:0:0:
36,192,121476,128,0,121655:0:0:0:0:
329,192,121655,1,0,0:0:0:0:
182,192,121655,1,0,0:0:0:0:
402,192,121655,1,0,0:0:0:0:
109,192,121655,128,0,122190:0:0:0:0:
329,192,122012,1,0,0:0:0:0:
182,192,122190,1,0,0:0:0:0:
36,192,122190,128,0,122369:0:0:0:0:
256,192,122280,1,0,0:0:0:0:
182,192,122369,1,0,0:0:0:0:
329,192,122369,1,0,0:0:0:0:
402,192,122369,1,0,0:0:0:0:
109,192,122369,128,0,122726:0:0:0:0:
256,192,122548,1,0,0:0:0:0:
402,192,122548,1,0,0:0:0:0:
182,192,122726,128,0,123083:0:0:0:0:
329,192,122905,1,0,0:0:0:0:
402,192,122905,1,0,0:0:0:0:
109,192,123083,1,0,0:0:0:0:
36,192,123083,1,0,0:0:0:0:
329,192,123083,1,0,0:0:0:0:
256,192,123083,128,0,123440:0:0:0:0:
36,192,123440,128,0,123798:0:0:0:0:
329,192,123440,1,0,0:0:0:0:
402,192,123798,128,0,124333:0:0:0:0:
182,192,123798,1,0,0:0:0:0:
109,192,123798,1,0,0:0:0:0:
329,192,124333,128,0,124512:0:0:0:0:
402,192,124512,128,0,125048:0:0:0:0:
329,192,125048,128,0,125226:0:0:0:0:
402,192,125226,128,0,125583:0:0:0:0:
475,192,125583,128,0,125762:0:0:0:0:
475,192,125940,128,0,126655:0:0:0:0:
36,192,125940,1,0,0:0:0:0:
109,192,125940,1,0,0:0:0:0:
182,192,125940,1,0,0:0:0:0:
36,192,126655,5,0,0:0:0:0:
402,192,126655,128,0,126833:0:0:0:0:
329,192,126833,128,0,127012:0:0:0:0:
36,192,126833,1,0,0:0:0:0:
402,192,127012,128,0,127190:0:0:0:0:
109,192,127012,1,0,0:0:0:0:
329,192,127190,128,0,127369:0:0:0:0:
36,192,127190,1,0,0:0:0:0:
109,192,127369,1,0,0:0:0:0:
182,192,127369,1,0,0:0:0:0:
402,192,127369,128,0,127548:0:0:0:0:
329,192,127548,128,0,127726:0:0:0:0:
402,192,127726,128,0,127905:0:0:0:0:
109,192,127726,128,0,127905:0:0:0:0:
329,192,127905,128,0,128083:0:0:0:0:
402,192,128083,128,0,128262:0:0:0:0:
182,192,128083,1,0,0:0:0:0:
36,192,128262,1,0,0:0:0:0:
329,192,128262,128,0,128440:0:0:0:0:
402,192,128440,128,0,128619:0:0:0:0:
36,192,128440,1,0,0:0:0:0:
329,192,128619,128,0,128798:0:0:0:0:
109,192,128798,1,0,0:0:0:0:
402,192,128798,128,0,128976:0:0:0:0:
182,192,128798,1,0,0:0:0:0:
329,192,128976,128,0,129155:0:0:0:0:
402,192,129155,128,0,129333:0:0:0:0:
36,192,129155,1,0,0:0:0:0:
109,192,129244,1,0,0:0:0:0:
182,192,129333,1,0,0:0:0:0:
329,192,129333,128,0,129512:0:0:0:0:
256,192,129423,1,0,0:0:0:0:
402,192,129512,128,0,129690:0:0:0:0:
36,192,129512,1,0,0:0:0:0:
329,192,129690,128,0,129869:0:0:0:0:
36,192,129690,1,0,0:0:0:0:
402,192,129869,128,0,130048:0:0:0:0:
109,192,129869,1,0,0:0:0:0:
329,192,130048,128,0,130226:0:0:0:0:
402,192,130226,128,0,130405:0:0:0:0:
109,192,130226,1,0,0:0:0:0:
182,192,130226,1,0,0:0:0:0:
329,192,130405,128,0,130583:0:0:0:0:
109,192,130583,128,0,130762:0:0:0:0:
402,192,130583,128,0,130762:0:0:0:0:
329,192,130762,128,0,130940:0:0:0:0:
402,192,130940,128,0,131119:0:0:0:0:
182,192,130940,1,0,0:0:0:0:
329,192,131119,128,0,131298:0:0:0:0:
36,192,131119,1,0,0:0:0:0:
402,192,131298,128,0,131476:0:0:0:0:
36,192,131298,1,0,0:0:0:0:
329,192,131476,128,0,131655:0:0:0:0:
109,192,131476,1,0,0:0:0:0:
402,192,131655,128,0,131833:0:0:0:0:
182,192,131655,1,0,0:0:0:0:
109,192,131655,1,0,0:0:0:0:
256,192,131833,1,0,0:0:0:0:
329,192,131923,1,0,0:0:0:0:
36,192,132012,1,0,0:0:0:0:
109,192,132101,1,0,0:0:0:0:
182,192,132190,1,0,0:0:0:0:
256,192,132280,1,0,0:0:0:0:
475,192,132369,5,0,0:0:0:0:
109,192,132369,128,0,132548:0:0:0:0:
182,192,132548,128,0,132726:0:0:0:0:
475,192,132548,1,0,0:0:0:0:
109,192,132726,128,0,132905:0:0:0:0:
402,192,132726,1,0,0:0:0:0:
182,192,132905,128,0,133083:0:0:0:0:
475,192,132905,1,0,0:0:0:0:
402,192,133083,1,0,0:0:0:0:
329,192,133083,1,0,0:0:0:0:
109,192,133083,128,0,133262:0:0:0:0:
182,192,133262,128,0,133440:0:0:0:0:
109,192,133440,128,0,133619:0:0:0:0:
402,192,133440,128,0,133619:0:0:0:0:
182,192,133619,128,0,133798:0:0:0:0:
109,192,133798,128,0,133976:0:0:0:0:
329,192,133798,1,0,0:0:0:0:
475,192,133976,1,0,0:0:0:0:
182,192,133976,128,0,134155:0:0:0:0:
109,192,134155,128,0,134333:0:0:0:0:
475,192,134155,1,0,0:0:0:0:
182,192,134333,128,0,134512:0:0:0:0:
402,192,134512,1,0,0:0:0:0:
109,192,134512,128,0,134690:0:0:0:0:
329,192,134512,1,0,0:0:0:0:
182,192,134690,128,0,134869:0:0:0:0:
109,192,134869,128,0,135048:0:0:0:0:
475,192,134869,1,0,0:0:0:0:
402,192,134958,1,0,0:0:0:0:
329,192,135048,1,0,0:0:0:0:
182,192,135048,128,0,135226:0:0:0:0:
256,192,135137,1,0,0:0:0:0:
109,192,135226,128,0,135405:0:0:0:0:
475,192,135226,1,0,0:0:0:0:
182,192,135405,128,0,135583:0:0:0:0:
475,192,135405,1,0,0:0:0:0:
109,192,135583,128,0,135762:0:0:0:0:
402,192,135583,1,0,0:0:0:0:
182,192,135762,128,0,135940:0:0:0:0:
475,192,135762,1,0,0:0:0:0:
109,192,135940,128,0,136119:0:0:0:0:
402,192,135940,1,0,0:0:0:0:
329,192,135940,1,0,0:0:0:0:
182,192,136119,128,0,136298:0:0:0:0:
402,192,136298,128,0,136476:0:0:0:0:
109,192,136298,128,0,136476:0:0:0:0:
182,192,136476,128,0,136655:0:0:0:0:
109,192,136655,128,0,136833:0:0:0:0:
329,192,136655,1,0,0:0:0:0:
182,192,136833,128,0,137012:0:0:0:0:
475,192,136833,1,0,0:0:0:0:
109,192,137012,128,0,137190:0:0:0:0:
475,192,137012,1,0,0:0:0:0:
182,192,137190,128,0,137369:0:0:0:0:
109,192,137369,128,0,137548:0:0:0:0:
329,192,137369,1,0,0:0:0:0:
402,192,137369,1,0,0:0:0:0:
402,192,138083,1,0,0:0:0:0:
109,192,138083,1,0,0:0:0:0:
402,192,138262,1,0,0:0:0:0:
182,192,138262,1,0,0:0:0:0:
109,192,138440,1,0,0:0:0:0:
256,192,138440,1,0,0:0:0:0:
182,192,138619,1,0,0:0:0:0:
256,192,138619,128,0,138798:0:0:0:0:
109,192,138798,1,0,0:0:0:0:
475,192,138798,1,0,0:0:0:0:
36,192,138798,1,0,0:0:0:0:
329,192,138976,128,0,139512:0:0:0:0:
182,192,138976,1,0,0:0:0:0:
402,192,139155,1,0,0:0:0:0:
109,192,139155,1,0,0:0:0:0:
182,192,139333,1,0,0:0:0:0:
109,192,139512,128,0,139690:0:0:0:0:
402,192,139512,128,0,139690:0:0:0:0:
182,192,139690,128,0,139869:0:0:0:0:
475,192,139690,128,0,139869:0:0:0:0:
109,192,139869,128,0,140048:0:0:0:0:
36,192,139869,1,0,0:0:0:0:
182,192,140048,128,0,140226:0:0:0:0:
475,192,140048,128,0,140405:0:0:0:0:
109,192,140226,128,0,140405:0:0:0:0:
329,192,140226,1,0,0:0:0:0:
256,192,140226,1,0,0:0:0:0:
182,192,140405,128,0,140583:0:0:0:0:
402,192,140405,128,0,140583:0:0:0:0:
109,192,140583,128,0,140762:0:0:0:0:
329,192,140583,128,0,140762:0:0:0:0:
182,192,140762,128,0,140940:0:0:0:0:
475,192,140762,1,0,0:0:0:0:
36,192,140940,128,0,141119:0:0:0:0:
475,192,140940,128,0,141298:0:0:0:0:
182,192,141119,128,0,141298:0:0:0:0:
402,192,141119,1,0,0:0:0:0:
36,192,141298,128,0,141476:0:0:0:0:
329,192,141298,1,0,0:0:0:0:
182,192,141476,128,0,141655:0:0:0:0:
329,192,141476,128,0,142726:0:0:0:0:
36,192,141655,128,0,141833:0:0:0:0:
109,192,141655,1,0,0:0:0:0:
475,192,141655,1,0,0:0:0:0:
182,192,141833,128,0,142012:0:0:0:0:
36,192,142012,128,0,142190:0:0:0:0:
256,192,142012,1,0,0:0:0:0:
402,192,142012,1,0,0:0:0:0:
182,192,142190,128,0,142369:0:0:0:0:
36,192,142369,1,0,0:0:0:0:
475,192,142548,1,0,0:0:0:0:
182,192,142548,1,0,0:0:0:0:
475,192,142726,1,0,0:0:0:0:
36,192,142726,1,0,0:0:0:0:
182,192,142905,1,0,0:0:0:0:
256,192,142905,1,0,0:0:0:0:
329,192,143083,1,0,0:0:0:0:
402,192,143083,1,0,0:0:0:0:
109,192,143083,1,0,0:0:0:0:
182,192,143262,1,0,0:0:0:0:
475,192,143440,1,0,0:0:0:0:
36,192,143440,1,0,0:0:0:0:
402,192,143530,1,0,0:0:0:0:
329,192,143619,1,0,0:0:0:0:
256,192,143708,1,0,0:0:0:0:
182,192,143798,1,0,0:0:0:0:
402,192,143798,1,0,0:0:0:0:
182,192,143976,1,0,0:0:0:0:
329,192,143976,1,0,0:0:0:0:
36,192,144155,128,0,144333:0:0:0:0:
402,192,144155,1,0,0:0:0:0:
109,192,144333,128,0,144512:0:0:0:0:
329,192,144333,1,0,0:0:0:0:
36,192,144512,128,0,144690:0:0:0:0:
475,192,144512,1,0,0:0:0:0:
402,192,144512,1,0,0:0:0:0:
182,192,144690,128,0,145226:0:0:0:0:
329,192,144690,1,0,0:0:0:0:
256,192,144869,1,0,0:0:0:0:
402,192,144869,1,0,0:0:0:0:
329,192,145048,1,0,0:0:0:0:
402,192,145226,128,0,145405:0:0:0:0:
109,192,145226,128,0,145405:0:0:0:0:
329,192,145405,128,0,145583:0:0:0:0:
36,192,145405,128,0,145583:0:0:0:0:
402,192,145583,128,0,145762:0:0:0:0:
475,192,145583,1,0,0:0:0:0:
329,192,145762,128,0,145940:0:0:0:0:
36,192,145762,128,0,146119:0:0:0:0:
402,192,145940,128,0,146119:0:0:0:0:
182,192,145940,1,0,0:0:0:0:
256,192,145940,1,0,0:0:0:0:
329,192,146119,128,0,146298:0:0:0:0:
109,192,146119,128,0,146298:0:0:0:0:
402,192,146298,128,0,146476:0:0:0:0:
182,192,146298,128,0,146476:0:0:0:0:
329,192,146476,128,0,146655:0:0:0:0:
36,192,146476,1,0,0:0:0:0:
475,192,146655,128,0,146833:0:0:0:0:
36,192,146655,128,0,147012:0:0:0:0:
329,192,146833,128,0,147012:0:0:0:0:
109,192,146833,1,0,0:0:0:0:
475,192,147012,128,0,147190:0:0:0:0:
182,192,147012,1,0,0:0:0:0:
329,192,147190,128,0,147369:0:0:0:0:
182,192,147190,128,0,148440:0:0:0:0:
475,192,147369,128,0,147548:0:0:0:0:
402,192,147369,1,0,0:0:0:0:
36,192,147369,1,0,0:0:0:0:
329,192,147548,128,0,147726:0:0:0:0:
475,192,147726,128,0,147905:0:0:0:0:
109,192,147726,1,0,0:0:0:0:
329,192,147905,128,0,148083:0:0:0:0:
36,192,148083,1,0,0:0:0:0:
475,192,148083,1,0,0:0:0:0:
109,192,148262,1,0,0:0:0:0:
329,192,148262,1,0,0:0:0:0:
109,192,148440,1,0,0:0:0:0:
475,192,148440,1,0,0:0:0:0:
402,192,148619,1,0,0:0:0:0:
36,192,148798,1,0,0:0:0:0:
182,192,148798,1,0,0:0:0:0:
256,192,148798,128,0,148887:0:0:0:0:
329,192,149155,128,0,149333:0:0:0:0:
36,192,149333,128,0,150226:0:0:0:0:
402,192,149512,128,0,149690:0:0:0:0:
109,192,149512,1,0,0:0:0:0:
329,192,149690,128,0,149869:0:0:0:0:
109,192,149690,1,0,0:0:0:0:
402,192,149869,128,0,150048:0:0:0:0:
329,192,150048,128,0,150226:0:0:0:0:
182,192,150048,1,0,0:0:0:0:
256,192,150226,128,0,150405:0:0:0:0:
475,192,150226,1,0,0:0:0:0:
402,192,150226,1,0,0:0:0:0:
329,192,150405,1,0,0:0:0:0:
182,192,150583,128,0,150762:0:0:0:0:
402,192,150583,1,0,0:0:0:0:
475,192,150762,128,0,151119:0:0:0:0:
329,192,150762,1,0,0:0:0:0:
109,192,150940,128,0,151119:0:0:0:0:
256,192,150940,1,0,0:0:0:0:
182,192,151119,128,0,151298:0:0:0:0:
329,192,151119,1,0,0:0:0:0:
109,192,151298,128,0,151476:0:0:0:0:
329,192,151298,1,0,0:0:0:0:
182,192,151476,128,0,151655:0:0:0:0:
402,192,151655,128,0,152012:0:0:0:0:
109,192,151655,1,0,0:0:0:0:
36,192,151655,1,0,0:0:0:0:
182,192,151833,1,0,0:0:0:0:
109,192,152012,1,0,0:0:0:0:
256,192,152012,128,0,152369:0:0:0:0:
182,192,152190,1,0,0:0:0:0:
329,192,152369,128,0,152548:0:0:0:0:
36,192,152369,128,0,152726:0:0:0:0:
475,192,152548,128,0,152726:0:0:0:0:
182,192,152548,1,0,0:0:0:0:
329,192,152726,128,0,152905:0:0:0:0:
109,192,152726,128,0,153083:0:0:0:0:
475,192,152905,128,0,153083:0:0:0:0:
36,192,152905,1,0,0:0:0:0:
182,192,153083,128,0,153262:0:0:0:0:
329,192,153083,1,0,0:0:0:0:
402,192,153083,1,0,0:0:0:0:
475,192,153262,1,0,0:0:0:0:
256,192,153262,128,0,153440:0:0:0:0:
329,192,153440,1,0,0:0:0:0:
36,192,153440,1,0,0:0:0:0:
475,192,153619,1,0,0:0:0:0:
256,192,153619,128,0,153798:0:0:0:0:
182,192,153798,128,0,153976:0:0:0:0:
402,192,153798,128,0,154512:0:0:0:0:
36,192,153976,128,0,154155:0:0:0:0:
329,192,153976,1,0,0:0:0:0:
182,192,154155,128,0,154333:0:0:0:0:
329,192,154155,1,0,0:0:0:0:
36,192,154333,128,0,154512:0:0:0:0:
475,192,154333,1,0,0:0:0:0:
182,192,154512,1,0,0:0:0:0:
109,192,154512,1,0,0:0:0:0:
36,192,154690,1,0,0:0:0:0:
109,192,154869,1,0,0:0:0:0:
475,192,154869,128,0,155048:0:0:0:0:
182,192,154958,1,0,0:0:0:0:
256,192,155048,1,0,0:0:0:0:
36,192,155137,1,0,0:0:0:0:
402,192,155226,128,0,155405:0:0:0:0:
256,192,155226,128,0,155583:0:0:0:0:
329,192,155405,128,0,155583:0:0:0:0:
109,192,155405,1,0,0:0:0:0:
402,192,155583,128,0,155762:0:0:0:0:
182,192,155583,1,0,0:0:0:0:
329,192,155762,128,0,155940:0:0:0:0:
182,192,155762,128,0,156298:0:0:0:0:
402,192,155940,1,0,0:0:0:0:
475,192,155940,1,0,0:0:0:0:
36,192,155940,1,0,0:0:0:0:
329,192,156119,1,0,0:0:0:0:
36,192,156298,128,0,156476:0:0:0:0:
402,192,156298,1,0,0:0:0:0:
109,192,156298,1,0,0:0:0:0:
329,192,156476,1,0,0:0:0:0:
109,192,156655,128,0,156833:0:0:0:0:
475,192,156655,128,0,156833:0:0:0:0:
182,192,156833,128,0,157012:0:0:0:0:
402,192,156833,128,0,157190:0:0:0:0:
109,192,157012,128,0,157190:0:0:0:0:
329,192,157012,1,0,0:0:0:0:
182,192,157190,128,0,157369:0:0:0:0:
475,192,157190,1,0,0:0:0:0:
109,192,157369,1,0,0:0:0:0:
475,192,157369,128,0,158798:0:0:0:0:
36,192,157369,1,0,0:0:0:0:
182,192,157548,1,0,0:0:0:0:
109,192,157726,1,0,0:0:0:0:
402,192,157726,1,0,0:0:0:0:
329,192,157815,1,0,0:0:0:0:
182,192,157905,1,0,0:0:0:0:
402,192,157994,1,0,0:0:0:0:
109,192,158083,1,0,0:0:0:0:
329,192,158083,1,0,0:0:0:0:
182,192,158262,1,0,0:0:0:0:
329,192,158262,1,0,0:0:0:0:
109,192,158440,1,0,0:0:0:0:
182,192,158619,1,0,0:0:0:0:
402,192,158619,1,0,0:0:0:0:
109,192,158798,1,0,0:0:0:0:
36,192,158798,1,0,0:0:0:0:
329,192,158798,1,0,0:0:0:0:
256,192,158976,1,0,0:0:0:0:
182,192,159155,128,0,159333:0:0:0:0:
402,192,159155,1,0,0:0:0:0:
109,192,159333,1,0,0:0:0:0:
475,192,159512,1,0,0:0:0:0:
329,192,159512,1,0,0:0:0:0:
36,192,159512,128,0,160226:0:0:0:0:
256,192,159690,1,0,0:0:0:0:
182,192,159690,1,0,0:0:0:0:
256,192,160048,1,0,0:0:0:0:
182,192,160048,1,0,0:0:0:0:
475,192,160226,1,0,0:0:0:0:
329,192,160226,1,0,0:0:0:0:
109,192,160226,1,0,0:0:0:0:
402,192,160583,1,0,0:0:0:0:
182,192,160583,1,0,0:0:0:0:
109,192,160583,1,0,0:0:0:0:
182,192,160940,1,0,0:0:0:0:
256,192,160940,1,0,0:0:0:0:
36,192,160940,128,0,162369:0:0:0:0:
475,192,160940,128,0,161119:0:0:0:0:
402,192,161119,128,0,161298:0:0:0:0:
329,192,161298,128,0,161476:0:0:0:0:
109,192,161298,1,0,0:0:0:0:
256,192,161476,128,0,161655:0:0:0:0:
475,192,161655,128,0,161833:0:0:0:0:
402,192,161655,1,0,0:0:0:0:
109,192,161655,1,0,0:0:0:0:
182,192,161833,128,0,162012:0:0:0:0:
402,192,162012,1,0,0:0:0:0:
329,192,162012,1,0,0:0:0:0:
182,192,162190,128,0,162369:0:0:0:0:
402,192,162190,1,0,0:0:0:0:
256,192,162369,128,0,163798:0:0:0:0:
475,192,162369,128,0,162548:0:0:0:0:
36,192,162548,1,0,0:0:0:0:
109,192,162548,1,0,0:0:0:0:
402,192,162548,1,0,0:0:0:0:
329,192,162726,128,0,163083:0:0:0:0:
109,192,162905,1,0,0:0:0:0:
182,192,163083,128,0,163440:0:0:0:0:
402,192,163083,1,0,0:0:0:0:
109,192,163083,1,0,0:0:0:0:
109,192,163440,128,0,163619:0:0:0:0:
402,192,163619,128,0,165226:0:0:0:0:
36,192,163798,128,0,166655:0:0:0:0:
329,192,163798,1,0,0:0:0:0:
329,192,164155,1,0,0:0:0:0:
182,192,164155,1,0,0:0:0:0:
256,192,164333,1,0,0:0:0:0:
182,192,164512,1,0,0:0:0:0:
475,192,164512,1,0,0:0:0:0:
109,192,164512,1,0,0:0:0:0:
109,192,164869,1,0,0:0:0:0:
329,192,164869,1,0,0:0:0:0:
109,192,165048,1,0,0:0:0:0:
256,192,165048,1,0,0:0:0:0:
182,192,165226,128,0,165405:0:0:0:0:
475,192,165226,1,0,0:0:0:0:
109,192,165405,128,0,165583:0:0:0:0:
329,192,165405,1,0,0:0:0:0:
402,192,165405,1,0,0:0:0:0:
256,192,165583,128,0,165762:0:0:0:0:
182,192,165762,128,0,165940:0:0:0:0:
475,192,165762,1,0,0:0:0:0:
329,192,165940,128,0,166119:0:0:0:0:
109,192,165940,1,0,0:0:0:0:
475,192,165940,1,0,0:0:0:0:
256,192,166119,128,0,166298:0:0:0:0:
402,192,166298,128,0,166476:0:0:0:0:
182,192,166298,1,0,0:0:0:0:
329,192,166476,128,0,166655:0:0:0:0:
475,192,166655,128,0,168083:0:0:0:0:
256,192,166655,128,0,166833:0:0:0:0:
182,192,166833,128,0,167012:0:0:0:0:
109,192,167012,128,0,167190:0:0:0:0:
402,192,167012,1,0,0:0:0:0:
36,192,167190,128,0,167369:0:0:0:0:
329,192,167369,1,0,0:0:0:0:
402,192,167369,1,0,0:0:0:0:
182,192,167369,1,0,0:0:0:0:
36,192,167548,128,0,167726:0:0:0:0:
402,192,167726,128,0,168083:0:0:0:0:
109,192,167726,1,0,0:0:0:0:
109,192,167905,1,0,0:0:0:0:
329,192,167905,1,0,0:0:0:0:
256,192,168083,128,0,169512:0:0:0:0:
182,192,168083,128,0,168440:0:0:0:0:
329,192,168262,1,0,0:0:0:0:
36,192,168262,1,0,0:0:0:0:
475,192,168262,1,0,0:0:0:0:
109,192,168440,128,0,168619:0:0:0:0:
36,192,168619,128,0,168798:0:0:0:0:
475,192,168619,1,0,0:0:0:0:
182,192,168798,1,0,0:0:0:0:
475,192,168798,1,0,0:0:0:0:
329,192,168798,1,0,0:0:0:0:
329,192,168976,128,0,169155:0:0:0:0:
182,192,169155,128,0,169333:0:0:0:0:
109,192,169333,128,0,170226:0:0:0:0:
475,192,169512,128,0,172369:0:0:0:0:
402,192,169512,128,0,169690:0:0:0:0:
329,192,169690,128,0,169869:0:0:0:0:
182,192,169869,128,0,170048:0:0:0:0:
402,192,169869,1,0,0:0:0:0:
36,192,170048,128,0,170226:0:0:0:0:
402,192,170226,128,0,170405:0:0:0:0:
329,192,170226,1,0,0:0:0:0:
256,192,170226,1,0,0:0:0:0:
182,192,170405,128,0,170583:0:0:0:0:
109,192,170583,128,0,170762:0:0:0:0:
329,192,170583,1,0,0:0:0:0:
36,192,170762,128,0,170940:0:0:0:0:
329,192,170762,1,0,0:0:0:0:
402,192,170940,128,0,171298:0:0:0:0:
329,192,171119,1,0,0:0:0:0:
182,192,171119,1,0,0:0:0:0:
36,192,171119,1,0,0:0:0:0:
256,192,171298,128,0,171655:0:0:0:0:
109,192,171476,1,0,0:0:0:0:
329,192,171476,1,0,0:0:0:0:
36,192,171655,128,0,172012:0:0:0:0:
402,192,171655,1,0,0:0:0:0:
109,192,171655,1,0,0:0:0:0:
329,192,172012,128,0,172190:0:0:0:0:
256,192,172190,128,0,172726:0:0:0:0:
36,192,172369,128,0,173798:0:0:0:0:
402,192,172369,1,0,0:0:0:0:
329,192,172726,1,0,0:0:0:0:
182,192,172726,1,0,0:0:0:0:
109,192,172905,1,0,0:0:0:0:
475,192,173083,1,0,0:0:0:0:
402,192,173083,1,0,0:0:0:0:
182,192,173083,1,0,0:0:0:0:
109,192,173440,1,0,0:0:0:0:
256,192,173440,1,0,0:0:0:0:
109,192,173619,128,0,173798:0:0:0:0:
329,192,173619,1,0,0:0:0:0:
475,192,173798,128,0,175226:0:0:0:0:
402,192,173798,128,0,174333:0:0:0:0:
329,192,173976,1,0,0:0:0:0:
182,192,173976,1,0,0:0:0:0:
109,192,173976,1,0,0:0:0:0:
36,192,174155,1,0,0:0:0:0:
329,192,174333,128,0,174512:0:0:0:0:
182,192,174333,1,0,0:0:0:0:
109,192,174512,128,0,174869:0:0:0:0:
36,192,174512,1,0,0:0:0:0:
182,192,174512,1,0,0:0:0:0:
182,192,174869,128,0,175048:0:0:0:0:
329,192,175048,128,0,176298:0:0:0:0:
36,192,175226,128,0,176655:0:0:0:0:
402,192,175226,1,0,0:0:0:0:
402,192,175583,1,0,0:0:0:0:
256,192,175583,1,0,0:0:0:0:
182,192,175762,1,0,0:0:0:0:
109,192,175940,1,0,0:0:0:0:
475,192,175940,1,0,0:0:0:0:
402,192,175940,1,0,0:0:0:0:
256,192,176298,1,0,0:0:0:0:
475,192,176298,1,0,0:0:0:0:
329,192,176476,1,0,0:0:0:0:
256,192,176476,1,0,0:0:0:0:
475,192,176655,128,0,178083:0:0:0:0:
402,192,176833,1,0,0:0:0:0:
182,192,176833,1,0,0:0:0:0:
109,192,176833,1,0,0:0:0:0:
256,192,177012,1,0,0:0:0:0:
329,192,177190,1,0,0:0:0:0:
36,192,177190,1,0,0:0:0:0:
402,192,177369,128,0,177548:0:0:0:0:
109,192,177369,1,0,0:0:0:0:
329,192,177369,1,0,0:0:0:0:
36,192,177548,128,0,177905:0:0:0:0:
402,192,177905,128,0,178083:0:0:0:0:
256,192,178083,128,0,180940:0:0:0:0:
36,192,178083,128,0,178619:0:0:0:0:
475,192,178440,1,0,0:0:0:0:
329,192,178440,1,0,0:0:0:0:
109,192,178619,128,0,178798:0:0:0:0:
475,192,178798,128,0,179869:0:0:0:0:
182,192,178798,1,0,0:0:0:0:
402,192,178798,1,0,0:0:0:0:
329,192,179155,1,0,0:0:0:0:
182,192,179155,1,0,0:0:0:0:
329,192,179333,1,0,0:0:0:0:
36,192,179333,1,0,0:0:0:0:
402,192,179690,1,0,0:0:0:0:
36,192,179690,1,0,0:0:0:0:
109,192,179690,1,0,0:0:0:0:
182,192,179869,1,0,0:0:0:0:
329,192,180048,1,0,0:0:0:0:
329,192,180226,1,0,0:0:0:0:
36,192,180226,128,0,180940:0:0:0:0:
475,192,180226,128,0,180940:0:0:0:0:
402,192,180940,1,0,0:0:0:0:
109,192,180940,1,0,0:0:0:0:
182,192,180940,128,0,181476:0:0:0:0:
329,192,181476,128,0,181655:0:0:0:0:
182,192,181655,128,0,182190:0:0:0:0:
329,192,182190,128,0,182369:0:0:0:0:
182,192,182369,128,0,182726:0:0:0:0:
109,192,182726,128,0,183083:0:0:0:0:
256,192,183083,128,0,183619:0:0:0:0:
402,192,183083,1,0,0:0:0:0:
36,192,183083,128,0,183619:0:0:0:0:
109,192,183798,1,0,0:0:0:0:
475,192,183798,128,0,184512:0:0:0:0:
182,192,183798,128,0,184333:0:0:0:0:
329,192,183798,128,0,184155:0:0:0:0:
36,192,184155,1,0,0:0:0:0:
329,192,184333,1,0,0:0:0:0:
402,192,184512,128,0,184690:0:0:0:0:
109,192,184512,128,0,185048:0:0:0:0:
256,192,184512,128,0,184869:0:0:0:0:
475,192,184869,1,0,0:0:0:0:
36,192,185048,128,0,185226:0:0:0:0:
329,192,185048,128,0,185226:0:0:0:0:
109,192,185226,128,0,185405:0:0:0:0:
402,192,185226,128,0,185405:0:0:0:0:
256,192,185226,1,0,0:0:0:0:
475,192,185405,128,0,185583:0:0:0:0:
182,192,185405,128,0,185583:0:0:0:0:
109,192,185583,128,0,185940:0:0:0:0:
402,192,185583,128,0,185940:0:0:0:0:
36,192,185583,1,0,0:0:0:0:
256,192,185762,1,0,0:0:0:0:
329,192,185940,128,0,186298:0:0:0:0:
36,192,185940,128,0,186476:0:0:0:0:
475,192,185940,128,0,186119:0:0:0:0:
109,192,186298,1,0,0:0:0:0:
402,192,186476,1,0,0:0:0:0:
329,192,186655,128,0,187369:0:0:0:0:
36,192,186655,128,0,187012:0:0:0:0:
256,192,186655,128,0,187012:0:0:0:0:
402,192,187012,128,0,187369:0:0:0:0:
109,192,187012,128,0,187726:0:0:0:0:
36,192,187190,1,0,0:0:0:0:
182,192,187369,128,0,187726:0:0:0:0:
256,192,187369,128,0,187548:0:0:0:0:
475,192,187369,128,0,187905:0:0:0:0:
256,192,187726,1,0,0:0:0:0:
36,192,187905,1,0,0:0:0:0:
402,192,187905,1,0,0:0:0:0:
182,192,188083,128,0,188798:0:0:0:0:
475,192,188083,128,0,188440:0:0:0:0:
329,192,188083,1,0,0:0:0:0:
36,192,188262,1,0,0:0:0:0:
329,192,188262,1,0,0:0:0:0:
109,192,188262,1,0,0:0:0:0:
402,192,188440,128,0,189155:0:0:0:0:
256,192,188440,128,0,188798:0:0:0:0:
109,192,188619,1,0,0:0:0:0:
36,192,188798,128,0,189333:0:0:0:0:
329,192,188798,128,0,188976:0:0:0:0:
475,192,188798,128,0,189155:0:0:0:0:
182,192,189155,1,0,0:0:0:0:
109,192,189333,1,0,0:0:0:0:
475,192,189512,128,0,190048:0:0:0:0:
256,192,189512,1,0,0:0:0:0:
329,192,189512,128,0,189869:0:0:0:0:
182,192,189512,128,0,190226:0:0:0:0:
36,192,189869,1,0,0:0:0:0:
329,192,190048,1,0,0:0:0:0:
109,192,190226,128,0,190405:0:0:0:0:
402,192,190226,128,0,190762:0:0:0:0:
256,192,190226,128,0,190583:0:0:0:0:
182,192,190583,1,0,0:0:0:0:
36,192,190762,128,0,190940:0:0:0:0:
329,192,190762,128,0,190940:0:0:0:0:
109,192,190940,128,0,191119:0:0:0:0:
256,192,190940,1,0,0:0:0:0:
402,192,190940,128,0,191119:0:0:0:0:
475,192,191119,128,0,191298:0:0:0:0:
182,192,191119,128,0,191298:0:0:0:0:
109,192,191298,128,0,191655:0:0:0:0:
36,192,191298,1,0,0:0:0:0:
402,192,191298,128,0,191655:0:0:0:0:
256,192,191476,1,0,0:0:0:0:
36,192,191655,128,0,191833:0:0:0:0:
329,192,191655,128,0,192012:0:0:0:0:
475,192,191655,128,0,192190:0:0:0:0:
109,192,192012,1,0,0:0:0:0:
182,192,192190,1,0,0:0:0:0:
36,192,192369,128,0,193083:0:0:0:0:
329,192,192369,128,0,192905:0:0:0:0:
402,192,192369,128,0,192726:0:0:0:0:
182,192,192726,1,0,0:0:0:0:
475,192,192905,1,0,0:0:0:0:
402,192,193083,128,0,193262:0:0:0:0:
109,192,193083,128,0,193262:0:0:0:0:
256,192,193083,1,0,0:0:0:0:
475,192,193262,128,0,193619:0:0:0:0:
182,192,193262,128,0,193619:0:0:0:0:
256,192,193440,1,0,0:0:0:0:
329,192,193619,128,0,193798:0:0:0:0:
109,192,193619,128,0,193798:0:0:0:0:
475,192,193798,128,0,194512:0:0:0:0:
36,192,193798,128,0,194333:0:0:0:0:
402,192,193798,128,0,193976:0:0:0:0:
182,192,193976,1,0,0:0:0:0:
256,192,193976,128,0,194155:0:0:0:0:
109,192,193976,1,0,0:0:0:0:
329,192,194155,128,0,194333:0:0:0:0:
402,192,194155,1,0,0:0:0:0:
182,192,194333,128,0,194512:0:0:0:0:
109,192,194423,1,0,0:0:0:0:
256,192,194512,128,0,194690:0:0:0:0:
36,192,194512,1,0,0:0:0:0:
329,192,194512,1,0,0:0:0:0:
109,192,194690,128,0,194869:0:0:0:0:
475,192,194690,1,0,0:0:0:0:
402,192,194690,1,0,0:0:0:0:
182,192,194869,128,0,195048:0:0:0:0:
329,192,194869,1,0,0:0:0:0:
475,192,195048,128,0,195226:0:0:0:0:
329,192,195226,128,0,195762:0:0:0:0:
182,192,195226,128,0,195583:0:0:0:0:
402,192,195226,1,0,0:0:0:0:
36,192,195226,128,0,195940:0:0:0:0:
475,192,195583,1,0,0:0:0:0:
182,192,195762,1,0,0:0:0:0:
256,192,195940,128,0,196298:0:0:0:0:
402,192,195940,128,0,196476:0:0:0:0:
109,192,195940,128,0,196119:0:0:0:0:
36,192,196298,1,0,0:0:0:0:
182,192,196476,128,0,196655:0:0:0:0:
475,192,196476,128,0,196655:0:0:0:0:
256,192,196655,1,0,0:0:0:0:
109,192,196655,128,0,196833:0:0:0:0:
402,192,196655,128,0,196833:0:0:0:0:
329,192,196833,128,0,197012:0:0:0:0:
36,192,196833,128,0,197012:0:0:0:0:
475,192,197012,1,0,0:0:0:0:
109,192,197012,128,0,197369:0:0:0:0:
402,192,197012,128,0,197369:0:0:0:0:
256,192,197190,1,0,0:0:0:0:
36,192,197369,128,0,197548:0:0:0:0:
475,192,197369,128,0,197905:0:0:0:0:
182,192,197369,128,0,197726:0:0:0:0:
402,192,197726,1,0,0:0:0:0:
109,192,197905,1,0,0:0:0:0:
402,192,198083,128,0,198440:0:0:0:0:
182,192,198083,128,0,198798:0:0:0:0:
36,192,198083,128,0,198440:0:0:0:0:
329,192,198440,128,0,199155:0:0:0:0:
109,192,198440,128,0,198798:0:0:0:0:
402,192,198619,1,0,0:0:0:0:
36,192,198798,128,0,199333:0:0:0:0:
475,192,198798,128,0,198976:0:0:0:0:
256,192,198798,128,0,199155:0:0:0:0:
109,192,199155,1,0,0:0:0:0:
402,192,199333,1,0,0:0:0:0:
256,192,199333,1,0,0:0:0:0:
36,192,199512,1,0,0:0:0:0:
475,192,199512,128,0,199869:0:0:0:0:
182,192,199512,128,0,200226:0:0:0:0:
109,192,199690,1,0,0:0:0:0:
329,192,199690,1,0,0:0:0:0:
36,192,199690,1,0,0:0:0:0:
256,192,199869,128,0,200226:0:0:0:0:
402,192,199869,128,0,200583:0:0:0:0:
36,192,200048,1,0,0:0:0:0:
475,192,200226,128,0,200762:0:0:0:0:
329,192,200226,128,0,200583:0:0:0:0:
109,192,200226,128,0,200405:0:0:0:0:
182,192,200583,1,0,0:0:0:0:
109,192,200762,1,0,0:0:0:0:
182,192,200940,128,0,201298:0:0:0:0:
329,192,200940,128,0,201655:0:0:0:0:
36,192,200940,128,0,201476:0:0:0:0:
256,192,200940,1,0,0:0:0:0:
475,192,201298,1,0,0:0:0:0:
182,192,201476,1,0,0:0:0:0:
256,192,201655,128,0,202012:0:0:0:0:
109,192,201655,128,0,202190:0:0:0:0:
402,192,201655,128,0,201833:0:0:0:0:
36,192,202012,1,0,0:0:0:0:
182,192,202190,128,0,202369:0:0:0:0:
475,192,202190,128,0,202369:0:0:0:0:
109,192,202369,128,0,202548:0:0:0:0:
256,192,202369,1,0,0:0:0:0:
402,192,202369,128,0,202548:0:0:0:0:
329,192,202548,128,0,202726:0:0:0:0:
36,192,202548,128,0,202726:0:0:0:0:
109,192,202726,128,0,203083:0:0:0:0:
475,192,202726,1,0,0:0:0:0:
402,192,202726,128,0,203083:0:0:0:0:
256,192,202905,1,0,0:0:0:0:
36,192,203083,128,0,203619:0:0:0:0:
182,192,203083,128,0,203440:0:0:0:0:
475,192,203083,128,0,203262:0:0:0:0:
402,192,203440,1,0,0:0:0:0:
329,192,203619,1,0,0:0:0:0:
36,192,203798,128,0,203976:0:0:0:0:
182,192,203798,128,0,204333:0:0:0:0:
475,192,203798,128,0,204512:0:0:0:0:
109,192,203976,128,0,204155:0:0:0:0:
329,192,204155,128,0,204333:0:0:0:0:
402,192,204333,128,0,204512:0:0:0:0:
256,192,204512,1,0,0:0:0:0:
329,192,204512,128,0,204690:0:0:0:0:
36,192,204512,128,0,204690:0:0:0:0:
402,192,204690,128,0,205048:0:0:0:0:
109,192,204690,128,0,204869:0:0:0:0:
475,192,204869,1,0,0:0:0:0:
182,192,204869,128,0,205048:0:0:0:0:
329,192,205048,128,0,205226:0:0:0:0:
256,192,205048,128,0,205226:0:0:0:0:
475,192,205226,128,0,205940:0:0:0:0:
36,192,205226,128,0,206298:0:0:0:0:
182,192,205226,128,0,205583:0:0:0:0:
109,192,205405,1,0,0:0:0:0:
329,192,205405,1,0,0:0:0:0:
402,192,205583,128,0,205940:0:0:0:0:
256,192,205583,1,0,0:0:0:0:
109,192,205940,1,0,0:0:0:0:
182,192,205940,1,0,0:0:0:0:
256,192,205940,1,0,0:0:0:0:
182,192,206060,1,0,0:0:0:0:
109,192,206060,1,0,0:0:0:0:
402,192,206179,1,0,0:0:0:0:
329,192,206179,1,0,0:0:0:0:
329,192,206298,1,0,0:0:0:0:
402,192,206298,128,0,206655:0:0:0:0:
182,192,206476,1,0,0:0:0:0:
109,192,206476,1,0,0:0:0:0:
329,192,206655,1,0,0:0:0:0:
256,192,206655,1,0,0:0:0:0:
109,192,206655,1,0,0:0:0:0:
36,192,206655,128,0,207369:0:0:0:0:
109,192,207012,128,0,207726:0:0:0:0:
329,192,207012,1,0,0:0:0:0:
475,192,207190,1,0,0:0:0:0:
256,192,207369,128,0,208083:0:0:0:0:
402,192,207369,1,0,0:0:0:0:
329,192,207369,1,0,0:0:0:0:
402,192,207726,128,0,208083:0:0:0:0:
182,192,207726,1,0,0:0:0:0:
182,192,207905,1,0,0:0:0:0:
36,192,207905,1,0,0:0:0:0:
475,192,208083,128,0,209512:0:0:0:0:
36,192,208262,1,0,0:0:0:0:
182,192,208262,1,0,0:0:0:0:
256,192,208262,1,0,0:0:0:0:
402,192,208440,1,0,0:0:0:0:
329,192,208619,1,0,0:0:0:0:
36,192,208619,1,0,0:0:0:0:
182,192,208798,128,0,210226:0:0:0:0:
329,192,208798,1,0,0:0:0:0:
402,192,208798,1,0,0:0:0:0:
256,192,209155,1,0,0:0:0:0:
402,192,209512,128,0,210762:0:0:0:0:
36,192,209512,1,0,0:0:0:0:
36,192,209869,1,0,0:0:0:0:
475,192,209869,1,0,0:0:0:0:
329,192,210048,1,0,0:0:0:0:
109,192,210226,128,0,210940:0:0:0:0:
256,192,210226,1,0,0:0:0:0:
36,192,210226,1,0,0:0:0:0:
475,192,210583,1,0,0:0:0:0:
329,192,210583,1,0,0:0:0:0:
36,192,210762,128,0,210940:0:0:0:0:
329,192,210762,1,0,0:0:0:0:
182,192,210940,128,0,211655:0:0:0:0:
36,192,211119,1,0,0:0:0:0:
329,192,211119,1,0,0:0:0:0:
256,192,211119,1,0,0:0:0:0:
402,192,211298,128,0,212012:0:0:0:0:
475,192,211476,1,0,0:0:0:0:
109,192,211476,1,0,0:0:0:0:
329,192,211655,128,0,212369:0:0:0:0:
109,192,211655,1,0,0:0:0:0:
256,192,211655,1,0,0:0:0:0:
182,192,212012,128,0,212369:0:0:0:0:
36,192,212369,128,0,215226:0:0:0:0:
256,192,212369,1,0,0:0:0:0:
475,192,212369,1,0,0:0:0:0:
402,192,212369,128,0,212905:0:0:0:0:
256,192,212726,1,0,0:0:0:0:
109,192,212726,1,0,0:0:0:0:
475,192,212905,128,0,213083:0:0:0:0:
182,192,213083,1,0,0:0:0:0:
329,192,213083,1,0,0:0:0:0:
109,192,213083,1,0,0:0:0:0:
402,192,213083,128,0,213619:0:0:0:0:
256,192,213440,1,0,0:0:0:0:
109,192,213619,1,0,0:0:0:0:
475,192,213619,128,0,213798:0:0:0:0:
182,192,213708,1,0,0:0:0:0:
256,192,213798,1,0,0:0:0:0:
329,192,213798,1,0,0:0:0:0:
109,192,213798,1,0,0:0:0:0:
402,192,213798,128,0,214155:0:0:0:0:
256,192,213976,1,0,0:0:0:0:
182,192,213976,1,0,0:0:0:0:
329,192,214155,128,0,214512:0:0:0:0:
182,192,214333,1,0,0:0:0:0:
109,192,214333,1,0,0:0:0:0:
402,192,214512,1,0,0:0:0:0:
475,192,214512,1,0,0:0:0:0:
182,192,214512,1,0,0:0:0:0:
256,192,214512,128,0,214869:0:0:0:0:
475,192,214869,128,0,215226:0:0:0:0:
182,192,214869,1,0,0:0:0:0:
109,192,215226,128,0,215762:0:0:0:0:
329,192,215226,1,0,0:0:0:0:
402,192,215226,1,0,0:0:0:0:
182,192,215762,128,0,215940:0:0:0:0:
109,192,215940,128,0,216476:0:0:0:0:
182,192,216476,128,0,216655:0:0:0:0:
109,192,216655,128,0,217012:0:0:0:0:
36,192,217012,128,0,217190:0:0:0:0:
36,192,217369,128,0,218083:0:0:0:0:
475,192,217369,1,0,0:0:0:0:
402,192,217369,1,0,0:0:0:0:
329,192,217369,1,0,0:0:0:0:
475,192,218083,1,0,0:0:0:0:
182,192,218083,1,0,0:0:0:0:
256,192,218083,1,0,0:0:0:0:
402,192,218083,1,0,0:0:0:0:
109,192,218440,1,0,0:0:0:0:
182,192,218440,1,0,0:0:0:0:
329,192,218440,1,0,0:0:0:0:
475,192,218798,1,0,0:0:0:0:
256,192,218798,1,0,0:0:0:0:
109,192,218798,1,0,0:0:0:0:
475,192,219155,1,0,0:0:0:0:
329,192,219155,1,0,0:0:0:0:
36,192,219155,1,0,0:0:0:0:
329,192,219512,1,0,0:0:0:0:
256,192,219512,1,0,0:0:0:0:
109,192,219512,128,0,219869:0:0:0:0:
36,192,219869,1,0,0:0:0:0:
256,192,219869,1,0,0:0:0:0:
475,192,219869,1,0,0:0:0:0:
329,192,220048,1,0,0:0:0:0:
182,192,220226,128,0,220583:0:0:0:0:
36,192,220226,1,0,0:0:0:0:
402,192,220226,1,0,0:0:0:0:
402,192,220583,1,0,0:0:0:0:
109,192,220583,1,0,0:0:0:0:
256,192,220583,1,0,0:0:0:0:
36,192,220762,1,0,0:0:0:0:
256,192,220940,128,0,221298:0:0:0:0:
109,192,220940,1,0,0:0:0:0:
475,192,220940,1,0,0:0:0:0:
329,192,220940,1,0,0:0:0:0:
36,192,221298,1,0,0:0:0:0:
475,192,221298,1,0,0:0:0:0:
182,192,221298,1,0,0:0:0:0:
402,192,221298,1,0,0:0:0:0:
329,192,221417,1,0,0:0:0:0:
182,192,221536,1,0,0:0:0:0:
329,192,221655,128,0,222012:0:0:0:0:
109,192,221655,1,0,0:0:0:0:
256,192,221655,1,0,0:0:0:0:
36,192,221655,1,0,0:0:0:0:
36,192,222012,1,0,0:0:0:0:
109,192,222012,1,0,0:0:0:0:
475,192,222012,1,0,0:0:0:0:
402,192,222012,1,0,0:0:0:0:
182,192,222131,1,0,0:0:0:0:
256,192,222250,1,0,0:0:0:0:
402,192,222369,128,0,222726:0:0:0:0:
109,192,222369,1,0,0:0:0:0:
182,192,222369,1,0,0:0:0:0:
475,192,222369,1,0,0:0:0:0:
109,192,222726,1,0,0:0:0:0:
256,192,222726,1,0,0:0:0:0:
329,192,222726,1,0,0:0:0:0:
36,192,222726,1,0,0:0:0:0:
182,192,222845,1,0,0:0:0:0:
109,192,222964,1,0,0:0:0:0:
475,192,223083,128,0,223798:0:0:0:0:
329,192,223083,1,0,0:0:0:0:
402,192,223083,1,0,0:0:0:0:
36,192,223083,1,0,0:0:0:0:
256,192,223083,1,0,0:0:0:0:
36,192,223798,1,0,0:0:0:0:
109,192,223798,1,0,0:0:0:0:
329,192,223798,1,0,0:0:0:0:
182,192,223798,128,0,224512:0:0:0:0:
475,192,224333,1,0,0:0:0:0:
402,192,224333,1,0,0:0:0:0:
109,192,224512,128,0,225048:0:0:0:0:
329,192,224512,1,0,0:0:0:0:
475,192,224690,1,0,0:0:0:0:
256,192,224869,1,0,0:0:0:0:
402,192,224869,1,0,0:0:0:0:
36,192,225048,128,0,225226:0:0:0:0:
109,192,225226,128,0,225405:0:0:0:0:
475,192,225226,1,0,0:0:0:0:
182,192,225405,128,0,225583:0:0:0:0:
329,192,225405,1,0,0:0:0:0:
109,192,225583,128,0,225940:0:0:0:0:
402,192,225762,1,0,0:0:0:0:
36,192,225940,128,0,226298:0:0:0:0:
256,192,225940,1,0,0:0:0:0:
475,192,226298,1,0,0:0:0:0:
402,192,226476,1,0,0:0:0:0:
329,192,226476,1,0,0:0:0:0:
256,192,226655,1,0,0:0:0:0:
36,192,226655,128,0,227012:0:0:0:0:
109,192,227012,128,0,227369:0:0:0:0:
475,192,227190,1,0,0:0:0:0:
402,192,227190,1,0,0:0:0:0:
182,192,227369,128,0,227726:0:0:0:0:
256,192,227369,1,0,0:0:0:0:
329,192,227548,1,0,0:0:0:0:
402,192,227726,1,0,0:0:0:0:
475,192,227726,1,0,0:0:0:0:
36,192,228083,128,0,228440:0:0:0:0:
256,192,228083,1,0,0:0:0:0:
329,192,228262,1,0,0:0:0:0:
402,192,228262,1,0,0:0:0:0:
109,192,228440,128,0,228798:0:0:0:0:
475,192,228619,1,0,0:0:0:0:
329,192,228619,1,0,0:0:0:0:
182,192,228798,128,0,229155:0:0:0:0:
256,192,228798,1,0,0:0:0:0:
329,192,229155,1,0,0:0:0:0:
402,192,229244,1,0,0:0:0:0:
475,192,229333,1,0,0:0:0:0:
182,192,229512,128,0,230226:0:0:0:0:
329,192,229512,1,0,0:0:0:0:
475,192,230048,1,0,0:0:0:0:
402,192,230048,1,0,0:0:0:0:
109,192,230226,128,0,230762:0:0:0:0:
256,192,230226,1,0,0:0:0:0:
475,192,230405,1,0,0:0:0:0:
329,192,230583,1,0,0:0:0:0:
402,192,230583,1,0,0:0:0:0:
36,192,230762,128,0,230940:0:0:0:0:
109,192,230940,128,0,231119:0:0:0:0:
329,192,230940,1,0,0:0:0:0:
182,192,231119,128,0,231298:0:0:0:0:
475,192,231119,1,0,0:0:0:0:
109,192,231298,128,0,231655:0:0:0:0:
402,192,231476,1,0,0:0:0:0:
36,192,231655,128,0,232012:0:0:0:0:
256,192,231655,1,0,0:0:0:0:
475,192,232012,1,0,0:0:0:0:
402,192,232190,1,0,0:0:0:0:
329,192,232190,1,0,0:0:0:0:
36,192,232369,128,0,233083:0:0:0:0:
256,192,232369,1,0,0:0:0:0:
329,192,232905,1,0,0:0:0:0:
402,192,232905,1,0,0:0:0:0:
109,192,233083,128,0,233262:0:0:0:0:
256,192,233083,1,0,0:0:0:0:
182,192,233262,128,0,233619:0:0:0:0:
475,192,233262,1,0,0:0:0:0:
402,192,233440,1,0,0:0:0:0:
329,192,233440,1,0,0:0:0:0:
109,192,233619,128,0,233798:0:0:0:0:
182,192,233798,128,0,234512:0:0:0:0:
256,192,233798,1,0,0:0:0:0:
402,192,233976,1,0,0:0:0:0:
329,192,233976,1,0,0:0:0:0:
475,192,234333,1,0,0:0:0:0:
329,192,234333,1,0,0:0:0:0:
256,192,234512,1,0,0:0:0:0:
36,192,234512,1,0,0:0:0:0:
402,192,234690,1,0,0:0:0:0:
36,192,234869,1,0,0:0:0:0:
109,192,234958,1,0,0:0:0:0:
182,192,235048,1,0,0:0:0:0:
36,192,235226,1,0,0:0:0:0:
329,192,235226,128,0,235940:0:0:0:0:
36,192,235762,1,0,0:0:0:0:
109,192,235762,1,0,0:0:0:0:
402,192,235940,128,0,236476:0:0:0:0:
182,192,235940,1,0,0:0:0:0:
36,192,236119,1,0,0:0:0:0:
256,192,236298,1,0,0:0:0:0:
109,192,236298,1,0,0:0:0:0:
475,192,236476,128,0,236655:0:0:0:0:
402,192,236655,128,0,236833:0:0:0:0:
36,192,236655,1,0,0:0:0:0:
329,192,236833,128,0,237012:0:0:0:0:
182,192,236833,1,0,0:0:0:0:
402,192,237012,128,0,237369:0:0:0:0:
109,192,237190,1,0,0:0:0:0:
475,192,237369,128,0,237726:0:0:0:0:
256,192,237369,1,0,0:0:0:0:
36,192,237726,1,0,0:0:0:0:
109,192,237905,1,0,0:0:0:0:
182,192,237905,1,0,0:0:0:0:
256,192,238083,1,0,0:0:0:0:
475,192,238083,128,0,238440:0:0:0:0:
402,192,238440,128,0,238798:0:0:0:0:
36,192,238619,1,0,0:0:0:0:
109,192,238619,1,0,0:0:0:0:
329,192,238798,128,0,239155:0:0:0:0:
256,192,238798,1,0,0:0:0:0:
182,192,238976,1,0,0:0:0:0:
109,192,239155,1,0,0:0:0:0:
36,192,239155,1,0,0:0:0:0:
475,192,239512,128,0,239869:0:0:0:0:
256,192,239512,1,0,0:0:0:0:
182,192,239690,1,0,0:0:0:0:
109,192,239690,1,0,0:0:0:0:
402,192,239869,128,0,240226:0:0:0:0:
36,192,240048,1,0,0:0:0:0:
182,192,240048,1,0,0:0:0:0:
329,192,240226,128,0,240583:0:0:0:0:
256,192,240226,1,0,0:0:0:0:
182,192,240583,1,0,0:0:0:0:
109,192,240673,1,0,0:0:0:0:
36,192,240762,1,0,0:0:0:0:
329,192,240940,128,0,241655:0:0:0:0:
182,192,240940,1,0,0:0:0:0:
36,192,241476,1,0,0:0:0:0:
109,192,241476,1,0,0:0:0:0:
402,192,241655,128,0,242190:0:0:0:0:
256,192,241655,1,0,0:0:0:0:
36,192,241833,1,0,0:0:0:0:
182,192,242012,1,0,0:0:0:0:
109,192,242012,1,0,0:0:0:0:
475,192,242190,128,0,242369:0:0:0:0:
402,192,242369,128,0,242548:0:0:0:0:
182,192,242369,1,0,0:0:0:0:
329,192,242548,128,0,242726:0:0:0:0:
36,192,242548,1,0,0:0:0:0:
402,192,242726,128,0,243083:0:0:0:0:
109,192,242905,1,0,0:0:0:0:
475,192,243083,128,0,243440:0:0:0:0:
256,192,243083,1,0,0:0:0:0:
36,192,243440,1,0,0:0:0:0:
109,192,243619,1,0,0:0:0:0:
182,192,243619,1,0,0:0:0:0:
475,192,243798,128,0,244512:0:0:0:0:
256,192,243798,1,0,0:0:0:0:
182,192,244333,1,0,0:0:0:0:
109,192,244333,1,0,0:0:0:0:
402,192,244512,128,0,244690:0:0:0:0:
256,192,244512,1,0,0:0:0:0:
329,192,244690,128,0,245048:0:0:0:0:
36,192,244690,1,0,0:0:0:0:
109,192,244869,1,0,0:0:0:0:
182,192,244869,1,0,0:0:0:0:
402,192,245048,128,0,245226:0:0:0:0:
329,192,245226,128,0,245940:0:0:0:0:
256,192,245226,1,0,0:0:0:0:
109,192,245405,1,0,0:0:0:0:
182,192,245405,1,0,0:0:0:0:
36,192,245762,1,0,0:0:0:0:
182,192,245762,1,0,0:0:0:0:
256,192,245940,128,0,246655:0:0:0:0:
109,192,245940,128,0,246655:0:0:0:0:
402,192,246655,1,0,0:0:0:0:
329,192,246655,1,0,0:0:0:0:
182,192,246655,128,0,247369:0:0:0:0:
475,192,247190,1,0,0:0:0:0:
109,192,247369,128,0,247905:0:0:0:0:
329,192,247369,1,0,0:0:0:0:
256,192,247369,1,0,0:0:0:0:
402,192,247726,1,0,0:0:0:0:
36,192,247905,128,0,248083:0:0:0:0:
329,192,247905,1,0,0:0:0:0:
109,192,248083,128,0,248262:0:0:0:0:
475,192,248083,1,0,0:0:0:0:
402,192,248083,1,0,0:0:0:0:
182,192,248262,128,0,248440:0:0:0:0:
109,192,248440,128,0,248798:0:0:0:0:
256,192,248440,1,0,0:0:0:0:
475,192,248440,1,0,0:0:0:0:
36,192,248798,128,0,249155:0:0:0:0:
256,192,248798,1,0,0:0:0:0:
402,192,248798,1,0,0:0:0:0:
475,192,249155,1,0,0:0:0:0:
329,192,249333,1,0,0:0:0:0:
256,192,249512,1,0,0:0:0:0:
36,192,249512,128,0,249869:0:0:0:0:
475,192,249512,1,0,0:0:0:0:
109,192,249869,128,0,250226:0:0:0:0:
402,192,250048,1,0,0:0:0:0:
182,192,250226,128,0,250583:0:0:0:0:
256,192,250226,1,0,0:0:0:0:
329,192,250226,1,0,0:0:0:0:
475,192,250405,1,0,0:0:0:0:
402,192,250583,1,0,0:0:0:0:
329,192,250762,1,0,0:0:0:0:
256,192,250762,1,0,0:0:0:0:
36,192,250940,128,0,251298:0:0:0:0:
475,192,250940,1,0,0:0:0:0:
402,192,250940,1,0,0:0:0:0:
329,192,251119,1,0,0:0:0:0:
256,192,251119,1,0,0:0:0:0:
182,192,251119,1,0,0:0:0:0:
109,192,251298,128,0,251655:0:0:0:0:
475,192,251298,1,0,0:0:0:0:
402,192,251298,1,0,0:0:0:0:
329,192,251476,1,0,0:0:0:0:
475,192,251655,1,0,0:0:0:0:
182,192,251655,128,0,252012:0:0:0:0:
256,192,251655,1,0,0:0:0:0:
329,192,252012,1,0,0:0:0:0:
402,192,252101,1,0,0:0:0:0:
475,192,252190,1,0,0:0:0:0:
182,192,252369,128,0,253083:0:0:0:0:
329,192,252369,1,0,0:0:0:0:
256,192,252369,1,0,0:0:0:0:
475,192,252905,1,0,0:0:0:0:
109,192,253083,128,0,253619:0:0:0:0:
256,192,253083,1,0,0:0:0:0:
329,192,253083,1,0,0:0:0:0:
402,192,253440,1,0,0:0:0:0:
36,192,253619,128,0,253798:0:0:0:0:
475,192,253619,1,0,0:0:0:0:
109,192,253798,128,0,253976:0:0:0:0:
329,192,253798,1,0,0:0:0:0:
256,192,253798,1,0,0:0:0:0:
182,192,253976,128,0,254155:0:0:0:0:
109,192,254155,128,0,254512:0:0:0:0:
329,192,254155,1,0,0:0:0:0:
475,192,254155,1,0,0:0:0:0:
36,192,254512,128,0,254869:0:0:0:0:
256,192,254512,1,0,0:0:0:0:
329,192,254512,1,0,0:0:0:0:
475,192,254869,1,0,0:0:0:0:
402,192,255048,1,0,0:0:0:0:
256,192,255226,1,0,0:0:0:0:
36,192,255226,128,0,255940:0:0:0:0:
329,192,255226,1,0,0:0:0:0:
402,192,255762,1,0,0:0:0:0:
329,192,255940,1,0,0:0:0:0:
109,192,255940,128,0,256119:0:0:0:0:
256,192,255940,1,0,0:0:0:0:
182,192,256119,128,0,256476:0:0:0:0:
329,192,256298,1,0,0:0:0:0:
475,192,256476,1,0,0:0:0:0:
109,192,256476,128,0,256655:0:0:0:0:
182,192,256655,128,0,257369:0:0:0:0:
256,192,256655,1,0,0:0:0:0:
329,192,256655,1,0,0:0:0:0:
402,192,256833,1,0,0:0:0:0:
475,192,256833,1,0,0:0:0:0:
36,192,256833,1,0,0:0:0:0:
256,192,257012,1,0,0:0:0:0:
329,192,257012,1,0,0:0:0:0:
109,192,257012,1,0,0:0:0:0:
475,192,257190,1,0,0:0:0:0:
402,192,257280,1,0,0:0:0:0:
329,192,257369,1,0,0:0:0:0:
36,192,257369,1,0,0:0:0:0:
256,192,257369,1,0,0:0:0:0:
182,192,257548,1,0,0:0:0:0:
109,192,257548,1,0,0:0:0:0:
475,192,257548,1,0,0:0:0:0:
256,192,257726,1,0,0:0:0:0:
329,192,257726,1,0,0:0:0:0:
36,192,257726,1,0,0:0:0:0:
109,192,258083,1,0,0:0:0:0:
182,192,258083,1,0,0:0:0:0:
329,192,258083,128,0,258798:0:0:0:0:
36,192,258619,1,0,0:0:0:0:
402,192,258798,128,0,259333:0:0:0:0:
182,192,258798,1,0,0:0:0:0:
256,192,258798,1,0,0:0:0:0:
109,192,259155,1,0,0:0:0:0:
475,192,259333,128,0,259512:0:0:0:0:
182,192,259333,1,0,0:0:0:0:
402,192,259512,128,0,259690:0:0:0:0:
36,192,259512,1,0,0:0:0:0:
109,192,259512,1,0,0:0:0:0:
329,192,259690,128,0,259869:0:0:0:0:
402,192,259869,128,0,260226:0:0:0:0:
256,192,259869,1,0,0:0:0:0:
36,192,259869,1,0,0:0:0:0:
475,192,260226,128,0,260583:0:0:0:0:
256,192,260226,1,0,0:0:0:0:
109,192,260226,1,0,0:0:0:0:
36,192,260583,1,0,0:0:0:0:
182,192,260762,1,0,0:0:0:0:
256,192,260940,1,0,0:0:0:0:
475,192,260940,128,0,261298:0:0:0:0:
36,192,260940,1,0,0:0:0:0:
402,192,261298,128,0,261655:0:0:0:0:
109,192,261476,1,0,0:0:0:0:
329,192,261655,128,0,262012:0:0:0:0:
256,192,261655,1,0,0:0:0:0:
182,192,261655,1,0,0:0:0:0:
36,192,261833,1,0,0:0:0:0:
109,192,262012,1,0,0:0:0:0:
182,192,262190,1,0,0:0:0:0:
256,192,262190,1,0,0:0:0:0:
475,192,262369,128,0,262726:0:0:0:0:
36,192,262369,1,0,0:0:0:0:
109,192,262369,1,0,0:0:0:0:
182,192,262548,1,0,0:0:0:0:
256,192,262548,1,0,0:0:0:0:
329,192,262548,1,0,0:0:0:0:
402,192,262726,128,0,263083:0:0:0:0:
36,192,262726,1,0,0:0:0:0:
109,192,262726,1,0,0:0:0:0:
182,192,262905,1,0,0:0:0:0:
36,192,263083,1,0,0:0:0:0:
329,192,263083,128,0,263440:0:0:0:0:
256,192,263083,1,0,0:0:0:0:
182,192,263440,1,0,0:0:0:0:
109,192,263530,1,0,0:0:0:0:
36,192,263619,1,0,0:0:0:0:
329,192,263798,128,0,264512:0:0:0:0:
182,192,263798,1,0,0:0:0:0:
256,192,263798,1,0,0:0:0:0:
36,192,264333,1,0,0:0:0:0:
402,192,264512,128,0,265048:0:0:0:0:
256,192,264512,1,0,0:0:0:0:
182,192,264512,1,0,0:0:0:0:
109,192,264869,1,0,0:0:0:0:
475,192,265048,128,0,265226:0:0:0:0:
36,192,265048,1,0,0:0:0:0:
402,192,265226,128,0,265405:0:0:0:0:
182,192,265226,1,0,0:0:0:0:
256,192,265226,1,0,0:0:0:0:
329,192,265405,128,0,265583:0:0:0:0:
402,192,265583,128,0,265940:0:0:0:0:
182,192,265583,1,0,0:0:0:0:
36,192,265583,1,0,0:0:0:0:
475,192,265940,128,0,266298:0:0:0:0:
182,192,265940,1,0,0:0:0:0:
256,192,265940,128,0,266655:0:0:0:0:
475,192,266655,128,0,267369:0:0:0:0:
109,192,266655,1,0,0:0:0:0:
182,192,266655,1,0,0:0:0:0:
402,192,267369,128,0,267548:0:0:0:0:
36,192,267369,128,0,268083:0:0:0:0:
329,192,267548,128,0,267905:0:0:0:0:
402,192,267905,128,0,268083:0:0:0:0:
329,192,268083,128,0,268798:0:0:0:0:
256,192,268083,128,0,268262:0:0:0:0:
475,192,268083,1,0,0:0:0:0:
109,192,268083,1,0,0:0:0:0:
182,192,268262,128,0,268440:0:0:0:0:
402,192,268262,1,0,0:0:0:0:
109,192,268440,128,0,268619:0:0:0:0:
36,192,268619,128,0,268798:0:0:0:0:
256,192,268619,1,0,0:0:0:0:
475,192,268798,128,0,268976:0:0:0:0:
182,192,268798,1,0,0:0:0:0:
109,192,268798,1,0,0:0:0:0:
402,192,268798,1,0,0:0:0:0:
329,192,268976,128,0,269155:0:0:0:0:
36,192,268976,1,0,0:0:0:0:
256,192,269155,128,0,269512:0:0:0:0:
182,192,269155,1,0,0:0:0:0:
402,192,269512,1,0,0:0:0:0:
36,192,269512,128,0,270226:0:0:0:0:
329,192,269512,128,0,270048:0:0:0:0:
182,192,269512,128,0,269869:0:0:0:0:
475,192,269869,1,0,0:0:0:0:
182,192,270048,1,0,0:0:0:0:
109,192,270226,128,0,270405:0:0:0:0:
402,192,270226,128,0,270762:0:0:0:0:
256,192,270226,128,0,270583:0:0:0:0:
36,192,270583,1,0,0:0:0:0:
475,192,270762,128,0,270940:0:0:0:0:
182,192,270762,128,0,270940:0:0:0:0:
402,192,270940,128,0,271119:0:0:0:0:
109,192,270940,128,0,271119:0:0:0:0:
256,192,270940,1,0,0:0:0:0:
36,192,271119,128,0,271298:0:0:0:0:
329,192,271119,128,0,271298:0:0:0:0:
402,192,271298,128,0,271655:0:0:0:0:
109,192,271298,128,0,271655:0:0:0:0:
182,192,271298,1,0,0:0:0:0:
256,192,271476,1,0,0:0:0:0:
182,192,271655,128,0,272012:0:0:0:0:
475,192,271655,128,0,272190:0:0:0:0:
36,192,271655,128,0,271833:0:0:0:0:
402,192,272012,1,0,0:0:0:0:
109,192,272190,1,0,0:0:0:0:
182,192,272369,128,0,273083:0:0:0:0:
475,192,272369,128,0,272726:0:0:0:0:
36,192,272369,128,0,272726:0:0:0:0:
109,192,272726,128,0,273083:0:0:0:0:
402,192,272726,128,0,273440:0:0:0:0:
329,192,272905,1,0,0:0:0:0:
475,192,273083,128,0,273440:0:0:0:0:
256,192,273083,128,0,273262:0:0:0:0:
36,192,273083,128,0,273619:0:0:0:0:
256,192,273440,1,0,0:0:0:0:
475,192,273619,1,0,0:0:0:0:
109,192,273619,1,0,0:0:0:0:
329,192,273798,128,0,274512:0:0:0:0:
36,192,273798,128,0,274155:0:0:0:0:
182,192,273798,1,0,0:0:0:0:
475,192,273976,1,0,0:0:0:0:
182,192,273976,1,0,0:0:0:0:
402,192,273976,1,0,0:0:0:0:
109,192,274155,128,0,274869:0:0:0:0:
256,192,274155,128,0,274512:0:0:0:0:
402,192,274333,1,0,0:0:0:0:
475,192,274512,128,0,275048:0:0:0:0:
182,192,274512,128,0,274690:0:0:0:0:
36,192,274512,128,0,274869:0:0:0:0:
329,192,274869,1,0,0:0:0:0:
402,192,275048,1,0,0:0:0:0:
36,192,275226,128,0,275762:0:0:0:0:
256,192,275226,1,0,0:0:0:0:
182,192,275226,128,0,275583:0:0:0:0:
329,192,275226,128,0,275940:0:0:0:0:
475,192,275583,1,0,0:0:0:0:
182,192,275762,1,0,0:0:0:0:
402,192,275940,128,0,276119:0:0:0:0:
109,192,275940,128,0,276476:0:0:0:0:
256,192,275940,128,0,276298:0:0:0:0:
329,192,276298,1,0,0:0:0:0:
475,192,276476,128,0,276655:0:0:0:0:
182,192,276476,128,0,276655:0:0:0:0:
402,192,276655,128,0,276833:0:0:0:0:
256,192,276655,1,0,0:0:0:0:
109,192,276655,128,0,276833:0:0:0:0:
36,192,276833,128,0,277012:0:0:0:0:
329,192,276833,128,0,277012:0:0:0:0:
402,192,277012,128,0,277369:0:0:0:0:
182,192,277012,1,0,0:0:0:0:
109,192,277012,128,0,277369:0:0:0:0:
256,192,277190,1,0,0:0:0:0:
475,192,277369,128,0,277548:0:0:0:0:
182,192,277369,128,0,277726:0:0:0:0:
36,192,277369,128,0,277905:0:0:0:0:
402,192,277726,1,0,0:0:0:0:
329,192,277905,1,0,0:0:0:0:
475,192,278083,128,0,278798:0:0:0:0:
182,192,278083,128,0,278619:0:0:0:0:
109,192,278083,128,0,278440:0:0:0:0:
329,192,278440,1,0,0:0:0:0:
36,192,278619,1,0,0:0:0:0:
109,192,278798,128,0,278976:0:0:0:0:
402,192,278798,128,0,278976:0:0:0:0:
256,192,278798,1,0,0:0:0:0:
36,192,278976,128,0,279333:0:0:0:0:
329,192,278976,128,0,279333:0:0:0:0:
256,192,279155,1,0,0:0:0:0:
182,192,279333,128,0,279512:0:0:0:0:
402,192,279333,128,0,279512:0:0:0:0:
36,192,279512,128,0,280226:0:0:0:0:
475,192,279512,128,0,280048:0:0:0:0:
109,192,279512,128,0,279690:0:0:0:0:
329,192,279690,1,0,0:0:0:0:
256,192,279690,128,0,279869:0:0:0:0:
402,192,279690,1,0,0:0:0:0:
182,192,279869,128,0,280048:0:0:0:0:
109,192,279869,1,0,0:0:0:0:
329,192,280048,128,0,280226:0:0:0:0:
402,192,280137,1,0,0:0:0:0:
256,192,280226,128,0,280405:0:0:0:0:
475,192,280226,1,0,0:0:0:0:
182,192,280226,1,0,0:0:0:0:
402,192,280405,128,0,280583:0:0:0:0:
36,192,280405,1,0,0:0:0:0:
109,192,280405,1,0,0:0:0:0:
329,192,280583,128,0,280762:0:0:0:0:
182,192,280583,1,0,0:0:0:0:
36,192,280762,128,0,280940:0:0:0:0:
182,192,280940,128,0,281476:0:0:0:0:
329,192,280940,128,0,281298:0:0:0:0:
109,192,280940,1,0,0:0:0:0:
475,192,280940,128,0,281655:0:0:0:0:
36,192,281298,1,0,0:0:0:0:
329,192,281476,1,0,0:0:0:0:
256,192,281655,128,0,282012:0:0:0:0:
109,192,281655,128,0,282190:0:0:0:0:
402,192,281655,128,0,281833:0:0:0:0:
475,192,282012,1,0,0:0:0:0:
329,192,282190,128,0,282369:0:0:0:0:
36,192,282190,128,0,282369:0:0:0:0:
256,192,282369,1,0,0:0:0:0:
402,192,282369,128,0,282548:0:0:0:0:
109,192,282369,128,0,282548:0:0:0:0:
182,192,282548,128,0,282726:0:0:0:0:
475,192,282548,128,0,282726:0:0:0:0:
36,192,282726,1,0,0:0:0:0:
402,192,282726,128,0,283083:0:0:0:0:
109,192,282726,128,0,283083:0:0:0:0:
256,192,282905,1,0,0:0:0:0:
475,192,283083,128,0,283262:0:0:0:0:
36,192,283083,128,0,283619:0:0:0:0:
329,192,283083,128,0,283440:0:0:0:0:
109,192,283440,1,0,0:0:0:0:
402,192,283619,1,0,0:0:0:0:
109,192,283798,128,0,284155:0:0:0:0:
329,192,283798,128,0,284512:0:0:0:0:
475,192,283798,128,0,284155:0:0:0:0:
182,192,284155,128,0,284869:0:0:0:0:
402,192,284155,128,0,284512:0:0:0:0:
109,192,284333,1,0,0:0:0:0:
475,192,284512,128,0,285048:0:0:0:0:
36,192,284512,128,0,284690:0:0:0:0:
256,192,284512,128,0,284869:0:0:0:0:
329,192,284869,1,0,0:0:0:0:
109,192,285048,1,0,0:0:0:0:
402,192,285048,1,0,0:0:0:0:
182,192,285226,1,0,0:0:0:0:
36,192,285226,128,0,285583:0:0:0:0:
256,192,285226,128,0,285940:0:0:0:0:
402,192,285405,1,0,0:0:0:0:
182,192,285405,1,0,0:0:0:0:
475,192,285405,1,0,0:0:0:0:
329,192,285583,128,0,285940:0:0:0:0:
109,192,285583,128,0,286298:0:0:0:0:
402,192,285762,1,0,0:0:0:0:
36,192,285940,128,0,286476:0:0:0:0:
182,192,285940,128,0,286298:0:0:0:0:
475,192,285940,128,0,286119:0:0:0:0:
256,192,286298,1,0,0:0:0:0:
402,192,286476,1,0,0:0:0:0:
329,192,286655,128,0,287012:0:0:0:0:
182,192,286655,128,0,287369:0:0:0:0:
475,192,286655,128,0,287190:0:0:0:0:
256,192,286655,1,0,0:0:0:0:
36,192,287012,1,0,0:0:0:0:
329,192,287190,1,0,0:0:0:0:
256,192,287369,128,0,287726:0:0:0:0:
402,192,287369,128,0,287905:0:0:0:0:
109,192,287369,128,0,287548:0:0:0:0:
475,192,287726,1,0,0:0:0:0:
329,192,287905,128,0,288083:0:0:0:0:
36,192,287905,128,0,288083:0:0:0:0:
402,192,288083,128,0,288262:0:0:0:0:
256,192,288083,1,0,0:0:0:0:
109,192,288083,128,0,288262:0:0:0:0:
182,192,288262,128,0,288440:0:0:0:0:
475,192,288262,128,0,288440:0:0:0:0:
402,192,288440,128,0,288798:0:0:0:0:
36,192,288440,1,0,0:0:0:0:
109,192,288440,128,0,288798:0:0:0:0:
256,192,288619,1,0,0:0:0:0:
475,192,288798,128,0,289333:0:0:0:0:
329,192,288798,128,0,289155:0:0:0:0:
36,192,288798,128,0,288976:0:0:0:0:
109,192,289155,1,0,0:0:0:0:
182,192,289333,1,0,0:0:0:0:
475,192,289512,128,0,289690:0:0:0:0:
329,192,289512,128,0,290048:0:0:0:0:
36,192,289512,128,0,290226:0:0:0:0:
256,192,289690,128,0,289869:0:0:0:0:
182,192,289869,128,0,290048:0:0:0:0:
109,192,290048,128,0,290226:0:0:0:0:
256,192,290226,1,0,0:0:0:0:
182,192,290226,128,0,290405:0:0:0:0:
402,192,290226,128,0,290405:0:0:0:0:
109,192,290405,128,0,290762:0:0:0:0:
329,192,290405,128,0,290583:0:0:0:0:
36,192,290583,1,0,0:0:0:0:
256,192,290583,128,0,290762:0:0:0:0:
182,192,290762,128,0,290940:0:0:0:0:
402,192,290762,128,0,290940:0:0:0:0:
36,192,290940,128,0,291655:0:0:0:0:
475,192,290940,128,0,292012:0:0:0:0:
329,192,290940,128,0,291298:0:0:0:0:
256,192,291119,1,0,0:0:0:0:
182,192,291119,1,0,0:0:0:0:
109,192,291298,128,0,291655:0:0:0:0:
402,192,291298,1,0,0:0:0:0:
402,192,291655,1,0,0:0:0:0:
329,192,291655,1,0,0:0:0:0:
256,192,291655,1,0,0:0:0:0:
402,192,291774,1,0,0:0:0:0:
329,192,291774,1,0,0:0:0:0:
182,192,291893,1,0,0:0:0:0:
109,192,291893,1,0,0:0:0:0:
182,192,292012,1,0,0:0:0:0:
109,192,292012,128,0,292369:0:0:0:0:
329,192,292190,1,0,0:0:0:0:
402,192,292190,1,0,0:0:0:0:
329,192,292369,1,0,0:0:0:0:
36,192,292369,1,0,0:0:0:0:
182,192,292369,1,0,0:0:0:0:
475,192,292369,128,0,293083:0:0:0:0:
402,192,292726,128,0,293440:0:0:0:0:
182,192,292726,1,0,0:0:0:0:
36,192,292905,1,0,0:0:0:0:
256,192,293083,128,0,293798:0:0:0:0:
109,192,293083,1,0,0:0:0:0:
182,192,293083,1,0,0:0:0:0:
109,192,293440,128,0,293798:0:0:0:0:
182,192,293440,1,0,0:0:0:0:
182,192,293619,1,0,0:0:0:0:
475,192,293619,1,0,0:0:0:0:
36,192,293798,128,0,295226:0:0:0:0:
475,192,293976,1,0,0:0:0:0:
329,192,293976,1,0,0:0:0:0:
256,192,293976,1,0,0:0:0:0:
109,192,294155,1,0,0:0:0:0:
402,192,294333,1,0,0:0:0:0:
182,192,294333,1,0,0:0:0:0:
329,192,294512,128,0,295940:0:0:0:0:
475,192,294512,1,0,0:0:0:0:
182,192,294512,1,0,0:0:0:0:
109,192,294869,1,0,0:0:0:0:
109,192,295226,128,0,296476:0:0:0:0:
402,192,295226,1,0,0:0:0:0:
36,192,295583,1,0,0:0:0:0:
402,192,295583,1,0,0:0:0:0:
256,192,295762,1,0,0:0:0:0:
402,192,295940,128,0,296655:0:0:0:0:
36,192,295940,1,0,0:0:0:0:
182,192,295940,1,0,0:0:0:0:
329,192,296298,1,0,0:0:0:0:
182,192,296298,1,0,0:0:0:0:
475,192,296476,128,0,296655:0:0:0:0:
182,192,296476,1,0,0:0:0:0:
256,192,296655,128,0,297369:0:0:0:0:
329,192,296833,1,0,0:0:0:0:
182,192,296833,1,0,0:0:0:0:
36,192,296833,1,0,0:0:0:0:
109,192,297012,128,0,297726:0:0:0:0:
475,192,297190,1,0,0:0:0:0:
329,192,297190,1,0,0:0:0:0:
182,192,297369,128,0,298083:0:0:0:0:
475,192,297369,1,0,0:0:0:0:
36,192,297369,1,0,0:0:0:0:
329,192,297726,128,0,298083:0:0:0:0:
475,192,298083,128,0,300940:0:0:0:0:
256,192,298083,1,0,0:0:0:0:
36,192,298083,1,0,0:0:0:0:
109,192,298083,128,0,298619:0:0:0:0:
182,192,298440,1,0,0:0:0:0:
402,192,298440,1,0,0:0:0:0:
36,192,298619,128,0,298798:0:0:0:0:
256,192,298798,1,0,0:0:0:0:
182,192,298798,1,0,0:0:0:0:
402,192,298798,1,0,0:0:0:0:
109,192,298798,128,0,299333:0:0:0:0:
329,192,299155,1,0,0:0:0:0:
182,192,299333,1,0,0:0:0:0:
36,192,299333,128,0,299512:0:0:0:0:
256,192,299423,1,0,0:0:0:0:
182,192,299512,1,0,0:0:0:0:
329,192,299512,1,0,0:0:0:0:
402,192,299512,1,0,0:0:0:0:
109,192,299512,128,0,299869:0:0:0:0:
256,192,299690,1,0,0:0:0:0:
402,192,299690,1,0,0:0:0:0:
182,192,299869,128,0,300226:0:0:0:0:
329,192,300048,1,0,0:0:0:0:
402,192,300048,1,0,0:0:0:0:
109,192,300226,1,0,0:0:0:0:
36,192,300226,1,0,0:0:0:0:
329,192,300226,1,0,0:0:0:0:
256,192,300226,128,0,300583:0:0:0:0:
36,192,300583,128,0,300940:0:0:0:0:
402,192,300583,1,0,0:0:0:0:
329,192,300940,128,0,301476:0:0:0:0:
109,192,300940,1,0,0:0:0:0:
182,192,300940,1,0,0:0:0:0:
256,192,300940,1,0,0:0:0:0:
109,192,301298,1,0,0:0:0:0:
475,192,301298,1,0,0:0:0:0:
256,192,301476,128,0,301655:0:0:0:0:
329,192,301655,128,0,302012:0:0:0:0:
36,192,301655,1,0,0:0:0:0:
182,192,301655,1,0,0:0:0:0:
402,192,301655,1,0,0:0:0:0:
475,192,302012,128,0,302190:0:0:0:0:
36,192,302190,1,0,0:0:0:0:
256,192,302190,1,0,0:0:0:0:
109,192,302280,1,0,0:0:0:0:
402,192,302369,128,0,302548:0:0:0:0:
182,192,302369,1,0,0:0:0:0:
256,192,302369,1,0,0:0:0:0:
329,192,302369,1,0,0:0:0:0:
475,192,302548,1,0,0:0:0:0:
182,192,302548,1,0,0:0:0:0:
329,192,302726,128,0,302905:0:0:0:0:
256,192,302905,128,0,303083:0:0:0:0:
109,192,302905,1,0,0:0:0:0:
182,192,303083,128,0,303440:0:0:0:0:
402,192,303083,1,0,0:0:0:0:
475,192,303083,1,0,0:0:0:0:
109,192,303083,1,0,0:0:0:0:
329,192,303202,1,0,0:0:0:0:
256,192,303321,1,0,0:0:0:0:
36,192,303440,1,0,0:0:0:0:
475,192,303440,1,0,0:0:0:0:
182,192,303619,1,0,0:0:0:0:
475,192,303619,1,0,0:0:0:0:
109,192,303798,128,0,304333:0:0:0:0:
182,192,303798,1,0,0:0:0:0:
329,192,303798,1,0,0:0:0:0:
36,192,303798,1,0,0:0:0:0:
475,192,304155,1,0,0:0:0:0:
329,192,304155,1,0,0:0:0:0:
36,192,304333,128,0,304512:0:0:0:0:
109,192,304512,128,0,305048:0:0:0:0:
256,192,304512,1,0,0:0:0:0:
182,192,304512,1,0,0:0:0:0:
475,192,304512,1,0,0:0:0:0:
182,192,304869,1,0,0:0:0:0:
36,192,305048,128,0,305226:0:0:0:0:
329,192,305048,1,0,0:0:0:0:
402,192,305137,1,0,0:0:0:0:
109,192,305226,128,0,305583:0:0:0:0:
329,192,305226,1,0,0:0:0:0:
256,192,305226,1,0,0:0:0:0:
182,192,305226,1,0,0:0:0:0:
475,192,305405,1,0,0:0:0:0:
256,192,305405,1,0,0:0:0:0:
182,192,305583,128,0,305940:0:0:0:0:
475,192,305762,1,0,0:0:0:0:
329,192,305762,1,0,0:0:0:0:
256,192,305940,128,0,306298:0:0:0:0:
36,192,305940,128,0,306655:0:0:0:0:
109,192,305940,1,0,0:0:0:0:
329,192,305940,1,0,0:0:0:0:
475,192,306298,128,0,306655:0:0:0:0:
182,192,306298,1,0,0:0:0:0:
182,192,306655,5,0,0:0:0:0:
109,192,306655,1,0,0:0:0:0:
402,192,306655,128,0,307190:0:0:0:0:
329,192,307190,128,0,307369:0:0:0:0:
402,192,307369,128,0,307905:0:0:0:0:
329,192,307905,128,0,308083:0:0:0:0:
402,192,308083,128,0,308440:0:0:0:0:
475,192,308440,128,0,308619:0:0:0:0:
109,192,308798,1,0,0:0:0:0:
475,192,308798,128,0,310226:0:0:0:0:
182,192,308798,1,0,0:0:0:0:
36,192,308798,1,0,0:0:0:0:
36,192,312369,5,0,0:0:0:0:
402,192,312369,128,0,312548:0:0:0:0:
36,192,312548,1,0,0:0:0:0:
329,192,312548,128,0,312726:0:0:0:0:
109,192,312726,1,0,0:0:0:0:
402,192,312726,128,0,312905:0:0:0:0:
329,192,312905,128,0,313083:0:0:0:0:
402,192,313083,128,0,313262:0:0:0:0:
182,192,313083,1,0,0:0:0:0:
109,192,313083,1,0,0:0:0:0:
329,192,313262,128,0,313440:0:0:0:0:
109,192,313440,128,0,313619:0:0:0:0:
402,192,313440,128,0,313619:0:0:0:0:
329,192,313619,128,0,313798:0:0:0:0:
402,192,313798,128,0,313976:0:0:0:0:
182,192,313798,1,0,0:0:0:0:
329,192,313976,128,0,314155:0:0:0:0:
36,192,313976,1,0,0:0:0:0:
402,192,314155,128,0,314333:0:0:0:0:
36,192,314155,1,0,0:0:0:0:
329,192,314333,128,0,314512:0:0:0:0:
402,192,314512,128,0,314690:0:0:0:0:
109,192,314512,1,0,0:0:0:0:
182,192,314512,1,0,0:0:0:0:
329,192,314690,128,0,314869:0:0:0:0:
402,192,314869,128,0,315048:0:0:0:0:
36,192,314869,1,0,0:0:0:0:
109,192,314958,1,0,0:0:0:0:
329,192,315048,128,0,315226:0:0:0:0:
182,192,315048,1,0,0:0:0:0:
256,192,315137,1,0,0:0:0:0:
36,192,315226,1,0,0:0:0:0:
402,192,315226,128,0,315405:0:0:0:0:
36,192,315405,1,0,0:0:0:0:
329,192,315405,128,0,315583:0:0:0:0:
402,192,315583,128,0,315762:0:0:0:0:
109,192,315583,1,0,0:0:0:0:
329,192,315762,128,0,315940:0:0:0:0:
109,192,315940,1,0,0:0:0:0:
402,192,315940,128,0,316119:0:0:0:0:
182,192,315940,1,0,0:0:0:0:
329,192,316119,128,0,316298:0:0:0:0:
402,192,316298,128,0,316476:0:0:0:0:
109,192,316298,128,0,316476:0:0:0:0:
329,192,316476,128,0,316655:0:0:0:0:
182,192,316655,1,0,0:0:0:0:
402,192,316655,128,0,316833:0:0:0:0:
36,192,316833,1,0,0:0:0:0:
329,192,316833,128,0,317012:0:0:0:0:
36,192,317012,1,0,0:0:0:0:
402,192,317012,128,0,317190:0:0:0:0:
329,192,317190,128,0,317369:0:0:0:0:
109,192,317369,1,0,0:0:0:0:
182,192,317369,1,0,0:0:0:0:
402,192,317369,128,0,317548:0:0:0:0:
256,192,317548,1,0,0:0:0:0:
36,192,317726,1,0,0:0:0:0:
109,192,317815,1,0,0:0:0:0:
182,192,317905,1,0,0:0:0:0:
256,192,317994,1,0,0:0:0:0:
475,192,318083,5,0,0:0:0:0:
109,192,318083,128,0,318262:0:0:0:0:
475,192,318262,1,0,0:0:0:0:
182,192,318262,128,0,318440:0:0:0:0:
402,192,318440,1,0,0:0:0:0:
109,192,318440,128,0,318619:0:0:0:0:
182,192,318619,128,0,318798:0:0:0:0:
109,192,318798,128,0,318976:0:0:0:0:
329,192,318798,1,0,0:0:0:0:
402,192,318798,1,0,0:0:0:0:
182,192,318976,128,0,319155:0:0:0:0:
109,192,319155,128,0,319333:0:0:0:0:
402,192,319155,128,0,319333:0:0:0:0:
182,192,319333,128,0,319512:0:0:0:0:
109,192,319512,128,0,319690:0:0:0:0:
329,192,319512,1,0,0:0:0:0:
182,192,319690,128,0,319869:0:0:0:0:
475,192,319690,1,0,0:0:0:0:
109,192,319869,128,0,320048:0:0:0:0:
475,192,319869,1,0,0:0:0:0:
182,192,320048,128,0,320226:0:0:0:0:
109,192,320226,128,0,320405:0:0:0:0:
402,192,320226,1,0,0:0:0:0:
329,192,320226,1,0,0:0:0:0:
182,192,320405,128,0,320583:0:0:0:0:
109,192,320583,128,0,320762:0:0:0:0:
475,192,320583,1,0,0:0:0:0:
402,192,320673,1,0,0:0:0:0:
182,192,320762,128,0,320940:0:0:0:0:
329,192,320762,1,0,0:0:0:0:
256,192,320851,1,0,0:0:0:0:
475,192,320940,1,0,0:0:0:0:
109,192,320940,128,0,321119:0:0:0:0:
475,192,321119,1,0,0:0:0:0:
182,192,321119,128,0,321298:0:0:0:0:
109,192,321298,128,0,321476:0:0:0:0:
402,192,321298,1,0,0:0:0:0:
182,192,321476,128,0,321655:0:0:0:0:
402,192,321655,1,0,0:0:0:0:
109,192,321655,128,0,321833:0:0:0:0:
329,192,321655,1,0,0:0:0:0:
182,192,321833,128,0,322012:0:0:0:0:
109,192,322012,128,0,322190:0:0:0:0:
402,192,322012,128,0,322190:0:0:0:0:
182,192,322190,128,0,322369:0:0:0:0:
329,192,322369,1,0,0:0:0:0:
109,192,322369,128,0,322548:0:0:0:0:
475,192,322548,1,0,0:0:0:0:
182,192,322548,128,0,322726:0:0:0:0:
475,192,322726,1,0,0:0:0:0:
109,192,322726,128,0,322905:0:0:0:0:
182,192,322905,128,0,323083:0:0:0:0:
329,192,323083,1,0,0:0:0:0:
402,192,323083,1,0,0:0:0:0:
109,192,323083,128,0,323262:0:0:0:0:
36,192,323798,5,0,0:0:0:0:
402,192,323798,128,0,323976:0:0:0:0:
329,192,323976,128,0,324155:0:0:0:0:
36,192,323976,1,0,0:0:0:0:
402,192,324155,128,0,324333:0:0:0:0:
109,192,324155,1,0,0:0:0:0:
329,192,324333,128,0,324512:0:0:0:0:
109,192,324512,1,0,0:0:0:0:
182,192,324512,1,0,0:0:0:0:
402,192,324512,128,0,324690:0:0:0:0:
329,192,324690,128,0,324869:0:0:0:0:
109,192,324869,128,0,325048:0:0:0:0:
402,192,324869,128,0,325048:0:0:0:0:
329,192,325048,128,0,325226:0:0:0:0:
402,192,325226,128,0,325405:0:0:0:0:
182,192,325226,1,0,0:0:0:0:
36,192,325405,1,0,0:0:0:0:
329,192,325405,128,0,325583:0:0:0:0:
402,192,325583,128,0,325762:0:0:0:0:
36,192,325583,1,0,0:0:0:0:
329,192,325762,128,0,325940:0:0:0:0:
109,192,325940,1,0,0:0:0:0:
402,192,325940,128,0,326119:0:0:0:0:
182,192,325940,1,0,0:0:0:0:
329,192,326119,128,0,326298:0:0:0:0:
402,192,326298,128,0,326476:0:0:0:0:
36,192,326298,1,0,0:0:0:0:
109,192,326387,1,0,0:0:0:0:
182,192,326476,1,0,0:0:0:0:
329,192,326476,128,0,326655:0:0:0:0:
256,192,326565,1,0,0:0:0:0:
402,192,326655,128,0,326833:0:0:0:0:
36,192,326655,1,0,0:0:0:0:
329,192,326833,128,0,327012:0:0:0:0:
36,192,326833,1,0,0:0:0:0:
402,192,327012,128,0,327190:0:0:0:0:
109,192,327012,1,0,0:0:0:0:
329,192,327190,128,0,327369:0:0:0:0:
402,192,327369,128,0,327548:0:0:0:0:
109,192,327369,1,0,0:0:0:0:
182,192,327369,1,0,0:0:0:0:
329,192,327548,128,0,327726:0:0:0:0:
109,192,327726,128,0,327905:0:0:0:0:
402,192,327726,128,0,327905:0:0:0:0:
329,192,327905,128,0,328083:0:0:0:0:
402,192,328083,128,0,328262:0:0:0:0:
182,192,328083,1,0,0:0:0:0:
329,192,328262,128,0,328440:0:0:0:0:
36,192,328262,1,0,0:0:0:0:
402,192,328440,128,0,328619:0:0:0:0:
36,192,328440,1,0,0:0:0:0:
329,192,328619,128,0,328798:0:0:0:0:
402,192,328798,128,0,328976:0:0:0:0:
182,192,328798,1,0,0:0:0:0:
109,192,328798,1,0,0:0:0:0:
256,192,328976,1,0,0:0:0:0:
36,192,329155,1,0,0:0:0:0:
109,192,329244,1,0,0:0:0:0:
182,192,329333,1,0,0:0:0:0:
256,192,329423,1,0,0:0:0:0:
475,192,329512,5,0,0:0:0:0:
109,192,329512,128,0,329690:0:0:0:0:
182,192,329690,128,0,329869:0:0:0:0:
475,192,329690,1,0,0:0:0:0:
109,192,329869,128,0,330048:0:0:0:0:
402,192,329869,1,0,0:0:0:0:
182,192,330048,128,0,330226:0:0:0:0:
402,192,330226,1,0,0:0:0:0:
329,192,330226,1,0,0:0:0:0:
109,192,330226,128,0,330405:0:0:0:0:
182,192,330405,128,0,330583:0:0:0:0:
402,192,330583,128,0,330762:0:0:0:0:
109,192,330583,128,0,330762:0:0:0:0:
182,192,330762,128,0,330940:0:0:0:0:
109,192,330940,128,0,331119:0:0:0:0:
329,192,330940,1,0,0:0:0:0:
475,192,331119,1,0,0:0:0:0:
182,192,331119,128,0,331298:0:0:0:0:
109,192,331298,128,0,331476:0:0:0:0:
475,192,331298,1,0,0:0:0:0:
182,192,331476,128,0,331655:0:0:0:0:
402,192,331655,1,0,0:0:0:0:
109,192,331655,128,0,331833:0:0:0:0:
329,192,331655,1,0,0:0:0:0:
182,192,331833,128,0,332012:0:0:0:0:
109,192,332012,128,0,332190:0:0:0:0:
475,192,332012,1,0,0:0:0:0:
402,192,332101,1,0,0:0:0:0:
329,192,332190,1,0,0:0:0:0:
182,192,332190,128,0,332369:0:0:0:0:
256,192,332280,1,0,0:0:0:0:
109,192,332369,128,0,332548:0:0:0:0:
475,192,332369,1,0,0:0:0:0:
182,192,332548,128,0,332726:0:0:0:0:
475,192,332548,1,0,0:0:0:0:
109,192,332726,128,0,332905:0:0:0:0:
402,192,332726,1,0,0:0:0:0:
182,192,332905,128,0,333083:0:0:0:0:
109,192,333083,128,0,333262:0:0:0:0:
402,192,333083,1,0,0:0:0:0:
329,192,333083,1,0,0:0:0:0:
182,192,333262,128,0,333440:0:0:0:0:
402,192,333440,128,0,333619:0:0:0:0:
109,192,333440,128,0,333619:0:0:0:0:
182,192,333619,128,0,333798:0:0:0:0:
109,192,333798,128,0,333976:0:0:0:0:
329,192,333798,1,0,0:0:0:0:
182,192,333976,128,0,334155:0:0:0:0:
475,192,333976,1,0,0:0:0:0:
109,192,334155,128,0,334333:0:0:0:0:
475,192,334155,1,0,0:0:0:0:
182,192,334333,128,0,334512:0:0:0:0:
109,192,334512,128,0,334690:0:0:0:0:
329,192,334512,1,0,0:0:0:0:
402,192,334512,1,0,0:0:0:0:
