osu file format v14

[General]
AudioFilename: audio.mp3
AudioLeadIn: 0
PreviewTime: 89946
Countdown: 0
SampleSet: Soft
StackLeniency: 0.7
Mode: 3
LetterboxInBreaks: 0
SpecialStyle: 0
WidescreenStoryboard: 1

[Editor]
DistanceSpacing: 0.8
BeatDivisor: 12
GridSize: 8
TimelineZoom: 3.499999

[Metadata]
Title:I
TitleUnicode:I
Artist:Chroma
ArtistUnicode:黒魔
Creator:Remuring
Version::o [no SV]
Source:SOUND VOLTEX IV HEAVENLY HAVEN
Tags:
BeatmapID:1701988
BeatmapSetID:811350

[Difficulty]
HPDrainRate:8.5
CircleSize:7
OverallDifficulty:7
ApproachRate:5
SliderMultiplier:1.4
SliderTickRate:1

[Events]
//Background and Video events
0,0,"BG.png",0,0
//Break Periods
//Storyboard Layer 0 (Background)
//Storyboard Layer 1 (Fail)
//Storyboard Layer 2 (Pass)
//Storyboard Layer 3 (Foreground)
//Storyboard Sound Samples

[TimingPoints]
880,266.666666666667,4,2,1,50,1,0
17680,-1000,4,2,1,50,0,0
17880,-33.3333333333333,4,2,1,50,0,0
17946,-100,4,2,1,50,0,0
19813,-1000,4,2,1,50,0,0
20013,-33.3333333333333,4,2,1,50,0,0
20080,-100,4,2,1,50,0,0
21946,-1000,4,2,1,50,0,0
22146,-33.3333333333333,4,2,1,50,0,0
22213,-100,4,2,1,50,0,0
25413,-66.6666666666667,4,2,1,50,0,0
25446,-200,4,2,1,50,0,0
25480,-66.6666666666667,4,2,1,50,0,0
25513,-200,4,2,1,50,0,0
25546,-66.6666666666667,4,2,1,50,0,0
25579,-200,4,2,1,50,0,0
25613,-66.6666666666667,4,2,1,50,0,0
25646,-200,4,2,1,50,0,0
25680,-66.6666666666667,4,2,1,50,0,0
25713,-200,4,2,1,50,0,0
25746,-66.6666666666667,4,2,1,50,0,0
25779,-200,4,2,1,50,0,0
25813,-66.6666666666667,4,2,1,50,0,0
25846,-200,4,2,1,50,0,0
25880,-66.6666666666667,4,2,1,50,0,0
25913,-200,4,2,1,50,0,0
25946,-50,4,2,1,50,0,0
26346,-100,4,2,1,50,0,0
26480,-50,4,2,1,50,0,0
26513,-100,4,2,1,50,0,0
26746,-50,4,2,1,50,0,0
26779,-100,4,2,1,50,0,0
27013,-50,4,2,1,50,0,0
27046,-100,4,2,1,50,0,0
27280,-50,4,2,1,50,0,0
27313,-100,4,2,1,50,0,0
27546,-50,4,2,1,50,0,0
27579,-100,4,2,1,50,0,0
27813,-50,4,2,1,50,0,0
27846,-100,4,2,1,50,0,0
28080,-50,4,2,1,50,0,0
28113,-100,4,2,1,50,0,0
28346,-50,4,2,1,50,0,0
28379,-100,4,2,1,50,0,0
28613,-50,4,2,1,50,0,0
28646,-100,4,2,1,50,0,0
28880,-50,4,2,1,50,0,0
28913,-100,4,2,1,50,0,0
29146,-50,4,2,1,50,0,0
29179,-100,4,2,1,50,0,0
29413,-50,4,2,1,50,0,0
29446,-100,4,2,1,50,0,0
29680,-50,4,2,1,50,0,0
29713,-100,4,2,1,50,0,0
29946,-50,4,2,1,50,0,0
29979,-100,4,2,1,50,0,0
30213,-50,4,2,1,50,0,0
30246,-100,4,2,1,50,0,0
30480,-50,4,2,1,50,0,0
30513,-100,4,2,1,50,0,0
30746,-50,4,2,1,50,0,0
30779,-100,4,2,1,50,0,0
31013,-50,4,2,1,50,0,0
31046,-100,4,2,1,50,0,0
31280,-50,4,2,1,50,0,0
31313,-100,4,2,1,50,0,0
31546,-50,4,2,1,50,0,0
31579,-100,4,2,1,50,0,0
31813,-50,4,2,1,50,0,0
31846,-100,4,2,1,50,0,0
32080,-50,4,2,1,50,0,0
32113,-100,4,2,1,50,0,0
32346,-50,4,2,1,50,0,0
32379,-100,4,2,1,50,0,0
51280,-250,4,2,1,50,0,0
51368,-62.5,4,2,1,50,0,0
51457,-250,4,2,1,50,0,0
51545,-62.5,4,2,1,50,0,0
51635,-250,4,2,1,50,0,0
51723,-62.5,4,2,1,50,0,0
51813,-200,4,2,1,50,0,0
51946,-66.6666666666667,4,2,1,50,0,0
52080,-100,4,2,1,50,0,0
86213,-1000,4,2,1,50,0,0
88346,-50,4,2,1,50,0,0
88613,-1000,4,2,1,50,0,0
88746,-50,4,2,1,50,0,0
88913,-1000,4,2,1,50,0,0
89013,-50,4,2,1,50,0,0
89096,-1000,4,2,1,50,0,0
89146,-50,4,2,1,50,0,0
89413,-1000,4,2,1,50,0,0
89546,-50,4,2,1,50,0,0
89630,-1000,4,2,1,50,0,0
89680,-50,4,2,1,50,0,0
89764,-1000,4,2,1,50,0,0
89813,-20,4,2,1,50,0,0
89946,-1000,4,2,1,50,0,0
90346,-50,4,2,1,50,0,0
90480,-100,4,2,1,50,0,0
111813,-1000,4,2,1,50,0,0
111835,-52.6315789473684,4,2,1,50,0,0
111857,-1000,4,2,1,50,0,0
111879,-52.6315789473684,4,2,1,50,0,0
111902,-1000,4,2,1,50,0,0
111924,-52.6315789473684,4,2,1,50,0,0
111946,-1000,4,2,1,50,0,0
111968,-52.6315789473684,4,2,1,50,0,0
111991,-1000,4,2,1,50,0,0
112013,-52.6315789473684,4,2,1,50,0,0
112035,-1000,4,2,1,50,0,0
112057,-52.6315789473684,4,2,1,50,0,0
112080,-1000,4,2,1,50,0,0
112102,-52.6315789473684,4,2,1,50,0,0
112124,-1000,4,2,1,50,0,0
112146,-52.6315789473684,4,2,1,50,0,0
112168,-1000,4,2,1,50,0,0
112190,-52.6315789473684,4,2,1,50,0,0
112213,-1000,4,2,1,50,0,0
112235,-52.6315789473684,4,2,1,50,0,0
112257,-1000,4,2,1,50,0,0
112279,-52.6315789473684,4,2,1,50,0,0
112302,-1000,4,2,1,50,0,0
112324,-52.6315789473684,4,2,1,50,0,0
112346,-100,4,2,1,50,0,0
112880,-1000,4,2,1,50,0,0
112902,-52.6315789473684,4,2,1,50,0,0
112924,-1000,4,2,1,50,0,0
112946,-52.6315789473684,4,2,1,50,0,0
112969,-1000,4,2,1,50,0,0
112991,-52.6315789473684,4,2,1,50,0,0
113013,-1000,4,2,1,50,0,0
113035,-52.6315789473684,4,2,1,50,0,0
113058,-1000,4,2,1,50,0,0
113080,-52.6315789473684,4,2,1,50,0,0
113102,-1000,4,2,1,50,0,0
113124,-52.6315789473684,4,2,1,50,0,0
113147,-1000,4,2,1,50,0,0
113169,-52.6315789473684,4,2,1,50,0,0
113191,-1000,4,2,1,50,0,0
113213,-52.6315789473684,4,2,1,50,0,0
113235,-1000,4,2,1,50,0,0
113257,-52.6315789473684,4,2,1,50,0,0
113280,-1000,4,2,1,50,0,0
113302,-52.6315789473684,4,2,1,50,0,0
113324,-1000,4,2,1,50,0,0
113346,-52.6315789473684,4,2,1,50,0,0
113369,-1000,4,2,1,50,0,0
113391,-52.6315789473684,4,2,1,50,0,0
113413,-100,4,2,1,50,0,0
115013,-100,4,2,1,50,0,0
115280,-50,4,2,1,50,0,0
115546,-33.3333333333333,4,2,1,50,0,0
115813,-25,4,2,1,50,0,0
116080,-20,4,2,1,50,0,0

[HitObjects]
475,192,880,5,0,0:0:0:0:
402,192,880,1,0,0:0:0:0:
256,192,880,1,0,0:0:0:0:
109,192,880,1,0,0:0:0:0:
36,192,880,1,0,0:0:0:0:
182,192,1013,1,0,0:0:0:0:
109,192,1146,1,0,0:0:0:0:
402,192,1146,1,0,0:0:0:0:
329,192,1280,1,0,0:0:0:0:
475,192,1413,1,0,0:0:0:0:
256,192,1413,1,0,0:0:0:0:
182,192,1413,1,0,0:0:0:0:
109,192,1413,1,0,0:0:0:0:
36,192,1413,1,0,0:0:0:0:
402,192,1413,1,0,0:0:0:0:
329,192,1546,1,0,0:0:0:0:
402,192,1680,1,0,0:0:0:0:
109,192,1680,1,0,0:0:0:0:
182,192,1813,1,0,0:0:0:0:
256,192,1946,1,0,0:0:0:0:
475,192,1946,1,0,0:0:0:0:
36,192,1946,1,0,0:0:0:0:
329,192,2080,1,0,0:0:0:0:
109,192,2080,128,0,2213:0:0:0:0:
182,192,2146,128,0,2280:0:0:0:0:
256,192,2213,128,0,2346:0:0:0:0:
402,192,2213,1,0,0:0:0:0:
329,192,2280,128,0,2413:0:0:0:0:
36,192,2346,1,0,0:0:0:0:
36,192,2480,1,0,0:0:0:0:
109,192,2480,1,0,0:0:0:0:
182,192,2480,1,0,0:0:0:0:
256,192,2480,1,0,0:0:0:0:
475,192,2480,1,0,0:0:0:0:
402,192,2480,128,0,2613:0:0:0:0:
329,192,2546,128,0,2680:0:0:0:0:
256,192,2613,128,0,2746:0:0:0:0:
182,192,2680,128,0,2813:0:0:0:0:
109,192,2746,128,0,3013:0:0:0:0:
36,192,2880,128,0,3013:0:0:0:0:
475,192,3013,1,0,0:0:0:0:
256,192,3013,1,0,0:0:0:0:
329,192,3146,1,0,0:0:0:0:
402,192,3280,1,0,0:0:0:0:
109,192,3280,1,0,0:0:0:0:
182,192,3413,1,0,0:0:0:0:
36,192,3546,1,0,0:0:0:0:
256,192,3546,1,0,0:0:0:0:
329,192,3546,1,0,0:0:0:0:
402,192,3546,1,0,0:0:0:0:
475,192,3546,1,0,0:0:0:0:
109,192,3546,1,0,0:0:0:0:
182,192,3680,1,0,0:0:0:0:
109,192,3813,1,0,0:0:0:0:
402,192,3813,1,0,0:0:0:0:
329,192,3946,1,0,0:0:0:0:
256,192,4080,1,0,0:0:0:0:
36,192,4080,1,0,0:0:0:0:
475,192,4080,1,0,0:0:0:0:
182,192,4213,1,0,0:0:0:0:
402,192,4213,128,0,4346:0:0:0:0:
329,192,4280,128,0,4413:0:0:0:0:
256,192,4346,128,0,4480:0:0:0:0:
109,192,4346,1,0,0:0:0:0:
182,192,4413,128,0,4546:0:0:0:0:
475,192,4480,1,0,0:0:0:0:
475,192,4613,1,0,0:0:0:0:
402,192,4613,1,0,0:0:0:0:
329,192,4613,1,0,0:0:0:0:
256,192,4613,1,0,0:0:0:0:
36,192,4613,1,0,0:0:0:0:
109,192,4613,128,0,4746:0:0:0:0:
182,192,4680,128,0,4813:0:0:0:0:
256,192,4746,128,0,4880:0:0:0:0:
329,192,4813,128,0,4946:0:0:0:0:
402,192,4880,128,0,5146:0:0:0:0:
475,192,5013,128,0,5146:0:0:0:0:
36,192,5146,128,0,5413:0:0:0:0:
256,192,5146,1,0,0:0:0:0:
329,192,5280,1,0,0:0:0:0:
109,192,5280,128,0,5546:0:0:0:0:
182,192,5413,128,0,5680:0:0:0:0:
475,192,5413,1,0,0:0:0:0:
36,192,5546,128,0,5813:0:0:0:0:
329,192,5546,1,0,0:0:0:0:
402,192,5613,1,0,0:0:0:0:
109,192,5680,128,0,5946:0:0:0:0:
475,192,5680,1,0,0:0:0:0:
329,192,5746,1,0,0:0:0:0:
182,192,5813,128,0,6080:0:0:0:0:
402,192,5813,1,0,0:0:0:0:
256,192,5880,1,0,0:0:0:0:
475,192,5946,128,0,6213:0:0:0:0:
329,192,5946,1,0,0:0:0:0:
402,192,6080,128,0,6346:0:0:0:0:
256,192,6080,1,0,0:0:0:0:
329,192,6213,128,0,6480:0:0:0:0:
182,192,6213,1,0,0:0:0:0:
36,192,6346,1,0,0:0:0:0:
475,192,6346,128,0,6613:0:0:0:0:
109,192,6380,1,0,0:0:0:0:
182,192,6413,1,0,0:0:0:0:
256,192,6446,1,0,0:0:0:0:
402,192,6480,128,0,6746:0:0:0:0:
36,192,6480,1,0,0:0:0:0:
109,192,6513,1,0,0:0:0:0:
182,192,6546,1,0,0:0:0:0:
256,192,6580,1,0,0:0:0:0:
329,192,6613,128,0,6880:0:0:0:0:
182,192,6746,128,0,7013:0:0:0:0:
36,192,6746,1,0,0:0:0:0:
256,192,6880,128,0,7146:0:0:0:0:
475,192,6880,1,0,0:0:0:0:
329,192,7013,128,0,7280:0:0:0:0:
36,192,7013,1,0,0:0:0:0:
109,192,7080,1,0,0:0:0:0:
182,192,7146,128,0,7280:0:0:0:0:
475,192,7146,1,0,0:0:0:0:
402,192,7213,1,0,0:0:0:0:
36,192,7280,128,0,7546:0:0:0:0:
256,192,7280,1,0,0:0:0:0:
109,192,7413,128,0,7680:0:0:0:0:
329,192,7413,1,0,0:0:0:0:
182,192,7546,128,0,7813:0:0:0:0:
475,192,7546,1,0,0:0:0:0:
402,192,7580,1,0,0:0:0:0:
329,192,7613,1,0,0:0:0:0:
256,192,7646,1,0,0:0:0:0:
36,192,7680,128,0,7946:0:0:0:0:
109,192,7813,128,0,8080:0:0:0:0:
475,192,7813,1,0,0:0:0:0:
182,192,7946,128,0,8213:0:0:0:0:
402,192,7946,1,0,0:0:0:0:
475,192,8080,128,0,8346:0:0:0:0:
329,192,8080,1,0,0:0:0:0:
402,192,8213,128,0,8480:0:0:0:0:
256,192,8213,1,0,0:0:0:0:
329,192,8346,128,0,8613:0:0:0:0:
36,192,8346,1,0,0:0:0:0:
109,192,8380,1,0,0:0:0:0:
182,192,8413,1,0,0:0:0:0:
256,192,8446,1,0,0:0:0:0:
475,192,8480,128,0,8746:0:0:0:0:
36,192,8480,1,0,0:0:0:0:
109,192,8513,1,0,0:0:0:0:
182,192,8546,1,0,0:0:0:0:
256,192,8580,1,0,0:0:0:0:
402,192,8613,128,0,8880:0:0:0:0:
329,192,8746,128,0,9013:0:0:0:0:
109,192,8746,1,0,0:0:0:0:
182,192,8880,128,0,9146:0:0:0:0:
36,192,8880,1,0,0:0:0:0:
256,192,9013,128,0,9280:0:0:0:0:
329,192,9146,128,0,9413:0:0:0:0:
182,192,9280,128,0,9413:0:0:0:0:
475,192,9413,5,0,0:0:0:0:
402,192,9413,1,0,0:0:0:0:
256,192,9413,1,0,0:0:0:0:
36,192,9413,1,0,0:0:0:0:
109,192,9413,1,0,0:0:0:0:
182,192,9546,1,0,0:0:0:0:
109,192,9680,1,0,0:0:0:0:
402,192,9680,1,0,0:0:0:0:
329,192,9813,1,0,0:0:0:0:
475,192,9946,1,0,0:0:0:0:
256,192,9946,1,0,0:0:0:0:
182,192,9946,1,0,0:0:0:0:
109,192,9946,1,0,0:0:0:0:
36,192,9946,1,0,0:0:0:0:
402,192,9946,1,0,0:0:0:0:
329,192,10080,1,0,0:0:0:0:
402,192,10213,1,0,0:0:0:0:
109,192,10213,1,0,0:0:0:0:
182,192,10346,1,0,0:0:0:0:
256,192,10480,1,0,0:0:0:0:
475,192,10480,1,0,0:0:0:0:
36,192,10480,1,0,0:0:0:0:
329,192,10613,1,0,0:0:0:0:
109,192,10613,128,0,10746:0:0:0:0:
182,192,10680,128,0,10813:0:0:0:0:
256,192,10746,128,0,10880:0:0:0:0:
402,192,10746,1,0,0:0:0:0:
329,192,10813,128,0,10946:0:0:0:0:
36,192,10880,1,0,0:0:0:0:
36,192,11013,1,0,0:0:0:0:
109,192,11013,1,0,0:0:0:0:
182,192,11013,1,0,0:0:0:0:
256,192,11013,1,0,0:0:0:0:
475,192,11013,1,0,0:0:0:0:
402,192,11013,128,0,11146:0:0:0:0:
329,192,11080,128,0,11213:0:0:0:0:
256,192,11146,128,0,11280:0:0:0:0:
182,192,11213,128,0,11346:0:0:0:0:
109,192,11280,128,0,11546:0:0:0:0:
36,192,11413,128,0,11546:0:0:0:0:
475,192,11546,1,0,0:0:0:0:
256,192,11546,1,0,0:0:0:0:
329,192,11680,1,0,0:0:0:0:
402,192,11813,1,0,0:0:0:0:
109,192,11813,1,0,0:0:0:0:
182,192,11946,1,0,0:0:0:0:
36,192,12080,1,0,0:0:0:0:
256,192,12080,1,0,0:0:0:0:
329,192,12080,1,0,0:0:0:0:
402,192,12080,1,0,0:0:0:0:
475,192,12080,1,0,0:0:0:0:
109,192,12080,1,0,0:0:0:0:
182,192,12213,1,0,0:0:0:0:
109,192,12346,1,0,0:0:0:0:
402,192,12346,1,0,0:0:0:0:
329,192,12480,1,0,0:0:0:0:
256,192,12613,1,0,0:0:0:0:
36,192,12613,1,0,0:0:0:0:
475,192,12613,1,0,0:0:0:0:
182,192,12746,1,0,0:0:0:0:
402,192,12746,128,0,12880:0:0:0:0:
329,192,12813,128,0,12946:0:0:0:0:
256,192,12880,128,0,13013:0:0:0:0:
109,192,12880,1,0,0:0:0:0:
182,192,12946,128,0,13080:0:0:0:0:
475,192,13013,1,0,0:0:0:0:
475,192,13146,1,0,0:0:0:0:
402,192,13146,1,0,0:0:0:0:
329,192,13146,1,0,0:0:0:0:
256,192,13146,1,0,0:0:0:0:
36,192,13146,1,0,0:0:0:0:
109,192,13146,128,0,13280:0:0:0:0:
182,192,13213,128,0,13346:0:0:0:0:
256,192,13280,128,0,13413:0:0:0:0:
329,192,13346,128,0,13480:0:0:0:0:
402,192,13413,128,0,13680:0:0:0:0:
475,192,13546,128,0,13680:0:0:0:0:
109,192,13680,128,0,13946:0:0:0:0:
36,192,13680,128,0,14080:0:0:0:0:
182,192,13813,128,0,13946:0:0:0:0:
256,192,13880,128,0,14013:0:0:0:0:
329,192,13946,128,0,14080:0:0:0:0:
402,192,14013,128,0,14146:0:0:0:0:
109,192,14080,128,0,14480:0:0:0:0:
475,192,14080,128,0,14213:0:0:0:0:
182,192,14080,128,0,14346:0:0:0:0:
256,192,14213,128,0,14346:0:0:0:0:
329,192,14280,128,0,14413:0:0:0:0:
475,192,14346,128,0,14480:0:0:0:0:
402,192,14413,128,0,14546:0:0:0:0:
329,192,14480,128,0,14613:0:0:0:0:
182,192,14480,1,0,0:0:0:0:
36,192,14480,1,0,0:0:0:0:
182,192,14613,1,0,0:0:0:0:
36,192,14613,1,0,0:0:0:0:
475,192,14746,128,0,15280:0:0:0:0:
402,192,14746,128,0,15013:0:0:0:0:
329,192,14880,128,0,15013:0:0:0:0:
256,192,14946,128,0,15080:0:0:0:0:
182,192,15013,128,0,15146:0:0:0:0:
109,192,15080,128,0,15213:0:0:0:0:
402,192,15146,128,0,15546:0:0:0:0:
329,192,15146,128,0,15413:0:0:0:0:
256,192,15280,128,0,15413:0:0:0:0:
182,192,15346,128,0,15480:0:0:0:0:
36,192,15413,128,0,15546:0:0:0:0:
109,192,15480,128,0,15613:0:0:0:0:
182,192,15546,128,0,15680:0:0:0:0:
329,192,15546,1,0,0:0:0:0:
475,192,15546,1,0,0:0:0:0:
329,192,15680,1,0,0:0:0:0:
475,192,15680,1,0,0:0:0:0:
256,192,15746,1,0,0:0:0:0:
182,192,15813,1,0,0:0:0:0:
402,192,15813,1,0,0:0:0:0:
256,192,15880,1,0,0:0:0:0:
475,192,15880,1,0,0:0:0:0:
329,192,15946,1,0,0:0:0:0:
109,192,15946,1,0,0:0:0:0:
182,192,16013,1,0,0:0:0:0:
402,192,16013,1,0,0:0:0:0:
256,192,16080,1,0,0:0:0:0:
36,192,16080,1,0,0:0:0:0:
109,192,16146,1,0,0:0:0:0:
329,192,16146,1,0,0:0:0:0:
182,192,16213,1,0,0:0:0:0:
402,192,16213,1,0,0:0:0:0:
256,192,16280,1,0,0:0:0:0:
475,192,16280,1,0,0:0:0:0:
329,192,16346,1,0,0:0:0:0:
109,192,16346,1,0,0:0:0:0:
182,192,16413,1,0,0:0:0:0:
402,192,16413,1,0,0:0:0:0:
36,192,16480,1,0,0:0:0:0:
256,192,16480,1,0,0:0:0:0:
109,192,16546,1,0,0:0:0:0:
329,192,16546,1,0,0:0:0:0:
182,192,16613,1,0,0:0:0:0:
402,192,16613,1,0,0:0:0:0:
256,192,16680,1,0,0:0:0:0:
475,192,16680,1,0,0:0:0:0:
329,192,16746,1,0,0:0:0:0:
109,192,16746,1,0,0:0:0:0:
182,192,16813,1,0,0:0:0:0:
402,192,16813,1,0,0:0:0:0:
256,192,16880,1,0,0:0:0:0:
475,192,16880,1,0,0:0:0:0:
329,192,16946,1,0,0:0:0:0:
109,192,16946,1,0,0:0:0:0:
182,192,17013,1,0,0:0:0:0:
402,192,17013,1,0,0:0:0:0:
256,192,17080,1,0,0:0:0:0:
36,192,17080,1,0,0:0:0:0:
109,192,17146,1,0,0:0:0:0:
329,192,17146,1,0,0:0:0:0:
402,192,17213,1,0,0:0:0:0:
182,192,17213,1,0,0:0:0:0:
256,192,17280,1,0,0:0:0:0:
475,192,17280,1,0,0:0:0:0:
329,192,17346,1,0,0:0:0:0:
182,192,17346,1,0,0:0:0:0:
36,192,17413,1,0,0:0:0:0:
109,192,17413,1,0,0:0:0:0:
402,192,17413,1,0,0:0:0:0:
475,192,17413,1,0,0:0:0:0:
36,192,17946,128,0,18613:0:0:0:0:
109,192,17946,128,0,18613:0:0:0:0:
475,192,17946,128,0,18213:0:0:0:0:
402,192,17946,128,0,18213:0:0:0:0:
256,192,17946,128,0,18213:0:0:0:0:
329,192,18213,128,0,18346:0:0:0:0:
402,192,18346,128,0,19013:0:0:0:0:
475,192,18346,128,0,19013:0:0:0:0:
256,192,18346,128,0,18613:0:0:0:0:
182,192,18613,128,0,18746:0:0:0:0:
36,192,18746,128,0,19413:0:0:0:0:
109,192,18746,128,0,19413:0:0:0:0:
256,192,18746,128,0,19013:0:0:0:0:
329,192,19013,128,0,19146:0:0:0:0:
402,192,19146,128,0,19413:0:0:0:0:
475,192,19146,128,0,19413:0:0:0:0:
182,192,19146,1,0,0:0:0:0:
256,192,19213,1,0,0:0:0:0:
329,192,19280,1,0,0:0:0:0:
256,192,19346,1,0,0:0:0:0:
182,192,19413,1,0,0:0:0:0:
402,192,20080,128,0,20746:0:0:0:0:
256,192,20080,128,0,20346:0:0:0:0:
475,192,20080,128,0,20746:0:0:0:0:
109,192,20080,128,0,20346:0:0:0:0:
36,192,20080,128,0,20346:0:0:0:0:
182,192,20346,128,0,20480:0:0:0:0:
36,192,20480,128,0,21146:0:0:0:0:
109,192,20480,128,0,21146:0:0:0:0:
256,192,20480,128,0,20746:0:0:0:0:
329,192,20746,128,0,20880:0:0:0:0:
475,192,20880,128,0,21546:0:0:0:0:
256,192,20880,128,0,21146:0:0:0:0:
402,192,20880,128,0,21546:0:0:0:0:
182,192,21146,128,0,21280:0:0:0:0:
36,192,21280,128,0,21546:0:0:0:0:
109,192,21280,128,0,21546:0:0:0:0:
329,192,21280,1,0,0:0:0:0:
256,192,21346,1,0,0:0:0:0:
182,192,21413,1,0,0:0:0:0:
256,192,21480,1,0,0:0:0:0:
329,192,21546,1,0,0:0:0:0:
109,192,21680,1,0,0:0:0:0:
36,192,21680,1,0,0:0:0:0:
256,192,21680,1,0,0:0:0:0:
475,192,21680,1,0,0:0:0:0:
402,192,21680,1,0,0:0:0:0:
402,192,22213,128,0,22480:0:0:0:0:
475,192,22213,128,0,22480:0:0:0:0:
36,192,22213,128,0,22880:0:0:0:0:
109,192,22213,128,0,22880:0:0:0:0:
256,192,22213,128,0,22480:0:0:0:0:
329,192,22480,128,0,22613:0:0:0:0:
256,192,22613,128,0,22880:0:0:0:0:
402,192,22613,128,0,23280:0:0:0:0:
475,192,22613,128,0,23280:0:0:0:0:
182,192,22880,128,0,23013:0:0:0:0:
109,192,23013,128,0,23680:0:0:0:0:
256,192,23013,128,0,23280:0:0:0:0:
36,192,23013,128,0,23680:0:0:0:0:
329,192,23280,128,0,23413:0:0:0:0:
182,192,23413,1,0,0:0:0:0:
402,192,23413,128,0,23680:0:0:0:0:
475,192,23413,128,0,23680:0:0:0:0:
256,192,23480,1,0,0:0:0:0:
329,192,23546,1,0,0:0:0:0:
256,192,23613,1,0,0:0:0:0:
182,192,23680,1,0,0:0:0:0:
329,192,23813,1,0,0:0:0:0:
256,192,23880,1,0,0:0:0:0:
182,192,23946,1,0,0:0:0:0:
36,192,23946,1,0,0:0:0:0:
36,192,24080,1,0,0:0:0:0:
182,192,24080,1,0,0:0:0:0:
329,192,24213,1,0,0:0:0:0:
402,192,24346,128,0,25013:0:0:0:0:
256,192,24346,128,0,24613:0:0:0:0:
475,192,24346,128,0,25013:0:0:0:0:
109,192,24346,128,0,24613:0:0:0:0:
36,192,24346,128,0,24613:0:0:0:0:
182,192,24613,128,0,24746:0:0:0:0:
36,192,24746,128,0,25346:0:0:0:0:
109,192,24746,128,0,25346:0:0:0:0:
256,192,24746,128,0,25013:0:0:0:0:
329,192,25013,128,0,25146:0:0:0:0:
256,192,25146,128,0,25346:0:0:0:0:
402,192,25146,128,0,25413:0:0:0:0:
475,192,25146,128,0,25413:0:0:0:0:
182,192,25280,128,0,25413:0:0:0:0:
109,192,25413,1,0,0:0:0:0:
36,192,25413,1,0,0:0:0:0:
256,192,25413,1,0,0:0:0:0:
182,192,25480,1,0,0:0:0:0:
402,192,25480,1,0,0:0:0:0:
475,192,25480,1,0,0:0:0:0:
36,192,25546,1,0,0:0:0:0:
109,192,25546,1,0,0:0:0:0:
329,192,25546,1,0,0:0:0:0:
402,192,25613,1,0,0:0:0:0:
256,192,25613,1,0,0:0:0:0:
475,192,25613,1,0,0:0:0:0:
109,192,25680,1,0,0:0:0:0:
36,192,25680,1,0,0:0:0:0:
182,192,25680,1,0,0:0:0:0:
402,192,25746,1,0,0:0:0:0:
475,192,25746,1,0,0:0:0:0:
329,192,25746,1,0,0:0:0:0:
256,192,25813,1,0,0:0:0:0:
109,192,25813,1,0,0:0:0:0:
36,192,25813,1,0,0:0:0:0:
182,192,25880,1,0,0:0:0:0:
402,192,25880,1,0,0:0:0:0:
475,192,25880,1,0,0:0:0:0:
329,192,25946,1,0,0:0:0:0:
256,192,25946,1,0,0:0:0:0:
109,192,25946,1,0,0:0:0:0:
36,192,25946,1,0,0:0:0:0:
36,192,26480,128,0,26613:0:0:0:0:
109,192,26480,128,0,26613:0:0:0:0:
182,192,26480,128,0,26613:0:0:0:0:
256,192,26480,1,0,0:0:0:0:
402,192,26480,1,0,0:0:0:0:
475,192,26480,1,0,0:0:0:0:
329,192,26613,128,0,26746:0:0:0:0:
109,192,26746,128,0,26880:0:0:0:0:
182,192,26746,128,0,26880:0:0:0:0:
256,192,26746,128,0,26880:0:0:0:0:
475,192,26746,1,0,0:0:0:0:
36,192,26746,1,0,0:0:0:0:
402,192,26880,128,0,27013:0:0:0:0:
256,192,27013,128,0,27146:0:0:0:0:
182,192,27013,128,0,27146:0:0:0:0:
329,192,27013,128,0,27146:0:0:0:0:
36,192,27013,1,0,0:0:0:0:
109,192,27013,1,0,0:0:0:0:
475,192,27146,128,0,27280:0:0:0:0:
256,192,27280,128,0,27413:0:0:0:0:
329,192,27280,128,0,27413:0:0:0:0:
402,192,27280,128,0,27413:0:0:0:0:
109,192,27280,1,0,0:0:0:0:
182,192,27280,1,0,0:0:0:0:
475,192,27413,128,0,27546:0:0:0:0:
36,192,27546,128,0,27680:0:0:0:0:
109,192,27546,128,0,27680:0:0:0:0:
182,192,27546,128,0,27680:0:0:0:0:
256,192,27546,1,0,0:0:0:0:
402,192,27546,1,0,0:0:0:0:
329,192,27680,128,0,27813:0:0:0:0:
182,192,27813,128,0,27946:0:0:0:0:
256,192,27813,128,0,27946:0:0:0:0:
109,192,27813,128,0,27946:0:0:0:0:
475,192,27813,1,0,0:0:0:0:
36,192,27813,1,0,0:0:0:0:
402,192,27946,128,0,28080:0:0:0:0:
256,192,28080,128,0,28213:0:0:0:0:
182,192,28080,128,0,28213:0:0:0:0:
329,192,28080,128,0,28213:0:0:0:0:
109,192,28080,1,0,0:0:0:0:
36,192,28080,1,0,0:0:0:0:
475,192,28213,128,0,28346:0:0:0:0:
329,192,28346,128,0,28480:0:0:0:0:
402,192,28346,128,0,28480:0:0:0:0:
256,192,28346,128,0,28480:0:0:0:0:
109,192,28346,1,0,0:0:0:0:
182,192,28346,1,0,0:0:0:0:
36,192,28480,128,0,28613:0:0:0:0:
329,192,28613,128,0,28746:0:0:0:0:
402,192,28613,128,0,28746:0:0:0:0:
475,192,28613,128,0,28746:0:0:0:0:
256,192,28613,1,0,0:0:0:0:
109,192,28613,1,0,0:0:0:0:
182,192,28746,128,0,28880:0:0:0:0:
402,192,28880,128,0,29013:0:0:0:0:
256,192,28880,128,0,29013:0:0:0:0:
329,192,28880,128,0,29013:0:0:0:0:
36,192,28880,1,0,0:0:0:0:
475,192,28880,1,0,0:0:0:0:
109,192,29013,128,0,29146:0:0:0:0:
182,192,29146,128,0,29280:0:0:0:0:
329,192,29146,128,0,29280:0:0:0:0:
256,192,29146,128,0,29280:0:0:0:0:
402,192,29146,1,0,0:0:0:0:
475,192,29146,1,0,0:0:0:0:
36,192,29280,128,0,29413:0:0:0:0:
256,192,29413,128,0,29546:0:0:0:0:
109,192,29413,128,0,29546:0:0:0:0:
182,192,29413,128,0,29546:0:0:0:0:
329,192,29413,1,0,0:0:0:0:
402,192,29413,1,0,0:0:0:0:
36,192,29546,128,0,29680:0:0:0:0:
329,192,29680,128,0,29813:0:0:0:0:
402,192,29680,128,0,29813:0:0:0:0:
475,192,29680,128,0,29813:0:0:0:0:
256,192,29680,1,0,0:0:0:0:
109,192,29680,1,0,0:0:0:0:
182,192,29813,128,0,29946:0:0:0:0:
256,192,29946,128,0,30080:0:0:0:0:
402,192,29946,128,0,30080:0:0:0:0:
329,192,29946,128,0,30080:0:0:0:0:
475,192,29946,1,0,0:0:0:0:
36,192,29946,1,0,0:0:0:0:
109,192,30080,128,0,30213:0:0:0:0:
329,192,30213,128,0,30346:0:0:0:0:
182,192,30213,128,0,30346:0:0:0:0:
256,192,30213,128,0,30346:0:0:0:0:
402,192,30213,1,0,0:0:0:0:
475,192,30213,1,0,0:0:0:0:
36,192,30346,128,0,30480:0:0:0:0:
402,192,30480,1,0,0:0:0:0:
182,192,30480,128,0,30613:0:0:0:0:
109,192,30480,128,0,30613:0:0:0:0:
256,192,30480,128,0,30613:0:0:0:0:
329,192,30480,1,0,0:0:0:0:
36,192,30613,128,0,30746:0:0:0:0:
475,192,30746,128,0,31013:0:0:0:0:
402,192,30746,128,0,31013:0:0:0:0:
182,192,30746,1,0,0:0:0:0:
109,192,30746,1,0,0:0:0:0:
256,192,30880,128,0,31013:0:0:0:0:
329,192,30880,128,0,31013:0:0:0:0:
36,192,31013,128,0,31280:0:0:0:0:
109,192,31013,128,0,31280:0:0:0:0:
182,192,31146,128,0,31280:0:0:0:0:
256,192,31146,128,0,31280:0:0:0:0:
402,192,31280,128,0,31546:0:0:0:0:
329,192,31280,128,0,31546:0:0:0:0:
475,192,31413,128,0,31546:0:0:0:0:
256,192,31413,128,0,31546:0:0:0:0:
109,192,31546,128,0,31813:0:0:0:0:
182,192,31546,128,0,31813:0:0:0:0:
256,192,31680,128,0,31813:0:0:0:0:
36,192,31680,128,0,31813:0:0:0:0:
475,192,31813,128,0,32080:0:0:0:0:
329,192,31813,128,0,32080:0:0:0:0:
256,192,31946,128,0,32080:0:0:0:0:
402,192,31946,128,0,32080:0:0:0:0:
36,192,32080,128,0,32346:0:0:0:0:
182,192,32080,128,0,32346:0:0:0:0:
109,192,32213,128,0,32346:0:0:0:0:
256,192,32213,128,0,32346:0:0:0:0:
402,192,32346,128,0,32613:0:0:0:0:
475,192,32346,128,0,32613:0:0:0:0:
329,192,32480,128,0,32613:0:0:0:0:
182,192,32480,128,0,32613:0:0:0:0:
36,192,32613,128,0,32880:0:0:0:0:
109,192,32613,128,0,32880:0:0:0:0:
256,192,32613,128,0,32746:0:0:0:0:
329,192,32680,128,0,32813:0:0:0:0:
402,192,32746,128,0,32880:0:0:0:0:
475,192,32813,128,0,32946:0:0:0:0:
182,192,32880,128,0,33146:0:0:0:0:
256,192,32880,1,0,0:0:0:0:
329,192,33013,128,0,33146:0:0:0:0:
36,192,33146,1,0,0:0:0:0:
402,192,33146,128,0,33413:0:0:0:0:
109,192,33180,1,0,0:0:0:0:
182,192,33213,1,0,0:0:0:0:
256,192,33246,1,0,0:0:0:0:
329,192,33280,1,0,0:0:0:0:
475,192,33280,128,0,33546:0:0:0:0:
182,192,33413,128,0,33546:0:0:0:0:
36,192,33413,1,0,0:0:0:0:
256,192,33480,128,0,33613:0:0:0:0:
329,192,33546,128,0,33680:0:0:0:0:
402,192,33680,128,0,33813:0:0:0:0:
182,192,33680,1,0,0:0:0:0:
109,192,33813,128,0,33946:0:0:0:0:
475,192,33946,128,0,34213:0:0:0:0:
256,192,33946,1,0,0:0:0:0:
36,192,33946,1,0,0:0:0:0:
402,192,34080,128,0,34213:0:0:0:0:
329,192,34146,128,0,34280:0:0:0:0:
256,192,34213,128,0,34346:0:0:0:0:
182,192,34280,128,0,34413:0:0:0:0:
36,192,34346,128,0,34613:0:0:0:0:
475,192,34346,1,0,0:0:0:0:
109,192,34480,128,0,34613:0:0:0:0:
329,192,34480,1,0,0:0:0:0:
475,192,34480,1,0,0:0:0:0:
182,192,34546,128,0,34680:0:0:0:0:
256,192,34613,128,0,34746:0:0:0:0:
329,192,34680,128,0,34813:0:0:0:0:
475,192,34746,128,0,34813:0:0:0:0:
402,192,34746,128,0,34813:0:0:0:0:
36,192,34746,128,0,34813:0:0:0:0:
109,192,34746,128,0,34813:0:0:0:0:
182,192,34880,128,0,34946:0:0:0:0:
256,192,34880,128,0,34946:0:0:0:0:
329,192,34880,128,0,34946:0:0:0:0:
182,192,35013,1,0,0:0:0:0:
109,192,35013,1,0,0:0:0:0:
36,192,35013,1,0,0:0:0:0:
329,192,35013,1,0,0:0:0:0:
402,192,35013,1,0,0:0:0:0:
475,192,35013,1,0,0:0:0:0:
182,192,35146,1,0,0:0:0:0:
36,192,35146,1,0,0:0:0:0:
329,192,35146,1,0,0:0:0:0:
109,192,35280,1,0,0:0:0:0:
256,192,35280,1,0,0:0:0:0:
402,192,35280,1,0,0:0:0:0:
36,192,35280,1,0,0:0:0:0:
475,192,35280,1,0,0:0:0:0:
329,192,35413,1,0,0:0:0:0:
36,192,35413,1,0,0:0:0:0:
182,192,35413,1,0,0:0:0:0:
256,192,35480,1,0,0:0:0:0:
109,192,35546,1,0,0:0:0:0:
402,192,35546,1,0,0:0:0:0:
182,192,35680,1,0,0:0:0:0:
36,192,35680,1,0,0:0:0:0:
329,192,35680,1,0,0:0:0:0:
109,192,35813,1,0,0:0:0:0:
402,192,35813,1,0,0:0:0:0:
329,192,35946,1,0,0:0:0:0:
36,192,35946,1,0,0:0:0:0:
182,192,35946,1,0,0:0:0:0:
109,192,36080,1,0,0:0:0:0:
256,192,36080,1,0,0:0:0:0:
402,192,36080,1,0,0:0:0:0:
36,192,36080,1,0,0:0:0:0:
475,192,36080,1,0,0:0:0:0:
182,192,36213,1,0,0:0:0:0:
36,192,36213,1,0,0:0:0:0:
329,192,36213,1,0,0:0:0:0:
109,192,36346,1,0,0:0:0:0:
402,192,36346,1,0,0:0:0:0:
329,192,36480,1,0,0:0:0:0:
36,192,36480,1,0,0:0:0:0:
182,192,36480,1,0,0:0:0:0:
109,192,36613,1,0,0:0:0:0:
402,192,36613,1,0,0:0:0:0:
182,192,36746,1,0,0:0:0:0:
36,192,36746,1,0,0:0:0:0:
329,192,36746,1,0,0:0:0:0:
109,192,36880,1,0,0:0:0:0:
402,192,36880,1,0,0:0:0:0:
256,192,36946,1,0,0:0:0:0:
329,192,37013,1,0,0:0:0:0:
36,192,37013,1,0,0:0:0:0:
182,192,37013,1,0,0:0:0:0:
256,192,37080,1,0,0:0:0:0:
402,192,37146,1,0,0:0:0:0:
475,192,37146,1,0,0:0:0:0:
109,192,37146,1,0,0:0:0:0:
36,192,37146,1,0,0:0:0:0:
329,192,37280,1,0,0:0:0:0:
475,192,37280,1,0,0:0:0:0:
182,192,37280,1,0,0:0:0:0:
402,192,37413,1,0,0:0:0:0:
256,192,37413,1,0,0:0:0:0:
109,192,37413,1,0,0:0:0:0:
475,192,37413,1,0,0:0:0:0:
36,192,37413,1,0,0:0:0:0:
182,192,37546,1,0,0:0:0:0:
475,192,37546,1,0,0:0:0:0:
329,192,37546,1,0,0:0:0:0:
402,192,37680,1,0,0:0:0:0:
109,192,37680,1,0,0:0:0:0:
329,192,37813,1,0,0:0:0:0:
475,192,37813,1,0,0:0:0:0:
182,192,37813,1,0,0:0:0:0:
402,192,37946,1,0,0:0:0:0:
109,192,37946,1,0,0:0:0:0:
182,192,38080,1,0,0:0:0:0:
475,192,38080,1,0,0:0:0:0:
329,192,38080,1,0,0:0:0:0:
402,192,38213,1,0,0:0:0:0:
109,192,38213,1,0,0:0:0:0:
256,192,38213,1,0,0:0:0:0:
36,192,38213,1,0,0:0:0:0:
475,192,38213,1,0,0:0:0:0:
329,192,38346,1,0,0:0:0:0:
475,192,38346,1,0,0:0:0:0:
182,192,38346,1,0,0:0:0:0:
402,192,38480,1,0,0:0:0:0:
109,192,38480,1,0,0:0:0:0:
182,192,38613,1,0,0:0:0:0:
475,192,38613,1,0,0:0:0:0:
329,192,38613,1,0,0:0:0:0:
402,192,38746,1,0,0:0:0:0:
109,192,38746,1,0,0:0:0:0:
256,192,38746,1,0,0:0:0:0:
36,192,38746,1,0,0:0:0:0:
475,192,38746,1,0,0:0:0:0:
329,192,38880,1,0,0:0:0:0:
475,192,38880,1,0,0:0:0:0:
182,192,38880,1,0,0:0:0:0:
402,192,39013,1,0,0:0:0:0:
109,192,39013,1,0,0:0:0:0:
256,192,39102,1,0,0:0:0:0:
182,192,39146,1,0,0:0:0:0:
475,192,39146,1,0,0:0:0:0:
329,192,39146,1,0,0:0:0:0:
256,192,39191,1,0,0:0:0:0:
109,192,39280,1,0,0:0:0:0:
36,192,39280,1,0,0:0:0:0:
402,192,39280,1,0,0:0:0:0:
475,192,39280,1,0,0:0:0:0:
182,192,39413,1,0,0:0:0:0:
36,192,39413,1,0,0:0:0:0:
329,192,39413,1,0,0:0:0:0:
109,192,39546,1,0,0:0:0:0:
256,192,39546,1,0,0:0:0:0:
402,192,39546,1,0,0:0:0:0:
36,192,39546,1,0,0:0:0:0:
475,192,39546,1,0,0:0:0:0:
329,192,39680,1,0,0:0:0:0:
36,192,39680,1,0,0:0:0:0:
182,192,39680,1,0,0:0:0:0:
256,192,39746,1,0,0:0:0:0:
109,192,39813,1,0,0:0:0:0:
402,192,39813,1,0,0:0:0:0:
182,192,39946,1,0,0:0:0:0:
36,192,39946,1,0,0:0:0:0:
329,192,39946,1,0,0:0:0:0:
109,192,40080,1,0,0:0:0:0:
402,192,40080,1,0,0:0:0:0:
329,192,40213,1,0,0:0:0:0:
36,192,40213,1,0,0:0:0:0:
182,192,40213,1,0,0:0:0:0:
109,192,40346,1,0,0:0:0:0:
256,192,40346,1,0,0:0:0:0:
402,192,40346,1,0,0:0:0:0:
36,192,40346,1,0,0:0:0:0:
475,192,40346,1,0,0:0:0:0:
182,192,40480,1,0,0:0:0:0:
36,192,40480,1,0,0:0:0:0:
329,192,40480,1,0,0:0:0:0:
109,192,40613,1,0,0:0:0:0:
402,192,40613,1,0,0:0:0:0:
329,192,40746,1,0,0:0:0:0:
36,192,40746,1,0,0:0:0:0:
182,192,40746,1,0,0:0:0:0:
109,192,40880,1,0,0:0:0:0:
402,192,40880,1,0,0:0:0:0:
182,192,41013,1,0,0:0:0:0:
36,192,41013,1,0,0:0:0:0:
329,192,41013,1,0,0:0:0:0:
109,192,41146,1,0,0:0:0:0:
402,192,41146,1,0,0:0:0:0:
256,192,41213,1,0,0:0:0:0:
329,192,41280,1,0,0:0:0:0:
36,192,41280,1,0,0:0:0:0:
182,192,41280,1,0,0:0:0:0:
256,192,41346,1,0,0:0:0:0:
402,192,41413,1,0,0:0:0:0:
475,192,41413,1,0,0:0:0:0:
109,192,41413,1,0,0:0:0:0:
36,192,41413,1,0,0:0:0:0:
256,192,41480,1,0,0:0:0:0:
329,192,41546,1,0,0:0:0:0:
475,192,41546,1,0,0:0:0:0:
182,192,41546,1,0,0:0:0:0:
402,192,41680,1,0,0:0:0:0:
256,192,41680,1,0,0:0:0:0:
109,192,41680,1,0,0:0:0:0:
475,192,41680,1,0,0:0:0:0:
36,192,41680,1,0,0:0:0:0:
182,192,41813,1,0,0:0:0:0:
475,192,41813,1,0,0:0:0:0:
329,192,41813,1,0,0:0:0:0:
402,192,41946,1,0,0:0:0:0:
109,192,41946,1,0,0:0:0:0:
329,192,42080,1,0,0:0:0:0:
475,192,42080,1,0,0:0:0:0:
182,192,42080,1,0,0:0:0:0:
402,192,42213,1,0,0:0:0:0:
109,192,42213,1,0,0:0:0:0:
182,192,42346,1,0,0:0:0:0:
475,192,42346,1,0,0:0:0:0:
329,192,42346,1,0,0:0:0:0:
402,192,42480,1,0,0:0:0:0:
109,192,42480,1,0,0:0:0:0:
256,192,42480,1,0,0:0:0:0:
36,192,42480,1,0,0:0:0:0:
475,192,42480,1,0,0:0:0:0:
182,192,42546,1,0,0:0:0:0:
256,192,42613,1,0,0:0:0:0:
329,192,42680,1,0,0:0:0:0:
402,192,42746,1,0,0:0:0:0:
475,192,42813,1,0,0:0:0:0:
109,192,42880,1,0,0:0:0:0:
36,192,42880,1,0,0:0:0:0:
256,192,42880,1,0,0:0:0:0:
182,192,42946,1,0,0:0:0:0:
256,192,43013,1,0,0:0:0:0:
329,192,43080,1,0,0:0:0:0:
402,192,43146,1,0,0:0:0:0:
475,192,43213,1,0,0:0:0:0:
36,192,43280,128,0,43346:0:0:0:0:
109,192,43280,128,0,43346:0:0:0:0:
182,192,43280,128,0,43346:0:0:0:0:
256,192,43280,128,0,43346:0:0:0:0:
36,192,43413,128,0,43480:0:0:0:0:
109,192,43413,128,0,43480:0:0:0:0:
182,192,43413,128,0,43480:0:0:0:0:
256,192,43413,128,0,43480:0:0:0:0:
475,192,43813,1,0,0:0:0:0:
402,192,43813,1,0,0:0:0:0:
182,192,43813,1,0,0:0:0:0:
109,192,43880,1,0,0:0:0:0:
36,192,43880,1,0,0:0:0:0:
329,192,43880,1,0,0:0:0:0:
182,192,43946,1,0,0:0:0:0:
475,192,43946,1,0,0:0:0:0:
402,192,43946,1,0,0:0:0:0:
109,192,44013,1,0,0:0:0:0:
329,192,44013,1,0,0:0:0:0:
36,192,44013,1,0,0:0:0:0:
256,192,44080,1,0,0:0:0:0:
109,192,44213,1,0,0:0:0:0:
402,192,44213,1,0,0:0:0:0:
182,192,44346,1,0,0:0:0:0:
36,192,44346,1,0,0:0:0:0:
256,192,44346,1,0,0:0:0:0:
475,192,44346,1,0,0:0:0:0:
329,192,44346,1,0,0:0:0:0:
109,192,44413,1,0,0:0:0:0:
182,192,44480,1,0,0:0:0:0:
329,192,44480,1,0,0:0:0:0:
109,192,44546,1,0,0:0:0:0:
36,192,44613,1,0,0:0:0:0:
256,192,44613,1,0,0:0:0:0:
475,192,44613,1,0,0:0:0:0:
402,192,44680,1,0,0:0:0:0:
329,192,44746,1,0,0:0:0:0:
182,192,44746,1,0,0:0:0:0:
109,192,44813,1,0,0:0:0:0:
36,192,44880,1,0,0:0:0:0:
256,192,44880,1,0,0:0:0:0:
475,192,44880,1,0,0:0:0:0:
402,192,44946,1,0,0:0:0:0:
329,192,45013,1,0,0:0:0:0:
182,192,45013,1,0,0:0:0:0:
402,192,45080,1,0,0:0:0:0:
475,192,45146,1,0,0:0:0:0:
256,192,45146,1,0,0:0:0:0:
36,192,45146,1,0,0:0:0:0:
109,192,45213,1,0,0:0:0:0:
182,192,45280,1,0,0:0:0:0:
329,192,45280,1,0,0:0:0:0:
402,192,45346,1,0,0:0:0:0:
475,192,45413,1,0,0:0:0:0:
256,192,45413,1,0,0:0:0:0:
36,192,45413,1,0,0:0:0:0:
182,192,45480,1,0,0:0:0:0:
109,192,45546,1,0,0:0:0:0:
402,192,45546,1,0,0:0:0:0:
329,192,45613,1,0,0:0:0:0:
256,192,45680,1,0,0:0:0:0:
36,192,45680,1,0,0:0:0:0:
475,192,45680,1,0,0:0:0:0:
402,192,45746,1,0,0:0:0:0:
329,192,45813,1,0,0:0:0:0:
182,192,45813,1,0,0:0:0:0:
109,192,45880,1,0,0:0:0:0:
36,192,45946,1,0,0:0:0:0:
256,192,45946,1,0,0:0:0:0:
475,192,45946,1,0,0:0:0:0:
329,192,46013,1,0,0:0:0:0:
402,192,46080,1,0,0:0:0:0:
109,192,46080,1,0,0:0:0:0:
182,192,46146,1,0,0:0:0:0:
256,192,46213,1,0,0:0:0:0:
475,192,46213,1,0,0:0:0:0:
36,192,46213,1,0,0:0:0:0:
109,192,46280,1,0,0:0:0:0:
329,192,46346,1,0,0:0:0:0:
182,192,46346,1,0,0:0:0:0:
402,192,46413,1,0,0:0:0:0:
475,192,46480,1,0,0:0:0:0:
256,192,46480,1,0,0:0:0:0:
36,192,46480,1,0,0:0:0:0:
109,192,46546,1,0,0:0:0:0:
182,192,46613,1,0,0:0:0:0:
402,192,46613,1,0,0:0:0:0:
329,192,46680,1,0,0:0:0:0:
256,192,46746,1,0,0:0:0:0:
36,192,46746,1,0,0:0:0:0:
475,192,46746,1,0,0:0:0:0:
182,192,46813,1,0,0:0:0:0:
109,192,46880,1,0,0:0:0:0:
402,192,46880,1,0,0:0:0:0:
329,192,46946,1,0,0:0:0:0:
256,192,47013,1,0,0:0:0:0:
36,192,47013,1,0,0:0:0:0:
475,192,47013,1,0,0:0:0:0:
402,192,47080,1,0,0:0:0:0:
329,192,47146,1,0,0:0:0:0:
109,192,47146,1,0,0:0:0:0:
182,192,47213,1,0,0:0:0:0:
256,192,47280,1,0,0:0:0:0:
36,192,47280,1,0,0:0:0:0:
475,192,47280,1,0,0:0:0:0:
329,192,47346,1,0,0:0:0:0:
109,192,47413,1,0,0:0:0:0:
402,192,47413,1,0,0:0:0:0:
182,192,47480,1,0,0:0:0:0:
475,192,47546,1,0,0:0:0:0:
256,192,47546,1,0,0:0:0:0:
36,192,47546,1,0,0:0:0:0:
109,192,47613,1,0,0:0:0:0:
182,192,47680,1,0,0:0:0:0:
402,192,47680,1,0,0:0:0:0:
475,192,47680,1,0,0:0:0:0:
329,192,47746,1,0,0:0:0:0:
256,192,47813,1,0,0:0:0:0:
36,192,47813,1,0,0:0:0:0:
475,192,47813,1,0,0:0:0:0:
182,192,47880,1,0,0:0:0:0:
109,192,47946,1,0,0:0:0:0:
329,192,47946,1,0,0:0:0:0:
182,192,48013,1,0,0:0:0:0:
36,192,48080,1,0,0:0:0:0:
256,192,48080,1,0,0:0:0:0:
475,192,48080,1,0,0:0:0:0:
402,192,48146,1,0,0:0:0:0:
329,192,48213,1,0,0:0:0:0:
182,192,48213,1,0,0:0:0:0:
109,192,48280,1,0,0:0:0:0:
36,192,48346,1,0,0:0:0:0:
256,192,48346,1,0,0:0:0:0:
475,192,48346,1,0,0:0:0:0:
329,192,48413,1,0,0:0:0:0:
402,192,48480,1,0,0:0:0:0:
182,192,48480,1,0,0:0:0:0:
329,192,48546,1,0,0:0:0:0:
256,192,48613,1,0,0:0:0:0:
36,192,48613,1,0,0:0:0:0:
475,192,48613,1,0,0:0:0:0:
109,192,48680,1,0,0:0:0:0:
182,192,48746,1,0,0:0:0:0:
329,192,48746,1,0,0:0:0:0:
402,192,48813,1,0,0:0:0:0:
475,192,48880,1,0,0:0:0:0:
256,192,48880,1,0,0:0:0:0:
36,192,48880,1,0,0:0:0:0:
182,192,48946,1,0,0:0:0:0:
109,192,49013,1,0,0:0:0:0:
402,192,49013,1,0,0:0:0:0:
182,192,49080,1,0,0:0:0:0:
256,192,49146,1,0,0:0:0:0:
475,192,49146,1,0,0:0:0:0:
36,192,49146,1,0,0:0:0:0:
329,192,49213,1,0,0:0:0:0:
402,192,49280,1,0,0:0:0:0:
109,192,49280,1,0,0:0:0:0:
182,192,49346,1,0,0:0:0:0:
256,192,49413,1,0,0:0:0:0:
475,192,49413,1,0,0:0:0:0:
36,192,49413,1,0,0:0:0:0:
329,192,49480,1,0,0:0:0:0:
402,192,49546,1,0,0:0:0:0:
109,192,49546,1,0,0:0:0:0:
329,192,49613,1,0,0:0:0:0:
256,192,49680,1,0,0:0:0:0:
36,192,49680,1,0,0:0:0:0:
475,192,49680,1,0,0:0:0:0:
182,192,49680,1,0,0:0:0:0:
402,192,49746,1,0,0:0:0:0:
329,192,49746,1,0,0:0:0:0:
182,192,49813,1,0,0:0:0:0:
109,192,49813,1,0,0:0:0:0:
36,192,49813,1,0,0:0:0:0:
329,192,49880,1,0,0:0:0:0:
402,192,49880,1,0,0:0:0:0:
475,192,49880,1,0,0:0:0:0:
256,192,49946,1,0,0:0:0:0:
182,192,49946,1,0,0:0:0:0:
109,192,49946,1,0,0:0:0:0:
36,192,50013,1,0,0:0:0:0:
402,192,50013,1,0,0:0:0:0:
475,192,50013,1,0,0:0:0:0:
329,192,50080,1,0,0:0:0:0:
256,192,50080,1,0,0:0:0:0:
109,192,50080,1,0,0:0:0:0:
182,192,50213,1,0,0:0:0:0:
475,192,50213,1,0,0:0:0:0:
36,192,50213,1,0,0:0:0:0:
329,192,50213,1,0,0:0:0:0:
402,192,50346,1,0,0:0:0:0:
475,192,50346,1,0,0:0:0:0:
329,192,50346,1,0,0:0:0:0:
109,192,50413,1,0,0:0:0:0:
182,192,50413,1,0,0:0:0:0:
36,192,50413,1,0,0:0:0:0:
329,192,50480,1,0,0:0:0:0:
402,192,50480,1,0,0:0:0:0:
256,192,50480,1,0,0:0:0:0:
475,192,50546,1,0,0:0:0:0:
36,192,50546,1,0,0:0:0:0:
109,192,50546,1,0,0:0:0:0:
182,192,50613,1,0,0:0:0:0:
402,192,50613,1,0,0:0:0:0:
256,192,50613,1,0,0:0:0:0:
475,192,50746,1,0,0:0:0:0:
36,192,50746,1,0,0:0:0:0:
182,192,50746,1,0,0:0:0:0:
329,192,50746,1,0,0:0:0:0:
182,192,50880,1,0,0:0:0:0:
36,192,50880,1,0,0:0:0:0:
109,192,50880,1,0,0:0:0:0:
475,192,50946,1,0,0:0:0:0:
329,192,50946,1,0,0:0:0:0:
402,192,50946,1,0,0:0:0:0:
256,192,51013,1,0,0:0:0:0:
109,192,51013,1,0,0:0:0:0:
182,192,51013,1,0,0:0:0:0:
402,192,51080,1,0,0:0:0:0:
475,192,51080,1,0,0:0:0:0:
36,192,51080,1,0,0:0:0:0:
256,192,51146,1,0,0:0:0:0:
109,192,51146,1,0,0:0:0:0:
329,192,51146,1,0,0:0:0:0:
329,192,51280,1,0,0:0:0:0:
182,192,51280,1,0,0:0:0:0:
36,192,51280,1,0,0:0:0:0:
475,192,51280,1,0,0:0:0:0:
36,192,51457,1,0,0:0:0:0:
182,192,51457,1,0,0:0:0:0:
329,192,51457,1,0,0:0:0:0:
475,192,51457,1,0,0:0:0:0:
329,192,51635,1,0,0:0:0:0:
475,192,51635,1,0,0:0:0:0:
182,192,51635,1,0,0:0:0:0:
36,192,51635,1,0,0:0:0:0:
36,192,51813,1,0,0:0:0:0:
182,192,51813,1,0,0:0:0:0:
329,192,51813,1,0,0:0:0:0:
475,192,51813,1,0,0:0:0:0:
256,192,51813,1,0,0:0:0:0:
109,192,51813,1,0,0:0:0:0:
402,192,51813,1,0,0:0:0:0:
182,192,52080,1,0,0:0:0:0:
329,192,52080,1,0,0:0:0:0:
36,192,52080,1,0,0:0:0:0:
256,192,52080,1,0,0:0:0:0:
475,192,52080,1,0,0:0:0:0:
109,192,52146,1,0,0:0:0:0:
329,192,52213,1,0,0:0:0:0:
182,192,52213,1,0,0:0:0:0:
109,192,52280,1,0,0:0:0:0:
256,192,52346,1,0,0:0:0:0:
36,192,52346,1,0,0:0:0:0:
475,192,52346,1,0,0:0:0:0:
402,192,52413,1,0,0:0:0:0:
329,192,52480,1,0,0:0:0:0:
182,192,52480,1,0,0:0:0:0:
109,192,52546,1,0,0:0:0:0:
256,192,52613,1,0,0:0:0:0:
36,192,52613,1,0,0:0:0:0:
475,192,52613,1,0,0:0:0:0:
402,192,52680,1,0,0:0:0:0:
182,192,52746,1,0,0:0:0:0:
329,192,52746,1,0,0:0:0:0:
402,192,52813,1,0,0:0:0:0:
256,192,52880,1,0,0:0:0:0:
475,192,52880,1,0,0:0:0:0:
36,192,52880,1,0,0:0:0:0:
109,192,52946,1,0,0:0:0:0:
182,192,53013,1,0,0:0:0:0:
329,192,53013,1,0,0:0:0:0:
402,192,53080,1,0,0:0:0:0:
36,192,53146,1,0,0:0:0:0:
475,192,53146,1,0,0:0:0:0:
256,192,53146,1,0,0:0:0:0:
182,192,53213,1,0,0:0:0:0:
109,192,53280,1,0,0:0:0:0:
402,192,53280,1,0,0:0:0:0:
329,192,53346,1,0,0:0:0:0:
256,192,53413,1,0,0:0:0:0:
475,192,53413,1,0,0:0:0:0:
36,192,53413,1,0,0:0:0:0:
402,192,53480,1,0,0:0:0:0:
329,192,53546,1,0,0:0:0:0:
182,192,53546,1,0,0:0:0:0:
109,192,53613,1,0,0:0:0:0:
475,192,53680,1,0,0:0:0:0:
36,192,53680,1,0,0:0:0:0:
256,192,53680,1,0,0:0:0:0:
329,192,53746,1,0,0:0:0:0:
109,192,53813,1,0,0:0:0:0:
402,192,53813,1,0,0:0:0:0:
182,192,53880,1,0,0:0:0:0:
256,192,53946,1,0,0:0:0:0:
475,192,53946,1,0,0:0:0:0:
36,192,53946,1,0,0:0:0:0:
109,192,54013,1,0,0:0:0:0:
182,192,54080,1,0,0:0:0:0:
329,192,54080,1,0,0:0:0:0:
402,192,54146,1,0,0:0:0:0:
475,192,54213,1,0,0:0:0:0:
256,192,54213,1,0,0:0:0:0:
36,192,54213,1,0,0:0:0:0:
109,192,54280,1,0,0:0:0:0:
182,192,54346,1,0,0:0:0:0:
402,192,54346,1,0,0:0:0:0:
329,192,54413,1,0,0:0:0:0:
36,192,54480,1,0,0:0:0:0:
475,192,54480,1,0,0:0:0:0:
256,192,54480,1,0,0:0:0:0:
182,192,54546,1,0,0:0:0:0:
109,192,54613,1,0,0:0:0:0:
402,192,54613,1,0,0:0:0:0:
329,192,54680,1,0,0:0:0:0:
36,192,54746,1,0,0:0:0:0:
256,192,54746,1,0,0:0:0:0:
475,192,54746,1,0,0:0:0:0:
402,192,54813,1,0,0:0:0:0:
329,192,54880,1,0,0:0:0:0:
109,192,54880,1,0,0:0:0:0:
182,192,54946,1,0,0:0:0:0:
475,192,55013,1,0,0:0:0:0:
256,192,55013,1,0,0:0:0:0:
36,192,55013,1,0,0:0:0:0:
329,192,55080,1,0,0:0:0:0:
402,192,55146,1,0,0:0:0:0:
109,192,55146,1,0,0:0:0:0:
182,192,55213,1,0,0:0:0:0:
256,192,55280,1,0,0:0:0:0:
475,192,55280,1,0,0:0:0:0:
36,192,55280,1,0,0:0:0:0:
109,192,55346,1,0,0:0:0:0:
402,192,55413,1,0,0:0:0:0:
182,192,55413,1,0,0:0:0:0:
329,192,55480,1,0,0:0:0:0:
36,192,55546,1,0,0:0:0:0:
256,192,55546,1,0,0:0:0:0:
475,192,55546,1,0,0:0:0:0:
182,192,55613,1,0,0:0:0:0:
109,192,55680,1,0,0:0:0:0:
329,192,55680,1,0,0:0:0:0:
182,192,55746,1,0,0:0:0:0:
256,192,55813,1,0,0:0:0:0:
475,192,55813,1,0,0:0:0:0:
36,192,55813,1,0,0:0:0:0:
402,192,55880,1,0,0:0:0:0:
329,192,55946,1,0,0:0:0:0:
182,192,55946,1,0,0:0:0:0:
109,192,56013,1,0,0:0:0:0:
36,192,56080,1,0,0:0:0:0:
256,192,56080,1,0,0:0:0:0:
475,192,56080,1,0,0:0:0:0:
329,192,56146,1,0,0:0:0:0:
402,192,56146,1,0,0:0:0:0:
475,192,56213,1,0,0:0:0:0:
182,192,56213,1,0,0:0:0:0:
256,192,56280,1,0,0:0:0:0:
329,192,56280,1,0,0:0:0:0:
402,192,56346,1,0,0:0:0:0:
475,192,56346,1,0,0:0:0:0:
182,192,56346,1,0,0:0:0:0:
109,192,56413,1,0,0:0:0:0:
36,192,56480,1,0,0:0:0:0:
256,192,56480,1,0,0:0:0:0:
182,192,56546,1,0,0:0:0:0:
109,192,56613,1,0,0:0:0:0:
36,192,56613,1,0,0:0:0:0:
475,192,56613,1,0,0:0:0:0:
402,192,56680,1,0,0:0:0:0:
36,192,56746,1,0,0:0:0:0:
109,192,56746,1,0,0:0:0:0:
182,192,56746,1,0,0:0:0:0:
329,192,56746,1,0,0:0:0:0:
256,192,56813,1,0,0:0:0:0:
182,192,56880,1,0,0:0:0:0:
109,192,56946,1,0,0:0:0:0:
402,192,57013,1,0,0:0:0:0:
475,192,57013,1,0,0:0:0:0:
36,192,57013,1,0,0:0:0:0:
256,192,57013,1,0,0:0:0:0:
182,192,57080,1,0,0:0:0:0:
475,192,57146,1,0,0:0:0:0:
402,192,57146,1,0,0:0:0:0:
329,192,57146,1,0,0:0:0:0:
109,192,57146,1,0,0:0:0:0:
256,192,57213,1,0,0:0:0:0:
182,192,57280,1,0,0:0:0:0:
256,192,57346,1,0,0:0:0:0:
36,192,57413,1,0,0:0:0:0:
109,192,57413,1,0,0:0:0:0:
329,192,57413,1,0,0:0:0:0:
402,192,57480,1,0,0:0:0:0:
109,192,57546,1,0,0:0:0:0:
182,192,57546,1,0,0:0:0:0:
36,192,57546,1,0,0:0:0:0:
475,192,57546,1,0,0:0:0:0:
256,192,57546,1,0,0:0:0:0:
329,192,57613,1,0,0:0:0:0:
36,192,57680,1,0,0:0:0:0:
109,192,57746,1,0,0:0:0:0:
475,192,57813,1,0,0:0:0:0:
402,192,57813,1,0,0:0:0:0:
182,192,57813,1,0,0:0:0:0:
256,192,57880,1,0,0:0:0:0:
36,192,57946,1,0,0:0:0:0:
109,192,57946,1,0,0:0:0:0:
182,192,57946,1,0,0:0:0:0:
329,192,57946,1,0,0:0:0:0:
402,192,58013,1,0,0:0:0:0:
475,192,58080,1,0,0:0:0:0:
256,192,58080,1,0,0:0:0:0:
329,192,58146,1,0,0:0:0:0:
109,192,58213,1,0,0:0:0:0:
36,192,58213,1,0,0:0:0:0:
182,192,58213,1,0,0:0:0:0:
256,192,58280,1,0,0:0:0:0:
329,192,58346,128,0,58480:0:0:0:0:
475,192,58346,128,0,58480:0:0:0:0:
36,192,58480,128,0,58613:0:0:0:0:
402,192,58480,1,0,0:0:0:0:
109,192,58546,128,0,58680:0:0:0:0:
182,192,58613,128,0,58746:0:0:0:0:
256,192,58680,128,0,58813:0:0:0:0:
109,192,58746,128,0,58880:0:0:0:0:
402,192,58746,1,0,0:0:0:0:
475,192,58746,1,0,0:0:0:0:
329,192,58746,1,0,0:0:0:0:
182,192,58813,128,0,58946:0:0:0:0:
256,192,58880,128,0,59013:0:0:0:0:
329,192,58946,128,0,59080:0:0:0:0:
182,192,59013,128,0,59146:0:0:0:0:
109,192,59013,1,0,0:0:0:0:
256,192,59080,128,0,59213:0:0:0:0:
329,192,59146,128,0,59280:0:0:0:0:
402,192,59213,128,0,59346:0:0:0:0:
256,192,59280,128,0,59413:0:0:0:0:
36,192,59280,1,0,0:0:0:0:
109,192,59280,1,0,0:0:0:0:
182,192,59280,1,0,0:0:0:0:
329,192,59346,128,0,59480:0:0:0:0:
402,192,59413,128,0,59546:0:0:0:0:
475,192,59480,128,0,59613:0:0:0:0:
36,192,59546,1,0,0:0:0:0:
109,192,59546,1,0,0:0:0:0:
256,192,59613,1,0,0:0:0:0:
182,192,59613,1,0,0:0:0:0:
109,192,59680,1,0,0:0:0:0:
36,192,59680,1,0,0:0:0:0:
182,192,59746,1,0,0:0:0:0:
256,192,59746,1,0,0:0:0:0:
402,192,59813,1,0,0:0:0:0:
475,192,59813,1,0,0:0:0:0:
329,192,59880,1,0,0:0:0:0:
256,192,59880,1,0,0:0:0:0:
402,192,59946,1,0,0:0:0:0:
475,192,59946,1,0,0:0:0:0:
256,192,60013,1,0,0:0:0:0:
329,192,60013,1,0,0:0:0:0:
109,192,60080,1,0,0:0:0:0:
36,192,60080,1,0,0:0:0:0:
182,192,60146,1,0,0:0:0:0:
256,192,60146,1,0,0:0:0:0:
402,192,60213,1,0,0:0:0:0:
475,192,60213,1,0,0:0:0:0:
329,192,60280,1,0,0:0:0:0:
256,192,60280,1,0,0:0:0:0:
182,192,60346,1,0,0:0:0:0:
109,192,60346,1,0,0:0:0:0:
36,192,60346,1,0,0:0:0:0:
182,192,60613,1,0,0:0:0:0:
36,192,60613,1,0,0:0:0:0:
329,192,60613,1,0,0:0:0:0:
475,192,60613,1,0,0:0:0:0:
182,192,61146,128,0,61680:0:0:0:0:
109,192,61680,128,0,62213:0:0:0:0:
36,192,62213,128,0,62746:0:0:0:0:
182,192,62746,128,0,64613:0:0:0:0:
329,192,64613,128,0,64746:0:0:0:0:
256,192,64746,128,0,64880:0:0:0:0:
182,192,64880,128,0,67013:0:0:0:0:
475,192,67013,128,0,68346:0:0:0:0:
256,192,68346,128,0,68480:0:0:0:0:
109,192,68480,128,0,68613:0:0:0:0:
329,192,68613,128,0,68813:0:0:0:0:
182,192,68813,128,0,69013:0:0:0:0:
256,192,69013,128,0,69146:0:0:0:0:
36,192,69146,128,0,69946:0:0:0:0:
182,192,69146,1,0,0:0:0:0:
329,192,69146,1,0,0:0:0:0:
475,192,69146,1,0,0:0:0:0:
109,192,69280,1,0,0:0:0:0:
256,192,69413,1,0,0:0:0:0:
182,192,69546,1,0,0:0:0:0:
329,192,69680,1,0,0:0:0:0:
402,192,69680,1,0,0:0:0:0:
475,192,69680,1,0,0:0:0:0:
256,192,69813,1,0,0:0:0:0:
182,192,69946,1,0,0:0:0:0:
402,192,69946,1,0,0:0:0:0:
256,192,70013,1,0,0:0:0:0:
329,192,70080,1,0,0:0:0:0:
109,192,70080,1,0,0:0:0:0:
402,192,70146,1,0,0:0:0:0:
475,192,70213,128,0,72080:0:0:0:0:
329,192,70213,1,0,0:0:0:0:
182,192,70213,1,0,0:0:0:0:
36,192,70213,1,0,0:0:0:0:
256,192,70346,1,0,0:0:0:0:
182,192,70480,1,0,0:0:0:0:
109,192,70480,1,0,0:0:0:0:
329,192,70480,1,0,0:0:0:0:
36,192,70613,1,0,0:0:0:0:
109,192,70613,1,0,0:0:0:0:
256,192,70613,1,0,0:0:0:0:
329,192,70746,1,0,0:0:0:0:
182,192,70880,1,0,0:0:0:0:
256,192,71013,1,0,0:0:0:0:
329,192,71146,1,0,0:0:0:0:
402,192,71146,1,0,0:0:0:0:
109,192,71146,1,0,0:0:0:0:
182,192,71280,1,0,0:0:0:0:
256,192,71413,1,0,0:0:0:0:
329,192,71413,1,0,0:0:0:0:
36,192,71413,1,0,0:0:0:0:
109,192,71546,1,0,0:0:0:0:
182,192,71680,1,0,0:0:0:0:
256,192,71813,1,0,0:0:0:0:
182,192,71946,1,0,0:0:0:0:
256,192,72080,1,0,0:0:0:0:
329,192,72080,128,0,72213:0:0:0:0:
36,192,72080,1,0,0:0:0:0:
109,192,72080,1,0,0:0:0:0:
182,192,72213,128,0,72346:0:0:0:0:
402,192,72213,1,0,0:0:0:0:
475,192,72213,1,0,0:0:0:0:
256,192,72213,1,0,0:0:0:0:
36,192,72346,128,0,72746:0:0:0:0:
329,192,72346,1,0,0:0:0:0:
475,192,72480,1,0,0:0:0:0:
402,192,72613,1,0,0:0:0:0:
182,192,72746,128,0,73146:0:0:0:0:
329,192,72746,1,0,0:0:0:0:
256,192,72746,1,0,0:0:0:0:
475,192,72746,1,0,0:0:0:0:
402,192,72880,1,0,0:0:0:0:
475,192,73013,1,0,0:0:0:0:
329,192,73146,128,0,73480:0:0:0:0:
36,192,73146,1,0,0:0:0:0:
109,192,73146,1,0,0:0:0:0:
256,192,73146,1,0,0:0:0:0:
182,192,73280,1,0,0:0:0:0:
109,192,73413,1,0,0:0:0:0:
475,192,73480,128,0,74080:0:0:0:0:
36,192,73546,1,0,0:0:0:0:
182,192,73546,1,0,0:0:0:0:
256,192,73546,1,0,0:0:0:0:
329,192,73680,1,0,0:0:0:0:
402,192,73813,1,0,0:0:0:0:
182,192,73946,1,0,0:0:0:0:
109,192,73946,1,0,0:0:0:0:
36,192,73946,1,0,0:0:0:0:
329,192,74080,1,0,0:0:0:0:
256,192,74146,1,0,0:0:0:0:
36,192,74213,1,0,0:0:0:0:
182,192,74213,1,0,0:0:0:0:
402,192,74280,1,0,0:0:0:0:
329,192,74346,1,0,0:0:0:0:
109,192,74346,1,0,0:0:0:0:
475,192,74346,1,0,0:0:0:0:
256,192,74413,1,0,0:0:0:0:
182,192,74480,128,0,75146:0:0:0:0:
402,192,74480,1,0,0:0:0:0:
329,192,74613,1,0,0:0:0:0:
36,192,74746,1,0,0:0:0:0:
256,192,74746,1,0,0:0:0:0:
475,192,74746,1,0,0:0:0:0:
329,192,74880,1,0,0:0:0:0:
402,192,75013,1,0,0:0:0:0:
256,192,75146,1,0,0:0:0:0:
36,192,75146,1,0,0:0:0:0:
475,192,75146,1,0,0:0:0:0:
109,192,75146,1,0,0:0:0:0:
329,192,75213,1,0,0:0:0:0:
402,192,75280,1,0,0:0:0:0:
182,192,75280,1,0,0:0:0:0:
36,192,75346,1,0,0:0:0:0:
109,192,75413,1,0,0:0:0:0:
329,192,75413,1,0,0:0:0:0:
182,192,75480,1,0,0:0:0:0:
256,192,75546,128,0,77680:0:0:0:0:
402,192,75546,1,0,0:0:0:0:
475,192,75546,1,0,0:0:0:0:
36,192,75546,1,0,0:0:0:0:
109,192,75680,1,0,0:0:0:0:
182,192,75813,1,0,0:0:0:0:
475,192,75946,1,0,0:0:0:0:
36,192,75946,1,0,0:0:0:0:
402,192,75946,1,0,0:0:0:0:
109,192,76080,1,0,0:0:0:0:
182,192,76213,1,0,0:0:0:0:
475,192,76346,1,0,0:0:0:0:
402,192,76346,1,0,0:0:0:0:
36,192,76346,1,0,0:0:0:0:
109,192,76480,1,0,0:0:0:0:
182,192,76613,1,0,0:0:0:0:
329,192,76613,1,0,0:0:0:0:
402,192,76746,1,0,0:0:0:0:
475,192,76880,1,0,0:0:0:0:
36,192,76880,1,0,0:0:0:0:
182,192,77013,1,0,0:0:0:0:
329,192,77013,1,0,0:0:0:0:
109,192,77146,1,0,0:0:0:0:
402,192,77146,1,0,0:0:0:0:
36,192,77280,1,0,0:0:0:0:
475,192,77280,1,0,0:0:0:0:
182,192,77413,1,0,0:0:0:0:
329,192,77413,1,0,0:0:0:0:
109,192,77546,1,0,0:0:0:0:
402,192,77546,1,0,0:0:0:0:
329,192,77680,128,0,77768:0:0:0:0:
475,192,77680,128,0,77768:0:0:0:0:
182,192,77680,128,0,77768:0:0:0:0:
36,192,77680,128,0,77768:0:0:0:0:
402,192,77768,128,0,77857:0:0:0:0:
256,192,77857,128,0,77946:0:0:0:0:
329,192,77946,128,0,78035:0:0:0:0:
182,192,78035,128,0,78124:0:0:0:0:
256,192,78124,128,0,78213:0:0:0:0:
182,192,78213,128,0,78302:0:0:0:0:
475,192,78213,128,0,78302:0:0:0:0:
329,192,78213,128,0,78302:0:0:0:0:
36,192,78213,128,0,78302:0:0:0:0:
109,192,78302,128,0,78391:0:0:0:0:
256,192,78391,128,0,78480:0:0:0:0:
182,192,78480,128,0,78568:0:0:0:0:
329,192,78568,128,0,78657:0:0:0:0:
256,192,78657,128,0,78746:0:0:0:0:
182,192,78746,128,0,78835:0:0:0:0:
36,192,78746,128,0,78835:0:0:0:0:
329,192,78746,128,0,78835:0:0:0:0:
475,192,78746,128,0,78835:0:0:0:0:
402,192,78835,128,0,78924:0:0:0:0:
256,192,78924,128,0,79013:0:0:0:0:
329,192,79013,128,0,79102:0:0:0:0:
182,192,79102,128,0,79191:0:0:0:0:
256,192,79191,128,0,79280:0:0:0:0:
182,192,79280,128,0,79368:0:0:0:0:
36,192,79280,128,0,79368:0:0:0:0:
329,192,79280,128,0,79368:0:0:0:0:
475,192,79280,128,0,79368:0:0:0:0:
109,192,79368,128,0,79457:0:0:0:0:
256,192,79457,128,0,79546:0:0:0:0:
182,192,79546,128,0,79635:0:0:0:0:
329,192,79635,128,0,79724:0:0:0:0:
256,192,79724,128,0,79813:0:0:0:0:
329,192,79813,128,0,79902:0:0:0:0:
475,192,79813,128,0,79902:0:0:0:0:
182,192,79813,128,0,79902:0:0:0:0:
36,192,79813,128,0,79902:0:0:0:0:
402,192,79902,128,0,79991:0:0:0:0:
256,192,79991,128,0,80080:0:0:0:0:
329,192,80080,128,0,80168:0:0:0:0:
182,192,80168,128,0,80257:0:0:0:0:
256,192,80257,128,0,80346:0:0:0:0:
329,192,80346,128,0,80435:0:0:0:0:
475,192,80346,128,0,80435:0:0:0:0:
182,192,80346,128,0,80435:0:0:0:0:
36,192,80346,128,0,80435:0:0:0:0:
109,192,80435,128,0,80524:0:0:0:0:
256,192,80524,128,0,80613:0:0:0:0:
182,192,80613,128,0,80702:0:0:0:0:
329,192,80702,128,0,80791:0:0:0:0:
256,192,80791,128,0,80880:0:0:0:0:
182,192,80880,128,0,80968:0:0:0:0:
36,192,80880,128,0,80968:0:0:0:0:
329,192,80880,128,0,80968:0:0:0:0:
475,192,80880,128,0,80968:0:0:0:0:
109,192,80968,128,0,81057:0:0:0:0:
256,192,81057,128,0,81146:0:0:0:0:
402,192,81146,128,0,81235:0:0:0:0:
109,192,81235,128,0,81324:0:0:0:0:
256,192,81324,128,0,81413:0:0:0:0:
182,192,81413,128,0,81502:0:0:0:0:
36,192,81413,128,0,81502:0:0:0:0:
329,192,81413,128,0,81502:0:0:0:0:
475,192,81413,128,0,81502:0:0:0:0:
402,192,81502,128,0,81591:0:0:0:0:
256,192,81591,128,0,81680:0:0:0:0:
109,192,81680,128,0,81768:0:0:0:0:
402,192,81768,128,0,81857:0:0:0:0:
256,192,81857,128,0,81946:0:0:0:0:
182,192,81946,1,0,0:0:0:0:
329,192,81946,1,0,0:0:0:0:
475,192,81946,1,0,0:0:0:0:
36,192,81946,1,0,0:0:0:0:
109,192,82035,1,0,0:0:0:0:
36,192,82124,1,0,0:0:0:0:
182,192,82213,1,0,0:0:0:0:
256,192,82213,1,0,0:0:0:0:
329,192,82302,1,0,0:0:0:0:
402,192,82302,1,0,0:0:0:0:
109,192,82391,1,0,0:0:0:0:
182,192,82391,1,0,0:0:0:0:
329,192,82480,1,0,0:0:0:0:
475,192,82480,1,0,0:0:0:0:
256,192,82480,1,0,0:0:0:0:
36,192,82480,1,0,0:0:0:0:
402,192,82568,1,0,0:0:0:0:
475,192,82657,1,0,0:0:0:0:
256,192,82746,1,0,0:0:0:0:
329,192,82746,1,0,0:0:0:0:
109,192,82835,1,0,0:0:0:0:
182,192,82835,1,0,0:0:0:0:
329,192,82924,1,0,0:0:0:0:
402,192,82924,1,0,0:0:0:0:
475,192,83013,1,0,0:0:0:0:
36,192,83013,1,0,0:0:0:0:
182,192,83013,1,0,0:0:0:0:
256,192,83013,1,0,0:0:0:0:
109,192,83102,1,0,0:0:0:0:
36,192,83191,1,0,0:0:0:0:
256,192,83280,1,0,0:0:0:0:
182,192,83280,1,0,0:0:0:0:
402,192,83368,1,0,0:0:0:0:
329,192,83368,1,0,0:0:0:0:
182,192,83457,1,0,0:0:0:0:
109,192,83457,1,0,0:0:0:0:
329,192,83546,1,0,0:0:0:0:
256,192,83546,1,0,0:0:0:0:
36,192,83546,1,0,0:0:0:0:
475,192,83546,1,0,0:0:0:0:
402,192,83635,1,0,0:0:0:0:
475,192,83724,1,0,0:0:0:0:
329,192,83813,1,0,0:0:0:0:
256,192,83813,1,0,0:0:0:0:
182,192,83902,1,0,0:0:0:0:
109,192,83902,1,0,0:0:0:0:
402,192,83991,1,0,0:0:0:0:
329,192,83991,1,0,0:0:0:0:
182,192,84080,1,0,0:0:0:0:
36,192,84080,1,0,0:0:0:0:
109,192,84080,1,0,0:0:0:0:
402,192,84168,1,0,0:0:0:0:
475,192,84168,1,0,0:0:0:0:
36,192,84257,1,0,0:0:0:0:
109,192,84257,1,0,0:0:0:0:
182,192,84257,1,0,0:0:0:0:
329,192,84346,1,0,0:0:0:0:
402,192,84346,1,0,0:0:0:0:
36,192,84435,1,0,0:0:0:0:
109,192,84435,1,0,0:0:0:0:
182,192,84435,1,0,0:0:0:0:
256,192,84524,1,0,0:0:0:0:
329,192,84524,1,0,0:0:0:0:
182,192,84613,1,0,0:0:0:0:
109,192,84613,1,0,0:0:0:0:
36,192,84613,1,0,0:0:0:0:
329,192,84702,1,0,0:0:0:0:
475,192,84702,1,0,0:0:0:0:
182,192,84791,1,0,0:0:0:0:
109,192,84791,1,0,0:0:0:0:
36,192,84791,1,0,0:0:0:0:
256,192,84880,1,0,0:0:0:0:
402,192,84880,1,0,0:0:0:0:
36,192,84968,1,0,0:0:0:0:
109,192,84968,1,0,0:0:0:0:
182,192,84968,1,0,0:0:0:0:
329,192,85057,1,0,0:0:0:0:
475,192,85057,1,0,0:0:0:0:
256,192,85146,128,0,86146:0:0:0:0:
36,192,85146,128,0,86146:0:0:0:0:
109,192,85146,128,0,85413:0:0:0:0:
182,192,85413,128,0,86146:0:0:0:0:
36,192,86213,1,0,0:0:0:0:
182,192,86213,1,0,0:0:0:0:
256,192,86213,1,0,0:0:0:0:
256,192,88346,1,0,0:0:0:0:
256,192,88746,1,0,0:0:0:0:
256,192,89013,1,0,0:0:0:0:
256,192,89146,1,0,0:0:0:0:
256,192,89546,1,0,0:0:0:0:
256,192,89680,1,0,0:0:0:0:
256,192,89813,1,0,0:0:0:0:
109,192,90480,128,0,90657:0:0:0:0:
36,192,90480,128,0,90657:0:0:0:0:
329,192,90480,128,0,90657:0:0:0:0:
475,192,90480,128,0,90657:0:0:0:0:
402,192,90480,128,0,90657:0:0:0:0:
256,192,90568,128,0,90746:0:0:0:0:
182,192,90657,128,0,90835:0:0:0:0:
402,192,90746,128,0,90924:0:0:0:0:
36,192,90746,128,0,90924:0:0:0:0:
475,192,90746,128,0,90924:0:0:0:0:
329,192,90835,128,0,91013:0:0:0:0:
256,192,90924,128,0,91102:0:0:0:0:
109,192,91013,128,0,91191:0:0:0:0:
36,192,91013,128,0,91191:0:0:0:0:
475,192,91013,128,0,91191:0:0:0:0:
402,192,91102,128,0,91280:0:0:0:0:
329,192,91191,128,0,91368:0:0:0:0:
182,192,91280,128,0,91457:0:0:0:0:
256,192,91280,128,0,91457:0:0:0:0:
475,192,91280,128,0,91457:0:0:0:0:
109,192,91368,128,0,91546:0:0:0:0:
36,192,91457,128,0,91635:0:0:0:0:
402,192,91546,128,0,91724:0:0:0:0:
475,192,91546,128,0,91724:0:0:0:0:
182,192,91546,128,0,91724:0:0:0:0:
256,192,91635,128,0,91813:0:0:0:0:
329,192,91724,128,0,91902:0:0:0:0:
109,192,91813,128,0,91991:0:0:0:0:
36,192,91813,128,0,91991:0:0:0:0:
475,192,91813,128,0,91991:0:0:0:0:
182,192,91902,128,0,92080:0:0:0:0:
256,192,91991,128,0,92168:0:0:0:0:
402,192,92080,128,0,92257:0:0:0:0:
36,192,92080,128,0,92257:0:0:0:0:
475,192,92080,128,0,92257:0:0:0:0:
109,192,92168,128,0,92346:0:0:0:0:
182,192,92257,128,0,92435:0:0:0:0:
329,192,92346,128,0,92524:0:0:0:0:
36,192,92346,128,0,92524:0:0:0:0:
256,192,92346,128,0,92524:0:0:0:0:
402,192,92435,128,0,92613:0:0:0:0:
475,192,92524,128,0,92702:0:0:0:0:
329,192,92613,128,0,92791:0:0:0:0:
109,192,92613,128,0,92791:0:0:0:0:
36,192,92613,128,0,92791:0:0:0:0:
256,192,92702,128,0,92880:0:0:0:0:
182,192,92791,128,0,92968:0:0:0:0:
475,192,92880,128,0,93057:0:0:0:0:
36,192,92880,128,0,93057:0:0:0:0:
402,192,92880,128,0,93057:0:0:0:0:
329,192,92968,128,0,93146:0:0:0:0:
256,192,93057,128,0,93235:0:0:0:0:
36,192,93146,128,0,93324:0:0:0:0:
109,192,93146,128,0,93324:0:0:0:0:
475,192,93146,128,0,93324:0:0:0:0:
402,192,93235,128,0,93413:0:0:0:0:
329,192,93324,128,0,93502:0:0:0:0:
256,192,93413,128,0,93591:0:0:0:0:
475,192,93413,128,0,93591:0:0:0:0:
182,192,93413,128,0,93591:0:0:0:0:
109,192,93502,128,0,93680:0:0:0:0:
36,192,93591,128,0,93768:0:0:0:0:
182,192,93680,128,0,93857:0:0:0:0:
402,192,93680,128,0,93857:0:0:0:0:
475,192,93680,128,0,93857:0:0:0:0:
256,192,93768,128,0,93946:0:0:0:0:
329,192,93857,128,0,94035:0:0:0:0:
36,192,93946,128,0,94124:0:0:0:0:
109,192,93946,128,0,94124:0:0:0:0:
475,192,93946,128,0,94124:0:0:0:0:
182,192,94035,128,0,94213:0:0:0:0:
256,192,94124,128,0,94302:0:0:0:0:
402,192,94213,128,0,94391:0:0:0:0:
475,192,94213,128,0,94391:0:0:0:0:
36,192,94213,128,0,94391:0:0:0:0:
109,192,94302,128,0,94480:0:0:0:0:
182,192,94391,128,0,94568:0:0:0:0:
256,192,94480,128,0,94657:0:0:0:0:
329,192,94480,128,0,94657:0:0:0:0:
36,192,94480,128,0,94657:0:0:0:0:
402,192,94568,128,0,94746:0:0:0:0:
475,192,94657,128,0,94835:0:0:0:0:
36,192,94746,128,0,94924:0:0:0:0:
109,192,94746,128,0,94924:0:0:0:0:
329,192,94746,128,0,94924:0:0:0:0:
256,192,94835,128,0,95013:0:0:0:0:
182,192,94924,128,0,95102:0:0:0:0:
402,192,95013,128,0,95191:0:0:0:0:
36,192,95013,128,0,95191:0:0:0:0:
475,192,95013,128,0,95191:0:0:0:0:
329,192,95102,128,0,95280:0:0:0:0:
256,192,95191,128,0,95368:0:0:0:0:
475,192,95280,128,0,95457:0:0:0:0:
109,192,95280,128,0,95457:0:0:0:0:
36,192,95280,128,0,95457:0:0:0:0:
402,192,95368,128,0,95546:0:0:0:0:
329,192,95457,128,0,95635:0:0:0:0:
182,192,95546,128,0,95724:0:0:0:0:
475,192,95546,128,0,95724:0:0:0:0:
256,192,95546,128,0,95724:0:0:0:0:
109,192,95635,128,0,95813:0:0:0:0:
36,192,95724,128,0,95902:0:0:0:0:
475,192,95813,128,0,95991:0:0:0:0:
402,192,95813,128,0,95991:0:0:0:0:
182,192,95813,128,0,95991:0:0:0:0:
256,192,95902,128,0,96080:0:0:0:0:
329,192,95991,128,0,96168:0:0:0:0:
475,192,96080,128,0,96257:0:0:0:0:
109,192,96080,128,0,96257:0:0:0:0:
36,192,96080,128,0,96257:0:0:0:0:
182,192,96168,128,0,96346:0:0:0:0:
256,192,96257,128,0,96435:0:0:0:0:
36,192,96346,128,0,96524:0:0:0:0:
475,192,96346,128,0,96524:0:0:0:0:
402,192,96346,128,0,96524:0:0:0:0:
109,192,96435,128,0,96613:0:0:0:0:
182,192,96524,128,0,96702:0:0:0:0:
36,192,96613,128,0,96791:0:0:0:0:
329,192,96613,128,0,96791:0:0:0:0:
256,192,96613,128,0,96791:0:0:0:0:
402,192,96702,128,0,96880:0:0:0:0:
475,192,96791,128,0,96968:0:0:0:0:
329,192,96880,1,0,0:0:0:0:
182,192,96880,1,0,0:0:0:0:
109,192,96968,1,0,0:0:0:0:
256,192,96968,1,0,0:0:0:0:
36,192,97057,1,0,0:0:0:0:
182,192,97057,1,0,0:0:0:0:
475,192,97146,1,0,0:0:0:0:
329,192,97146,1,0,0:0:0:0:
402,192,97146,1,0,0:0:0:0:
109,192,97146,1,0,0:0:0:0:
256,192,97235,1,0,0:0:0:0:
36,192,97235,1,0,0:0:0:0:
182,192,97324,1,0,0:0:0:0:
402,192,97324,1,0,0:0:0:0:
109,192,97413,1,0,0:0:0:0:
36,192,97413,1,0,0:0:0:0:
475,192,97413,1,0,0:0:0:0:
329,192,97413,1,0,0:0:0:0:
402,192,97502,1,0,0:0:0:0:
256,192,97502,1,0,0:0:0:0:
182,192,97591,1,0,0:0:0:0:
329,192,97591,1,0,0:0:0:0:
109,192,97680,1,0,0:0:0:0:
36,192,97680,1,0,0:0:0:0:
402,192,97680,1,0,0:0:0:0:
256,192,97768,1,0,0:0:0:0:
475,192,97768,1,0,0:0:0:0:
109,192,97857,1,0,0:0:0:0:
329,192,97857,1,0,0:0:0:0:
182,192,97857,1,0,0:0:0:0:
402,192,97857,1,0,0:0:0:0:
36,192,97946,1,0,0:0:0:0:
475,192,97946,1,0,0:0:0:0:
109,192,97991,1,0,0:0:0:0:
402,192,97991,1,0,0:0:0:0:
329,192,98035,1,0,0:0:0:0:
182,192,98035,1,0,0:0:0:0:
256,192,98124,1,0,0:0:0:0:
109,192,98124,1,0,0:0:0:0:
402,192,98124,1,0,0:0:0:0:
182,192,98213,1,0,0:0:0:0:
36,192,98213,1,0,0:0:0:0:
329,192,98213,1,0,0:0:0:0:
475,192,98213,1,0,0:0:0:0:
256,192,98302,1,0,0:0:0:0:
109,192,98302,1,0,0:0:0:0:
182,192,98391,1,0,0:0:0:0:
329,192,98391,1,0,0:0:0:0:
256,192,98480,1,0,0:0:0:0:
402,192,98480,1,0,0:0:0:0:
475,192,98480,1,0,0:0:0:0:
109,192,98480,1,0,0:0:0:0:
36,192,98480,1,0,0:0:0:0:
182,192,98568,1,0,0:0:0:0:
329,192,98568,1,0,0:0:0:0:
256,192,98657,1,0,0:0:0:0:
402,192,98657,1,0,0:0:0:0:
475,192,98746,1,0,0:0:0:0:
329,192,98746,1,0,0:0:0:0:
182,192,98746,1,0,0:0:0:0:
109,192,98746,1,0,0:0:0:0:
36,192,98746,1,0,0:0:0:0:
256,192,98835,1,0,0:0:0:0:
182,192,98924,1,0,0:0:0:0:
109,192,99013,1,0,0:0:0:0:
36,192,99013,1,0,0:0:0:0:
256,192,99013,1,0,0:0:0:0:
402,192,99013,1,0,0:0:0:0:
475,192,99013,1,0,0:0:0:0:
329,192,99102,1,0,0:0:0:0:
182,192,99102,1,0,0:0:0:0:
109,192,99191,1,0,0:0:0:0:
256,192,99191,1,0,0:0:0:0:
402,192,99280,1,0,0:0:0:0:
475,192,99280,1,0,0:0:0:0:
182,192,99280,1,0,0:0:0:0:
329,192,99368,1,0,0:0:0:0:
109,192,99368,1,0,0:0:0:0:
256,192,99457,1,0,0:0:0:0:
36,192,99457,1,0,0:0:0:0:
109,192,99546,1,0,0:0:0:0:
182,192,99546,1,0,0:0:0:0:
402,192,99546,1,0,0:0:0:0:
475,192,99546,1,0,0:0:0:0:
256,192,99635,1,0,0:0:0:0:
36,192,99635,1,0,0:0:0:0:
109,192,99724,1,0,0:0:0:0:
329,192,99724,1,0,0:0:0:0:
36,192,99813,1,0,0:0:0:0:
182,192,99813,1,0,0:0:0:0:
402,192,99813,1,0,0:0:0:0:
475,192,99813,1,0,0:0:0:0:
109,192,99902,1,0,0:0:0:0:
256,192,99902,1,0,0:0:0:0:
182,192,99991,1,0,0:0:0:0:
329,192,99991,1,0,0:0:0:0:
475,192,100080,1,0,0:0:0:0:
256,192,100080,1,0,0:0:0:0:
36,192,100080,1,0,0:0:0:0:
109,192,100080,1,0,0:0:0:0:
402,192,100080,128,0,100168:0:0:0:0:
182,192,100168,1,0,0:0:0:0:
329,192,100168,128,0,100257:0:0:0:0:
402,192,100257,1,0,0:0:0:0:
256,192,100257,128,0,100346:0:0:0:0:
36,192,100346,1,0,0:0:0:0:
329,192,100346,1,0,0:0:0:0:
109,192,100346,128,0,100435:0:0:0:0:
402,192,100435,1,0,0:0:0:0:
182,192,100435,128,0,100524:0:0:0:0:
475,192,100524,1,0,0:0:0:0:
256,192,100524,128,0,100613:0:0:0:0:
402,192,100613,1,0,0:0:0:0:
109,192,100613,1,0,0:0:0:0:
36,192,100613,1,0,0:0:0:0:
329,192,100613,128,0,100702:0:0:0:0:
475,192,100702,1,0,0:0:0:0:
256,192,100702,128,0,100791:0:0:0:0:
402,192,100791,1,0,0:0:0:0:
182,192,100791,128,0,100880:0:0:0:0:
475,192,100880,1,0,0:0:0:0:
109,192,100880,1,0,0:0:0:0:
36,192,100880,1,0,0:0:0:0:
329,192,100880,128,0,100968:0:0:0:0:
402,192,100968,1,0,0:0:0:0:
256,192,100968,128,0,101057:0:0:0:0:
329,192,101057,1,0,0:0:0:0:
182,192,101057,128,0,101146:0:0:0:0:
475,192,101146,1,0,0:0:0:0:
256,192,101146,1,0,0:0:0:0:
36,192,101146,1,0,0:0:0:0:
402,192,101146,1,0,0:0:0:0:
109,192,101146,128,0,101235:0:0:0:0:
329,192,101235,1,0,0:0:0:0:
182,192,101235,128,0,101324:0:0:0:0:
109,192,101324,1,0,0:0:0:0:
256,192,101324,128,0,101413:0:0:0:0:
475,192,101413,1,0,0:0:0:0:
182,192,101413,1,0,0:0:0:0:
402,192,101413,128,0,101502:0:0:0:0:
109,192,101502,1,0,0:0:0:0:
329,192,101502,128,0,101591:0:0:0:0:
36,192,101591,1,0,0:0:0:0:
256,192,101591,128,0,101680:0:0:0:0:
402,192,101680,1,0,0:0:0:0:
475,192,101680,1,0,0:0:0:0:
109,192,101680,1,0,0:0:0:0:
182,192,101680,128,0,101768:0:0:0:0:
36,192,101768,1,0,0:0:0:0:
256,192,101768,128,0,101857:0:0:0:0:
109,192,101857,1,0,0:0:0:0:
329,192,101857,128,0,101946:0:0:0:0:
402,192,101946,1,0,0:0:0:0:
475,192,101946,1,0,0:0:0:0:
36,192,101946,1,0,0:0:0:0:
182,192,101946,128,0,102035:0:0:0:0:
109,192,102035,1,0,0:0:0:0:
256,192,102035,128,0,102124:0:0:0:0:
182,192,102124,1,0,0:0:0:0:
329,192,102124,128,0,102213:0:0:0:0:
109,192,102213,128,0,102302:0:0:0:0:
36,192,102213,128,0,102302:0:0:0:0:
402,192,102213,128,0,102302:0:0:0:0:
475,192,102213,128,0,102302:0:0:0:0:
256,192,102213,128,0,102302:0:0:0:0:
182,192,102302,1,0,0:0:0:0:
329,192,102302,128,0,102391:0:0:0:0:
256,192,102391,1,0,0:0:0:0:
402,192,102391,128,0,102480:0:0:0:0:
36,192,102480,1,0,0:0:0:0:
329,192,102480,1,0,0:0:0:0:
109,192,102480,128,0,102568:0:0:0:0:
402,192,102568,1,0,0:0:0:0:
182,192,102568,128,0,102657:0:0:0:0:
475,192,102657,1,0,0:0:0:0:
256,192,102657,128,0,102746:0:0:0:0:
329,192,102746,128,0,102835:0:0:0:0:
109,192,102746,128,0,102835:0:0:0:0:
36,192,102746,128,0,102835:0:0:0:0:
402,192,102746,128,0,102835:0:0:0:0:
475,192,102835,1,0,0:0:0:0:
256,192,102835,128,0,102924:0:0:0:0:
402,192,102924,1,0,0:0:0:0:
182,192,102924,128,0,103013:0:0:0:0:
329,192,103013,128,0,103102:0:0:0:0:
36,192,103013,128,0,103102:0:0:0:0:
109,192,103013,128,0,103102:0:0:0:0:
475,192,103013,128,0,103102:0:0:0:0:
402,192,103102,1,0,0:0:0:0:
256,192,103102,128,0,103191:0:0:0:0:
329,192,103191,1,0,0:0:0:0:
182,192,103191,128,0,103280:0:0:0:0:
36,192,103280,128,0,103368:0:0:0:0:
256,192,103280,128,0,103368:0:0:0:0:
109,192,103280,128,0,103368:0:0:0:0:
402,192,103280,128,0,103368:0:0:0:0:
475,192,103280,128,0,103368:0:0:0:0:
182,192,103368,128,0,103457:0:0:0:0:
329,192,103368,1,0,0:0:0:0:
109,192,103457,128,0,103546:0:0:0:0:
256,192,103457,1,0,0:0:0:0:
402,192,103546,128,0,103635:0:0:0:0:
182,192,103546,1,0,0:0:0:0:
475,192,103546,1,0,0:0:0:0:
329,192,103635,128,0,103724:0:0:0:0:
109,192,103635,1,0,0:0:0:0:
256,192,103724,128,0,103813:0:0:0:0:
36,192,103724,1,0,0:0:0:0:
475,192,103813,128,0,103902:0:0:0:0:
109,192,103813,128,0,103902:0:0:0:0:
182,192,103813,128,0,103902:0:0:0:0:
402,192,103813,128,0,103902:0:0:0:0:
256,192,103902,128,0,103991:0:0:0:0:
36,192,103902,1,0,0:0:0:0:
329,192,103991,128,0,104080:0:0:0:0:
109,192,103991,1,0,0:0:0:0:
402,192,104080,128,0,104168:0:0:0:0:
36,192,104080,128,0,104168:0:0:0:0:
182,192,104080,128,0,104168:0:0:0:0:
475,192,104080,128,0,104168:0:0:0:0:
256,192,104168,128,0,104257:0:0:0:0:
109,192,104168,1,0,0:0:0:0:
329,192,104257,128,0,104346:0:0:0:0:
182,192,104257,1,0,0:0:0:0:
109,192,104346,128,0,104435:0:0:0:0:
36,192,104346,128,0,104435:0:0:0:0:
256,192,104346,128,0,104435:0:0:0:0:
402,192,104346,128,0,104435:0:0:0:0:
475,192,104346,128,0,104435:0:0:0:0:
182,192,104435,128,0,104524:0:0:0:0:
329,192,104435,128,0,104524:0:0:0:0:
256,192,104524,128,0,104613:0:0:0:0:
402,192,104524,128,0,104613:0:0:0:0:
329,192,104613,128,0,104702:0:0:0:0:
36,192,104613,128,0,104702:0:0:0:0:
109,192,104613,128,0,104702:0:0:0:0:
182,192,104702,128,0,104791:0:0:0:0:
402,192,104702,128,0,104791:0:0:0:0:
256,192,104791,128,0,104880:0:0:0:0:
475,192,104791,128,0,104880:0:0:0:0:
109,192,104880,128,0,104968:0:0:0:0:
36,192,104880,128,0,104968:0:0:0:0:
329,192,104880,128,0,104968:0:0:0:0:
402,192,104880,128,0,104968:0:0:0:0:
256,192,104968,128,0,105057:0:0:0:0:
475,192,104968,128,0,105057:0:0:0:0:
402,192,105057,128,0,105146:0:0:0:0:
182,192,105057,128,0,105146:0:0:0:0:
109,192,105146,128,0,105235:0:0:0:0:
329,192,105146,128,0,105235:0:0:0:0:
475,192,105146,128,0,105235:0:0:0:0:
36,192,105146,128,0,105235:0:0:0:0:
256,192,105235,128,0,105324:0:0:0:0:
402,192,105235,128,0,105324:0:0:0:0:
329,192,105324,128,0,105413:0:0:0:0:
182,192,105324,128,0,105413:0:0:0:0:
402,192,105413,1,0,0:0:0:0:
475,192,105413,1,0,0:0:0:0:
256,192,105413,1,0,0:0:0:0:
109,192,105413,1,0,0:0:0:0:
36,192,105413,1,0,0:0:0:0:
182,192,105502,1,0,0:0:0:0:
329,192,105502,1,0,0:0:0:0:
256,192,105591,1,0,0:0:0:0:
402,192,105591,1,0,0:0:0:0:
329,192,105680,1,0,0:0:0:0:
475,192,105680,1,0,0:0:0:0:
109,192,105680,1,0,0:0:0:0:
182,192,105768,1,0,0:0:0:0:
402,192,105768,1,0,0:0:0:0:
256,192,105857,1,0,0:0:0:0:
475,192,105857,1,0,0:0:0:0:
329,192,105946,1,0,0:0:0:0:
109,192,105946,1,0,0:0:0:0:
182,192,105946,1,0,0:0:0:0:
36,192,106035,1,0,0:0:0:0:
256,192,106035,1,0,0:0:0:0:
182,192,106124,1,0,0:0:0:0:
402,192,106124,1,0,0:0:0:0:
109,192,106213,1,0,0:0:0:0:
36,192,106213,1,0,0:0:0:0:
329,192,106213,1,0,0:0:0:0:
256,192,106302,1,0,0:0:0:0:
475,192,106302,1,0,0:0:0:0:
402,192,106391,1,0,0:0:0:0:
182,192,106391,1,0,0:0:0:0:
109,192,106391,1,0,0:0:0:0:
36,192,106391,1,0,0:0:0:0:
256,192,106480,1,0,0:0:0:0:
475,192,106480,1,0,0:0:0:0:
36,192,106480,1,0,0:0:0:0:
402,192,106524,1,0,0:0:0:0:
109,192,106524,1,0,0:0:0:0:
182,192,106568,1,0,0:0:0:0:
329,192,106568,1,0,0:0:0:0:
36,192,106657,1,0,0:0:0:0:
256,192,106657,1,0,0:0:0:0:
475,192,106657,1,0,0:0:0:0:
109,192,106746,1,0,0:0:0:0:
182,192,106746,1,0,0:0:0:0:
329,192,106746,1,0,0:0:0:0:
402,192,106746,1,0,0:0:0:0:
256,192,106835,1,0,0:0:0:0:
256,192,106924,1,0,0:0:0:0:
256,192,107013,128,0,107546:0:0:0:0:
109,192,107013,1,0,0:0:0:0:
36,192,107013,1,0,0:0:0:0:
329,192,107013,1,0,0:0:0:0:
402,192,107013,1,0,0:0:0:0:
182,192,107013,1,0,0:0:0:0:
475,192,107013,1,0,0:0:0:0:
36,192,107546,128,0,107724:0:0:0:0:
182,192,107546,1,0,0:0:0:0:
329,192,107546,1,0,0:0:0:0:
475,192,107546,1,0,0:0:0:0:
402,192,107546,1,0,0:0:0:0:
109,192,107635,128,0,107813:0:0:0:0:
182,192,107724,128,0,107902:0:0:0:0:
475,192,107813,1,0,0:0:0:0:
402,192,107813,1,0,0:0:0:0:
256,192,107813,128,0,107991:0:0:0:0:
475,192,107902,1,0,0:0:0:0:
402,192,107902,1,0,0:0:0:0:
109,192,107902,128,0,108080:0:0:0:0:
475,192,107991,1,0,0:0:0:0:
402,192,107991,1,0,0:0:0:0:
182,192,107991,128,0,108168:0:0:0:0:
475,192,108080,128,0,108257:0:0:0:0:
329,192,108080,1,0,0:0:0:0:
256,192,108080,1,0,0:0:0:0:
36,192,108080,1,0,0:0:0:0:
402,192,108168,128,0,108346:0:0:0:0:
329,192,108257,128,0,108435:0:0:0:0:
256,192,108346,128,0,108524:0:0:0:0:
36,192,108346,1,0,0:0:0:0:
109,192,108346,1,0,0:0:0:0:
109,192,108435,1,0,0:0:0:0:
36,192,108435,1,0,0:0:0:0:
402,192,108435,128,0,108613:0:0:0:0:
329,192,108524,128,0,108702:0:0:0:0:
36,192,108524,1,0,0:0:0:0:
109,192,108524,1,0,0:0:0:0:
36,192,108613,128,0,108791:0:0:0:0:
182,192,108613,1,0,0:0:0:0:
256,192,108613,1,0,0:0:0:0:
475,192,108613,1,0,0:0:0:0:
109,192,108702,128,0,108880:0:0:0:0:
182,192,108791,128,0,108968:0:0:0:0:
475,192,108880,1,0,0:0:0:0:
402,192,108880,1,0,0:0:0:0:
256,192,108880,128,0,109057:0:0:0:0:
475,192,108968,1,0,0:0:0:0:
402,192,108968,1,0,0:0:0:0:
109,192,108968,128,0,109146:0:0:0:0:
475,192,109057,1,0,0:0:0:0:
402,192,109057,1,0,0:0:0:0:
182,192,109057,128,0,109235:0:0:0:0:
475,192,109146,128,0,109324:0:0:0:0:
329,192,109146,1,0,0:0:0:0:
256,192,109146,1,0,0:0:0:0:
36,192,109146,1,0,0:0:0:0:
402,192,109235,128,0,109413:0:0:0:0:
329,192,109324,128,0,109502:0:0:0:0:
256,192,109413,128,0,109591:0:0:0:0:
36,192,109413,1,0,0:0:0:0:
109,192,109413,1,0,0:0:0:0:
109,192,109502,1,0,0:0:0:0:
36,192,109502,1,0,0:0:0:0:
402,192,109502,128,0,109680:0:0:0:0:
329,192,109591,128,0,109768:0:0:0:0:
36,192,109591,1,0,0:0:0:0:
109,192,109591,1,0,0:0:0:0:
182,192,109680,1,0,0:0:0:0:
475,192,109680,1,0,0:0:0:0:
256,192,109680,1,0,0:0:0:0:
36,192,109680,128,0,109857:0:0:0:0:
109,192,109768,128,0,109946:0:0:0:0:
182,192,109857,128,0,110035:0:0:0:0:
475,192,109946,1,0,0:0:0:0:
256,192,109946,128,0,110124:0:0:0:0:
402,192,109946,1,0,0:0:0:0:
475,192,110035,1,0,0:0:0:0:
109,192,110035,128,0,110213:0:0:0:0:
402,192,110035,1,0,0:0:0:0:
182,192,110124,128,0,110302:0:0:0:0:
475,192,110124,1,0,0:0:0:0:
402,192,110124,1,0,0:0:0:0:
329,192,110213,1,0,0:0:0:0:
475,192,110213,128,0,110391:0:0:0:0:
36,192,110213,1,0,0:0:0:0:
256,192,110213,1,0,0:0:0:0:
402,192,110302,128,0,110480:0:0:0:0:
329,192,110391,128,0,110568:0:0:0:0:
256,192,110480,128,0,110657:0:0:0:0:
36,192,110480,1,0,0:0:0:0:
109,192,110480,1,0,0:0:0:0:
402,192,110568,128,0,110746:0:0:0:0:
109,192,110568,1,0,0:0:0:0:
36,192,110568,1,0,0:0:0:0:
329,192,110657,128,0,110835:0:0:0:0:
109,192,110657,1,0,0:0:0:0:
36,192,110657,1,0,0:0:0:0:
256,192,110746,1,0,0:0:0:0:
36,192,110746,128,0,110924:0:0:0:0:
182,192,110746,1,0,0:0:0:0:
475,192,110746,1,0,0:0:0:0:
109,192,110835,128,0,111013:0:0:0:0:
182,192,110924,128,0,111102:0:0:0:0:
402,192,111013,1,0,0:0:0:0:
256,192,111013,128,0,111191:0:0:0:0:
475,192,111013,1,0,0:0:0:0:
402,192,111102,1,0,0:0:0:0:
109,192,111102,128,0,111280:0:0:0:0:
475,192,111102,1,0,0:0:0:0:
402,192,111191,1,0,0:0:0:0:
475,192,111191,1,0,0:0:0:0:
182,192,111191,128,0,111368:0:0:0:0:
475,192,111280,128,0,111368:0:0:0:0:
329,192,111280,128,0,111368:0:0:0:0:
256,192,111280,128,0,111368:0:0:0:0:
36,192,111280,128,0,111368:0:0:0:0:
109,192,111457,128,0,111546:0:0:0:0:
182,192,111457,128,0,111546:0:0:0:0:
256,192,111457,128,0,111546:0:0:0:0:
329,192,111457,128,0,111546:0:0:0:0:
402,192,111457,128,0,111546:0:0:0:0:
329,192,111635,128,0,111724:0:0:0:0:
475,192,111635,128,0,111724:0:0:0:0:
256,192,111635,128,0,111724:0:0:0:0:
182,192,111635,128,0,111724:0:0:0:0:
36,192,111635,128,0,111724:0:0:0:0:
36,192,111813,128,0,112346:0:0:0:0:
475,192,111813,128,0,112346:0:0:0:0:
256,192,111813,128,0,111902:0:0:0:0:
182,192,111857,128,0,111946:0:0:0:0:
329,192,111857,128,0,111946:0:0:0:0:
402,192,111902,128,0,111991:0:0:0:0:
109,192,111902,128,0,111991:0:0:0:0:
256,192,111946,128,0,112035:0:0:0:0:
182,192,111991,128,0,112080:0:0:0:0:
329,192,111991,128,0,112080:0:0:0:0:
402,192,112035,128,0,112124:0:0:0:0:
109,192,112035,128,0,112124:0:0:0:0:
256,192,112080,128,0,112168:0:0:0:0:
182,192,112124,128,0,112213:0:0:0:0:
329,192,112124,128,0,112213:0:0:0:0:
402,192,112168,128,0,112257:0:0:0:0:
109,192,112168,128,0,112257:0:0:0:0:
256,192,112213,128,0,112302:0:0:0:0:
329,192,112257,128,0,112302:0:0:0:0:
182,192,112257,128,0,112302:0:0:0:0:
402,192,112302,128,0,112346:0:0:0:0:
109,192,112302,128,0,112346:0:0:0:0:
256,192,112346,1,0,0:0:0:0:
182,192,112346,1,0,0:0:0:0:
329,192,112346,1,0,0:0:0:0:
36,192,112524,1,0,0:0:0:0:
182,192,112524,1,0,0:0:0:0:
329,192,112524,1,0,0:0:0:0:
475,192,112524,1,0,0:0:0:0:
402,192,112702,1,0,0:0:0:0:
109,192,112702,1,0,0:0:0:0:
182,192,112702,1,0,0:0:0:0:
329,192,112702,1,0,0:0:0:0:
475,192,112880,128,0,113413:0:0:0:0:
36,192,112880,128,0,113413:0:0:0:0:
402,192,112880,128,0,112968:0:0:0:0:
109,192,112880,128,0,112968:0:0:0:0:
329,192,112924,128,0,113013:0:0:0:0:
182,192,112924,128,0,113013:0:0:0:0:
256,192,112968,128,0,113057:0:0:0:0:
109,192,113013,128,0,113102:0:0:0:0:
402,192,113013,128,0,113102:0:0:0:0:
329,192,113057,128,0,113146:0:0:0:0:
182,192,113057,128,0,113146:0:0:0:0:
256,192,113102,128,0,113191:0:0:0:0:
109,192,113146,128,0,113235:0:0:0:0:
402,192,113146,128,0,113235:0:0:0:0:
182,192,113191,128,0,113280:0:0:0:0:
329,192,113191,128,0,113280:0:0:0:0:
256,192,113235,128,0,113324:0:0:0:0:
109,192,113280,128,0,113368:0:0:0:0:
402,192,113280,128,0,113368:0:0:0:0:
182,192,113324,128,0,113368:0:0:0:0:
329,192,113324,128,0,113368:0:0:0:0:
256,192,113368,128,0,113413:0:0:0:0:
329,192,113413,1,0,0:0:0:0:
109,192,113413,1,0,0:0:0:0:
182,192,113413,1,0,0:0:0:0:
402,192,113413,1,0,0:0:0:0:
36,192,113591,1,0,0:0:0:0:
329,192,113591,1,0,0:0:0:0:
182,192,113591,1,0,0:0:0:0:
475,192,113591,1,0,0:0:0:0:
402,192,113768,1,0,0:0:0:0:
329,192,113768,1,0,0:0:0:0:
182,192,113768,1,0,0:0:0:0:
109,192,113768,1,0,0:0:0:0:
402,192,113946,1,0,0:0:0:0:
36,192,113946,1,0,0:0:0:0:
109,192,113946,1,0,0:0:0:0:
475,192,113946,1,0,0:0:0:0:
329,192,113946,1,0,0:0:0:0:
182,192,114013,1,0,0:0:0:0:
256,192,114013,1,0,0:0:0:0:
329,192,114080,1,0,0:0:0:0:
402,192,114080,1,0,0:0:0:0:
182,192,114146,1,0,0:0:0:0:
109,192,114146,1,0,0:0:0:0:
402,192,114213,1,0,0:0:0:0:
475,192,114213,1,0,0:0:0:0:
36,192,114213,1,0,0:0:0:0:
329,192,114280,1,0,0:0:0:0:
256,192,114280,1,0,0:0:0:0:
182,192,114346,1,0,0:0:0:0:
109,192,114346,1,0,0:0:0:0:
329,192,114413,1,0,0:0:0:0:
402,192,114413,1,0,0:0:0:0:
36,192,114480,1,0,0:0:0:0:
109,192,114480,1,0,0:0:0:0:
475,192,114480,1,0,0:0:0:0:
182,192,114546,1,0,0:0:0:0:
256,192,114546,1,0,0:0:0:0:
329,192,114613,1,0,0:0:0:0:
402,192,114613,1,0,0:0:0:0:
182,192,114680,1,0,0:0:0:0:
109,192,114680,1,0,0:0:0:0:
402,192,114746,1,0,0:0:0:0:
475,192,114746,1,0,0:0:0:0:
36,192,114746,1,0,0:0:0:0:
329,192,114813,1,0,0:0:0:0:
256,192,114813,1,0,0:0:0:0:
182,192,114880,1,0,0:0:0:0:
109,192,114880,1,0,0:0:0:0:
402,192,114946,1,0,0:0:0:0:
329,192,114946,1,0,0:0:0:0:
36,192,115013,128,0,115213:0:0:0:0:
36,192,115280,128,0,115480:0:0:0:0:
109,192,115280,128,0,115480:0:0:0:0:
36,192,115546,128,0,115746:0:0:0:0:
109,192,115546,128,0,115746:0:0:0:0:
182,192,115546,128,0,115746:0:0:0:0:
36,192,115813,128,0,116013:0:0:0:0:
109,192,115813,128,0,116013:0:0:0:0:
182,192,115813,128,0,116013:0:0:0:0:
256,192,115813,128,0,116013:0:0:0:0:
402,192,116080,128,0,119280:0:0:0:0:
475,192,116080,128,0,119280:0:0:0:0:
329,192,116080,128,0,119280:0:0:0:0:
256,192,116080,128,0,119280:0:0:0:0:
36,192,116080,128,0,119280:0:0:0:0:
109,192,116080,128,0,119280:0:0:0:0:
182,192,116080,128,0,119280:0:0:0:0:
