osu file format v14

[General]
AudioFilename: audio.mp3
AudioLeadIn: 0
PreviewTime: 91031
Countdown: 0
SampleSet: Soft
StackLeniency: 0.7
Mode: 0
LetterboxInBreaks: 0
WidescreenStoryboard: 1

[Editor]
Bookmarks: 35564,39831,78231,97431,105964
DistanceSpacing: 1.5
BeatDivisor: 4
GridSize: 4
TimelineZoom: 2.3

[Metadata]
Title:I
TitleUnicode:I
Artist:Chroma
ArtistUnicode:黑魔
Creator:Mamiko
Version:Maximum
Source:SOUND VOLTEX IV HEAVENLY HAVEN
Tags:KAC 7th sdvx Masaki Sekikawa 関川聖城 Kuroma
BeatmapID:1559773
BeatmapSetID:739137

[Difficulty]
HPDrainRate:5
CircleSize:4.2
OverallDifficulty:8.8
ApproachRate:9.3
SliderMultiplier:1.7
SliderTickRate:1

[Events]
//Background and Video events
0,0,"bg.png",0,0
//Break Periods
//Storyboard Layer 0 (Background)
//Storyboard Layer 1 (Fail)
//Storyboard Layer 2 (Pass)
//Storyboard Layer 3 (Foreground)
//Storyboard Sound Samples

[TimingPoints]
1431,266.666666666667,4,1,1,70,1,0
5698,-133.333333333333,4,2,1,50,0,0
9964,-100,4,1,1,50,0,0
14230,-133.333333333333,4,2,1,50,0,0
17965,-200,4,2,1,50,0,0
18498,-80,4,1,1,50,0,0
20365,-133.333333333333,4,1,1,50,0,0
20631,-80,4,1,1,50,0,0
22498,-133.333333333333,4,1,1,50,0,0
22765,-80,4,1,1,50,0,0
24631,-133.333333333333,4,1,1,50,0,0
24898,-80,4,1,1,50,0,0
27030,-133.333333333333,4,2,1,50,0,0
43030,-66.6666666666667,4,1,1,50,0,0
44898,-50,4,1,1,50,0,0
45164,-100,4,1,1,50,0,0
61164,-66.6666666666667,4,1,1,50,0,0
64897,-133.333333333333,4,1,1,50,0,0
65431,-66.6666666666667,4,1,1,50,0,0
67031,-133.333333333333,4,1,1,50,0,0
67564,-66.6666666666667,4,1,1,50,0,0
78231,-100,4,1,1,50,0,0
85697,-133.333333333333,4,1,1,50,0,0
91031,-50,4,1,1,50,0,1
97431,-100,4,1,1,50,0,1
99564,-50,4,1,1,50,0,1
105964,-100,4,1,1,50,0,1
108097,-80,4,1,1,50,0,1
110231,-66.6666666666667,4,1,1,50,0,1
111831,-50,4,1,1,50,0,1
116631,-50,4,1,1,50,0,0
120098,-66.6666666666667,4,2,1,5,0,0

[Colours]
Combo1 : 128,128,255
Combo2 : 255,128,64
Combo3 : 128,255,128
Combo4 : 255,128,192
Combo5 : 0,128,0
Combo6 : 0,64,128

[HitObjects]
38,335,1431,6,0,P|99:280|186:295,1,170,4|2,0:0|0:0,0:0:0:0:
287,298,1831,1,0,0:0:0:0:
266,200,1964,2,0,P|224:189|188:139,1,85,8|0,0:0|0:0,0:0:0:0:
60,123,2231,2,0,P|102:112|138:62,1,85,2|0,0:2|0:0,0:0:0:0:
317,44,2498,6,0,L|329:128,1,85,8|0,0:0|0:0,0:0:0:0:
424,77,2764,1,0,0:0:0:0:
228,121,2897,2,0,L|216:37,1,85,2|0,0:0|0:0,0:0:0:0:
215,36,3097,1,0,0:0:0:0:
215,36,3164,1,0,0:0:0:0:
424,77,3297,2,0,L|439:175,1,85
408,359,3564,6,0,P|362:305|299:306,1,127.5,4|0,0:0|0:0,0:0:0:0:
233,323,3831,2,0,L|139:351,1,85
51,298,4097,1,0,0:0:0:0:
199,101,4231,1,0,0:0:0:0:
276,144,4364,2,0,L|269:229,1,85
431,209,4631,5,0,0:0:0:0:
484,123,4764,2,0,L|476:77,2,42.5
298,318,5031,1,0,0:0:0:0:
225,254,5164,2,0,L|231:197,2,42.5
458,317,5431,2,0,P|421:291|372:295,1,85
108,319,5698,6,0,L|116:251,1,63.7500024318696,2|0,0:0|0:0,0:0:0:0:
94,146,5964,1,8,0:0:0:0:
285,183,6097,2,0,P|259:201|229:210,1,63.7500024318696,2|0,0:0|0:0,0:0:0:0:
94,146,6364,1,8,0:0:0:0:
188,65,6497,2,0,L|196:145,1,63.7500024318696,2|0,0:0|0:0,0:0:0:0:
116,256,6764,5,8,0:0:0:0:
32,216,6897,2,0,L|0:200,2,31.8750012159348,2|0|0,0:0|0:0|0:0,0:0:0:0:
200,296,7164,1,8,0:0:0:0:
200,296,7231,1,0,0:0:0:0:
200,296,7297,2,0,P|228:284|272:280,1,63.7500024318696,8|2,0:0|0:0,0:0:0:0:
140,136,7564,1,2,0:0:0:0:
138,151,7630,1,0,0:0:0:0:
136,167,7697,1,8,0:0:0:0:
344,300,7831,5,2,0:0:0:0:
432,264,7964,1,0,0:0:0:0:
352,208,8097,1,8,0:0:0:0:
228,92,8231,5,2,0:0:0:0:
308,36,8364,1,2,0:0:0:0:
316,128,8497,1,8,0:0:0:0:
136,256,8631,6,0,L|116:176,1,63.7500024318696,2|0,0:0|0:0,0:0:0:0:
88,80,8897,2,0,L|116:48,2,31.8750012159348,8|0|2,0:0|0:0|0:0,0:0:0:0:
52,248,9164,1,2,0:0:0:0:
208,164,9297,1,8,0:0:0:0:
208,164,9364,1,0,0:0:0:0:
208,164,9431,2,0,L|228:236,1,63.7500024318696,2|2,0:0|0:0,0:0:0:0:
184,348,9697,1,8,0:0:0:0:
164,342,9763,1,0,0:0:0:0:
144,341,9831,1,2,0:0:0:0:
124,343,9896,1,0,0:0:0:0:
106,345,9965,6,0,P|49:318|57:216,1,170
117,149,10364,1,0,0:0:0:0:
208,164,10497,2,0,P|250:155|280:127,1,85
109,62,10764,2,0,P|67:71|37:99,1,85
152,266,11030,6,0,L|248:278,1,85
364,291,11298,1,0,0:0:0:0:
417,160,11431,2,0,L|321:172,1,85
305,176,11631,1,0,0:0:0:0:
277,180,11698,1,0,0:0:0:0:
133,50,11831,2,0,P|145:90|157:154,1,85
39,295,12097,6,0,P|97:287|147:338,1,127.5
225,336,12364,2,0,L|318:325,1,85
434,310,12631,1,0,0:0:0:0:
256,156,12764,1,0,0:0:0:0:
174,214,12897,2,0,L|149:115,1,85
369,156,13164,5,0,0:0:0:0:
439,92,13297,2,0,L|446:51,2,42.5
332,256,13564,1,0,0:0:0:0:
263,197,13697,2,0,L|256:156,2,42.5
408,344,13964,2,0,B|423:255,1,85
263,197,14230,6,0,P|230:185|197:180,1,63.7500024318696
165,190,14431,1,0,0:0:0:0:
133,213,14498,1,0,0:0:0:0:
58,46,14631,1,0,0:0:0:0:
55,140,14764,1,0,0:0:0:0:
85,132,14830,1,0,0:0:0:0:
113,115,14897,1,0,0:0:0:0:
193,24,15031,2,0,L|201:104,1,63.7500024318696
216,264,15298,5,0,0:0:0:0:
55,315,15431,2,0,L|21:341,2,31.8750012159348
83,181,15697,1,0,0:0:0:0:
83,181,15764,1,0,0:0:0:0:
83,181,15831,2,0,P|102:210|113:243,1,63.7500024318696
148,357,16098,1,0,0:0:0:0:
150,342,16164,1,0,0:0:0:0:
152,326,16231,1,0,0:0:0:0:
216,174,16364,5,0,0:0:0:0:
245,163,16430,1,0,0:0:0:0:
277,163,16497,1,0,0:0:0:0:
382,300,16631,1,0,0:0:0:0:
431,218,16764,5,0,0:0:0:0:
401,207,16830,1,0,0:0:0:0:
369,207,16897,1,0,0:0:0:0:
263,255,17031,1,0,0:0:0:0:
158,110,17164,5,0,0:0:0:0:
183,81,17230,1,0,0:0:0:0:
217,65,17297,1,0,0:0:0:0:
255,65,17364,1,0,0:0:0:0:
291,79,17430,1,0,0:0:0:0:
482,166,17564,5,0,0:0:0:0:
457,137,17630,1,0,0:0:0:0:
423,121,17697,1,0,0:0:0:0:
385,121,17764,1,0,0:0:0:0:
349,135,17830,1,0,0:0:0:0:
236,328,17964,5,2,0:2:0:0:
227,335,18231,6,0,P|194:330|150:329,1,63.75,0|0,0:0|0:0,0:0:0:0:
164,329,18498,6,0,B|133:354|133:354|60:341|60:341|36:240,1,212.5
51,154,18897,2,0,B|116:133|116:133|156:196|156:196|236:206,1,212.5
318,239,19297,2,0,B|250:298|250:298|100:280,1,212.5
198,54,19697,5,0,0:0:0:0:
203,46,20365,6,0,L|235:39,3,31.8750012159348
102,35,20631,6,0,B|81:123|210:121|172:235,1,212.5
114,279,21031,2,0,P|25:245|93:200,1,212.5
244,245,21431,2,0,P|303:308|217:325,1,212.5
167,190,21831,5,0,0:0:0:0:
175,179,22498,6,0,P|207:171|239:168,1,63.7500024318696
392,215,22765,6,0,P|395:170|437:114,1,106.25
428,120,23031,1,0,0:0:0:0:
279,33,23164,2,0,P|309:75|315:127,1,106.25
315,127,23431,1,0,0:0:0:0:
229,177,23564,2,0,B|130:118|132:230|26:170,1,212.5
77,101,23964,5,0,0:0:0:0:
120,264,24097,1,0,0:0:0:0:
132,276,24631,6,0,L|127:309,3,31.8750012159348
232,352,24898,6,0,B|300:363|300:363|330:331,1,106.25
356,243,25164,1,0,0:0:0:0:
383,163,25297,2,0,B|315:152|315:152|285:184,1,106.25
356,243,25564,1,0,0:0:0:0:
415,288,25697,2,0,B|376:277|356:242|356:242|315:273|277:271,1,159.375
196,245,25964,6,0,L|183:281,1,26.5625
144,234,26031,6,0,L|122:257,1,26.5625
113,193,26097,6,0,L|78:202,1,26.5625
116,141,26164,6,0,L|75:129,1,26.5625
152,103,26231,6,0,L|127:71,1,26.5625
203,98,26297,6,0,L|209:67,1,26.5625
246,127,26364,6,0,L|274:97,1,26.5625
260,177,26431,6,0,L|296:171,1,26.5625
249,232,26497,5,0,0:0:0:0:
72,320,27030,6,0,L|76:200,1,95.6250036478044,0|0,1:0|0:0,0:0:0:0:
137,211,27297,2,0,L|61:227,1,63.7500024318696,4|2,0:3|0:0,0:0:0:0:
213,163,27564,2,0,L|297:179,1,63.7500024318696,4|0,0:3|0:0,0:0:0:0:
130,115,27831,2,0,P|126:80|122:23,1,63.7500024318696,4|0,0:3|0:0,0:0:0:0:
368,155,28097,6,0,P|320:159|260:183,1,95.6250036478044,0|0,1:0|0:0,0:0:0:0:
368,155,28364,2,0,L|380:79,1,63.7500024318696,4|0,0:3|0:0,0:0:0:0:
295,327,28631,2,0,L|283:247,1,63.7500024318696,4|0,0:3|0:0,0:0:0:0:
426,228,28897,1,8,0:2:0:0:
426,228,29031,1,8,0:2:0:0:
145,67,29164,6,0,L|133:167,1,95.6250036478044,0|0,1:0|0:0,0:0:0:0:
205,87,29431,2,0,P|177:75|145:67,1,63.7500024318696,4|0,0:3|0:0,0:0:0:0:
98,312,29697,2,0,B|86:247,1,63.7500024318696,4|0,0:3|0:0,0:0:0:0:
243,224,29964,2,0,L|155:240,1,63.7500024318696,4|0,0:3|0:0,0:0:0:0:
306,300,30231,6,0,L|429:317,1,95.6250036478044,0|0,1:0|0:0,0:0:0:0:
243,224,30497,2,0,L|233:141,1,63.7500024318696,4|0,0:3|0:0,0:0:0:0:
351,85,30764,2,0,L|374:16,1,63.7500024318696,4|0,0:3|0:0,0:0:0:0:
464,120,31031,1,8,0:2:0:0:
464,120,31164,1,8,0:2:0:0:
322,170,31297,5,0,0:0:0:0:
256,62,31431,1,0,0:0:0:0:
149,136,31564,2,0,L|218:150,1,63.7500024318696
218,289,31831,2,0,B|187:310|187:310|111:297,1,95.6250036478044
67,312,32097,2,0,L|145:297,1,63.7500024318696
217,197,32364,6,0,L|203:81,1,95.6250036478044
235,47,32631,2,0,P|226:77|206:101,1,63.7500024318696
101,189,32897,2,0,L|89:105,1,63.7500024318696
313,284,33164,1,0,0:0:0:0:
294,278,33231,1,0,0:0:0:0:
274,277,33297,1,0,0:0:0:0:
253,280,33363,1,0,0:0:0:0:
239,288,33431,6,0,P|234:325|240:370,1,63.7500024318696
349,185,33697,1,0,0:0:0:0:
209,211,33831,2,0,P|177:206|145:209,2,63.7500024318696
433,345,34231,2,0,P|402:351|359:342,1,63.7500024318696
317,262,34497,5,0,0:0:0:0:
349,185,34631,1,0,0:0:0:0:
330,105,34764,1,0,0:0:0:0:
145,345,34897,5,0,0:0:0:0:
185,310,34964,1,0,0:0:0:0:
236,308,35031,1,0,0:0:0:0:
425,295,35164,6,0,P|416:279|400:263,1,31.8750012159348,2|0,0:3|0:0,0:0:0:0:
257,177,35297,1,8,0:3:0:0:
504,32,35431,5,4,0:3:0:0:
409,42,35564,6,0,P|417:72|435:98,1,63.7500024318696,4|0,0:0|0:0,0:0:0:0:
435,98,35831,1,0,0:0:0:0:
257,177,35964,1,0,0:0:0:0:
257,177,36097,6,0,P|285:152|320:145,1,63.7500024318696
309,145,36364,1,0,0:0:0:0:
428,278,36497,1,0,0:0:0:0:
428,278,36631,6,0,L|423:341,1,63.7500024318696
259,342,36897,1,0,0:0:0:0:
259,342,36964,1,0,0:0:0:0:
259,342,37031,1,0,0:0:0:0:
435,193,37164,5,0,0:0:0:0:
248,248,37297,1,0,0:0:0:0:
248,248,37431,2,0,L|240:168,1,63.7500024318696
142,61,37697,6,0,P|114:75|83:117,1,63.7500024318696
108,252,37964,1,0,0:0:0:0:
108,253,38031,1,0,0:0:0:0:
108,252,38097,1,0,0:0:0:0:
108,252,38231,6,0,P|76:232|40:228,1,63.7500024318696
50,227,38497,1,0,0:0:0:0:
180,168,38631,1,0,0:0:0:0:
180,168,38764,6,0,L|217:181,2,31.8750012159348
288,134,39031,2,0,L|277:68,1,63.7500024318696
316,292,39297,5,0,0:0:0:0:
424,184,39431,1,0,0:0:0:0:
424,184,39564,2,0,L|352:200,1,63.7500024318696
192,288,39831,6,0,P|172:264|144:244,1,63.7500024318696
145,245,40097,1,0,0:0:0:0:
120,99,40231,1,0,0:0:0:0:
120,99,40364,6,0,P|92:104|60:120,1,63.7500024318696
60,119,40631,1,0,0:0:0:0:
232,180,40764,1,0,0:0:0:0:
232,180,40897,6,0,L|240:107,1,63.7500024318696
252,31,41164,1,0,0:0:0:0:
252,31,41231,1,0,0:0:0:0:
252,31,41297,1,0,0:0:0:0:
317,235,41431,5,0,0:0:0:0:
440,156,41564,1,0,0:0:0:0:
440,156,41697,2,0,P|409:153|374:158,1,63.7500024318696
219,290,41964,5,0,0:0:0:0:
296,344,42097,2,0,P|332:352|368:348,1,63.7500024318696
358,350,42297,1,0,0:0:0:0:
358,350,42364,1,0,0:0:0:0:
219,290,42497,1,0,0:0:0:0:
180,196,42631,2,0,P|149:203|117:202,1,63.7500024318696
40,148,42897,1,0,0:0:0:0:
348,80,43030,6,0,B|392:68|392:68|412:72,1,63.7500024318696,2|0,0:0|0:0,0:0:0:0:
464,208,43164,2,0,L|472:272,2,63.7500024318696
252,144,43431,6,0,B|208:132|208:132|188:136,1,63.7500024318696,2|0,0:0|0:0,0:0:0:0:
136,272,43564,2,0,L|128:336,2,63.7500024318696
364,176,43831,6,0,L|372:260,1,63.7500024318696,4|0,0:2|0:0,0:0:0:0:
236,252,43964,2,0,L|228:336,1,63.7500024318696,4|0,0:2|0:0,0:0:0:0:
362,346,44364,5,0,0:0:0:0:
362,346,44430,1,0,0:0:0:0:
362,346,44497,2,0,L|426:338,1,63.7500024318696
312,84,44631,1,0,0:0:0:0:
136,272,44764,1,0,0:0:0:0:
440,160,44898,6,0,B|340:104|340:296|212:216,1,255
136,182,45164,6,0,L|124:74,1,85
192,28,45431,1,0,0:0:0:0:
192,28,45497,1,0,0:0:0:0:
192,28,45564,1,0,0:0:0:0:
46,147,45697,1,0,0:0:0:0:
220,220,45831,1,0,0:0:0:0:
323,123,45964,2,0,B|283:105|283:105|231:115,1,85
20,272,46231,6,0,P|76:248|160:256,1,127.5
149,278,46497,2,0,L|158:328,2,42.5
120,152,46764,1,0,0:0:0:0:
344,264,46897,1,0,0:0:0:0:
245,207,47031,2,0,L|237:311,1,85
360,83,47297,5,0,0:0:0:0:
372,79,47364,1,0,0:0:0:0:
384,75,47431,1,0,0:0:0:0:
482,174,47564,2,0,B|441:186|441:186|392:168,1,85
270,116,47831,1,0,0:0:0:0:
417,310,47964,1,0,0:0:0:0:
306,236,48097,1,0,0:0:0:0:
224,355,48231,1,0,0:0:0:0:
69,323,48364,6,0,B|104:301|104:301|159:307,1,85
314,336,48631,2,0,L|307:236,1,85
102,71,48897,2,0,B|81:156|81:156|111:185,1,127.5
131,204,49164,1,0,0:0:0:0:
235,101,49297,1,0,0:0:0:0:
427,186,49431,6,0,L|325:168,1,85
209,252,49697,1,0,0:0:0:0:
229,247,49763,1,0,0:0:0:0:
250,243,49830,1,0,0:0:0:0:
371,293,49964,1,0,0:0:0:0:
279,367,50097,1,0,0:0:0:0:
109,245,50231,5,0,0:0:0:0:
110,215,50297,1,0,0:0:0:0:
111,185,50364,1,0,0:0:0:0:
113,155,50430,1,0,0:0:0:0:
114,126,50497,2,0,P|79:101|20:115,1,85
201,170,50764,6,0,L|259:161,1,42.5
319,131,50897,1,0,0:0:0:0:
314,97,50963,1,0,0:0:0:0:
309,63,51031,2,0,P|344:38|403:52,1,85
462,204,51297,6,0,L|404:213,1,42.5
344,243,51431,1,0,0:0:0:0:
347,263,51497,1,0,0:0:0:0:
351,284,51564,1,0,0:0:0:0:
354,305,51630,1,0,0:0:0:0:
344,328,51697,5,0,0:0:0:0:
134,267,51831,5,0,0:0:0:0:
413,120,52008,5,0,0:0:0:0:
95,54,52186,5,0,0:0:0:0:
256,193,52364,5,12,2:1:0:0:
256,193,52631,6,0,L|160:207,1,85
291,109,52897,2,0,P|307:70|302:27,1,85
186,117,53164,1,0,0:0:0:0:
379,170,53298,1,0,0:0:0:0:
226,276,53431,2,0,B|213:319|213:319|231:363,1,85
435,273,53697,6,0,P|384:269|304:244,1,127.5
299,232,53964,2,0,L|287:184,2,42.5
321,340,54231,1,0,0:0:0:0:
379,170,54364,1,0,0:0:0:0:
197,197,54498,2,0,L|89:221,1,85
229,37,54764,6,0,B|246:73|246:73|231:135,1,85
180,304,55031,1,0,0:0:0:0:
200,298,55097,1,0,0:0:0:0:
220,292,55164,1,0,0:0:0:0:
429,336,55298,1,0,0:0:0:0:
315,304,55431,1,0,0:0:0:0:
473,235,55564,1,0,0:0:0:0:
327,144,55698,1,0,0:0:0:0:
380,236,55831,5,0,0:0:0:0:
380,236,55897,1,0,0:0:0:0:
380,236,55964,1,0,0:0:0:0:
437,147,56098,2,0,P|444:105|459:57,1,85
269,200,56364,2,0,P|223:181|121:177,1,127.5
120,191,56631,2,0,L|108:140,1,42.5
235,101,56764,1,0,0:0:0:0:
152,28,56897,6,0,L|139:92,1,42.5
109,276,57031,1,0,0:0:0:0:
269,200,57164,1,0,0:0:0:0:
55,76,57297,6,0,L|74:129,1,42.5
166,340,57431,1,0,0:0:0:0:
11,255,57497,1,0,0:0:0:0:
284,225,57697,6,0,L|228:249,1,42.5
78,328,57831,1,0,0:0:0:0:
163,158,57964,1,0,0:0:0:0:
5,219,58097,6,0,L|62:233,1,42.5
262,319,58231,1,0,0:0:0:0:
144,149,58364,1,0,0:0:0:0:
164,353,58497,6,0,L|167:311,1,42.5
172,232,58631,1,0,0:0:0:0:
406,318,58764,1,0,0:0:0:0:
407,233,58897,6,0,L|373:224,3,21.25
432,228,59031,6,0,P|444:194|439:137,1,85
289,32,59297,2,0,P|277:66|282:123,1,85
323,303,59564,5,0,0:0:0:0:
300,267,59630,1,0,0:0:0:0:
262,250,59697,1,0,0:0:0:0:
221,258,59763,1,0,0:0:0:0:
191,288,59830,1,0,0:0:0:0:
161,317,59898,1,0,0:0:0:0:
119,325,59964,1,0,0:0:0:0:
81,308,60031,1,0,0:0:0:0:
59,273,60097,5,0,3:0:0:0:
84,273,60163,1,0,3:0:0:0:
105,260,60230,1,0,3:0:0:0:
117,238,60296,1,0,3:0:0:0:
115,213,60363,1,0,3:0:0:0:
100,193,60430,1,0,3:0:0:0:
76,184,60496,1,0,3:0:0:0:
51,189,60563,1,0,3:0:0:0:
33,206,60630,1,0,3:0:0:0:
27,231,60696,1,0,3:0:0:0:
35,254,60763,1,0,3:0:0:0:
355,169,60897,5,2,2:3:0:0:
256,199,61164,6,0,P|298:256|301:82,1,510.000019454957
46,351,61964,1,0,0:0:0:0:
409,168,62231,6,0,P|315:142|375:218,1,255.000009727478
174,63,62764,6,0,P|27:191|222:182,2,510.000019454957
464,352,64097,1,0,0:0:0:0:
124,153,64364,5,0,0:0:0:0:
124,153,64431,1,0,0:0:0:0:
124,153,64497,1,0,0:0:0:0:
124,153,64564,1,0,0:0:0:0:
124,153,64631,1,0,0:0:0:0:
124,153,64697,1,0,0:0:0:0:
124,153,64764,1,0,0:0:0:0:
199,92,64897,6,0,P|208:116|212:155,1,63.7500024318696
39,212,65164,2,0,P|30:188|26:149,1,63.7500024318696
299,174,65431,6,0,P|435:224|253:238,1,510.000019454957
41,40,66231,1,0,0:0:0:0:
347,259,66497,5,0,0:0:0:0:
347,259,66564,1,0,0:0:0:0:
347,259,66630,1,0,0:0:0:0:
347,259,66697,1,0,0:0:0:0:
347,259,66764,1,0,0:0:0:0:
347,259,66830,1,0,0:0:0:0:
347,259,66897,1,0,0:0:0:0:
420,200,67031,6,0,P|431:230|434:262,1,63.7500024318696
265,302,67298,2,0,P|254:272|252:241,1,63.7500024318696
36,91,67564,6,0,P|67:214|105:34,2,510.000019454957
380,281,68897,2,0,P|323:279|369:241,1,127.500004863739
86,124,69164,6,0,P|162:117|118:178,2,191.250007295609
314,351,69697,6,0,P|466:251|261:241,1,510.000019454957
468,38,70497,1,0,0:0:0:0:
362,264,70764,1,0,0:0:0:0:
80,134,71031,6,0,L|65:72,1,63.7500024318696
155,170,71164,2,0,P|92:213|151:88,1,382.500014591218
332,231,71697,6,0,P|400:228|327:268,1,191.250007295609
287,304,71964,6,0,P|392:346|275:234,1,510.000019454957
126,283,72631,6,0,P|90:287|56:297,1,63.7500024318696
169,347,72764,2,0,P|48:263|195:251,1,382.500014591218
346,312,73297,2,0,P|416:281|314:239,1,255.000009727478
261,155,73697,2,0,P|192:135|291:92,1,255.000009727478
447,151,74097,6,0,B|408:196|408:196|344:202|344:202|304:248|304:248|222:260,1,255.000009727478
47,238,74497,6,0,B|86:283|86:283|150:289|150:289|190:335|190:335|272:347,1,255.000009727478
415,325,74897,6,0,B|370:286|370:286|364:222|364:222|318:182|318:182|306:100,1,255.000009727478
209,37,75297,6,0,B|164:76|164:76|158:140|158:140|112:180|112:180|100:262,1,255.000009727478
258,322,75697,6,0,B|297:277|297:277|361:271|361:271|401:225|401:225|483:213,1,255.000009727478
253,157,76097,6,0,B|214:112|214:112|150:106|150:106|110:60|110:60|28:48,1,255.000009727478
94,216,76497,6,0,P|56:266|164:248,1,255.000009727478
418,216,76897,6,0,P|456:266|348:271,1,191.250007295609
322,235,77164,2,0,L|337:96,1,127.500004863739
248,52,77431,5,0,0:0:0:0:
469,111,77564,1,0,0:0:0:0:
244,179,77697,1,0,0:0:0:0:
374,5,77830,1,0,0:0:0:0:
418,216,77964,2,0,B|441:264|441:264|416:334,1,127.500004863739
241,302,78231,5,0,0:0:0:0:
210,267,78319,1,0,0:0:0:0:
167,256,78408,1,0,0:0:0:0:
125,270,78497,1,0,0:0:0:0:
96,302,78586,2,0,P|83:330|76:359,1,56.6666666666667
33,228,78764,5,0,0:0:0:0:
37,188,78852,1,0,0:0:0:0:
45,148,78941,1,0,0:0:0:0:
49,108,79031,1,0,0:0:0:0:
79,84,79119,2,0,P|108:86|149:101,1,56.6666666666667
229,87,79297,5,0,0:0:0:0:
267,76,79385,1,0,0:0:0:0:
307,69,79474,1,0,0:0:0:0:
346,58,79564,1,0,0:0:0:0:
389,48,79653,2,0,P|406:70|421:112,1,56.6666666666667
423,279,79831,5,0,0:0:0:0:
461,258,79919,1,0,0:0:0:0:
471,215,80008,1,0,0:0:0:0:
444,181,80097,1,0,0:0:0:0:
401,179,80186,1,0,0:0:0:0:
371,210,80275,1,0,0:0:0:0:
334,245,80364,6,0,P|306:250|276:243,1,56.6666666666667
180,208,80542,1,0,0:0:0:0:
176,174,80630,1,0,0:0:0:0:
173,140,80719,1,0,0:0:0:0:
170,106,80808,1,0,0:0:0:0:
164,64,80897,6,0,P|136:64|96:76,1,56.6666666666667
64,224,81075,1,0,0:0:0:0:
59,262,81163,1,0,0:0:0:0:
76,297,81252,1,0,0:0:0:0:
110,317,81341,1,0,0:0:0:0:
149,316,81431,6,0,P|176:312|208:312,1,56.6666666666667
336,332,81608,1,0,0:0:0:0:
339,298,81696,1,0,0:0:0:0:
346,264,81785,1,0,0:0:0:0:
355,232,81874,1,0,0:0:0:0:
372,200,81964,6,0,P|392:176|412:160,1,56.6666666666667
416,40,82142,1,0,0:0:0:0:
385,65,82230,1,0,0:0:0:0:
348,77,82319,1,0,0:0:0:0:
308,74,82408,1,0,0:0:0:0:
271,56,82497,6,0,P|244:48|216:44,1,56.6666666666667
132,40,82675,1,0,0:0:0:0:
56,80,82764,2,0,L|65:152,2,42.5
16,296,83031,6,0,P|43:304|71:308,1,56.6666666666667
155,312,83209,1,0,0:0:0:0:
231,272,83297,2,0,L|217:202,2,42.5
232,56,83564,6,0,P|259:48|287:44,1,56.6666666666667
371,40,83742,1,0,0:0:0:0:
447,80,83831,2,0,L|438:130,2,42.5
504,324,84097,6,0,P|477:332|449:336,1,56.6666666666667
365,340,84275,1,0,0:0:0:0:
293,296,84364,2,0,L|302:245,2,42.5
82,238,84631,5,0,0:0:0:0:
64,251,84719,1,0,0:0:0:0:
52,269,84808,1,0,0:0:0:0:
49,287,84897,1,0,0:0:0:0:
62,324,84986,5,0,0:0:0:0:
88,343,85075,1,0,0:0:0:0:
119,343,85164,1,0,0:0:0:0:
148,328,85253,1,0,0:0:0:0:
171,286,85342,5,0,0:0:0:0:
170,234,85431,1,0,0:0:0:0:
200,192,85519,1,0,0:0:0:0:
246,177,85608,1,0,0:0:0:0:
296,189,85697,6,0,B|349:155|419:132|422:72|397:21|338:40|338:40|321:48|321:48|314:32|314:32|277:-7|229:18|201:63|237:92|250:140,1,478.125018239022
256,256,86764,5,0,0:0:0:0:
256,192,88897,12,0,90497,2:0:0:0:
182,338,91031,6,0,P|287:324|303:213,1,226.666666666667,6|0,0:0|0:0,0:0:0:0:
226,256,91297,2,0,B|181:232|181:232|115:255,1,113.333333333333,8|0,0:0|0:0,0:0:0:0:
51,191,91475,2,0,P|56:166|54:135,1,56.6666666666667
128,82,91564,6,0,B|176:78|208:102|208:102|256:30|328:46,1,226.666666666667,2|0,0:0|0:0,0:0:0:0:
423,94,91831,2,0,B|383:106|371:134|371:134|411:250,1,170,10|0,0:1|0:0,0:0:0:0:
72,356,92097,6,0,B|108:308|122:256|99:189|99:189|74:153|21:171,1,255,2|0,0:0|0:0,0:0:0:0:
59,59,92364,2,0,P|105:90|162:94,1,113.333333333333,8|0,0:0|0:0,0:0:0:0:
254,113,92542,2,0,P|283:103|318:97,1,56.6666666666667
377,38,92631,6,0,B|418:41|443:63|443:63|474:149|405:218,1,226.666666666667,2|0,0:0|0:0,0:0:0:0:
457,277,92897,2,0,P|378:293|343:207,1,170,10|0,0:0|0:0,0:0:0:0:
73,260,93164,6,0,B|112:301|125:358|125:358|167:323|243:319,1,226.666666666667,2|0,0:0|0:0,0:0:0:0:
237,219,93431,2,0,P|181:211|136:172,1,113.333333333333,8|0,0:0|0:0,0:0:0:0:
54,33,93608,2,0,P|61:59|68:101,1,56.6666666666667
23,166,93697,6,0,P|63:178|143:46,1,226.666666666667,2|0,0:0|0:0,0:0:0:0:
228,29,93964,2,0,B|249:61|240:140|240:140|287:109,1,170,10|0,0:0|0:0,0:0:0:0:
385,231,94231,6,0,P|469:241|378:302,1,226.666666666667,2|0,0:0|0:0,0:0:0:0:
306,360,94497,2,0,P|290:308|290:244,1,113.333333333333,8|0,0:0|0:0,0:0:0:0:
321,171,94675,2,0,P|331:142|331:102,1,56.6666666666667
375,31,94764,6,0,B|375:88|336:126|280:116|254:75|254:75|236:60|211:58|211:58|176:66,1,255,2|0,0:0|0:0,0:0:0:0:
93,84,95031,1,10,0:0:0:0:
95,100,95119,1,0,0:0:0:0:
97,114,95208,1,0,0:0:0:0:
56,212,95297,6,0,B|132:196|132:196|204:264|204:264|288:276,1,255,2|0,0:0|0:0,0:0:0:0:
343,360,95564,2,0,P|397:334|469:336,1,113.333333333333,8|0,0:0|0:0,0:0:0:0:
410,238,95742,2,0,P|380:233|352:224,1,56.6666666666667
282,154,95831,6,0,B|250:114|247:74|247:74|279:18|379:38,1,226.666666666667,2|0,0:0|0:0,0:0:0:0:
503,100,96097,2,0,B|464:147|464:147|342:118,1,170,10|0,0:0|0:0,0:0:0:0:
58,67,96364,6,0,P|161:84|92:162,1,226.666666666667,2|0,0:0|0:0,0:0:0:0:
56,283,96631,2,0,P|100:249|155:250,1,113.333333333333,8|0,0:0|0:0,0:0:0:0:
236,220,96808,2,0,P|241:247|244:276,1,56.6666666666667
229,363,96897,6,0,B|287:365|334:307|334:307|387:302|444:361,1,226.666666666667,2|0,0:0|0:0,0:0:0:0:
479,271,97164,2,0,B|500:224|471:164|471:164|444:161|404:176,1,170,10|0,0:0|0:0,0:0:0:0:
236,220,97431,5,2,0:0:0:0:
187,190,97519,1,0,0:0:0:0:
174,136,97608,1,0,0:0:0:0:
202,93,97697,1,8,0:0:0:0:
255,83,97785,1,0,0:0:0:0:
302,111,97874,1,0,0:0:0:0:
313,160,97964,1,4,0:0:0:0:
331,212,98053,1,0,0:0:0:0:
378,238,98141,1,0,0:0:0:0:
427,223,98230,1,8,0:0:0:0:
451,174,98319,1,0,0:0:0:0:
433,120,98407,1,0,0:0:0:0:
393,102,98497,6,0,P|381:136|375:170,1,56.6666666666667,4|0,0:3|0:0,0:0:0:0:
357,315,98675,1,0,0:0:0:0:
226,325,98764,6,0,P|219:297|209:270,1,56.6666666666667,8|0,0:0|0:0,0:0:0:0:
149,202,98942,1,0,0:0:0:0:
122,112,99031,6,0,P|162:98|191:67,1,85,2|0,0:0|0:0,0:0:0:0:
77,301,99297,2,0,P|37:287|7:257,1,85,10|0,0:0|0:0,0:0:0:0:
452,260,99564,6,0,B|476:296|476:296|460:372,2,113.333333333333,2|0|0,0:0|0:0|0:0,0:0:0:0:
256,288,99831,2,0,B|328:312|328:312|376:292,1,113.333333333333,8|0,0:0|0:0,0:0:0:0:
452,260,100008,1,0,0:0:0:0:
442,166,100097,6,0,B|464:120|434:69|434:69|373:38|373:38|312:71,1,226.666666666667,2|0,0:0|0:0,0:0:0:0:
356,143,100364,2,0,B|314:179|314:179|261:154|261:154|235:166|204:166,1,170,10|0,0:0|0:0,0:0:0:0:
37,126,100631,6,0,B|16:56|16:56|32:16,2,113.333333333333,2|0|0,0:0|0:0|0:0,0:0:0:0:
140,92,100897,2,0,L|109:213,1,113.333333333333,8|0,0:0|0:0,0:0:0:0:
112,344,101075,1,0,0:0:0:0:
48,276,101164,6,0,B|88:272|120:296|120:296|160:300|160:300|192:332|224:344|224:344|256:340|296:348,1,255,2|0,0:0|0:0,0:0:0:0:
391,358,101431,2,0,B|365:306|361:253|361:253|379:230|411:221,1,170,10|0,0:0|0:0,0:0:0:0:
280,92,101697,6,0,B|208:68|208:68|184:28,2,113.333333333333,2|0|0,0:0|0:0|0:0,0:0:0:0:
436,140,101964,2,0,B|468:100|468:100|444:28,1,113.333333333333,8|0,0:0|0:0,0:0:0:0:
368,80,102142,1,0,0:0:0:0:
336,164,102231,6,0,B|273:208|212:221|212:221|180:219|149:202|149:202|124:144,1,255,2|0,0:0|0:0,0:0:0:0:
82,66,102497,2,0,B|122:42|166:42|166:42|197:73|208:121,1,170,10|0,0:0|0:0,0:0:0:0:
102,271,102764,6,0,B|85:263|85:263|56:268|56:268|36:248|-12:264,2,113.333333333333,2|0|0,0:0|0:0|0:0,0:0:0:0:
300,344,103031,2,0,B|328:328|328:328|316:312|316:312|280:316|232:300,1,113.333333333333,8|0,0:0|0:0,0:0:0:0:
168,332,103208,1,0,0:0:0:0:
196,244,103297,6,0,B|252:193|344:190|344:190|351:143|310:100,1,255,2|0,0:0|0:0,0:0:0:0:
475,82,103564,2,0,P|430:144|476:215,1,170,10|0,0:0|0:0,0:0:0:0:
372,356,103831,6,0,B|304:336|304:336|264:352,1,113.333333333333,2|0,0:0|0:0,0:0:0:0:
168,332,104008,1,0,0:0:0:0:
76,308,104097,5,8,0:0:0:0:
56,224,104186,1,0,0:0:0:0:
40,140,104275,1,0,0:0:0:0:
104,72,104364,6,0,B|164:45|164:45|224:56,2,113.333333333333,2|0|0,0:0|0:0|0:0,0:0:0:0:
136,164,104631,2,0,L|304:212,1,170,10|0,0:0|0:0,0:0:0:0:
460,308,104897,6,0,P|416:336|336:320,1,113.333333333333,2|0,0:0|0:0,0:0:0:0:
280,292,105075,1,0,0:0:0:0:
196,320,105164,5,8,0:0:0:0:
108,348,105253,1,0,0:0:0:0:
40,288,105342,1,0,0:0:0:0:
52,200,105431,6,0,B|74:146|74:146|52:84,2,113.333333333333,2|0|0,0:0|0:0|0:0,0:0:0:0:
128,252,105697,2,0,B|164:159|164:159|143:81,1,170,10|0,0:0|0:0,0:0:0:0:
249,37,105964,5,2,0:0:0:0:
298,32,106052,1,0,0:0:0:0:
340,57,106141,1,0,0:0:0:0:
358,103,106230,1,8,0:0:0:0:
346,150,106319,1,0,0:0:0:0:
307,181,106408,1,0,0:0:0:0:
258,193,106497,1,4,0:0:0:0:
218,223,106586,1,0,0:0:0:0:
206,270,106675,1,0,0:0:0:0:
225,316,106764,1,8,0:0:0:0:
266,342,106853,1,0,0:0:0:0:
316,337,106941,1,0,0:0:0:0:
370,264,107031,6,0,P|379:271|390:281,2,28.3333333333333,2|0|0,0:0|0:0|0:0,0:0:0:0:
121,202,107208,1,0,0:0:0:0:
111,293,107297,6,0,P|138:288|164:276,1,56.6666666666667,10|0,0:0|0:0,0:0:0:0:
361,81,107475,1,0,0:0:0:0:
290,28,107564,6,0,B|220:42|220:42|223:56|223:56|287:107|287:107|291:122|291:122|217:139,1,255,14|0,0:0|0:0,0:0:0:0:
121,202,108097,6,0,P|148:146|97:66,1,159.375,4|0,0:0|0:0,0:0:0:0:
51,140,108364,2,0,L|-25:160,2,53.125,8|0|0,0:0|0:0|0:0,0:0:0:0:
229,267,108631,6,0,P|282:236|366:281,1,159.375
292,324,108898,2,0,L|277:402,2,53.125,8|0|0,0:0|0:0|0:0,0:0:0:0:
378,54,109164,6,0,P|347:107|392:191,1,159.375
435,117,109431,2,0,L|513:102,2,53.125,8|0|0,0:0|0:0|0:0,0:0:0:0:
262,132,109697,6,0,P|209:163|125:118,1,159.375
199,75,109964,2,0,L|214:-3,2,53.125,8|0|0,0:0|0:0|0:0,0:0:0:0:
73,281,110231,6,0,B|125:260|125:260|179:313|179:313|251:332,1,191.250007295609
255,325,110498,1,8,0:0:0:0:
273,323,110565,1,0,0:0:0:0:
293,321,110631,1,0,0:0:0:0:
472,296,110764,5,0,0:0:0:0:
422,304,110852,1,0,0:0:0:0:
379,279,110941,1,0,0:0:0:0:
360,232,111031,5,8,0:0:0:0:
360,232,111097,1,0,0:0:0:0:
360,232,111164,2,0,L|372:159,1,63.7500024318696
256,32,111297,5,0,0:0:0:0:
206,24,111385,1,0,0:0:0:0:
163,49,111474,1,0,0:0:0:0:
144,96,111564,5,8,0:0:0:0:
144,96,111630,1,0,0:0:0:0:
144,96,111697,2,0,L|136:168,1,63.7500024318696
32,344,111831,6,0,L|201:361,1,170,2|0,0:2|0:0,0:0:0:0:
443,324,112031,2,0,L|258:300,1,170,2|0,0:3|0:0,0:0:0:0:
109,243,112231,2,0,L|193:252,1,85,2|0,0:0|0:0,0:0:0:0:
324,188,112364,6,0,L|335:147,14,42.5
331,279,112897,2,0,P|365:308|433:307,1,85,2|0,0:2|0:0,0:0:0:0:
235,173,113031,2,0,P|192:187|159:247,1,85,2|0,0:3|0:0,0:0:0:0:
421,179,113164,2,0,P|429:135|342:44,1,170,2|0,0:0|0:0,0:0:0:0:
181,75,113431,6,0,L|140:86,14,42.5
263,45,113964,2,0,P|265:83|238:128,1,85,2|0,0:2|0:0,0:0:0:0:
225,339,114097,2,0,P|190:322|165:275,1,85,2|0,0:3|0:0,0:0:0:0:
7,203,114231,2,0,P|74:169|166:192,1,170,2|0,0:0|0:0,0:0:0:0:
254,218,114497,5,8,0:0:0:0:
284,223,114563,1,0,0:0:0:0:
307,242,114631,1,0,0:0:0:0:
319,269,114697,1,0,0:0:0:0:
335,298,114764,1,8,0:0:0:0:
362,318,114831,1,0,0:0:0:0:
395,326,114897,1,0,0:0:0:0:
428,320,114964,1,0,0:0:0:0:
456,300,115031,1,8,0:0:0:0:
480,266,115097,1,0,0:0:0:0:
483,224,115164,1,0,0:0:0:0:
467,185,115231,1,0,0:0:0:0:
433,161,115297,1,8,0:0:0:0:
406,138,115363,1,0,0:0:0:0:
392,110,115430,1,8,0:0:0:0:
385,77,115497,1,0,0:0:0:0:
395,46,115564,6,0,L|499:26,1,85,8|0,0:0|0:0,0:0:0:0:
117,46,115831,6,0,L|13:26,1,85,10|0,0:0|0:0,0:0:0:0:
395,338,116097,6,0,L|499:358,1,85,2|0,0:2|0:0,0:0:0:0:
117,338,116364,6,0,L|13:358,1,85,8|0,0:0|0:0,0:0:0:0:
256,190,116631,5,14,0:0:0:0:
256,192,116764,12,0,119831,0:2:0:0:
256,152,120364,6,0,B|256:164|256:164|256:152|256:152|256:164|256:164|256:152|256:152|256:152|256:152|256:164|256:164|256:152|256:152|256:240,1,127.500004863739
