osu file format v14

[General]
AudioFilename: audio.mp3
AudioLeadIn: 0
PreviewTime: 87653
Countdown: 0
SampleSet: Normal
StackLeniency: 0.7
Mode: 1
LetterboxInBreaks: 0
WidescreenStoryboard: 0

[Editor]
Bookmarks: 19120,27653,36187,45120,53253,61787,78853,87387,91653,100187
DistanceSpacing: 0.4
BeatDivisor: 3
GridSize: 32
TimelineZoom: 4.799996

[Metadata]
Title:I
TitleUnicode:I
Artist:Chroma
ArtistUnicode:黒魔
Creator:Eyenine
Version:I
Source:SOUND VOLTEX IV HEAVENLY HAVEN
Tags:[zeth] greenshell electronic instrumental video game chiptune sdvx4 bemaniシリーズ kuroma robot & and human The 7th KONAMI Arcade Championship KAC Original Song Contest オリジナル楽曲コンテスト Omega Dimension ΩDimension
BeatmapID:3283114
BeatmapSetID:1477805

[Difficulty]
HPDrainRate:6.5
CircleSize:5
OverallDifficulty:7.2
ApproachRate:8
SliderMultiplier:1.4
SliderTickRate:3

[Events]
//Background and Video events
0,0,"tenngarennsou.jpg",0,0
//Break Periods
//Storyboard Layer 0 (Background)
//Storyboard Layer 1 (Fail)
//Storyboard Layer 2 (Pass)
//Storyboard Layer 3 (Foreground)
//Storyboard Layer 4 (Overlay)
//Storyboard Sound Samples

[TimingPoints]
987,266.666666666667,4,1,0,80,1,0
2050,-90.9090909090909,4,1,0,80,0,0
2317,-91.952670121635,4,1,0,80,0,0
2450,-92.4834963200817,4,1,0,80,0,0
2584,-93.0204003039907,4,1,0,80,0,0
2850,-94.1133067745582,4,1,0,80,0,0
3117,-95.2321999114341,4,1,0,80,0,0
3250,-95.801682852361,4,1,0,80,0,0
3384,-96.3780177162072,4,1,0,80,0,0
3517,-96.9613289131895,4,1,0,80,0,0
3650,-97.551648720415,4,1,0,80,0,0
3784,-98.1492968584373,4,1,0,80,0,0
3917,-98.7543130946244,4,1,0,80,0,0
4184,-99.9870016897803,4,1,0,80,0,0
4450,-101.250853038437,4,1,0,80,0,0
4584,-101.894836377272,4,1,0,80,0,0
4717,-102.546958816116,4,1,0,80,0,0
4984,-103.876785512097,4,1,0,80,0,0
5250,-105.241555680676,4,1,0,80,0,0
5384,-105.937477819341,4,1,0,80,0,0
5517,-106.64266495754,4,1,0,80,0,0
5650,-107.357303356311,4,1,0,80,0,0
5784,-108.081467486933,4,1,0,80,0,0
5917,-108.815585873996,4,1,0,80,0,0
6050,-109.559745120209,4,1,0,80,0,0
6317,-111.079021615978,4,1,0,65,0,0
10584,-90.9090909090909,4,1,0,80,0,0
10851,-91.952670121635,4,1,0,80,0,0
10984,-92.4834963200817,4,1,0,80,0,0
11118,-93.0204003039907,4,1,0,80,0,0
11384,-94.1133067745582,4,1,0,80,0,0
11651,-95.2321999114341,4,1,0,80,0,0
11784,-95.801682852361,4,1,0,80,0,0
11918,-96.3780177162072,4,1,0,80,0,0
12051,-96.9613289131895,4,1,0,80,0,0
12184,-97.551648720415,4,1,0,80,0,0
12318,-98.1492968584373,4,1,0,80,0,0
12451,-98.7543130946244,4,1,0,80,0,0
12718,-99.9870016897803,4,1,0,80,0,0
12984,-101.250853038437,4,1,0,80,0,0
13118,-101.894836377272,4,1,0,80,0,0
13251,-102.546958816116,4,1,0,80,0,0
13518,-103.876785512097,4,1,0,80,0,0
13784,-105.241555680676,4,1,0,80,0,0
13918,-105.937477819341,4,1,0,80,0,0
14051,-106.64266495754,4,1,0,80,0,0
14184,-107.357303356311,4,1,0,80,0,0
14318,-108.081467486933,4,1,0,80,0,0
14451,-108.815585873996,4,1,0,80,0,0
14584,-109.559745120209,4,1,0,80,0,0
14851,-111.079021615978,4,1,0,65,0,0
16987,-111.111111111111,4,1,0,65,0,0
17031,-110.516287890509,4,1,0,65,0,0
17075,-109.927678580262,4,1,0,65,0,0
17120,-109.345425479452,4,1,0,65,0,0
17187,-108.483519726101,4,1,0,65,0,0
17253,-107.634979646225,4,1,0,65,0,0
17320,-106.799724883909,4,1,0,65,0,0
17387,-105.977221256063,4,1,0,65,0,0
17431,-105.435961887008,4,1,0,65,0,0
17475,-104.900203191694,4,1,0,65,0,0
17520,-104.369861741244,4,1,0,65,0,0
17587,-103.58422122275,4,1,0,65,0,0
17653,-102.810425799659,4,1,0,65,0,0
17720,-102.04800133887,4,1,0,65,0,0
17787,-101.296904265309,4,1,0,65,0,0
17831,-100.802183778509,4,1,0,65,0,0
17875,-100.312372728677,4,1,0,65,0,0
17920,-99.8272987731225,4,1,0,65,0,0
17987,-99.1083224231589,4,1,0,65,0,0
18053,-98.3997252679671,4,1,0,65,0,0
18120,-97.7011887303633,4,1,0,65,0,0
18187,-97.0124059464724,4,1,0,65,0,0
18231,-96.5586497238423,4,1,0,65,0,0
18275,-96.1091184487219,4,1,0,65,0,0
18320,-95.6636618710473,4,1,0,65,0,0
18387,-95.0033013647224,4,1,0,65,0,0
18453,-94.3519061915608,4,1,0,65,0,0
18520,-93.7094706539422,4,1,0,65,0,0
18587,-93.0757245479777,4,1,0,65,0,0
18620,-105.263157894737,4,1,0,30,0,0
19087,-80,4,1,0,90,0,0
19153,-93.0232558139535,4,1,0,90,0,0
19487,-83.3333333333333,4,1,0,90,0,0
19553,-93.0232558139535,4,1,0,90,0,0
19887,-83.3333333333333,4,1,0,90,0,0
19953,-93.0232558139535,4,1,0,90,0,0
20287,-83.3333333333333,4,1,0,90,0,0
20353,-93.0232558139535,4,1,0,90,0,0
20587,-93.0232558139535,4,1,0,30,0,0
21220,-80,4,1,0,90,0,0
21286,-93.0232558139535,4,1,0,90,0,0
21620,-80,4,1,0,90,0,0
21686,-93.0232558139535,4,1,0,90,0,0
22020,-80,4,1,0,90,0,0
22086,-93.0232558139535,4,1,0,90,0,0
22420,-80,4,1,0,90,0,0
22486,-93.0232558139535,4,1,0,90,0,0
23298,-86.9565217391304,4,1,0,90,0,0
23353,-80,4,1,0,90,0,0
23419,-86.9565217391304,4,1,0,90,0,0
23753,-80,4,1,0,90,0,0
23819,-86.9565217391304,4,1,0,90,0,0
24153,-80,4,1,0,90,0,0
24219,-86.9565217391304,4,1,0,90,0,0
24553,-80,4,1,0,90,0,0
24619,-86.9565217391304,4,1,0,90,0,0
25487,-80,4,1,0,90,0,0
25553,-86.9565217391304,4,1,0,90,0,0
25887,-80,4,1,0,90,0,0
25953,-86.9565217391304,4,1,0,90,0,0
26287,-80,4,1,0,90,0,0
26353,-86.9565217391304,4,1,0,90,0,0
26587,-80,4,1,0,90,0,0
26653,-79.6019900497512,4,1,0,90,0,0
26720,-79.2079207920792,4,1,0,90,0,0
26787,-78.8177339901478,4,1,0,90,0,0
26853,-78.4313725490196,4,1,0,90,0,0
26920,-78.0487804878049,4,1,0,90,0,0
26987,-77.6699029126214,4,1,0,90,0,0
27053,-77.2946859903382,4,1,0,90,0,0
27120,-76.9230769230769,4,1,0,90,0,0
27253,-76.1904761904762,4,1,0,90,0,0
27387,-75.4716981132076,4,1,0,90,0,0
27453,-75.1173708920188,4,1,0,90,0,0
27520,-74.7663551401869,4,1,0,90,0,0
27653,-74.0740740740741,4,1,0,90,0,0
27720,-100,4,1,0,70,0,0
27787,-95.2380952380952,4,1,0,70,0,0
27920,-95.8904240945786,4,1,0,70,0,0
28053,-96.5517507728968,4,1,0,70,0,0
28187,-97.2222627314984,4,1,0,70,0,0
28320,-97.9020568243118,4,1,0,70,0,0
28453,-98.5915215235151,4,1,0,70,0,0
28587,-99.2907660580474,4,1,0,70,0,0
28720,-100,4,1,0,70,0,0
28853,-100.719438952437,4,1,0,70,0,0
28987,-101.449304767914,4,1,0,70,0,0
29120,-102.189825776566,4,1,0,70,0,0
29253,-102.941131055383,4,1,0,70,0,0
29387,-103.703672976689,4,1,0,70,0,0
29520,-104.477596346627,4,1,0,70,0,0
29653,-105.263157894737,4,1,0,70,0,0
29787,-106.060622130397,4,1,0,70,0,0
29920,-106.870261639775,4,1,0,70,0,0
30054,-107.692357396473,4,1,0,70,0,0
30187,-108.527081305233,4,1,0,70,0,0
30320,-109.374965820323,4,1,0,70,0,0
30454,-110.236203112409,4,1,0,70,0,0
30587,-111.111111111111,4,1,0,70,0,0
30720,-112.000017920003,4,1,0,70,0,0
30853,-112.903262226859,4,1,0,70,0,0
30986,-113.821193733916,4,1,0,70,0,0
31120,-114.754041924242,4,1,0,70,0,0
31253,-115.702441090102,4,1,0,70,0,0
31386,-116.666647222225,4,1,0,70,0,0
31520,-117.647058823529,4,1,0,70,0,0
31653,-118.644087905778,4,1,0,70,0,0
31786,-119.658160566893,4,1,0,70,0,0
31920,-120.68971759813,4,1,0,70,0,0
32053,-121.739066918748,4,1,0,70,0,0
32187,-122.806974453693,4,1,0,70,0,0
32320,-123.893783381631,4,1,0,70,0,0
32453,-125,4,1,0,70,0,0
33787,-125,4,1,0,70,0,0
33853,-124.428252181227,4,1,0,70,0,0
33920,-123.861557459996,4,1,0,70,0,0
33987,-123.300153262091,4,1,0,70,0,0
34053,-122.743664585752,4,1,0,70,0,0
34187,-121.645769950819,4,1,0,70,0,0
34320,-120.567341683024,4,1,0,70,0,0
34364,-120.21210223318,4,1,0,70,0,0
34409,-119.858949987655,4,1,0,70,0,0
34453,-119.507866605319,4,1,0,70,0,0
34520,-118.985151842902,4,1,0,70,0,0
34587,-118.466849421526,4,1,0,70,0,0
34720,-117.443811944271,4,1,0,70,0,0
34853,-116.43829236258,4,1,0,70,0,0
34987,-115.449977833604,4,1,0,70,0,0
35120,-114.478168440887,4,1,0,70,0,0
35164,-114.157857485331,4,1,0,70,0,0
35209,-113.83933399436,4,1,0,70,0,0
35253,-113.522583047446,4,1,0,70,0,0
35320,-113.050684013164,4,1,0,70,0,0
35387,-112.582818736033,4,1,0,70,0,0
35453,-112.11868435451,4,1,0,70,0,0
35520,-111.658485821605,4,1,0,70,0,0
35564,-111.353738534741,4,1,0,70,0,0
35609,-111.050650201557,4,1,0,70,0,0
35653,-110.749207312549,4,1,0,70,0,0
35720,-110.300038163813,4,1,0,70,0,0
35787,-109.854618398012,4,1,0,70,0,0
35853,-109.41266188971,4,1,0,70,0,0
35920,-108.974365959895,4,1,0,70,0,0
36053,-108.108108108108,4,1,0,70,0,0
36153,-105.263157894737,4,1,0,70,0,0
42720,-105.263157894737,4,1,0,70,0,0
42853,-103.59613254918,4,1,0,70,0,0
42898,-103.052200061419,4,1,0,70,0,0
42942,-102.513844494699,4,1,0,70,0,0
42987,-101.98118854996,4,1,0,70,0,0
43120,-100.415721085293,4,1,0,70,0,0
43253,-98.8976863875246,4,1,0,70,0,0
43320,-98.1556552380765,4,1,0,70,0,0
43387,-97.4247710274319,4,1,0,70,0,0
43453,-96.7046909511487,4,1,0,70,0,0
43520,-95.9950850516454,4,1,0,70,0,0
43587,-95.2959080890026,4,1,0,70,0,0
43620,-90.9090909090909,4,1,0,70,0,0
44653,-111.111111111111,4,1,0,70,0,0
44987,-108.108108108108,4,1,0,70,0,0
45053,-106.967544977178,4,1,0,70,0,0
45120,-105.85079695065,4,1,0,70,0,0
45187,-104.757125841593,4,1,0,70,0,0
45253,-103.685823659446,4,1,0,70,0,0
45387,-101.607636017062,4,1,0,70,0,0
45453,-100,4,1,0,80,0,0
45587,-100,4,1,0,80,0,0
51120,-100,4,1,0,80,0,0
51187,-99.6900635922916,4,1,0,80,0,0
51253,-99.3820424599838,4,1,0,80,0,0
51387,-98.7717730027113,4,1,0,80,0,0
51431,-98.5699472059363,4,1,0,80,0,0
51475,-98.3690412953235,4,1,0,80,0,0
51520,-98.1688563230069,4,1,0,80,0,0
51587,-97.8701498000513,4,1,0,80,0,0
51653,-97.5733507664387,4,1,0,80,0,0
51720,-97.2782517930814,4,1,0,80,0,0
51787,-96.9849324208991,4,1,0,80,0,0
51920,-96.4035684744906,4,1,0,80,0,0
51964,-96.2113879647251,4,1,0,80,0,0
52009,-96.0198799559461,4,1,0,80,0,0
52053,-95.8292246553262,4,1,0,80,0,0
52120,-95.5445658072751,4,1,0,80,0,0
52187,-95.2380952380952,4,1,0,80,0,0
52253,-94.1252656685623,4,1,0,80,0,0
52320,-93.0381419166602,4,1,0,80,0,0
52453,-90.9376122511151,4,1,0,80,0,0
52631,-88.2800313217551,4,1,0,80,0,0
52809,-85.7734448845575,4,1,0,80,0,0
52987,-83.405200814702,4,1,0,80,0,0
53220,-100,4,1,0,80,0,0
57487,-93.0232558139535,4,1,0,80,0,0
57553,-100,4,1,0,80,0,0
57887,-93.0232558139535,4,1,0,80,0,0
57953,-100,4,1,0,80,0,0
58287,-93.0232558139535,4,1,0,80,0,0
58353,-100,4,1,0,80,0,0
58687,-93.0232558139535,4,1,0,80,0,0
58753,-100,4,1,0,80,0,0
59087,-93.0232558139535,4,1,0,80,0,0
59153,-100,4,1,0,80,0,0
59653,-100,4,1,0,80,0,0
59720,-99.6900635922916,4,1,0,80,0,0
59787,-99.3820424599838,4,1,0,80,0,0
59853,-99.0760170648532,4,1,0,80,0,0
59920,-98.7717730027113,4,1,0,80,0,0
59987,-98.4693917742609,4,1,0,80,0,0
60053,-98.1688563230069,4,1,0,80,0,0
60120,-97.8701498000513,4,1,0,80,0,0
60187,-97.5733507664387,4,1,0,80,0,0
60253,-97.2782517930814,4,1,0,80,0,0
60320,-96.9849324208991,4,1,0,80,0,0
60387,-96.6933766003962,4,1,0,80,0,0
60453,-96.4035684744906,4,1,0,80,0,0
60520,-96.1154923756386,4,1,0,80,0,0
60587,-95.8292246553262,4,1,0,80,0,0
60653,-95.5445658072751,4,1,0,80,0,0
60720,-95.2380952380952,4,1,0,80,0,0
60787,-96.3775532823303,4,1,0,80,0,0
60853,-97.5446071488492,4,1,0,80,0,0
60920,-98.740174118423,4,1,0,80,0,0
60987,-99.9655118983951,4,1,0,80,0,0
61053,-101.221644021698,4,1,0,80,0,0
61120,-102.509746114112,4,1,0,80,0,0
61187,-103.831054414741,4,1,0,80,0,0
61253,-105.186759090766,4,1,0,80,0,0
61320,-106.578448132532,4,1,0,80,0,0
61387,-108.00745683482,4,1,0,80,0,0
61453,-109.47530674981,4,1,0,80,0,0
61520,-110.983603282451,4,1,0,80,0,0
61753,-100,4,1,0,70,0,0
61820,-133.333333333333,4,1,0,70,0,0
69520,-131.578947368421,4,1,0,70,0,0
69653,-127.659628791331,4,1,0,70,0,0
69787,-123.966890922772,4,1,0,70,0,0
69987,-118.811834133927,4,1,0,70,0,0
70187,-114.068397692624,4,1,0,70,0,0
70320,-111.111111111111,4,1,0,70,0,0
74320,-111.111111111111,4,1,0,70,0,0
74587,-109.58904109589,4,1,0,70,0,0
74720,-108.843537414966,4,1,0,70,0,0
75120,-106.666666666667,4,1,0,70,0,0
75253,-105.960264900662,4,1,0,70,0,0
75320,-105.610561056106,4,1,0,70,0,0
75387,-105.263157894737,4,1,0,70,0,0
75453,-104.918032786885,4,1,0,70,0,0
75520,-104.575163398693,4,1,0,70,0,0
75587,-104.234527687296,4,1,0,70,0,0
75653,-103.896103896104,4,1,0,70,0,0
75920,-102.564102564103,4,1,0,70,0,0
76320,-100.62893081761,4,1,0,70,0,0
76387,-100.313479623824,4,1,0,70,0,0
76453,-100,4,1,0,70,0,0
76520,-99.6884735202492,4,1,0,70,0,0
76587,-99.3788819875776,4,1,0,70,0,0
76653,-99.0712074303406,4,1,0,70,0,0
76720,-98.7654320987654,4,1,0,70,0,0
77120,-96.969696969697,4,1,0,70,0,0
77520,-95.2380952380952,4,1,0,70,0,0
77787,-117.647058823529,4,1,0,70,0,0
77920,-115.107913669065,4,1,0,70,0,0
78053,-112.676056338028,4,1,0,70,0,0
78187,-110.344827586207,4,1,0,70,0,0
78320,-108.108108108108,4,1,0,70,0,0
78453,-105.960264900662,4,1,0,70,0,0
78587,-103.896103896104,4,1,0,70,0,0
78720,-101.910828025478,4,1,0,70,0,0
78787,-100,4,1,0,80,0,0
78920,-105.263157894737,4,1,0,80,0,0
79031,-105.263157894737,4,1,0,80,0,0
79120,-105.263157894737,4,1,0,80,0,0
79209,-104.942916300678,4,1,0,80,0,0
79298,-104.624726798682,4,1,0,80,0,0
79387,-104.308352178376,4,1,0,80,0,0
79564,-104.308352178376,4,1,0,80,0,0
79653,-103.37081903801,4,1,0,80,0,0
79742,-103.06197116326,4,1,0,80,0,0
79831,-102.755068907549,4,1,0,80,0,0
79920,-102.449884077956,4,1,0,80,0,0
80098,-102.449884077956,4,1,0,80,0,0
80187,-101.545213514043,4,1,0,80,0,0
80275,-101.247265058253,4,1,0,80,0,0
80364,-100.950958024592,4,1,0,80,0,0
80453,-100.656481572818,4,1,0,80,0,0
80631,-100.072552600635,4,1,0,80,0,0
80720,-99.7830716023365,4,1,0,80,0,0
80809,-99.4953595364312,4,1,0,80,0,0
80898,-99.2092034393847,4,1,0,80,0,0
80987,-98.9246886345425,4,1,0,80,0,0
81164,-98.3606234883202,4,1,0,80,0,0
81253,-98.0810443669604,4,1,0,80,0,0
81342,-97.8029544316475,4,1,0,80,0,0
81431,-97.5265320930559,4,1,0,80,0,0
81520,-97.2515732873268,4,1,0,80,0,0
81698,-96.7063743039559,4,1,0,80,0,0
81787,-96.4360142223834,4,1,0,80,0,0
81875,-96.1672540883104,4,1,0,80,0,0
81964,-95.8998958527131,4,1,0,80,0,0
82053,-95.634111539977,4,1,0,80,0,0
82231,-95.1068477881476,4,1,0,80,0,0
82320,-94.8453451801492,4,1,0,80,0,0
82409,-94.5853661304938,4,1,0,80,0,0
82498,-94.3267194581873,4,1,0,80,0,0
82587,-94.0695719740406,4,1,0,80,0,0
82675,-93.8137347060159,4,1,0,80,0,0
82764,-93.5592852444845,4,1,0,80,0,0
82853,-93.3062993881906,4,1,0,80,0,0
82942,-93.0545914065946,4,1,0,80,0,0
83031,-92.804323939061,4,1,0,80,0,0
83120,-92.5553133691522,4,1,0,80,0,0
83209,-92.3077207100679,4,1,0,80,0,0
83298,-92.0613644230698,4,1,0,80,0,0
83387,-91.8164039187241,4,1,0,80,0,0
83431,-91.694327788883,4,1,0,80,0,0
83475,-91.5726597004292,4,1,0,80,0,0
83564,-91.3302061870735,4,1,0,80,0,0
83653,-91.0891161258706,4,1,0,80,0,0
83742,-90.8492130186922,4,1,0,80,0,0
83831,-90.6106523695139,4,1,0,80,0,0
83920,-90.3732596369525,4,1,0,80,0,0
83964,-90.2550698529113,4,1,0,80,0,0
84009,-90.1371888013557,4,1,0,80,0,0
84098,-89.9022672452777,4,1,0,80,0,0
84187,-89.6686474470888,4,1,0,80,0,0
84275,-89.4361586812102,4,1,0,80,0,0
84364,-89.2049519452924,4,1,0,80,0,0
84453,-88.9748583742692,4,1,0,80,0,0
84498,-88.8602956204315,4,1,0,80,0,0
84542,-88.7459487474397,4,1,0,80,0,0
84631,-88.5182923051049,4,1,0,80,0,0
84720,-88.2917229158518,4,1,0,80,0,0
84809,-88.0663879659042,4,1,0,80,0,0
84898,-87.8421231089787,4,1,0,80,0,0
84987,-87.6190743220036,4,1,0,80,0,0
85031,-87.5078975877573,4,1,0,80,0,0
85075,-87.3970790148252,4,1,0,80,0,0
85164,-87.176281774665,4,1,0,80,0,0
85253,-86.9565217391304,4,1,0,80,0,0
85342,-88.3453880615343,4,1,0,80,0,0
85431,-89.7793403373189,4,1,0,80,0,0
85520,-91.2606101866918,4,1,0,80,0,0
85609,-92.7915789786245,4,1,0,80,0,0
85698,-94.3747906059334,4,1,0,80,0,0
85787,-96.0130577758575,4,1,0,80,0,0
85875,-97.7091121563815,4,1,0,80,0,0
85964,-99.4661650919515,4,1,0,80,0,0
86053,-101.287567558808,4,1,0,80,0,0
86142,-103.176920560994,4,1,0,80,0,0
86231,-105.138098892896,4,1,0,80,0,0
86320,-83.3333333333333,4,1,0,80,0,0
87387,266.666666666667,16,1,0,80,1,0
87387,-83.3333333333333,4,1,0,80,0,0
87475,-200,4,1,0,50,0,0
91653,266.666666666667,4,1,0,100,1,1
91653,-100,4,1,0,100,0,1
99653,-95.2380952380952,4,1,0,100,0,1
99831,-88.3022479986296,4,1,0,100,0,1
99920,-85.1998490258675,4,1,0,100,0,1
100098,-79.6060456015272,4,1,0,100,0,1
100187,-77.075865003164,4,1,0,100,0,1
100275,-95.2380952380952,4,1,0,100,0,1
107653,-95.2380952380952,4,1,0,100,0,1
107698,-93.7650903192232,4,1,0,100,0,1
107742,-92.3369560199079,4,1,0,100,0,1
107831,-89.6074209281716,4,1,0,100,0,1
107920,-87.0345501053553,4,1,0,100,0,1
108009,-84.6053035680595,4,1,0,100,0,1
108098,-82.3080493979989,4,1,0,100,0,1
108187,-80.1321860541149,4,1,0,100,0,1
108719,-100,4,1,0,100,0,0
108898,-99.5024875621891,4,1,0,100,0,0
108987,-99.2555831265509,4,1,0,100,0,0
109075,-99.009900990099,4,1,0,100,0,0
109164,-98.7654320987654,4,1,0,100,0,0
109253,-98.5221674876847,4,1,0,100,0,0
109431,-98.0392156862745,4,1,0,100,0,0
109520,-97.799511002445,4,1,0,100,0,0
109609,-97.5609756097561,4,1,0,100,0,0
109698,-97.323600973236,4,1,0,100,0,0
109787,-97.0873786407767,4,1,0,100,0,0
109964,-96.6183574879227,4,1,0,100,0,0
110053,-96.3855421686747,4,1,0,100,0,0
110142,-96.1538461538461,4,1,0,100,0,0
110231,-95.9232613908873,4,1,0,100,0,0
110320,-95.6937799043062,4,1,0,100,0,0
110498,-95.2380952380952,4,1,0,100,0,0
110587,-95.0118764845606,4,1,0,100,0,0
110675,-94.7867298578199,4,1,0,100,0,0
110764,-94.5626477541371,4,1,0,100,0,0
110853,-94.3396226415094,4,1,0,100,0,0
111031,-93.4624860273584,4,1,0,100,0,0
111120,-93.0300058981024,4,1,0,100,0,0
111209,-92.6015097750154,4,1,0,100,0,0
111298,-92.1769428595131,4,1,0,100,0,0
111387,-91.7561671613853,4,1,0,100,0,0
111564,-90.9262015670222,4,1,0,100,0,0
111653,-90.5168239094759,4,1,0,100,0,0
111742,-90.1111160171608,4,1,0,100,0,0
111831,-89.7090287652001,4,1,0,100,0,0
111920,-89.2857142857143,4,1,0,100,0,0
112098,-87.599885769749,4,1,0,100,0,0
112187,-86.7805458843458,4,1,0,100,0,0
112275,-85.976464802525,4,1,0,100,0,0
112364,-85.1871476446606,4,1,0,100,0,0
112453,-84.4121914839916,4,1,0,100,0,0
112542,-83.6512079234424,4,1,0,100,0,0
112587,-83.275803632324,4,1,0,100,0,0
112631,-82.9037537161608,4,1,0,100,0,0
112720,-82.1696062843315,4,1,0,100,0,0
112764,-81.807420423877,4,1,0,100,0,0
112809,-81.4483470872442,4,1,0,100,0,0
112898,-80.7396396912839,4,1,0,100,0,0
112986,-80.0208054094064,4,1,0,100,0,1
113519,-80,4,1,0,100,0,0
113653,-83.3333333333333,4,1,0,100,0,0
113831,-86.9565217391304,4,1,0,100,0,0
114053,-80,4,1,0,100,0,1
114586,-80,4,1,0,100,0,0
114720,-83.3333333333333,4,1,0,100,0,0
114898,-86.9565217391304,4,1,0,100,0,0
115075,-105.263157894737,4,1,0,100,0,0
115120,-105.263157894737,4,1,0,100,0,0
115187,-104.239851729235,4,1,0,100,0,0
115253,-103.236143386744,4,1,0,100,0,0
115320,-102.25168434087,4,1,0,100,0,0
115387,-101.285720941633,4,1,0,100,0,0
115453,-100.337938175776,4,1,0,100,0,0
115520,-99.4076299332279,4,1,0,100,0,0
115587,-98.4945113933526,4,1,0,100,0,0
115653,-97.5980152467619,4,1,0,100,0,0
115720,-96.7175981538545,4,1,0,100,0,0
115787,-95.8530151524446,4,1,0,100,0,0
115853,-95.0036623911852,4,1,0,100,0,0
115920,-94.1693183177216,4,1,0,100,0,0
115987,-93.3494143257745,4,1,0,100,0,0
116053,-92.5437500578398,4,1,0,100,0,0
116120,-91.7518735732584,4,1,0,100,0,0
116187,-90.9733511762399,4,1,0,100,0,0
116409,-80,4,1,0,100,0,0
116675,-71.4285714285714,4,1,0,100,0,0
116942,-60.6060606060606,4,1,0,100,0,0
117253,-33.3333333333333,4,1,0,100,0,1
117287,-12.5,4,1,0,100,0,1
117431,-111.111111111111,4,1,0,100,0,1
119209,-125,4,1,0,100,0,1
120231,-142.857142857143,4,1,0,100,0,1
120453,-142.857142857143,4,1,0,100,0,0
120542,-142.857142857143,4,1,0,30,0,0

[HitObjects]
160,256,2053,5,4,0:0:0:0:
160,128,2320,1,0,0:0:0:0:
160,128,2453,1,0,0:0:0:0:
352,128,2587,1,8,0:0:0:0:
160,128,2853,1,0,0:0:0:0:
352,128,3120,1,8,0:0:0:0:
352,128,3253,1,8,0:0:0:0:
160,128,3387,1,0,0:0:0:0:
352,128,3520,1,8,0:0:0:0:
352,128,3653,1,8,0:0:0:0:
352,128,3787,1,8,0:0:0:0:
160,128,3920,1,0,0:0:0:0:
160,128,4187,1,0,0:0:0:0:
160,128,4453,1,0,0:0:0:0:
160,128,4587,1,0,0:0:0:0:
352,128,4720,1,8,0:0:0:0:
160,128,4987,1,0,0:0:0:0:
352,128,5253,1,8,0:0:0:0:
352,128,5387,1,8,0:0:0:0:
160,128,5520,1,0,0:0:0:0:
352,128,5653,1,8,0:0:0:0:
352,128,5787,1,8,0:0:0:0:
352,128,5920,1,8,0:0:0:0:
160,128,6053,1,0,0:0:0:0:
160,128,6320,1,0,0:0:0:0:
160,128,6453,1,0,0:0:0:0:
352,128,6587,1,8,0:0:0:0:
160,128,6720,1,0,0:0:0:0:
352,128,6787,1,8,0:0:0:0:
160,128,6853,1,0,0:0:0:0:
352,128,6920,1,8,0:0:0:0:
160,128,6987,1,0,0:0:0:0:
160,128,7053,1,0,0:0:0:0:
352,128,7120,1,8,0:0:0:0:
160,128,7253,1,0,0:0:0:0:
352,128,7387,1,8,0:0:0:0:
352,128,7520,1,8,0:0:0:0:
352,128,7587,1,8,0:0:0:0:
352,128,7653,1,8,0:0:0:0:
352,128,7698,1,8,0:0:0:0:
352,128,7742,1,8,0:0:0:0:
160,128,7787,1,0,0:0:0:0:
160,128,7920,1,0,0:0:0:0:
352,128,8053,1,8,0:0:0:0:
160,128,8187,1,0,0:0:0:0:
160,128,8253,1,0,0:0:0:0:
352,128,8320,1,8,0:0:0:0:
352,128,8387,1,8,0:0:0:0:
160,128,8453,1,0,0:0:0:0:
160,128,8587,1,0,0:0:0:0:
352,128,8720,1,8,0:0:0:0:
352,128,8764,1,8,0:0:0:0:
352,128,8809,1,8,0:0:0:0:
160,128,8853,1,0,0:0:0:0:
160,128,8987,1,0,0:0:0:0:
352,128,9120,1,8,0:0:0:0:
160,128,9253,1,0,0:0:0:0:
160,128,9387,1,0,0:0:0:0:
352,128,9520,1,8,0:0:0:0:
352,128,9564,1,8,0:0:0:0:
352,128,9609,1,8,0:0:0:0:
352,128,9653,1,8,0:0:0:0:
352,128,9720,1,8,0:0:0:0:
160,128,9787,1,0,0:0:0:0:
160,128,9920,1,0,0:0:0:0:
352,128,10053,1,8,0:0:0:0:
160,128,10187,1,0,0:0:0:0:
352,128,10253,1,8,0:0:0:0:
160,128,10320,1,0,0:0:0:0:
352,128,10387,1,8,0:0:0:0:
352,128,10453,1,8,0:0:0:0:
160,256,10587,1,4,0:0:0:0:
160,128,10853,1,0,0:0:0:0:
160,128,10987,1,0,0:0:0:0:
352,128,11120,1,8,0:0:0:0:
160,128,11387,1,0,0:0:0:0:
352,128,11653,1,8,0:0:0:0:
352,128,11787,1,8,0:0:0:0:
160,128,11920,1,0,0:0:0:0:
352,128,12053,1,8,0:0:0:0:
352,128,12187,1,8,0:0:0:0:
352,128,12320,1,8,0:0:0:0:
160,128,12453,1,0,0:0:0:0:
160,128,12720,1,0,0:0:0:0:
160,128,12987,1,0,0:0:0:0:
160,128,13120,1,0,0:0:0:0:
352,128,13253,1,8,0:0:0:0:
160,128,13520,1,0,0:0:0:0:
352,128,13787,1,8,0:0:0:0:
352,128,13920,1,8,0:0:0:0:
160,128,14053,1,0,0:0:0:0:
352,128,14187,1,8,0:0:0:0:
352,128,14320,1,8,0:0:0:0:
352,128,14453,1,8,0:0:0:0:
160,128,14587,1,0,0:0:0:0:
352,128,14853,1,8,0:0:0:0:
160,128,14898,1,0,0:0:0:0:
160,128,14942,1,0,0:0:0:0:
352,128,14987,1,8,0:0:0:0:
352,128,15053,1,8,0:0:0:0:
160,128,15120,1,0,0:0:0:0:
160,128,15187,1,0,0:0:0:0:
352,128,15253,1,8,0:0:0:0:
352,128,15298,1,8,0:0:0:0:
352,128,15342,1,8,0:0:0:0:
160,128,15387,1,0,0:0:0:0:
160,128,15453,1,0,0:0:0:0:
352,128,15520,1,8,0:0:0:0:
352,128,15587,1,8,0:0:0:0:
160,128,15653,1,0,0:0:0:0:
160,128,15787,1,0,0:0:0:0:
352,128,15920,1,8,0:0:0:0:
160,128,15965,1,0,0:0:0:0:
160,128,16009,1,0,0:0:0:0:
352,128,16054,1,8,0:0:0:0:
352,128,16120,1,8,0:0:0:0:
160,128,16187,1,0,0:0:0:0:
160,128,16254,1,0,0:0:0:0:
352,128,16320,1,8,0:0:0:0:
352,128,16365,1,8,0:0:0:0:
352,128,16409,1,8,0:0:0:0:
160,128,16454,1,0,0:0:0:0:
160,128,16520,1,0,0:0:0:0:
352,128,16587,1,8,0:0:0:0:
352,128,16654,1,8,0:0:0:0:
160,128,16720,1,0,0:0:0:0:
160,128,16854,1,0,0:0:0:0:
352,128,16987,1,8,0:0:0:0:
352,128,17031,1,8,0:0:0:0:
352,128,17075,1,8,0:0:0:0:
160,128,17120,1,0,0:0:0:0:
352,128,17187,1,8,0:0:0:0:
160,128,17253,1,0,0:0:0:0:
160,128,17320,1,0,0:0:0:0:
352,128,17387,1,8,0:0:0:0:
352,128,17431,1,8,0:0:0:0:
352,128,17475,1,8,0:0:0:0:
160,128,17520,1,0,0:0:0:0:
352,128,17587,1,8,0:0:0:0:
352,128,17653,1,8,0:0:0:0:
160,128,17720,1,0,0:0:0:0:
352,128,17787,1,8,0:0:0:0:
352,128,17831,1,8,0:0:0:0:
352,128,17875,1,8,0:0:0:0:
160,128,17920,1,0,0:0:0:0:
352,128,17987,1,8,0:0:0:0:
160,128,18053,1,0,0:0:0:0:
160,128,18120,1,0,0:0:0:0:
352,128,18187,1,8,0:0:0:0:
352,128,18231,1,8,0:0:0:0:
352,128,18275,1,8,0:0:0:0:
160,128,18320,1,0,0:0:0:0:
160,128,18387,1,0,0:0:0:0:
352,128,18453,1,8,0:0:0:0:
352,128,18520,1,8,0:0:0:0:
160,128,18587,1,0,0:0:0:0:
256,192,18853,12,0,18987,0:0:0:0:
352,256,19120,5,12,0:0:0:0:
352,128,19387,1,8,0:0:0:0:
352,256,19520,1,12,0:0:0:0:
160,128,19653,1,0,0:0:0:0:
160,128,19787,1,0,0:0:0:0:
352,256,19920,1,12,0:0:0:0:
160,128,20187,1,0,0:0:0:0:
352,128,20320,1,12,0:0:0:0:
352,128,20453,1,8,0:0:0:0:
160,128,20520,1,0,0:0:0:0:
256,192,20720,12,0,21120,0:0:0:0:
352,256,21253,5,12,0:0:0:0:
352,128,21520,1,8,0:0:0:0:
352,256,21653,1,12,0:0:0:0:
160,128,21786,1,0,0:0:0:0:
160,128,21920,1,0,0:0:0:0:
352,256,22053,1,12,0:0:0:0:
160,128,22320,1,0,0:0:0:0:
352,128,22453,1,12,0:0:0:0:
352,128,22586,1,8,0:0:0:0:
160,128,22653,1,0,0:0:0:0:
160,128,22853,1,0,0:0:0:0:
352,256,23387,1,12,0:0:0:0:
160,128,23520,1,0,0:0:0:0:
160,128,23653,1,0,0:0:0:0:
352,256,23787,1,12,0:0:0:0:
352,128,23920,1,8,0:0:0:0:
160,128,24053,1,0,0:0:0:0:
352,256,24187,1,12,0:0:0:0:
160,128,24320,1,0,0:0:0:0:
160,128,24453,1,0,0:0:0:0:
352,256,24587,1,12,0:0:0:0:
160,128,24720,1,0,0:0:0:0:
160,128,24787,1,0,0:0:0:0:
352,128,24853,1,8,0:0:0:0:
160,128,24987,1,0,0:0:0:0:
352,128,25053,1,8,0:0:0:0:
160,128,25120,1,0,0:0:0:0:
352,128,25253,1,8,0:0:0:0:
160,128,25387,1,0,0:0:0:0:
352,256,25520,1,12,0:0:0:0:
160,128,25653,1,0,0:0:0:0:
160,128,25786,1,0,0:0:0:0:
352,256,25920,1,12,0:0:0:0:
352,128,26053,1,8,0:0:0:0:
160,128,26186,1,0,0:0:0:0:
352,256,26320,1,12,0:0:0:0:
352,128,26453,1,8,0:0:0:0:
160,128,26587,1,0,0:0:0:0:
160,128,26653,1,0,0:0:0:0:
160,128,26720,1,0,0:0:0:0:
160,128,26787,1,0,0:0:0:0:
160,128,26853,1,0,0:0:0:0:
160,128,26920,1,0,0:0:0:0:
160,128,26987,1,0,0:0:0:0:
160,128,27053,1,0,0:0:0:0:
352,128,27120,1,8,0:0:0:0:
352,128,27253,1,8,0:0:0:0:
352,128,27387,1,8,0:0:0:0:
352,128,27453,1,8,0:0:0:0:
352,128,27520,1,8,0:0:0:0:
160,256,27653,1,4,0:0:0:0:
352,128,27787,1,8,0:0:0:0:
160,128,27920,1,0,0:0:0:0:
352,128,28053,1,8,0:0:0:0:
160,128,28187,1,0,0:0:0:0:
352,128,28320,1,8,0:0:0:0:
160,128,28453,1,0,0:0:0:0:
352,128,28587,1,8,0:0:0:0:
160,128,28720,1,0,0:0:0:0:
352,128,28853,1,8,0:0:0:0:
352,128,28987,1,8,0:0:0:0:
352,128,29120,1,8,0:0:0:0:
160,128,29253,1,0,0:0:0:0:
352,128,29387,1,8,0:0:0:0:
352,128,29520,1,8,0:0:0:0:
352,128,29653,1,8,0:0:0:0:
160,128,29787,1,0,0:0:0:0:
352,128,29920,1,8,0:0:0:0:
160,128,30054,1,0,0:0:0:0:
352,128,30187,1,8,0:0:0:0:
160,128,30320,1,0,0:0:0:0:
352,128,30454,1,8,0:0:0:0:
160,128,30587,1,0,0:0:0:0:
352,128,30720,1,8,0:0:0:0:
160,128,30853,1,0,0:0:0:0:
160,128,30986,1,0,0:0:0:0:
352,128,31120,1,8,0:0:0:0:
352,128,31253,1,8,0:0:0:0:
160,128,31386,1,0,0:0:0:0:
160,128,31520,1,0,0:0:0:0:
352,128,31653,1,8,0:0:0:0:
352,128,31786,1,8,0:0:0:0:
160,128,31920,1,0,0:0:0:0:
352,128,32053,1,8,0:0:0:0:
160,128,32187,1,0,0:0:0:0:
352,128,32320,1,8,0:0:0:0:
160,128,32453,1,0,0:0:0:0:
352,128,32587,1,8,0:0:0:0:
160,128,32720,1,0,0:0:0:0:
352,128,32853,1,8,0:0:0:0:
160,128,32987,1,0,0:0:0:0:
352,128,33120,1,8,0:0:0:0:
352,128,33253,1,8,0:0:0:0:
352,128,33387,1,8,0:0:0:0:
160,128,33520,1,0,0:0:0:0:
160,128,33653,1,0,0:0:0:0:
352,128,33787,1,8,0:0:0:0:
352,128,33853,1,8,0:0:0:0:
352,128,33920,1,8,0:0:0:0:
352,128,33987,1,8,0:0:0:0:
160,128,34053,1,0,0:0:0:0:
160,128,34187,1,0,0:0:0:0:
352,128,34320,1,8,0:0:0:0:
352,128,34364,1,8,0:0:0:0:
352,128,34409,1,8,0:0:0:0:
352,128,34453,1,8,0:0:0:0:
352,128,34520,1,8,0:0:0:0:
160,128,34587,1,0,0:0:0:0:
160,128,34720,1,0,0:0:0:0:
352,128,34853,1,8,0:0:0:0:
352,128,34987,1,8,0:0:0:0:
160,128,35120,1,0,0:0:0:0:
160,128,35164,1,0,0:0:0:0:
160,128,35209,1,0,0:0:0:0:
352,128,35253,1,8,0:0:0:0:
352,128,35320,1,8,0:0:0:0:
160,128,35387,1,0,0:0:0:0:
160,128,35453,1,0,0:0:0:0:
352,128,35520,1,8,0:0:0:0:
352,128,35564,1,8,0:0:0:0:
352,128,35609,1,8,0:0:0:0:
160,128,35653,1,0,0:0:0:0:
352,128,35720,1,8,0:0:0:0:
352,128,35787,1,8,0:0:0:0:
352,128,35853,1,8,0:0:0:0:
160,128,35920,1,0,0:0:0:0:
352,128,36053,1,8,0:0:0:0:
160,256,36187,1,4,0:0:0:0:
160,128,36320,1,0,0:0:0:0:
160,128,36387,1,0,0:0:0:0:
352,128,36453,1,8,0:0:0:0:
352,128,36587,1,8,0:0:0:0:
160,128,36720,1,0,0:0:0:0:
352,128,36853,1,8,0:0:0:0:
352,128,36920,1,8,0:0:0:0:
160,128,36987,1,0,0:0:0:0:
160,128,37120,1,0,0:0:0:0:
352,128,37253,1,8,0:0:0:0:
160,128,37387,1,0,0:0:0:0:
160,128,37453,1,0,0:0:0:0:
352,128,37520,1,8,0:0:0:0:
352,128,37564,1,8,0:0:0:0:
352,128,37609,1,8,0:0:0:0:
160,128,37653,1,0,0:0:0:0:
160,128,37787,1,0,0:0:0:0:
352,128,37920,1,8,0:0:0:0:
160,128,38053,1,0,0:0:0:0:
352,128,38120,1,8,0:0:0:0:
160,128,38187,1,0,0:0:0:0:
352,128,38253,1,8,0:0:0:0:
160,128,38320,1,0,0:0:0:0:
160,128,38453,1,0,0:0:0:0:
352,128,38587,1,8,0:0:0:0:
352,128,38631,1,8,0:0:0:0:
352,128,38675,1,8,0:0:0:0:
160,128,38720,1,0,0:0:0:0:
160,128,38853,1,0,0:0:0:0:
352,128,38987,1,8,0:0:0:0:
352,128,39053,1,8,0:0:0:0:
160,128,39120,1,0,0:0:0:0:
160,128,39253,1,0,0:0:0:0:
352,128,39387,1,8,0:0:0:0:
352,128,39431,1,8,0:0:0:0:
352,128,39475,1,8,0:0:0:0:
352,128,39520,1,8,0:0:0:0:
352,128,39587,1,8,0:0:0:0:
160,128,39653,1,0,0:0:0:0:
160,128,39787,1,0,0:0:0:0:
352,128,39920,1,8,0:0:0:0:
160,128,39987,1,0,0:0:0:0:
160,128,40053,1,0,0:0:0:0:
352,128,40120,1,8,0:0:0:0:
160,128,40187,1,0,0:0:0:0:
352,128,40275,1,8,0:0:0:0:
352,128,40364,1,8,0:0:0:0:
160,128,40453,1,0,0:0:0:0:
160,128,40587,1,0,0:0:0:0:
352,128,40720,1,8,0:0:0:0:
160,128,40853,1,0,0:0:0:0:
352,128,40920,1,8,0:0:0:0:
160,128,40987,1,0,0:0:0:0:
352,128,41120,1,8,0:0:0:0:
160,128,41253,1,0,0:0:0:0:
160,128,41387,1,0,0:0:0:0:
352,128,41520,1,8,0:0:0:0:
160,128,41653,1,0,0:0:0:0:
160,128,41720,1,0,0:0:0:0:
352,128,41787,1,8,0:0:0:0:
352,128,41831,1,8,0:0:0:0:
352,128,41875,1,8,0:0:0:0:
160,128,41920,1,0,0:0:0:0:
352,128,42053,1,8,0:0:0:0:
160,128,42187,1,0,0:0:0:0:
352,128,42320,1,8,0:0:0:0:
160,128,42387,1,0,0:0:0:0:
352,128,42453,1,8,0:0:0:0:
352,128,42520,1,8,0:0:0:0:
160,128,42587,1,0,0:0:0:0:
352,128,42653,1,8,0:0:0:0:
160,128,42720,1,0,0:0:0:0:
352,128,42853,1,8,0:0:0:0:
352,128,42898,1,8,0:0:0:0:
352,128,42942,1,8,0:0:0:0:
160,128,42987,1,0,0:0:0:0:
352,128,43120,1,8,0:0:0:0:
160,128,43253,1,0,0:0:0:0:
160,128,43320,1,0,0:0:0:0:
352,128,43387,1,8,0:0:0:0:
352,128,43453,1,8,0:0:0:0:
160,128,43520,1,0,0:0:0:0:
160,128,43587,1,0,0:0:0:0:
352,256,43653,1,12,0:0:0:0:
160,128,43787,1,0,0:0:0:0:
160,128,43920,1,0,0:0:0:0:
352,256,44053,1,12,0:0:0:0:
160,128,44187,1,0,0:0:0:0:
352,128,44320,1,8,0:0:0:0:
160,256,44453,1,4,0:0:0:0:
160,256,44587,1,4,0:0:0:0:
352,128,44987,1,8,0:0:0:0:
352,128,45053,1,8,0:0:0:0:
352,128,45120,1,8,0:0:0:0:
352,128,45187,1,8,0:0:0:0:
160,128,45253,1,0,0:0:0:0:
160,128,45387,1,0,0:0:0:0:
352,256,45520,1,12,0:0:0:0:
160,128,45653,1,0,0:0:0:0:
160,128,45720,1,0,0:0:0:0:
352,128,45787,1,8,0:0:0:0:
160,128,45920,1,0,0:0:0:0:
160,128,45987,1,0,0:0:0:0:
352,128,46053,1,8,0:0:0:0:
352,128,46098,1,8,0:0:0:0:
352,128,46142,1,8,0:0:0:0:
160,128,46187,1,0,0:0:0:0:
352,128,46320,1,8,0:0:0:0:
160,128,46453,1,0,0:0:0:0:
352,128,46587,1,8,0:0:0:0:
352,128,46653,1,8,0:0:0:0:
160,128,46720,1,0,0:0:0:0:
352,128,46853,1,8,0:0:0:0:
160,128,46987,1,0,0:0:0:0:
160,128,47053,1,0,0:0:0:0:
352,128,47120,1,8,0:0:0:0:
352,128,47164,1,8,0:0:0:0:
352,128,47209,1,8,0:0:0:0:
160,128,47253,1,0,0:0:0:0:
352,128,47387,1,8,0:0:0:0:
352,128,47453,1,8,0:0:0:0:
160,128,47520,1,0,0:0:0:0:
160,128,47587,1,0,0:0:0:0:
352,128,47653,1,8,0:0:0:0:
160,128,47787,1,0,0:0:0:0:
352,128,47920,1,8,0:0:0:0:
352,128,47964,1,8,0:0:0:0:
352,128,48009,1,8,0:0:0:0:
160,128,48053,1,0,0:0:0:0:
352,128,48187,1,8,0:0:0:0:
160,128,48320,1,0,0:0:0:0:
352,128,48453,1,8,0:0:0:0:
352,128,48520,1,8,0:0:0:0:
160,128,48587,1,0,0:0:0:0:
160,128,48653,1,0,0:0:0:0:
352,128,48720,1,8,0:0:0:0:
352,128,48853,1,8,0:0:0:0:
352,128,48920,1,8,0:0:0:0:
160,128,48987,1,0,0:0:0:0:
160,128,49120,1,0,0:0:0:0:
160,128,49187,1,0,0:0:0:0:
352,128,49253,1,8,0:0:0:0:
160,128,49387,1,0,0:0:0:0:
160,128,49453,1,0,0:0:0:0:
352,128,49520,1,8,0:0:0:0:
352,128,49587,1,8,0:0:0:0:
160,128,49653,1,0,0:0:0:0:
352,128,49787,1,8,0:0:0:0:
160,128,49920,1,0,0:0:0:0:
352,128,50053,1,8,0:0:0:0:
160,128,50187,1,0,0:0:0:0:
160,128,50253,1,0,0:0:0:0:
352,128,50320,1,8,0:0:0:0:
352,128,50364,1,8,0:0:0:0:
352,128,50409,1,8,0:0:0:0:
160,128,50453,1,0,0:0:0:0:
352,128,50587,1,8,0:0:0:0:
160,128,50720,1,0,0:0:0:0:
352,128,50853,1,8,0:0:0:0:
352,128,50920,1,8,0:0:0:0:
352,128,50987,1,8,0:0:0:0:
352,128,51053,1,8,0:0:0:0:
160,128,51120,1,0,0:0:0:0:
160,128,51187,1,0,0:0:0:0:
160,128,51253,1,0,0:0:0:0:
352,128,51387,1,8,0:0:0:0:
352,128,51431,1,8,0:0:0:0:
352,128,51475,1,8,0:0:0:0:
352,128,51520,1,8,0:0:0:0:
352,128,51587,1,8,0:0:0:0:
160,128,51653,1,0,0:0:0:0:
160,128,51720,1,0,0:0:0:0:
160,128,51787,1,0,0:0:0:0:
352,128,51920,1,8,0:0:0:0:
352,128,51964,1,8,0:0:0:0:
352,128,52009,1,8,0:0:0:0:
160,128,52053,1,0,0:0:0:0:
160,128,52120,1,0,0:0:0:0:
352,128,52187,1,8,0:0:0:0:
352,128,52253,1,8,0:0:0:0:
352,128,52320,1,8,0:0:0:0:
352,128,52453,1,8,0:0:0:0:
352,128,52631,1,8,0:0:0:0:
352,128,52809,1,8,0:0:0:0:
352,256,52987,1,12,0:0:0:0:
160,256,53253,1,4,0:0:0:0:
160,128,53387,1,0,0:0:0:0:
160,128,53453,1,0,0:0:0:0:
352,128,53520,1,8,0:0:0:0:
160,128,53653,1,0,0:0:0:0:
160,128,53720,1,0,0:0:0:0:
352,128,53787,1,8,0:0:0:0:
352,128,53853,1,8,0:0:0:0:
160,128,53920,1,0,0:0:0:0:
352,128,54053,1,8,0:0:0:0:
160,128,54187,1,0,0:0:0:0:
352,128,54320,1,8,0:0:0:0:
160,128,54453,1,0,0:0:0:0:
160,128,54520,1,0,0:0:0:0:
352,128,54587,1,8,0:0:0:0:
352,128,54631,1,8,0:0:0:0:
352,128,54675,1,8,0:0:0:0:
160,128,54720,1,0,0:0:0:0:
352,128,54853,1,8,0:0:0:0:
160,128,54987,1,0,0:0:0:0:
352,128,55120,1,8,0:0:0:0:
160,128,55187,1,0,0:0:0:0:
352,128,55253,1,8,0:0:0:0:
352,128,55320,1,8,0:0:0:0:
160,128,55387,1,0,0:0:0:0:
160,128,55520,1,0,0:0:0:0:
352,128,55653,1,8,0:0:0:0:
352,128,55698,1,8,0:0:0:0:
352,128,55742,1,8,0:0:0:0:
160,128,55787,1,0,0:0:0:0:
352,128,55920,1,8,0:0:0:0:
160,128,56053,1,0,0:0:0:0:
160,128,56120,1,0,0:0:0:0:
352,128,56187,1,8,0:0:0:0:
160,128,56320,1,0,0:0:0:0:
352,128,56453,1,8,0:0:0:0:
352,128,56498,1,8,0:0:0:0:
352,128,56542,1,8,0:0:0:0:
160,128,56587,1,0,0:0:0:0:
160,128,56653,1,0,0:0:0:0:
352,128,56720,1,8,0:0:0:0:
160,128,56853,1,0,0:0:0:0:
160,128,56920,1,0,0:0:0:0:
352,128,56987,1,8,0:0:0:0:
352,128,57053,1,8,0:0:0:0:
160,128,57120,1,0,0:0:0:0:
352,128,57253,1,8,0:0:0:0:
352,128,57320,1,8,0:0:0:0:
352,128,57387,1,8,0:0:0:0:
352,128,57453,1,8,0:0:0:0:
160,256,57520,1,4,0:0:0:0:
160,128,57653,1,0,0:0:0:0:
160,128,57720,1,0,0:0:0:0:
352,128,57787,1,8,0:0:0:0:
160,256,57920,1,4,0:0:0:0:
160,128,58053,1,0,0:0:0:0:
160,128,58120,1,0,0:0:0:0:
352,128,58187,1,8,0:0:0:0:
160,256,58320,1,4,0:0:0:0:
160,128,58453,1,0,0:0:0:0:
160,128,58520,1,0,0:0:0:0:
352,128,58587,1,8,0:0:0:0:
160,256,58720,1,4,0:0:0:0:
160,128,58853,1,0,0:0:0:0:
160,128,58920,1,0,0:0:0:0:
352,128,58987,1,8,0:0:0:0:
160,256,59120,1,4,0:0:0:0:
160,128,59253,1,0,0:0:0:0:
352,128,59387,1,8,0:0:0:0:
352,128,59653,1,8,0:0:0:0:
352,128,59720,1,8,0:0:0:0:
160,128,59787,1,0,0:0:0:0:
160,128,59853,1,0,0:0:0:0:
352,128,59920,1,8,0:0:0:0:
352,128,59987,1,8,0:0:0:0:
160,128,60053,1,0,0:0:0:0:
160,128,60120,1,0,0:0:0:0:
352,128,60187,1,8,0:0:0:0:
160,128,60253,1,0,0:0:0:0:
352,128,60320,1,8,0:0:0:0:
352,128,60387,1,8,0:0:0:0:
160,128,60453,1,0,0:0:0:0:
352,128,60520,1,8,0:0:0:0:
352,128,60587,1,8,0:0:0:0:
352,128,60653,1,8,0:0:0:0:
160,128,60720,1,0,0:0:0:0:
160,128,60787,1,0,0:0:0:0:
160,128,60853,1,0,0:0:0:0:
160,128,60920,1,0,0:0:0:0:
352,128,60987,1,8,0:0:0:0:
352,128,61053,1,8,0:0:0:0:
160,128,61120,1,0,0:0:0:0:
160,128,61187,1,0,0:0:0:0:
352,128,61253,1,8,0:0:0:0:
352,128,61320,1,8,0:0:0:0:
352,128,61387,1,8,0:0:0:0:
352,128,61453,1,8,0:0:0:0:
160,128,61520,1,0,0:0:0:0:
160,256,61787,1,4,0:0:0:0:
352,128,62320,1,8,0:0:0:0:
160,128,62853,1,0,0:0:0:0:
352,128,63387,1,8,0:0:0:0:
160,128,63920,1,0,0:0:0:0:
160,128,65787,1,0,0:0:0:0:
160,128,65920,1,0,0:0:0:0:
352,128,66053,1,8,0:0:0:0:
352,128,68187,1,8,0:0:0:0:
160,128,69520,1,0,0:0:0:0:
160,128,69653,1,0,0:0:0:0:
352,128,69787,1,8,0:0:0:0:
352,128,69987,1,8,0:0:0:0:
352,128,70187,1,8,0:0:0:0:
160,256,70320,1,4,0:0:0:0:
352,128,70853,1,8,0:0:0:0:
160,128,71120,1,0,0:0:0:0:
160,128,71187,1,0,0:0:0:0:
352,128,71253,1,8,0:0:0:0:
352,128,71320,1,2,0:0:0:0:
352,128,71387,1,8,0:0:0:0:
352,256,71653,1,12,0:0:0:0:
160,256,71787,1,4,0:0:0:0:
352,256,72320,1,12,0:0:0:0:
160,256,72587,1,4,0:0:0:0:
160,128,73120,1,0,0:0:0:0:
352,256,73253,1,12,0:0:0:0:
160,256,73387,1,4,0:0:0:0:
352,128,73520,1,8,0:0:0:0:
352,256,73920,1,12,0:0:0:0:
160,256,74320,1,4,0:0:0:0:
352,128,74587,1,8,0:0:0:0:
352,256,74720,1,12,0:0:0:0:
160,256,75120,1,4,0:0:0:0:
352,128,75253,1,8,0:0:0:0:
352,128,75320,1,8,0:0:0:0:
160,128,75387,1,0,0:0:0:0:
352,256,75520,1,12,0:0:0:0:
352,128,75653,1,8,0:0:0:0:
160,256,75920,1,4,0:0:0:0:
352,256,76320,1,12,0:0:0:0:
160,128,76453,1,0,0:0:0:0:
160,128,76520,1,0,0:0:0:0:
352,128,76587,1,8,0:0:0:0:
160,256,76720,1,4,0:0:0:0:
352,256,77120,1,12,0:0:0:0:
160,256,77520,1,4,0:0:0:0:
352,128,77787,1,8,0:0:0:0:
160,128,77920,1,0,0:0:0:0:
160,128,78053,1,0,0:0:0:0:
352,128,78187,1,8,0:0:0:0:
352,128,78320,1,8,0:0:0:0:
160,128,78453,1,0,0:0:0:0:
352,128,78587,1,8,0:0:0:0:
352,128,78720,1,8,0:0:0:0:
160,256,78853,1,4,0:0:0:0:
160,128,79031,1,0,0:0:0:0:
352,128,79120,1,8,0:0:0:0:
352,128,79209,1,8,0:0:0:0:
160,128,79298,1,0,0:0:0:0:
160,128,79387,1,0,0:0:0:0:
160,128,79564,1,0,0:0:0:0:
352,128,79653,1,8,0:0:0:0:
160,128,79742,1,0,0:0:0:0:
160,128,79831,1,0,0:0:0:0:
352,128,79920,1,8,0:0:0:0:
160,128,80098,1,0,0:0:0:0:
352,128,80187,1,8,0:0:0:0:
160,128,80275,1,0,0:0:0:0:
352,128,80364,1,8,0:0:0:0:
160,128,80453,1,0,0:0:0:0:
160,128,80631,1,0,0:0:0:0:
352,128,80720,1,8,0:0:0:0:
352,128,80809,1,8,0:0:0:0:
160,128,80898,1,0,0:0:0:0:
352,128,80987,1,8,0:0:0:0:
160,128,81164,1,0,0:0:0:0:
352,128,81253,1,8,0:0:0:0:
352,128,81342,1,8,0:0:0:0:
352,128,81431,1,8,0:0:0:0:
160,128,81520,1,0,0:0:0:0:
352,128,81698,1,8,0:0:0:0:
160,128,81787,1,0,0:0:0:0:
160,128,81875,1,0,0:0:0:0:
352,128,81964,1,8,0:0:0:0:
352,128,82053,1,8,0:0:0:0:
160,128,82231,1,0,0:0:0:0:
352,128,82320,1,8,0:0:0:0:
352,128,82409,1,8,0:0:0:0:
352,128,82498,1,8,0:0:0:0:
160,128,82587,1,0,0:0:0:0:
352,128,82675,1,8,0:0:0:0:
352,128,82764,1,8,0:0:0:0:
160,128,82853,1,0,0:0:0:0:
352,128,82942,1,8,0:0:0:0:
352,128,83031,1,8,0:0:0:0:
160,128,83120,1,0,0:0:0:0:
160,128,83209,1,0,0:0:0:0:
160,128,83298,1,0,0:0:0:0:
352,128,83387,1,8,0:0:0:0:
352,128,83431,1,8,0:0:0:0:
352,128,83475,1,8,0:0:0:0:
352,128,83564,1,8,0:0:0:0:
160,128,83653,1,0,0:0:0:0:
160,128,83742,1,0,0:0:0:0:
160,128,83831,1,0,0:0:0:0:
352,128,83920,1,8,0:0:0:0:
352,128,83964,1,8,0:0:0:0:
352,128,84009,1,8,0:0:0:0:
352,128,84098,1,8,0:0:0:0:
160,128,84187,1,0,0:0:0:0:
160,128,84275,1,0,0:0:0:0:
160,128,84364,1,0,0:0:0:0:
352,128,84453,1,8,0:0:0:0:
352,128,84498,1,8,0:0:0:0:
352,128,84542,1,8,0:0:0:0:
352,128,84631,1,8,0:0:0:0:
160,128,84720,1,0,0:0:0:0:
160,128,84809,1,0,0:0:0:0:
160,128,84898,1,0,0:0:0:0:
352,128,84987,1,8,0:0:0:0:
352,128,85031,1,8,0:0:0:0:
352,128,85075,1,8,0:0:0:0:
352,128,85164,1,8,0:0:0:0:
160,128,85253,1,0,0:0:0:0:
160,128,85342,1,0,0:0:0:0:
160,128,85431,1,0,0:0:0:0:
352,128,85520,1,8,0:0:0:0:
160,128,85609,1,0,0:0:0:0:
160,128,85698,1,0,0:0:0:0:
352,128,85787,1,8,0:0:0:0:
352,128,85875,1,8,0:0:0:0:
160,128,85964,1,0,0:0:0:0:
352,128,86053,1,8,0:0:0:0:
352,128,86142,1,8,0:0:0:0:
160,128,86231,1,0,0:0:0:0:
256,160,86320,2,0,L|288:224,12,55.9999982910157
352,128,89520,1,8,0:0:0:0:
352,128,89920,1,8,0:0:0:0:
352,128,90187,1,8,0:0:0:0:
352,128,90320,1,8,0:0:0:0:
352,128,90720,1,8,0:0:0:0:
352,128,90853,1,8,0:0:0:0:
352,128,90987,1,8,0:0:0:0:
160,256,91653,1,4,0:0:0:0:
160,128,91831,1,0,0:0:0:0:
352,128,91920,1,8,0:0:0:0:
160,128,92009,1,0,0:0:0:0:
160,128,92098,1,0,0:0:0:0:
352,128,92187,1,8,0:0:0:0:
160,128,92364,1,0,0:0:0:0:
352,128,92453,1,8,0:0:0:0:
352,128,92631,1,8,0:0:0:0:
160,128,92720,1,0,0:0:0:0:
160,128,92898,1,0,0:0:0:0:
352,128,92987,1,8,0:0:0:0:
160,128,93075,1,0,0:0:0:0:
352,128,93164,1,8,0:0:0:0:
352,128,93253,1,8,0:0:0:0:
160,128,93342,1,0,0:0:0:0:
160,128,93431,1,0,0:0:0:0:
352,128,93520,1,8,0:0:0:0:
352,128,93698,1,8,0:0:0:0:
160,128,93787,1,0,0:0:0:0:
160,128,93964,1,0,0:0:0:0:
352,128,94053,1,8,0:0:0:0:
160,128,94142,1,0,0:0:0:0:
160,128,94231,1,0,0:0:0:0:
352,128,94320,1,8,0:0:0:0:
160,128,94498,1,0,0:0:0:0:
352,128,94587,1,8,0:0:0:0:
352,128,94764,1,8,0:0:0:0:
160,128,94853,1,0,0:0:0:0:
160,128,95031,1,0,0:0:0:0:
352,128,95120,1,8,0:0:0:0:
160,128,95209,1,0,0:0:0:0:
352,128,95298,1,8,0:0:0:0:
352,128,95387,1,8,0:0:0:0:
160,128,95475,1,0,0:0:0:0:
160,128,95564,1,0,0:0:0:0:
352,128,95653,1,8,0:0:0:0:
352,128,95831,1,8,0:0:0:0:
160,128,95920,1,0,0:0:0:0:
160,128,96098,1,0,0:0:0:0:
352,128,96187,1,8,0:0:0:0:
160,128,96275,1,0,0:0:0:0:
160,128,96364,1,0,0:0:0:0:
352,128,96453,1,8,0:0:0:0:
160,128,96631,1,0,0:0:0:0:
352,128,96720,1,8,0:0:0:0:
352,128,96898,1,8,0:0:0:0:
160,128,96987,1,0,0:0:0:0:
160,128,97164,1,0,0:0:0:0:
352,128,97253,1,8,0:0:0:0:
160,128,97342,1,0,0:0:0:0:
352,128,97431,1,8,0:0:0:0:
352,128,97520,1,8,0:0:0:0:
160,128,97609,1,0,0:0:0:0:
352,128,97698,1,8,0:0:0:0:
352,128,97787,1,8,0:0:0:0:
160,128,97964,1,0,0:0:0:0:
352,128,98053,1,8,0:0:0:0:
352,128,98142,1,8,0:0:0:0:
352,128,98231,1,8,0:0:0:0:
160,128,98320,1,0,0:0:0:0:
160,128,98409,1,0,0:0:0:0:
160,128,98498,1,0,0:0:0:0:
352,128,98587,1,8,0:0:0:0:
160,128,98675,1,0,0:0:0:0:
352,128,98764,1,8,0:0:0:0:
160,128,98853,1,0,0:0:0:0:
160,128,98942,1,0,0:0:0:0:
352,128,99031,1,8,0:0:0:0:
160,128,99120,1,0,0:0:0:0:
160,128,99164,1,0,0:0:0:0:
160,128,99209,1,0,0:0:0:0:
160,128,99298,1,0,0:0:0:0:
352,128,99387,1,8,0:0:0:0:
160,128,99475,1,0,0:0:0:0:
160,128,99564,1,0,0:0:0:0:
352,256,99653,1,12,0:0:0:0:
352,128,99831,1,8,0:0:0:0:
160,256,99920,1,4,0:0:0:0:
160,128,100098,1,0,0:0:0:0:
352,256,100187,1,12,0:0:0:0:
160,128,100364,1,0,0:0:0:0:
352,128,100453,1,8,0:0:0:0:
352,128,100542,1,8,0:0:0:0:
160,128,100631,1,0,0:0:0:0:
352,128,100720,1,8,0:0:0:0:
160,128,100809,1,0,0:0:0:0:
160,128,100898,1,0,0:0:0:0:
352,128,100987,1,8,0:0:0:0:
160,128,101164,1,0,0:0:0:0:
352,128,101253,1,8,0:0:0:0:
160,128,101431,1,0,0:0:0:0:
352,128,101520,1,8,0:0:0:0:
160,128,101609,1,0,0:0:0:0:
352,128,101698,1,8,0:0:0:0:
352,128,101787,1,8,0:0:0:0:
160,128,101875,1,0,0:0:0:0:
160,128,101964,1,0,0:0:0:0:
352,128,102053,1,8,0:0:0:0:
352,128,102231,1,8,0:0:0:0:
160,128,102320,1,0,0:0:0:0:
160,128,102498,1,0,0:0:0:0:
352,128,102587,1,8,0:0:0:0:
352,128,102675,1,8,0:0:0:0:
160,128,102764,1,0,0:0:0:0:
352,128,102853,1,8,0:0:0:0:
160,128,102942,1,0,0:0:0:0:
160,128,103031,1,0,0:0:0:0:
352,128,103120,1,8,0:0:0:0:
160,128,103298,1,0,0:0:0:0:
352,128,103387,1,8,0:0:0:0:
160,128,103564,1,0,0:0:0:0:
352,128,103653,1,8,0:0:0:0:
160,128,103742,1,0,0:0:0:0:
352,128,103831,1,8,0:0:0:0:
352,128,103920,1,8,0:0:0:0:
160,128,104009,1,0,0:0:0:0:
160,128,104098,1,0,0:0:0:0:
352,128,104187,1,8,0:0:0:0:
352,128,104364,1,8,0:0:0:0:
160,128,104453,1,0,0:0:0:0:
160,128,104631,1,0,0:0:0:0:
352,128,104720,1,8,0:0:0:0:
352,128,104809,1,8,0:0:0:0:
160,128,104898,1,0,0:0:0:0:
352,128,104987,1,8,0:0:0:0:
160,128,105075,1,0,0:0:0:0:
160,128,105164,1,0,0:0:0:0:
352,128,105253,1,8,0:0:0:0:
160,128,105431,1,0,0:0:0:0:
352,128,105520,1,8,0:0:0:0:
160,128,105698,1,0,0:0:0:0:
352,128,105787,1,8,0:0:0:0:
160,128,105875,1,0,0:0:0:0:
352,128,105964,1,8,0:0:0:0:
352,128,106053,1,8,0:0:0:0:
160,128,106142,1,0,0:0:0:0:
352,128,106231,1,8,0:0:0:0:
352,128,106320,1,8,0:0:0:0:
160,128,106498,1,0,0:0:0:0:
352,128,106587,1,8,0:0:0:0:
352,128,106675,1,8,0:0:0:0:
352,128,106764,1,8,0:0:0:0:
160,128,106853,1,0,0:0:0:0:
160,128,106942,1,0,0:0:0:0:
160,128,107031,1,0,0:0:0:0:
352,128,107120,1,8,0:0:0:0:
160,128,107209,1,0,0:0:0:0:
352,128,107298,1,8,0:0:0:0:
352,128,107387,1,8,0:0:0:0:
160,128,107475,1,0,0:0:0:0:
352,128,107564,1,8,0:0:0:0:
160,128,107653,1,0,0:0:0:0:
160,128,107698,1,0,0:0:0:0:
160,128,107742,1,0,0:0:0:0:
160,128,107831,1,0,0:0:0:0:
352,128,107920,1,8,0:0:0:0:
352,128,108009,1,8,0:0:0:0:
160,128,108098,1,0,0:0:0:0:
352,256,108187,1,12,0:0:0:0:
160,256,108719,1,4,0:0:0:0:
160,128,108898,1,0,0:0:0:0:
352,128,108987,1,8,0:0:0:0:
352,128,109075,1,8,0:0:0:0:
352,128,109164,1,8,0:0:0:0:
160,256,109253,1,4,0:0:0:0:
352,128,109431,1,8,0:0:0:0:
352,128,109520,1,8,0:0:0:0:
160,128,109609,1,0,0:0:0:0:
160,128,109698,1,0,0:0:0:0:
352,256,109787,1,12,0:0:0:0:
352,128,109964,1,8,0:0:0:0:
160,128,110053,1,0,0:0:0:0:
352,128,110142,1,8,0:0:0:0:
352,128,110231,1,8,0:0:0:0:
160,256,110320,1,4,0:0:0:0:
160,128,110498,1,0,0:0:0:0:
352,128,110587,1,8,0:0:0:0:
160,128,110675,1,0,0:0:0:0:
160,128,110764,1,0,0:0:0:0:
352,256,110853,1,12,0:0:0:0:
352,128,111031,1,8,0:0:0:0:
352,128,111120,1,8,0:0:0:0:
160,128,111209,1,0,0:0:0:0:
352,128,111298,1,8,0:0:0:0:
160,256,111387,1,4,0:0:0:0:
160,128,111564,1,0,0:0:0:0:
352,128,111653,1,8,0:0:0:0:
352,128,111742,1,8,0:0:0:0:
160,128,111831,1,0,0:0:0:0:
352,256,111920,1,12,0:0:0:0:
160,128,112098,1,0,0:0:0:0:
352,128,112187,1,8,0:0:0:0:
352,128,112275,1,8,0:0:0:0:
352,128,112364,1,8,0:0:0:0:
160,128,112453,1,0,0:0:0:0:
352,128,112542,1,8,0:0:0:0:
352,128,112587,1,8,0:0:0:0:
160,128,112631,1,0,0:0:0:0:
352,128,112720,1,8,0:0:0:0:
352,128,112764,1,8,0:0:0:0:
160,128,112809,1,0,0:0:0:0:
160,128,112898,1,0,0:0:0:0:
352,128,112986,1,8,0:0:0:0:
352,128,113031,1,8,0:0:0:0:
352,128,113075,1,8,0:0:0:0:
352,128,113120,1,8,0:0:0:0:
352,128,113187,1,8,0:0:0:0:
352,128,113253,1,8,0:0:0:0:
352,128,113298,1,8,0:0:0:0:
352,128,113342,1,8,0:0:0:0:
352,128,113387,1,8,0:0:0:0:
352,128,113453,1,8,0:0:0:0:
160,128,113519,1,0,0:0:0:0:
352,256,113698,1,12,0:0:0:0:
160,256,113875,1,4,0:0:0:0:
352,128,114053,1,8,0:0:0:0:
352,128,114098,1,8,0:0:0:0:
352,128,114142,1,8,0:0:0:0:
352,128,114187,1,8,0:0:0:0:
352,128,114253,1,8,0:0:0:0:
352,128,114320,1,8,0:0:0:0:
352,128,114364,1,8,0:0:0:0:
352,128,114409,1,8,0:0:0:0:
352,128,114453,1,8,0:0:0:0:
352,128,114520,1,8,0:0:0:0:
160,128,114586,1,0,0:0:0:0:
352,256,114764,1,12,0:0:0:0:
160,256,114942,1,4,0:0:0:0:
352,128,115120,1,8,0:0:0:0:
160,128,115187,1,0,0:0:0:0:
160,128,115253,1,0,0:0:0:0:
160,128,115320,1,0,0:0:0:0:
352,128,115387,1,8,0:0:0:0:
352,128,115453,1,8,0:0:0:0:
160,128,115520,1,0,0:0:0:0:
160,128,115587,1,0,0:0:0:0:
352,128,115653,1,8,0:0:0:0:
352,128,115720,1,8,0:0:0:0:
352,128,115787,1,8,0:0:0:0:
160,128,115853,1,0,0:0:0:0:
352,128,115920,1,8,0:0:0:0:
352,128,115987,1,8,0:0:0:0:
352,128,116053,1,8,0:0:0:0:
352,128,116120,1,8,0:0:0:0:
160,256,116187,1,4,0:0:0:0:
352,256,116453,1,12,0:0:0:0:
160,256,116720,1,4,0:0:0:0:
352,256,116987,1,12,0:0:0:0:
352,256,117253,5,12,0:0:0:0:
256,192,117320,12,0,120453,0:0:0:0:
256,192,120720,6,0,L|320:256,1,65.3333313395183
