osu file format v14

[General]
AudioFilename: audio.mp3
AudioLeadIn: 0
PreviewTime: 52891
Countdown: 0
SampleSet: Soft
StackLeniency: 0.7
Mode: 3
LetterboxInBreaks: 0
SpecialStyle: 0
WidescreenStoryboard: 0

[Editor]
Bookmarks: 350346
DistanceSpacing: 0.6
BeatDivisor: 4
GridSize: 16
TimelineZoom: 1.3

[Metadata]
Title:Hoshi ga Furanai Machi
TitleUnicode:星が降らない街
Artist:Chroma
ArtistUnicode:黑魔
Creator:Wonki
Version:Shooting Star // 4K
Source:
Tags:pporse HAPPYNATION #02
BeatmapID:1230814
BeatmapSetID:581509

[Difficulty]
HPDrainRate:8.7
CircleSize:4
OverallDifficulty:8.5
ApproachRate:5
SliderMultiplier:1.4
SliderTickRate:1

[Events]
//Background and Video events
0,0,"764983.jpg",0,0
//Break Periods
//Storyboard Layer 0 (Background)
//Storyboard Layer 1 (Fail)
//Storyboard Layer 2 (Pass)
//Storyboard Layer 3 (Foreground)
//Storyboard Sound Samples

[TimingPoints]
2695,363.636363636364,4,2,1,40,1,0
53604,-100,4,2,1,40,0,1
76149,-100,4,2,1,40,0,0
76876,-100,4,2,1,40,0,1
81240,-100,4,2,1,40,0,0
82695,-100,4,2,1,40,0,1
88513,-100,4,2,1,40,0,0
148149,-100,4,2,1,40,0,1
170695,-100,4,2,1,40,0,0
171422,-100,4,2,1,40,0,1
175785,-100,4,2,1,40,0,0
177240,-100,4,2,1,40,0,1
183058,-100,4,2,1,40,0,0
272513,-125,4,2,1,40,0,0
273240,-100,4,2,1,40,0,0
297967,-100,4,2,1,40,0,1
320513,-100,4,2,1,40,0,0
321240,-100,4,2,1,40,0,1
325604,-100,4,2,1,40,0,0
327058,-100,4,2,1,40,0,1
332876,-100,4,2,1,40,0,0

[HitObjects]
192,192,1240,128,0,2695:0:0:0:0:
64,192,2695,1,4,0:0:0:0:
320,192,2695,1,0,0:0:0:0:
448,192,2695,1,0,0:0:0:0:
192,192,2876,1,0,0:0:0:0:
320,192,3058,1,0,0:0:0:0:
448,192,3240,1,0,0:0:0:0:
64,192,3422,1,0,0:0:0:0:
192,192,3604,1,0,0:0:0:0:
320,192,3785,1,0,0:0:0:0:
448,192,3967,1,0,0:0:0:0:
192,192,4149,1,0,0:0:0:0:
64,192,4331,1,0,0:0:0:0:
192,192,4513,1,0,0:0:0:0:
448,192,4695,1,0,0:0:0:0:
192,192,4876,1,0,0:0:0:0:
64,192,5058,1,0,0:0:0:0:
192,192,5240,1,0,0:0:0:0:
448,192,5422,1,0,0:0:0:0:
64,192,5604,1,0,0:0:0:0:
320,192,5785,1,0,0:0:0:0:
192,192,5967,1,0,0:0:0:0:
448,192,6149,1,0,0:0:0:0:
64,192,6331,1,0,0:0:0:0:
320,192,6513,1,0,0:0:0:0:
192,192,6695,1,0,0:0:0:0:
448,192,6876,1,0,0:0:0:0:
64,192,7058,1,0,0:0:0:0:
320,192,7240,1,0,0:0:0:0:
64,192,7422,1,0,0:0:0:0:
448,192,7604,1,0,0:0:0:0:
64,192,7785,1,0,0:0:0:0:
320,192,7967,1,0,0:0:0:0:
64,192,8149,1,0,0:0:0:0:
448,192,8331,1,0,0:0:0:0:
192,192,8513,1,0,0:0:0:0:
320,192,8695,1,0,0:0:0:0:
64,192,8876,1,0,0:0:0:0:
448,192,9058,1,0,0:0:0:0:
192,192,9240,1,0,0:0:0:0:
320,192,9422,1,0,0:0:0:0:
64,192,9604,1,0,0:0:0:0:
448,192,9785,1,0,0:0:0:0:
192,192,9967,1,0,0:0:0:0:
320,192,10149,1,0,0:0:0:0:
448,192,10331,1,0,0:0:0:0:
64,192,10513,1,0,0:0:0:0:
192,192,10695,1,0,0:0:0:0:
320,192,10876,1,0,0:0:0:0:
448,192,11058,1,0,0:0:0:0:
64,192,11240,1,0,0:0:0:0:
448,192,11422,1,0,0:0:0:0:
320,192,11604,1,0,0:0:0:0:
192,192,11785,1,0,0:0:0:0:
64,192,11967,1,0,0:0:0:0:
448,192,12149,1,0,0:0:0:0:
320,192,12331,1,0,0:0:0:0:
192,192,12513,1,0,0:0:0:0:
64,192,12695,1,0,0:0:0:0:
448,192,12876,1,0,0:0:0:0:
192,192,13058,1,0,0:0:0:0:
64,192,13240,1,0,0:0:0:0:
320,192,13422,1,0,0:0:0:0:
448,192,13604,1,0,0:0:0:0:
192,192,13785,1,0,0:0:0:0:
64,192,13967,1,0,0:0:0:0:
320,192,14149,1,0,0:0:0:0:
64,192,14331,1,0,0:0:0:0:
192,192,14513,1,0,0:0:0:0:
64,192,14695,1,0,0:0:0:0:
448,192,14876,1,0,0:0:0:0:
64,192,15058,1,0,0:0:0:0:
192,192,15240,1,0,0:0:0:0:
64,192,15422,1,0,0:0:0:0:
448,192,15604,1,0,0:0:0:0:
64,192,15785,1,0,0:0:0:0:
320,192,15967,1,0,0:0:0:0:
64,192,16149,1,0,0:0:0:0:
448,192,16331,1,0,0:0:0:0:
64,192,16513,1,0,0:0:0:0:
320,192,16695,1,0,0:0:0:0:
64,192,16876,1,0,0:0:0:0:
448,192,17058,1,0,0:0:0:0:
64,192,17240,1,0,0:0:0:0:
320,192,17422,1,0,0:0:0:0:
64,192,17604,1,0,0:0:0:0:
192,192,17785,1,0,0:0:0:0:
64,192,17967,1,0,0:0:0:0:
320,192,18149,1,0,0:0:0:0:
64,192,18331,1,0,0:0:0:0:
192,192,18513,1,0,0:0:0:0:
64,192,18695,1,0,0:0:0:0:
448,192,18876,1,0,0:0:0:0:
64,192,19058,1,0,0:0:0:0:
320,192,19240,1,0,0:0:0:0:
64,192,19422,1,0,0:0:0:0:
448,192,19604,1,0,0:0:0:0:
64,192,19785,1,0,0:0:0:0:
320,192,19967,1,0,0:0:0:0:
448,192,20149,1,0,0:0:0:0:
64,192,20331,1,0,0:0:0:0:
448,192,20513,1,0,0:0:0:0:
320,192,20695,1,0,0:0:0:0:
448,192,20876,1,0,0:0:0:0:
64,192,21058,1,0,0:0:0:0:
448,192,21240,1,0,0:0:0:0:
320,192,21422,1,0,0:0:0:0:
448,192,21604,1,0,0:0:0:0:
64,192,21785,1,0,0:0:0:0:
448,192,21967,1,0,0:0:0:0:
192,192,22149,1,0,0:0:0:0:
448,192,22331,1,0,0:0:0:0:
64,192,22513,1,0,0:0:0:0:
448,192,22695,1,0,0:0:0:0:
192,192,22876,1,0,0:0:0:0:
448,192,23058,1,0,0:0:0:0:
320,192,23240,1,0,0:0:0:0:
448,192,23422,1,0,0:0:0:0:
192,192,23604,1,0,0:0:0:0:
448,192,23785,1,0,0:0:0:0:
320,192,23967,1,0,0:0:0:0:
448,192,24149,1,0,0:0:0:0:
192,192,24331,1,0,0:0:0:0:
448,192,24513,1,0,0:0:0:0:
320,192,24695,1,0,0:0:0:0:
448,192,24876,1,0,0:0:0:0:
64,192,25058,1,0,0:0:0:0:
448,192,25240,1,0,0:0:0:0:
320,192,25422,1,0,0:0:0:0:
448,192,25604,1,0,0:0:0:0:
64,192,25785,1,0,0:0:0:0:
320,192,25967,1,0,0:0:0:0:
64,192,26149,128,0,26331:0:0:0:0:
448,192,26149,1,0,0:0:0:0:
192,192,26331,1,0,0:0:0:0:
64,192,26513,128,0,26695:0:0:0:0:
448,192,26513,1,0,0:0:0:0:
320,192,26695,1,0,0:0:0:0:
448,192,26876,1,0,0:0:0:0:
64,192,26876,128,0,27058:0:0:0:0:
192,192,27058,1,0,0:0:0:0:
448,192,27240,1,0,0:0:0:0:
64,192,27240,128,0,27422:0:0:0:0:
320,192,27422,1,0,0:0:0:0:
192,192,27604,128,0,27785:0:0:0:0:
64,192,27604,1,0,0:0:0:0:
448,192,27785,1,0,0:0:0:0:
192,192,27967,128,0,28149:0:0:0:0:
64,192,27967,1,0,0:0:0:0:
320,192,28149,1,0,0:0:0:0:
192,192,28331,128,0,28513:0:0:0:0:
64,192,28331,1,0,0:0:0:0:
448,192,28513,1,0,0:0:0:0:
192,192,28695,128,0,28876:0:0:0:0:
64,192,28695,1,0,0:0:0:0:
320,192,28876,1,0,0:0:0:0:
448,192,29058,128,0,29240:0:0:0:0:
192,192,29058,1,0,0:0:0:0:
64,192,29240,1,0,0:0:0:0:
448,192,29422,128,0,29604:0:0:0:0:
192,192,29422,1,0,0:0:0:0:
320,192,29604,1,0,0:0:0:0:
192,192,29785,1,0,0:0:0:0:
448,192,29785,128,0,29967:0:0:0:0:
64,192,29967,1,0,0:0:0:0:
448,192,30149,128,0,30331:0:0:0:0:
320,192,30149,1,0,0:0:0:0:
64,192,30331,1,0,0:0:0:0:
320,192,30513,128,0,30695:0:0:0:0:
448,192,30513,1,0,0:0:0:0:
192,192,30695,1,0,0:0:0:0:
320,192,30876,128,0,31058:0:0:0:0:
448,192,30876,1,0,0:0:0:0:
64,192,31058,1,0,0:0:0:0:
320,192,31240,128,0,31422:0:0:0:0:
448,192,31240,1,0,0:0:0:0:
192,192,31422,1,0,0:0:0:0:
320,192,31604,128,0,31785:0:0:0:0:
64,192,31604,1,0,0:0:0:0:
448,192,31785,1,0,0:0:0:0:
64,192,31967,128,0,32149:0:0:0:0:
192,192,31967,1,0,0:0:0:0:
448,192,32149,1,0,0:0:0:0:
64,192,32331,128,0,32513:0:0:0:0:
320,192,32331,1,0,0:0:0:0:
448,192,32513,1,0,0:0:0:0:
64,192,32695,128,0,32876:0:0:0:0:
192,192,32695,1,0,0:0:0:0:
448,192,32876,1,0,0:0:0:0:
64,192,33058,128,0,33240:0:0:0:0:
320,192,33058,1,0,0:0:0:0:
192,192,33240,1,0,0:0:0:0:
448,192,33422,128,0,33604:0:0:0:0:
320,192,33422,1,0,0:0:0:0:
64,192,33604,1,0,0:0:0:0:
448,192,33785,128,0,33967:0:0:0:0:
320,192,33785,1,0,0:0:0:0:
192,192,33967,1,0,0:0:0:0:
448,192,34149,128,0,34331:0:0:0:0:
320,192,34149,1,0,0:0:0:0:
64,192,34331,1,0,0:0:0:0:
448,192,34513,128,0,34695:0:0:0:0:
320,192,34513,1,0,0:0:0:0:
192,192,34695,1,0,0:0:0:0:
64,192,34876,1,0,0:0:0:0:
320,192,34876,128,0,35058:0:0:0:0:
448,192,35058,1,0,0:0:0:0:
320,192,35240,128,0,35422:0:0:0:0:
64,192,35240,1,0,0:0:0:0:
192,192,35422,1,0,0:0:0:0:
64,192,35604,1,0,0:0:0:0:
320,192,35604,128,0,35785:0:0:0:0:
448,192,35785,1,0,0:0:0:0:
64,192,35967,1,0,0:0:0:0:
320,192,35967,128,0,36149:0:0:0:0:
448,192,36149,128,0,37058:0:0:0:0:
192,192,36149,1,0,0:0:0:0:
64,192,36331,1,0,0:0:0:0:
320,192,36513,1,0,0:0:0:0:
192,192,36695,1,0,0:0:0:0:
320,192,36876,1,0,0:0:0:0:
64,192,37058,1,2,0:0:0:0:
192,192,37104,1,0,0:0:0:0:
320,192,37149,1,0,0:0:0:0:
448,192,37195,1,0,0:0:0:0:
192,192,37240,1,2,0:0:0:0:
64,192,37240,1,0,0:0:0:0:
448,192,37422,1,2,0:0:0:0:
320,192,37422,1,0,0:0:0:0:
192,192,37513,1,2,0:0:0:0:
64,192,37513,1,0,0:0:0:0:
64,192,37604,1,6,0:0:0:0:
320,192,37604,1,0,0:0:0:0:
448,192,37604,128,0,37785:0:0:0:0:
192,192,37785,128,0,37967:0:0:0:0:
320,192,37967,1,2,0:0:0:0:
64,192,37967,128,0,38149:0:0:0:0:
448,192,38149,128,0,38331:0:0:0:0:
64,192,38331,1,2,0:0:0:0:
320,192,38331,128,0,38513:0:0:0:0:
192,192,38513,128,0,38695:0:0:0:0:
320,192,38695,1,2,0:0:0:0:
64,192,38695,128,0,38876:0:0:0:0:
448,192,38876,128,0,39058:0:0:0:0:
192,192,39058,1,2,0:0:0:0:
320,192,39058,128,0,39240:0:0:0:0:
64,192,39240,128,0,39422:0:0:0:0:
192,192,39422,1,2,0:0:0:0:
320,192,39422,128,0,39604:0:0:0:0:
448,192,39604,128,0,39785:0:0:0:0:
192,192,39785,1,2,0:0:0:0:
320,192,39785,128,0,39967:0:0:0:0:
64,192,39967,128,0,40149:0:0:0:0:
192,192,40149,1,2,0:0:0:0:
320,192,40149,128,0,40331:0:0:0:0:
448,192,40331,128,0,40513:0:0:0:0:
64,192,40513,1,2,0:0:0:0:
192,192,40513,128,0,40695:0:0:0:0:
320,192,40695,128,0,40876:0:0:0:0:
192,192,40876,1,2,0:0:0:0:
64,192,40876,128,0,41058:0:0:0:0:
448,192,41058,128,0,41240:0:0:0:0:
64,192,41240,1,2,0:0:0:0:
192,192,41240,128,0,41422:0:0:0:0:
320,192,41422,128,0,41604:0:0:0:0:
192,192,41604,1,2,0:0:0:0:
64,192,41604,128,0,41785:0:0:0:0:
448,192,41785,128,0,41967:0:0:0:0:
64,192,41967,1,2,0:0:0:0:
192,192,41967,128,0,42149:0:0:0:0:
320,192,42149,128,0,42331:0:0:0:0:
448,192,42331,1,2,0:0:0:0:
64,192,42331,128,0,42513:0:0:0:0:
192,192,42513,128,0,42695:0:0:0:0:
64,192,42695,1,2,0:0:0:0:
320,192,42695,128,0,42876:0:0:0:0:
448,192,42876,128,0,43058:0:0:0:0:
64,192,43058,1,2,0:0:0:0:
320,192,43058,128,0,43240:0:0:0:0:
192,192,43240,128,0,43422:0:0:0:0:
320,192,43422,1,2,0:0:0:0:
448,192,43422,128,0,43604:0:0:0:0:
64,192,43604,128,0,43785:0:0:0:0:
192,192,43785,1,2,0:0:0:0:
448,192,43785,128,0,43967:0:0:0:0:
320,192,43967,128,0,44149:0:0:0:0:
448,192,44149,1,2,0:0:0:0:
192,192,44149,128,0,44331:0:0:0:0:
64,192,44331,128,0,44513:0:0:0:0:
192,192,44513,1,2,0:0:0:0:
448,192,44513,128,0,44695:0:0:0:0:
320,192,44695,128,0,44876:0:0:0:0:
64,192,44876,1,2,0:0:0:0:
448,192,44876,128,0,45058:0:0:0:0:
192,192,45058,128,0,45240:0:0:0:0:
448,192,45240,1,2,0:0:0:0:
64,192,45240,128,0,45422:0:0:0:0:
320,192,45422,128,0,45604:0:0:0:0:
64,192,45604,1,2,0:0:0:0:
448,192,45604,128,0,45785:0:0:0:0:
192,192,45785,128,0,45967:0:0:0:0:
448,192,45967,1,2,0:0:0:0:
64,192,45967,128,0,46149:0:0:0:0:
320,192,46149,128,0,46331:0:0:0:0:
192,192,46331,1,2,0:0:0:0:
64,192,46331,128,0,46513:0:0:0:0:
448,192,46513,128,0,46695:0:0:0:0:
64,192,46695,1,2,0:0:0:0:
192,192,46695,128,0,46876:0:0:0:0:
320,192,46876,128,0,47058:0:0:0:0:
192,192,47058,1,2,0:0:0:0:
64,192,47058,128,0,47240:0:0:0:0:
448,192,47240,128,0,47422:0:0:0:0:
64,192,47422,1,2,0:0:0:0:
192,192,47422,128,0,47604:0:0:0:0:
320,192,47604,128,0,47785:0:0:0:0:
448,192,47785,128,2,49058:0:0:0:0:
64,192,47785,1,0,0:0:0:0:
192,192,47785,1,0,0:0:0:0:
64,192,47967,128,0,48149:0:0:0:0:
320,192,48149,1,2,0:0:0:0:
192,192,48149,1,0,0:0:0:0:
192,192,48331,128,0,48513:0:0:0:0:
64,192,48513,1,2,0:0:0:0:
320,192,48513,1,0,0:0:0:0:
64,192,48695,128,0,48876:0:0:0:0:
320,192,48876,1,2,0:0:0:0:
192,192,48876,1,0,0:0:0:0:
320,192,49058,128,0,49240:0:0:0:0:
448,192,49240,1,6,0:0:0:0:
64,192,49240,128,0,52149:0:0:0:0:
192,192,49240,128,0,49422:0:0:0:0:
320,192,49422,128,0,49604:0:0:0:0:
448,192,49604,128,0,49785:0:0:0:0:
192,192,49785,128,0,49967:0:0:0:0:
320,192,49967,128,0,50149:0:0:0:0:
448,192,50149,128,0,50331:0:0:0:0:
320,192,50331,128,0,50513:0:0:0:0:
192,192,50513,128,0,50695:0:0:0:0:
448,192,50695,128,0,50876:0:0:0:0:
192,192,50876,128,0,51058:0:0:0:0:
320,192,51058,128,0,51240:0:0:0:0:
192,192,51240,128,0,51422:0:0:0:0:
448,192,51422,128,0,51604:0:0:0:0:
192,192,51604,128,0,51785:0:0:0:0:
320,192,51785,128,0,51967:0:0:0:0:
448,192,51967,128,0,52149:0:0:0:0:
192,192,52876,1,0,0:0:0:0:
320,192,52967,1,0,0:0:0:0:
64,192,53058,1,0,0:0:0:0:
192,192,53149,1,0,0:0:0:0:
320,192,53240,1,0,0:0:0:0:
192,192,53331,1,0,0:0:0:0:
448,192,53422,1,0,0:0:0:0:
320,192,53513,1,0,0:0:0:0:
64,192,53604,1,6,0:0:0:0:
448,192,53604,1,0,0:0:0:0:
192,192,53604,1,0,0:0:0:0:
64,192,53785,1,0,0:0:0:0:
448,192,53876,1,0,0:0:0:0:
64,192,53967,1,8,0:0:0:0:
320,192,53967,1,0,0:0:0:0:
192,192,54058,1,0,0:0:0:0:
448,192,54149,1,0,0:0:0:0:
320,192,54240,1,0,0:0:0:0:
192,192,54331,1,2,0:0:0:0:
64,192,54331,1,0,0:0:0:0:
448,192,54422,1,0,0:0:0:0:
64,192,54513,1,0,0:0:0:0:
192,192,54604,1,0,0:0:0:0:
320,192,54695,1,8,0:0:0:0:
448,192,54695,1,0,0:0:0:0:
64,192,54785,1,0,0:0:0:0:
320,192,54876,1,0,0:0:0:0:
192,192,54967,1,0,0:0:0:0:
320,192,55058,1,2,0:0:0:0:
448,192,55058,1,0,0:0:0:0:
64,192,55149,1,0,0:0:0:0:
192,192,55240,1,0,0:0:0:0:
320,192,55331,1,0,0:0:0:0:
64,192,55422,1,8,0:0:0:0:
448,192,55422,1,0,0:0:0:0:
192,192,55513,1,0,0:0:0:0:
320,192,55604,1,0,0:0:0:0:
192,192,55695,1,0,0:0:0:0:
64,192,55785,1,2,0:0:0:0:
448,192,55785,1,0,0:0:0:0:
320,192,55876,1,0,0:0:0:0:
192,192,55967,1,0,0:0:0:0:
64,192,56058,1,0,0:0:0:0:
320,192,56149,1,8,0:0:0:0:
448,192,56149,1,0,0:0:0:0:
192,192,56240,1,0,0:0:0:0:
448,192,56331,1,0,0:0:0:0:
64,192,56422,1,0,0:0:0:0:
320,192,56513,1,2,0:0:0:0:
448,192,56513,1,0,0:0:0:0:
192,192,56604,1,0,0:0:0:0:
320,192,56695,1,0,0:0:0:0:
448,192,56785,1,0,0:0:0:0:
192,192,56876,1,8,0:0:0:0:
64,192,56876,1,0,0:0:0:0:
320,192,56967,1,0,0:0:0:0:
64,192,57058,1,0,0:0:0:0:
448,192,57149,1,0,0:0:0:0:
192,192,57240,1,2,0:0:0:0:
64,192,57240,1,0,0:0:0:0:
320,192,57331,1,0,0:0:0:0:
192,192,57422,1,0,0:0:0:0:
64,192,57513,1,0,0:0:0:0:
320,192,57604,1,8,0:0:0:0:
448,192,57604,1,0,0:0:0:0:
192,192,57695,1,0,0:0:0:0:
448,192,57785,1,0,0:0:0:0:
64,192,57876,1,0,0:0:0:0:
320,192,57967,1,2,0:0:0:0:
448,192,57967,1,0,0:0:0:0:
192,192,58058,1,0,0:0:0:0:
320,192,58149,1,0,0:0:0:0:
448,192,58240,1,0,0:0:0:0:
192,192,58331,1,8,0:0:0:0:
64,192,58331,1,0,0:0:0:0:
320,192,58422,1,0,0:0:0:0:
64,192,58513,1,0,0:0:0:0:
448,192,58604,1,0,0:0:0:0:
192,192,58695,1,2,0:0:0:0:
64,192,58695,1,0,0:0:0:0:
320,192,58785,1,0,0:0:0:0:
448,192,58876,1,0,0:0:0:0:
192,192,58967,1,0,0:0:0:0:
320,192,59058,1,8,0:0:0:0:
448,192,59058,1,0,0:0:0:0:
64,192,59149,1,0,0:0:0:0:
192,192,59240,1,0,0:0:0:0:
320,192,59331,1,0,0:0:0:0:
448,192,59422,1,2,0:0:0:0:
64,192,59422,1,0,0:0:0:0:
192,192,59604,1,0,0:0:0:0:
64,192,59695,1,0,0:0:0:0:
320,192,59785,1,8,0:0:0:0:
448,192,59785,1,0,0:0:0:0:
192,192,59876,1,0,0:0:0:0:
448,192,59967,1,0,0:0:0:0:
192,192,60058,1,0,0:0:0:0:
64,192,60149,1,2,0:0:0:0:
320,192,60149,1,0,0:0:0:0:
448,192,60240,1,0,0:0:0:0:
64,192,60331,1,0,0:0:0:0:
192,192,60422,1,0,0:0:0:0:
320,192,60513,1,8,0:0:0:0:
448,192,60513,1,0,0:0:0:0:
64,192,60604,1,0,0:0:0:0:
192,192,60695,1,0,0:0:0:0:
64,192,60785,1,0,0:0:0:0:
448,192,60876,1,2,0:0:0:0:
192,192,60876,1,0,0:0:0:0:
320,192,60967,1,0,0:0:0:0:
64,192,61058,1,0,0:0:0:0:
192,192,61149,1,0,0:0:0:0:
448,192,61240,1,8,0:0:0:0:
320,192,61240,1,0,0:0:0:0:
64,192,61331,1,0,0:0:0:0:
448,192,61422,1,0,0:0:0:0:
320,192,61513,1,0,0:0:0:0:
192,192,61604,1,2,0:0:0:0:
64,192,61604,1,0,0:0:0:0:
448,192,61695,1,0,0:0:0:0:
320,192,61785,1,0,0:0:0:0:
192,192,61876,1,0,0:0:0:0:
64,192,61967,1,8,0:0:0:0:
448,192,61967,1,0,0:0:0:0:
320,192,62058,1,0,0:0:0:0:
192,192,62149,1,0,0:0:0:0:
320,192,62240,1,0,0:0:0:0:
448,192,62331,1,2,0:0:0:0:
64,192,62331,1,0,0:0:0:0:
320,192,62422,1,0,0:0:0:0:
64,192,62513,1,0,0:0:0:0:
192,192,62604,1,0,0:0:0:0:
320,192,62695,1,8,0:0:0:0:
448,192,62695,1,0,0:0:0:0:
64,192,62785,1,0,0:0:0:0:
192,192,62785,1,0,0:0:0:0:
448,192,62876,1,0,0:0:0:0:
320,192,62967,1,0,0:0:0:0:
448,192,63058,1,2,0:0:0:0:
64,192,63058,1,0,0:0:0:0:
192,192,63149,1,0,0:0:0:0:
448,192,63240,1,0,0:0:0:0:
320,192,63331,1,0,0:0:0:0:
192,192,63422,1,8,0:0:0:0:
64,192,63422,1,0,0:0:0:0:
320,192,63513,1,0,0:0:0:0:
448,192,63513,1,0,0:0:0:0:
64,192,63604,1,0,0:0:0:0:
320,192,63695,1,0,0:0:0:0:
192,192,63785,1,2,0:0:0:0:
64,192,63785,1,0,0:0:0:0:
320,192,63876,1,0,0:0:0:0:
64,192,63967,1,0,0:0:0:0:
448,192,64058,1,0,0:0:0:0:
192,192,64149,1,8,0:0:0:0:
320,192,64149,1,0,0:0:0:0:
448,192,64240,1,0,0:0:0:0:
64,192,64331,1,0,0:0:0:0:
320,192,64422,1,0,0:0:0:0:
192,192,64513,1,2,0:0:0:0:
64,192,64513,1,0,0:0:0:0:
448,192,64604,1,0,0:0:0:0:
64,192,64695,1,0,0:0:0:0:
320,192,64785,1,0,0:0:0:0:
64,192,64876,1,8,0:0:0:0:
448,192,64876,1,0,0:0:0:0:
192,192,64967,1,0,0:0:0:0:
320,192,65058,1,0,0:0:0:0:
192,192,65149,1,0,0:0:0:0:
64,192,65240,1,6,0:0:0:0:
320,192,65240,1,0,0:0:0:0:
448,192,65240,1,0,0:0:0:0:
192,192,65422,1,0,0:0:0:0:
448,192,65513,1,0,0:0:0:0:
64,192,65604,1,8,0:0:0:0:
192,192,65604,1,0,0:0:0:0:
320,192,65695,1,0,0:0:0:0:
448,192,65785,1,0,0:0:0:0:
192,192,65876,1,0,0:0:0:0:
320,192,65967,1,2,0:0:0:0:
64,192,65967,1,0,0:0:0:0:
448,192,66058,1,0,0:0:0:0:
192,192,66149,1,0,0:0:0:0:
64,192,66240,1,0,0:0:0:0:
320,192,66331,1,8,0:0:0:0:
448,192,66331,1,0,0:0:0:0:
192,192,66422,1,0,0:0:0:0:
448,192,66513,1,0,0:0:0:0:
320,192,66604,1,0,0:0:0:0:
192,192,66695,1,2,0:0:0:0:
64,192,66695,1,0,0:0:0:0:
448,192,66785,1,0,0:0:0:0:
320,192,66876,1,0,0:0:0:0:
192,192,66967,1,0,0:0:0:0:
64,192,67058,1,8,0:0:0:0:
448,192,67058,1,0,0:0:0:0:
320,192,67149,1,0,0:0:0:0:
192,192,67240,1,0,0:0:0:0:
320,192,67331,1,0,0:0:0:0:
448,192,67422,1,2,0:0:0:0:
64,192,67422,1,0,0:0:0:0:
192,192,67513,1,0,0:0:0:0:
448,192,67604,1,0,0:0:0:0:
320,192,67695,1,0,0:0:0:0:
192,192,67785,1,8,0:0:0:0:
64,192,67785,1,0,0:0:0:0:
448,192,67876,1,0,0:0:0:0:
64,192,67967,1,0,0:0:0:0:
320,192,68058,1,0,0:0:0:0:
192,192,68149,1,2,0:0:0:0:
64,192,68149,1,0,0:0:0:0:
448,192,68240,1,0,0:0:0:0:
320,192,68331,1,0,0:0:0:0:
192,192,68422,1,0,0:0:0:0:
320,192,68513,1,8,0:0:0:0:
448,192,68513,1,0,0:0:0:0:
64,192,68604,1,0,0:0:0:0:
448,192,68695,1,0,0:0:0:0:
192,192,68785,1,0,0:0:0:0:
320,192,68876,1,2,0:0:0:0:
448,192,68876,1,0,0:0:0:0:
64,192,68967,1,0,0:0:0:0:
192,192,69058,1,0,0:0:0:0:
320,192,69149,1,0,0:0:0:0:
192,192,69240,1,8,0:0:0:0:
64,192,69240,1,0,0:0:0:0:
448,192,69331,1,0,0:0:0:0:
64,192,69422,1,0,0:0:0:0:
320,192,69513,1,0,0:0:0:0:
192,192,69604,1,2,0:0:0:0:
64,192,69604,1,0,0:0:0:0:
448,192,69695,1,0,0:0:0:0:
320,192,69785,1,0,0:0:0:0:
192,192,69876,1,0,0:0:0:0:
320,192,69967,1,8,0:0:0:0:
448,192,69967,1,0,0:0:0:0:
64,192,70058,1,0,0:0:0:0:
448,192,70149,1,0,0:0:0:0:
192,192,70240,1,0,0:0:0:0:
320,192,70331,1,2,0:0:0:0:
448,192,70331,1,0,0:0:0:0:
64,192,70422,1,0,0:0:0:0:
448,192,70513,1,0,0:0:0:0:
320,192,70604,1,8,0:0:0:0:
192,192,70695,1,0,0:0:0:0:
64,192,70695,1,0,0:0:0:0:
448,192,70785,1,0,0:0:0:0:
64,192,70876,1,0,0:0:0:0:
192,192,70967,1,0,0:0:0:0:
320,192,71058,1,2,0:0:0:0:
448,192,71058,1,0,0:0:0:0:
64,192,71149,1,0,0:0:0:0:
192,192,71240,1,0,0:0:0:0:
320,192,71331,1,0,0:0:0:0:
64,192,71422,1,8,0:0:0:0:
448,192,71422,1,0,0:0:0:0:
192,192,71513,1,0,0:0:0:0:
448,192,71604,1,0,0:0:0:0:
320,192,71695,1,0,0:0:0:0:
192,192,71785,1,2,0:0:0:0:
64,192,71785,1,0,0:0:0:0:
448,192,71876,1,0,0:0:0:0:
192,192,71967,1,0,0:0:0:0:
320,192,72058,1,0,0:0:0:0:
448,192,72149,1,8,0:0:0:0:
64,192,72149,1,0,0:0:0:0:
192,192,72240,1,0,0:0:0:0:
320,192,72331,1,0,0:0:0:0:
192,192,72422,1,0,0:0:0:0:
64,192,72513,1,2,0:0:0:0:
320,192,72513,1,0,0:0:0:0:
448,192,72604,1,0,0:0:0:0:
192,192,72695,1,0,0:0:0:0:
320,192,72785,1,0,0:0:0:0:
448,192,72876,1,8,0:0:0:0:
64,192,72876,1,0,0:0:0:0:
192,192,72967,1,0,0:0:0:0:
448,192,73058,1,0,0:0:0:0:
320,192,73149,1,0,0:0:0:0:
192,192,73240,1,2,0:0:0:0:
64,192,73240,1,0,0:0:0:0:
448,192,73331,1,0,0:0:0:0:
320,192,73422,1,0,0:0:0:0:
192,192,73513,1,0,0:0:0:0:
64,192,73604,1,8,0:0:0:0:
448,192,73604,1,0,0:0:0:0:
320,192,73695,1,0,0:0:0:0:
192,192,73785,1,0,0:0:0:0:
320,192,73876,1,0,0:0:0:0:
448,192,73967,1,2,0:0:0:0:
192,192,73967,1,0,0:0:0:0:
64,192,74058,1,0,0:0:0:0:
448,192,74149,1,0,0:0:0:0:
320,192,74240,1,0,0:0:0:0:
192,192,74331,1,8,0:0:0:0:
64,192,74331,1,0,0:0:0:0:
448,192,74422,1,0,0:0:0:0:
320,192,74422,1,0,0:0:0:0:
64,192,74513,1,0,0:0:0:0:
192,192,74604,1,0,0:0:0:0:
64,192,74695,1,2,0:0:0:0:
320,192,74695,1,0,0:0:0:0:
448,192,74785,1,0,0:0:0:0:
64,192,74876,1,0,0:0:0:0:
192,192,74967,1,0,0:0:0:0:
448,192,75058,1,8,0:0:0:0:
320,192,75058,1,0,0:0:0:0:
64,192,75149,1,0,0:0:0:0:
192,192,75149,1,0,0:0:0:0:
320,192,75240,1,0,0:0:0:0:
448,192,75331,1,0,0:0:0:0:
192,192,75422,1,2,0:0:0:0:
64,192,75422,1,0,0:0:0:0:
320,192,75513,1,0,0:0:0:0:
64,192,75604,1,0,0:0:0:0:
192,192,75695,1,0,0:0:0:0:
448,192,75785,1,8,0:0:0:0:
320,192,75785,1,0,0:0:0:0:
64,192,75876,1,0,0:0:0:0:
448,192,75967,1,0,0:0:0:0:
320,192,76058,1,0,0:0:0:0:
192,192,76149,1,2,0:0:0:0:
64,192,76149,1,0,0:0:0:0:
320,192,76240,1,0,0:0:0:0:
448,192,76331,1,8,0:0:0:0:
64,192,76331,1,0,0:0:0:0:
192,192,76422,1,8,0:0:0:0:
320,192,76422,1,0,0:0:0:0:
64,192,76513,1,2,0:0:0:0:
448,192,76513,1,0,0:0:0:0:
192,192,76604,1,0,0:0:0:0:
320,192,76695,1,8,0:0:0:0:
448,192,76695,1,0,0:0:0:0:
192,192,76785,1,0,0:0:0:0:
64,192,76876,1,6,0:0:0:0:
320,192,76876,1,0,0:0:0:0:
448,192,76876,1,0,0:0:0:0:
192,192,76967,1,0,0:0:0:0:
320,192,77058,1,0,0:0:0:0:
448,192,77058,1,0,0:0:0:0:
64,192,77149,1,0,0:0:0:0:
192,192,77149,1,0,0:0:0:0:
320,192,77240,1,8,0:0:0:0:
448,192,77240,1,0,0:0:0:0:
192,192,77331,1,0,0:0:0:0:
64,192,77331,1,0,0:0:0:0:
64,192,77422,1,0,0:0:0:0:
192,192,77422,1,0,0:0:0:0:
320,192,77513,1,0,0:0:0:0:
64,192,77604,1,2,0:0:0:0:
448,192,77604,1,0,0:0:0:0:
64,192,77695,1,0,0:0:0:0:
448,192,77695,1,0,0:0:0:0:
192,192,77785,1,0,0:0:0:0:
320,192,77876,1,0,0:0:0:0:
448,192,77876,1,0,0:0:0:0:
192,192,77967,1,8,0:0:0:0:
64,192,77967,1,0,0:0:0:0:
448,192,78058,1,0,0:0:0:0:
192,192,78149,1,0,0:0:0:0:
64,192,78149,1,0,0:0:0:0:
320,192,78240,1,0,0:0:0:0:
64,192,78331,1,2,0:0:0:0:
448,192,78331,1,0,0:0:0:0:
192,192,78422,1,0,0:0:0:0:
320,192,78513,1,0,0:0:0:0:
448,192,78513,1,0,0:0:0:0:
192,192,78604,1,0,0:0:0:0:
64,192,78604,1,0,0:0:0:0:
320,192,78695,1,8,0:0:0:0:
448,192,78695,1,0,0:0:0:0:
192,192,78785,1,0,0:0:0:0:
64,192,78785,1,0,0:0:0:0:
64,192,78876,1,0,0:0:0:0:
192,192,78876,1,0,0:0:0:0:
448,192,78967,1,0,0:0:0:0:
320,192,79058,1,2,0:0:0:0:
64,192,79058,1,0,0:0:0:0:
64,192,79149,1,0,0:0:0:0:
320,192,79149,1,0,0:0:0:0:
192,192,79240,1,0,0:0:0:0:
320,192,79331,1,0,0:0:0:0:
448,192,79331,1,0,0:0:0:0:
192,192,79422,1,8,0:0:0:0:
64,192,79422,1,0,0:0:0:0:
320,192,79513,1,0,0:0:0:0:
192,192,79604,1,0,0:0:0:0:
64,192,79604,1,0,0:0:0:0:
448,192,79695,1,0,0:0:0:0:
320,192,79785,1,2,0:0:0:0:
64,192,79785,1,0,0:0:0:0:
192,192,79876,1,0,0:0:0:0:
448,192,79967,1,0,0:0:0:0:
320,192,79967,1,0,0:0:0:0:
192,192,80058,1,0,0:0:0:0:
64,192,80058,1,0,0:0:0:0:
448,192,80149,1,8,0:0:0:0:
320,192,80149,1,0,0:0:0:0:
192,192,80240,1,0,0:0:0:0:
64,192,80240,1,0,0:0:0:0:
64,192,80331,1,0,0:0:0:0:
192,192,80331,1,0,0:0:0:0:
320,192,80422,1,0,0:0:0:0:
448,192,80513,1,2,0:0:0:0:
192,192,80513,1,0,0:0:0:0:
192,192,80604,1,0,0:0:0:0:
448,192,80604,1,0,0:0:0:0:
64,192,80695,1,0,0:0:0:0:
320,192,80785,1,0,0:0:0:0:
448,192,80785,1,0,0:0:0:0:
192,192,80876,1,8,0:0:0:0:
64,192,80876,1,0,0:0:0:0:
320,192,80967,1,0,0:0:0:0:
192,192,81058,1,0,0:0:0:0:
64,192,81058,1,0,0:0:0:0:
448,192,81149,1,0,0:0:0:0:
64,192,81240,1,2,0:0:0:0:
192,192,81240,1,0,0:0:0:0:
320,192,81240,1,0,0:0:0:0:
320,192,81422,1,0,0:0:0:0:
448,192,81422,1,0,0:0:0:0:
320,192,81513,1,0,0:0:0:0:
192,192,81604,1,8,0:0:0:0:
64,192,81604,1,0,0:0:0:0:
448,192,81604,1,0,0:0:0:0:
64,192,81785,1,0,0:0:0:0:
320,192,81785,1,0,0:0:0:0:
64,192,81876,1,0,0:0:0:0:
192,192,81967,1,2,0:0:0:0:
320,192,81967,1,0,0:0:0:0:
448,192,81967,1,0,0:0:0:0:
192,192,82149,1,0,0:0:0:0:
448,192,82149,1,0,0:0:0:0:
192,192,82240,1,0,0:0:0:0:
320,192,82331,1,8,0:0:0:0:
448,192,82331,1,0,0:0:0:0:
64,192,82331,1,0,0:0:0:0:
320,192,82513,1,0,0:0:0:0:
64,192,82513,1,0,0:0:0:0:
320,192,82604,1,0,0:0:0:0:
64,192,82695,1,6,0:0:0:0:
192,192,82695,1,0,0:0:0:0:
448,192,82695,1,0,0:0:0:0:
320,192,82785,1,0,0:0:0:0:
192,192,82876,1,0,0:0:0:0:
64,192,82876,1,0,0:0:0:0:
320,192,82967,1,0,0:0:0:0:
448,192,82967,1,0,0:0:0:0:
192,192,83058,1,8,0:0:0:0:
64,192,83058,1,0,0:0:0:0:
448,192,83149,1,0,0:0:0:0:
320,192,83149,1,0,0:0:0:0:
320,192,83240,1,0,0:0:0:0:
448,192,83240,1,0,0:0:0:0:
192,192,83331,1,0,0:0:0:0:
448,192,83422,1,2,0:0:0:0:
64,192,83422,1,0,0:0:0:0:
448,192,83513,1,0,0:0:0:0:
64,192,83513,1,0,0:0:0:0:
320,192,83604,1,0,0:0:0:0:
192,192,83695,1,0,0:0:0:0:
64,192,83695,1,0,0:0:0:0:
320,192,83785,1,8,0:0:0:0:
448,192,83785,1,0,0:0:0:0:
64,192,83876,1,0,0:0:0:0:
320,192,83967,1,0,0:0:0:0:
448,192,83967,1,0,0:0:0:0:
192,192,84058,1,0,0:0:0:0:
448,192,84149,1,2,0:0:0:0:
64,192,84149,1,0,0:0:0:0:
320,192,84240,1,0,0:0:0:0:
192,192,84331,1,0,0:0:0:0:
64,192,84331,1,0,0:0:0:0:
320,192,84422,1,0,0:0:0:0:
448,192,84422,1,0,0:0:0:0:
192,192,84513,1,8,0:0:0:0:
64,192,84513,1,0,0:0:0:0:
320,192,84604,1,0,0:0:0:0:
448,192,84604,1,0,0:0:0:0:
448,192,84695,1,0,0:0:0:0:
320,192,84695,1,0,0:0:0:0:
64,192,84785,1,0,0:0:0:0:
192,192,84876,1,2,0:0:0:0:
448,192,84876,1,0,0:0:0:0:
320,192,84967,1,0,0:0:0:0:
192,192,85058,1,0,0:0:0:0:
448,192,85058,1,0,0:0:0:0:
64,192,85149,1,0,0:0:0:0:
320,192,85240,1,8,0:0:0:0:
448,192,85240,1,0,0:0:0:0:
192,192,85331,1,0,0:0:0:0:
448,192,85422,1,0,0:0:0:0:
64,192,85422,1,0,0:0:0:0:
320,192,85513,1,0,0:0:0:0:
192,192,85604,1,2,0:0:0:0:
448,192,85604,1,0,0:0:0:0:
320,192,85695,1,0,0:0:0:0:
64,192,85785,1,0,0:0:0:0:
192,192,85785,1,0,0:0:0:0:
320,192,85876,1,0,0:0:0:0:
448,192,85876,1,0,0:0:0:0:
64,192,85967,1,8,0:0:0:0:
192,192,85967,1,0,0:0:0:0:
320,192,86058,1,0,0:0:0:0:
448,192,86058,1,0,0:0:0:0:
448,192,86149,1,0,0:0:0:0:
320,192,86149,1,0,0:0:0:0:
192,192,86240,1,0,0:0:0:0:
64,192,86331,1,2,0:0:0:0:
320,192,86331,1,0,0:0:0:0:
320,192,86422,1,0,0:0:0:0:
64,192,86422,1,0,0:0:0:0:
448,192,86513,1,0,0:0:0:0:
192,192,86604,1,0,0:0:0:0:
64,192,86604,1,0,0:0:0:0:
320,192,86695,1,8,0:0:0:0:
448,192,86695,1,0,0:0:0:0:
192,192,86785,1,8,0:0:0:0:
64,192,86785,1,0,0:0:0:0:
320,192,86876,1,8,0:0:0:0:
448,192,86876,1,0,0:0:0:0:
192,192,86967,1,8,0:0:0:0:
448,192,87058,1,2,0:0:0:0:
320,192,87058,1,0,0:0:0:0:
64,192,87058,1,0,0:0:0:0:
192,192,87240,1,0,0:0:0:0:
64,192,87331,1,2,0:0:0:0:
320,192,87331,1,0,0:0:0:0:
448,192,87331,1,0,0:0:0:0:
192,192,87513,1,0,0:0:0:0:
64,192,87604,1,2,0:0:0:0:
320,192,87604,1,0,0:0:0:0:
448,192,87604,1,0,0:0:0:0:
192,192,87785,1,0,0:0:0:0:
64,192,87876,1,2,0:0:0:0:
320,192,87876,1,0,0:0:0:0:
448,192,87876,1,0,0:0:0:0:
192,192,88058,1,0,0:0:0:0:
64,192,88149,1,8,0:0:0:0:
320,192,88149,1,0,0:0:0:0:
448,192,88149,1,0,0:0:0:0:
192,192,88331,1,0,0:0:0:0:
320,192,88331,1,0,0:0:0:0:
192,192,88513,1,12,0:0:0:0:
448,192,88513,1,0,0:0:0:0:
64,192,88513,128,0,89967:0:0:0:0:
320,192,88695,1,0,0:0:0:0:
192,192,88876,1,0,0:0:0:0:
320,192,89058,1,0,0:0:0:0:
448,192,89240,1,0,0:0:0:0:
320,192,89422,1,0,0:0:0:0:
192,192,89604,1,0,0:0:0:0:
320,192,89785,1,0,0:0:0:0:
448,192,89967,1,0,0:0:0:0:
320,192,90149,1,0,0:0:0:0:
192,192,90331,1,0,0:0:0:0:
64,192,90513,1,0,0:0:0:0:
448,192,90695,1,0,0:0:0:0:
320,192,90876,1,0,0:0:0:0:
192,192,91058,1,0,0:0:0:0:
320,192,91240,1,8,0:0:0:0:
448,192,91240,1,0,0:0:0:0:
192,192,91331,1,8,0:0:0:0:
64,192,91331,1,0,0:0:0:0:
320,192,91422,1,2,0:0:0:0:
448,192,91422,1,0,0:0:0:0:
448,192,91604,1,2,0:0:0:0:
192,192,91604,1,0,0:0:0:0:
448,192,91785,1,2,0:0:0:0:
64,192,91785,1,0,0:0:0:0:
448,192,91967,1,2,0:0:0:0:
320,192,91967,1,0,0:0:0:0:
64,192,92149,1,2,0:0:0:0:
192,192,92149,1,0,0:0:0:0:
64,192,92331,1,2,0:0:0:0:
320,192,92331,1,0,0:0:0:0:
64,192,92513,1,2,0:0:0:0:
448,192,92513,1,0,0:0:0:0:
64,192,92695,1,2,0:0:0:0:
192,192,92695,1,0,0:0:0:0:
320,192,92876,1,2,0:0:0:0:
448,192,92876,1,0,0:0:0:0:
192,192,92967,1,2,0:0:0:0:
64,192,92967,1,0,0:0:0:0:
320,192,93058,1,2,0:0:0:0:
448,192,93058,1,0,0:0:0:0:
192,192,93149,1,2,0:0:0:0:
64,192,93149,1,0,0:0:0:0:
320,192,93240,1,2,0:0:0:0:
448,192,93240,1,0,0:0:0:0:
192,192,93331,1,2,0:0:0:0:
64,192,93331,1,0,0:0:0:0:
448,192,93422,1,0,0:0:0:0:
320,192,93467,1,0,0:0:0:0:
64,192,93513,1,0,0:0:0:0:
192,192,93558,1,0,0:0:0:0:
448,192,93604,1,0,0:0:0:0:
320,192,93649,1,0,0:0:0:0:
64,192,93695,1,0,0:0:0:0:
192,192,93740,1,0,0:0:0:0:
448,192,93785,1,2,0:0:0:0:
320,192,93785,1,0,0:0:0:0:
64,192,93967,1,6,0:0:0:0:
192,192,93967,1,0,0:0:0:0:
320,192,93967,1,0,0:0:0:0:
448,192,93967,1,0,0:0:0:0:
192,192,94149,128,0,94240:0:0:0:0:
320,192,94240,128,0,94331:0:0:0:0:
448,192,94331,128,2,95604:0:0:0:0:
64,192,94331,1,0,0:0:0:0:
320,192,94513,1,0,0:0:0:0:
192,192,94695,1,2,0:0:0:0:
64,192,94876,1,0,0:0:0:0:
320,192,95058,1,2,0:0:0:0:
64,192,95240,1,0,0:0:0:0:
192,192,95422,1,2,0:0:0:0:
64,192,95604,128,0,95695:0:0:0:0:
320,192,95604,1,0,0:0:0:0:
192,192,95695,128,0,95785:0:0:0:0:
320,192,95785,128,2,96058:0:0:0:0:
448,192,95967,128,0,96058:0:0:0:0:
64,192,96058,128,0,96331:0:0:0:0:
192,192,96240,128,0,96331:0:0:0:0:
320,192,96331,128,0,96695:0:0:0:0:
64,192,96513,128,2,96695:0:0:0:0:
448,192,96695,128,0,97058:0:0:0:0:
192,192,96876,128,2,97240:0:0:0:0:
320,192,97058,128,0,97240:0:0:0:0:
64,192,97240,128,2,98331:0:0:0:0:
448,192,97240,1,0,0:0:0:0:
192,192,97422,1,0,0:0:0:0:
448,192,97604,1,2,0:0:0:0:
448,192,97785,128,0,98331:0:0:0:0:
192,192,97785,1,0,0:0:0:0:
320,192,97967,1,2,0:0:0:0:
192,192,98149,1,0,0:0:0:0:
192,192,98331,128,2,99785:0:0:0:0:
320,192,98331,1,0,0:0:0:0:
64,192,98513,1,0,0:0:0:0:
448,192,98695,1,2,0:0:0:0:
320,192,98876,1,0,0:0:0:0:
64,192,99058,1,2,0:0:0:0:
448,192,99240,1,0,0:0:0:0:
320,192,99422,1,2,0:0:0:0:
448,192,99604,128,0,99967:0:0:0:0:
64,192,99785,128,2,100149:0:0:0:0:
320,192,99967,128,0,100149:0:0:0:0:
192,192,100149,128,2,101604:0:0:0:0:
448,192,100149,1,0,0:0:0:0:
64,192,100331,1,0,0:0:0:0:
320,192,100513,1,2,0:0:0:0:
448,192,100695,1,0,0:0:0:0:
64,192,100876,1,2,0:0:0:0:
448,192,101058,1,0,0:0:0:0:
320,192,101240,1,2,0:0:0:0:
448,192,101422,128,0,101513:0:0:0:0:
64,192,101422,1,0,0:0:0:0:
320,192,101513,128,0,101604:0:0:0:0:
64,192,101604,128,2,101967:0:0:0:0:
192,192,101785,128,0,101876:0:0:0:0:
320,192,101876,128,0,101967:0:0:0:0:
192,192,101967,128,2,102331:0:0:0:0:
448,192,102149,128,0,102513:0:0:0:0:
64,192,102331,128,2,102695:0:0:0:0:
320,192,102513,128,0,102876:0:0:0:0:
192,192,102695,128,2,103058:0:0:0:0:
448,192,102876,128,0,103058:0:0:0:0:
64,192,103058,128,2,104149:0:0:0:0:
320,192,103058,1,0,0:0:0:0:
192,192,103240,1,0,0:0:0:0:
320,192,103422,1,2,0:0:0:0:
192,192,103604,128,0,104149:0:0:0:0:
448,192,103604,1,0,0:0:0:0:
320,192,103785,1,2,0:0:0:0:
448,192,103967,1,0,0:0:0:0:
448,192,104149,128,2,105240:0:0:0:0:
320,192,104149,1,0,0:0:0:0:
192,192,104331,1,0,0:0:0:0:
64,192,104513,1,2,0:0:0:0:
320,192,104695,1,0,0:0:0:0:
192,192,104876,1,2,0:0:0:0:
320,192,105058,1,0,0:0:0:0:
192,192,105240,1,2,0:0:0:0:
64,192,105240,1,0,0:0:0:0:
320,192,105422,1,0,0:0:0:0:
448,192,105513,1,0,0:0:0:0:
320,192,105558,1,0,0:0:0:0:
192,192,105604,1,8,0:0:0:0:
64,192,105604,1,0,0:0:0:0:
64,192,105695,1,8,0:0:0:0:
192,192,105695,1,0,0:0:0:0:
448,192,105785,1,8,0:0:0:0:
320,192,105785,1,0,0:0:0:0:
320,192,105876,1,8,0:0:0:0:
448,192,105876,1,0,0:0:0:0:
192,192,105967,1,6,0:0:0:0:
448,192,105967,128,0,107240:0:0:0:0:
64,192,105967,128,0,106149:0:0:0:0:
192,192,106149,128,0,106331:0:0:0:0:
64,192,106331,1,8,0:0:0:0:
320,192,106331,128,0,106513:0:0:0:0:
64,192,106513,128,0,106695:0:0:0:0:
192,192,106695,1,2,0:0:0:0:
320,192,106695,128,0,106876:0:0:0:0:
192,192,106876,128,0,107058:0:0:0:0:
64,192,107058,1,8,0:0:0:0:
320,192,107058,128,0,107240:0:0:0:0:
192,192,107240,1,0,0:0:0:0:
320,192,107331,1,0,0:0:0:0:
448,192,107422,1,2,0:0:0:0:
64,192,107422,128,0,107604:0:0:0:0:
192,192,107604,1,0,0:0:0:0:
448,192,107695,128,0,107876:0:0:0:0:
64,192,107785,1,8,0:0:0:0:
192,192,107785,1,0,0:0:0:0:
320,192,107876,1,0,0:0:0:0:
192,192,107967,128,0,108149:0:0:0:0:
448,192,108149,128,2,108331:0:0:0:0:
64,192,108149,1,0,0:0:0:0:
320,192,108331,128,0,108513:0:0:0:0:
64,192,108513,128,8,108695:0:0:0:0:
192,192,108513,1,0,0:0:0:0:
192,192,108695,128,0,108876:0:0:0:0:
320,192,108876,1,2,0:0:0:0:
448,192,108876,128,0,109422:0:0:0:0:
64,192,108876,128,0,109058:0:0:0:0:
320,192,109058,128,0,109240:0:0:0:0:
192,192,109240,1,8,0:0:0:0:
64,192,109240,128,0,109422:0:0:0:0:
320,192,109422,128,0,109967:0:0:0:0:
192,192,109422,128,0,109604:0:0:0:0:
64,192,109604,1,2,0:0:0:0:
448,192,109604,128,0,109785:0:0:0:0:
192,192,109785,128,0,109967:0:0:0:0:
64,192,109967,128,8,111240:0:0:0:0:
448,192,109967,128,0,110149:0:0:0:0:
192,192,110149,128,0,110331:0:0:0:0:
320,192,110331,1,2,0:0:0:0:
448,192,110331,128,0,110513:0:0:0:0:
192,192,110513,128,0,110695:0:0:0:0:
448,192,110695,1,8,0:0:0:0:
320,192,110695,128,0,110876:0:0:0:0:
448,192,110876,128,0,111058:0:0:0:0:
192,192,111058,1,2,0:0:0:0:
320,192,111058,1,0,0:0:0:0:
320,192,111240,128,0,111422:0:0:0:0:
192,192,111422,128,8,111604:0:0:0:0:
64,192,111422,1,0,0:0:0:0:
320,192,111604,128,0,113058:0:0:0:0:
448,192,111785,1,2,0:0:0:0:
64,192,111785,128,0,111967:0:0:0:0:
448,192,111967,128,0,112149:0:0:0:0:
192,192,112149,1,8,0:0:0:0:
64,192,112149,128,0,112331:0:0:0:0:
192,192,112331,128,0,112513:0:0:0:0:
64,192,112513,1,2,0:0:0:0:
448,192,112513,128,0,112695:0:0:0:0:
192,192,112695,128,0,112876:0:0:0:0:
64,192,112876,1,8,0:0:0:0:
448,192,112876,128,0,113058:0:0:0:0:
192,192,113058,1,0,0:0:0:0:
64,192,113149,1,0,0:0:0:0:
320,192,113240,1,2,0:0:0:0:
448,192,113240,128,0,113422:0:0:0:0:
192,192,113422,1,0,0:0:0:0:
320,192,113513,1,0,0:0:0:0:
192,192,113604,1,8,0:0:0:0:
64,192,113604,128,0,113785:0:0:0:0:
320,192,113785,128,0,113967:0:0:0:0:
192,192,113967,128,2,114149:0:0:0:0:
448,192,113967,1,0,0:0:0:0:
64,192,114149,128,0,114331:0:0:0:0:
448,192,114331,128,8,114513:0:0:0:0:
192,192,114331,1,0,0:0:0:0:
320,192,114513,128,0,114695:0:0:0:0:
192,192,114695,128,2,115240:0:0:0:0:
64,192,114695,128,0,114876:0:0:0:0:
320,192,114876,128,0,115058:0:0:0:0:
448,192,115058,1,8,0:0:0:0:
64,192,115058,128,0,115240:0:0:0:0:
320,192,115240,128,0,115785:0:0:0:0:
448,192,115240,128,0,115422:0:0:0:0:
192,192,115422,1,2,0:0:0:0:
64,192,115422,128,0,115604:0:0:0:0:
192,192,115604,128,0,115785:0:0:0:0:
64,192,115785,128,8,117058:0:0:0:0:
448,192,115785,128,0,115967:0:0:0:0:
320,192,115967,128,0,116149:0:0:0:0:
192,192,116149,1,2,0:0:0:0:
448,192,116149,128,0,116331:0:0:0:0:
192,192,116331,128,0,116513:0:0:0:0:
320,192,116513,1,8,0:0:0:0:
448,192,116513,128,0,116695:0:0:0:0:
320,192,116695,128,0,116876:0:0:0:0:
192,192,116876,1,2,0:0:0:0:
448,192,116876,1,0,0:0:0:0:
320,192,117058,1,8,0:0:0:0:
448,192,117058,1,0,0:0:0:0:
192,192,117149,1,8,0:0:0:0:
64,192,117149,1,0,0:0:0:0:
320,192,117240,1,2,0:0:0:0:
448,192,117240,1,0,0:0:0:0:
192,192,117422,1,8,0:0:0:0:
320,192,117422,1,0,0:0:0:0:
192,192,117604,1,6,0:0:0:0:
64,192,117604,1,0,0:0:0:0:
448,192,117604,1,0,0:0:0:0:
320,192,117785,1,0,0:0:0:0:
64,192,117967,1,0,0:0:0:0:
192,192,118149,1,0,0:0:0:0:
448,192,118331,1,0,0:0:0:0:
320,192,118513,1,0,0:0:0:0:
64,192,118695,1,0,0:0:0:0:
192,192,118876,1,0,0:0:0:0:
448,192,119058,1,0,0:0:0:0:
320,192,119240,1,0,0:0:0:0:
64,192,119422,1,0,0:0:0:0:
320,192,119604,1,0,0:0:0:0:
448,192,119785,1,0,0:0:0:0:
320,192,119967,1,0,0:0:0:0:
64,192,120149,1,0,0:0:0:0:
320,192,120331,1,0,0:0:0:0:
192,192,120513,1,0,0:0:0:0:
64,192,120695,1,0,0:0:0:0:
448,192,120876,1,0,0:0:0:0:
320,192,121058,1,0,0:0:0:0:
192,192,121240,1,0,0:0:0:0:
64,192,121422,1,0,0:0:0:0:
448,192,121604,1,0,0:0:0:0:
320,192,121785,1,0,0:0:0:0:
64,192,121967,1,0,0:0:0:0:
320,192,122149,1,0,0:0:0:0:
192,192,122331,1,0,0:0:0:0:
448,192,122513,1,0,0:0:0:0:
64,192,122695,1,0,0:0:0:0:
320,192,122876,1,0,0:0:0:0:
192,192,123058,1,0,0:0:0:0:
448,192,123240,1,0,0:0:0:0:
64,192,123422,1,0,0:0:0:0:
320,192,123604,1,0,0:0:0:0:
448,192,123785,1,0,0:0:0:0:
192,192,123967,1,0,0:0:0:0:
64,192,124149,1,0,0:0:0:0:
320,192,124331,1,0,0:0:0:0:
448,192,124513,1,0,0:0:0:0:
192,192,124695,1,0,0:0:0:0:
320,192,124876,1,0,0:0:0:0:
64,192,125058,1,0,0:0:0:0:
448,192,125240,1,0,0:0:0:0:
192,192,125422,1,0,0:0:0:0:
320,192,125604,1,0,0:0:0:0:
64,192,125785,1,0,0:0:0:0:
448,192,125967,1,0,0:0:0:0:
192,192,126149,1,0,0:0:0:0:
448,192,126331,1,0,0:0:0:0:
64,192,126513,1,0,0:0:0:0:
192,192,126695,1,0,0:0:0:0:
320,192,126876,1,0,0:0:0:0:
448,192,127058,1,0,0:0:0:0:
64,192,127240,1,0,0:0:0:0:
192,192,127422,1,0,0:0:0:0:
320,192,127604,1,0,0:0:0:0:
192,192,127785,1,0,0:0:0:0:
448,192,127967,1,0,0:0:0:0:
320,192,128149,1,0,0:0:0:0:
64,192,128331,1,0,0:0:0:0:
192,192,128513,1,0,0:0:0:0:
448,192,128695,1,8,0:0:0:0:
64,192,128695,1,0,0:0:0:0:
192,192,128785,1,8,0:0:0:0:
320,192,128785,1,0,0:0:0:0:
64,192,128876,1,2,0:0:0:0:
448,192,128876,1,0,0:0:0:0:
192,192,129058,1,2,0:0:0:0:
320,192,129058,1,0,0:0:0:0:
192,192,129240,1,6,0:0:0:0:
64,192,129240,1,0,0:0:0:0:
448,192,129240,1,0,0:0:0:0:
320,192,129331,1,0,0:0:0:0:
192,192,129422,1,0,0:0:0:0:
64,192,129513,1,0,0:0:0:0:
448,192,129604,1,0,0:0:0:0:
192,192,129695,1,0,0:0:0:0:
64,192,129785,1,2,0:0:0:0:
320,192,129785,1,0,0:0:0:0:
192,192,129876,1,2,0:0:0:0:
448,192,129876,1,0,0:0:0:0:
320,192,129967,1,8,0:0:0:0:
64,192,129967,1,0,0:0:0:0:
448,192,130058,1,0,0:0:0:0:
192,192,130149,1,2,0:0:0:0:
64,192,130149,1,0,0:0:0:0:
320,192,130240,1,0,0:0:0:0:
64,192,130331,1,0,0:0:0:0:
192,192,130422,1,0,0:0:0:0:
320,192,130513,1,2,0:0:0:0:
448,192,130513,1,0,0:0:0:0:
192,192,130604,1,0,0:0:0:0:
64,192,130695,1,0,0:0:0:0:
320,192,130785,1,0,0:0:0:0:
64,192,130876,1,8,0:0:0:0:
448,192,130876,1,0,0:0:0:0:
192,192,130967,1,0,0:0:0:0:
320,192,131058,1,2,0:0:0:0:
448,192,131058,1,0,0:0:0:0:
64,192,131149,1,0,0:0:0:0:
192,192,131240,1,0,0:0:0:0:
320,192,131331,1,0,0:0:0:0:
64,192,131422,1,8,0:0:0:0:
448,192,131422,1,0,0:0:0:0:
192,192,131513,1,0,0:0:0:0:
448,192,131604,1,0,0:0:0:0:
320,192,131695,1,0,0:0:0:0:
192,192,131785,1,2,0:0:0:0:
64,192,131785,1,0,0:0:0:0:
448,192,131876,1,0,0:0:0:0:
320,192,131967,1,0,0:0:0:0:
192,192,132058,1,0,0:0:0:0:
64,192,132149,1,2,0:0:0:0:
448,192,132149,1,0,0:0:0:0:
320,192,132240,1,0,0:0:0:0:
192,192,132331,1,0,0:0:0:0:
320,192,132422,1,0,0:0:0:0:
64,192,132513,1,0,0:0:0:0:
192,192,132604,1,0,0:0:0:0:
320,192,132695,1,2,0:0:0:0:
448,192,132695,1,0,0:0:0:0:
192,192,132785,1,2,0:0:0:0:
64,192,132785,1,0,0:0:0:0:
320,192,132876,1,8,0:0:0:0:
448,192,132876,1,0,0:0:0:0:
192,192,132967,1,0,0:0:0:0:
64,192,133058,1,2,0:0:0:0:
320,192,133058,1,0,0:0:0:0:
448,192,133149,1,0,0:0:0:0:
320,192,133240,1,0,0:0:0:0:
64,192,133331,1,0,0:0:0:0:
192,192,133422,1,2,0:0:0:0:
448,192,133422,1,0,0:0:0:0:
320,192,133513,1,0,0:0:0:0:
64,192,133604,1,0,0:0:0:0:
448,192,133695,1,0,0:0:0:0:
64,192,133785,1,8,0:0:0:0:
192,192,133785,1,0,0:0:0:0:
320,192,133876,1,0,0:0:0:0:
448,192,133967,1,2,0:0:0:0:
192,192,133967,1,0,0:0:0:0:
64,192,134058,1,0,0:0:0:0:
320,192,134149,1,2,0:0:0:0:
448,192,134149,1,0,0:0:0:0:
192,192,134240,1,2,0:0:0:0:
64,192,134240,1,0,0:0:0:0:
320,192,134331,1,8,0:0:0:0:
448,192,134331,1,0,0:0:0:0:
192,192,134422,1,0,0:0:0:0:
320,192,134513,1,2,0:0:0:0:
64,192,134513,1,0,0:0:0:0:
448,192,134604,1,0,0:0:0:0:
192,192,134695,1,8,0:0:0:0:
64,192,134695,1,0,0:0:0:0:
192,192,134785,1,8,0:0:0:0:
64,192,134785,1,0,0:0:0:0:
320,192,134876,1,2,0:0:0:0:
448,192,134876,1,0,0:0:0:0:
192,192,134967,1,8,0:0:0:0:
320,192,135058,1,6,0:0:0:0:
448,192,135058,1,0,0:0:0:0:
64,192,135058,1,0,0:0:0:0:
192,192,135149,1,0,0:0:0:0:
320,192,135240,1,0,0:0:0:0:
192,192,135331,1,0,0:0:0:0:
320,192,135422,1,8,0:0:0:0:
448,192,135422,1,0,0:0:0:0:
64,192,135513,1,0,0:0:0:0:
320,192,135604,1,0,0:0:0:0:
192,192,135695,1,0,0:0:0:0:
320,192,135785,1,8,0:0:0:0:
448,192,135785,1,0,0:0:0:0:
64,192,135876,1,0,0:0:0:0:
448,192,135967,1,0,0:0:0:0:
192,192,136058,1,0,0:0:0:0:
320,192,136149,1,8,0:0:0:0:
448,192,136149,1,0,0:0:0:0:
64,192,136240,1,0,0:0:0:0:
192,192,136331,1,0,0:0:0:0:
320,192,136422,1,0,0:0:0:0:
192,192,136513,1,8,0:0:0:0:
64,192,136513,1,0,0:0:0:0:
448,192,136604,1,0,0:0:0:0:
192,192,136695,1,0,0:0:0:0:
320,192,136785,1,0,0:0:0:0:
192,192,136876,1,8,0:0:0:0:
64,192,136876,1,0,0:0:0:0:
448,192,136967,1,0,0:0:0:0:
64,192,137058,1,0,0:0:0:0:
320,192,137149,1,0,0:0:0:0:
192,192,137240,1,8,0:0:0:0:
64,192,137240,1,0,0:0:0:0:
448,192,137331,1,0,0:0:0:0:
64,192,137422,1,0,0:0:0:0:
448,192,137513,1,0,0:0:0:0:
192,192,137604,1,8,0:0:0:0:
64,192,137604,1,0,0:0:0:0:
64,192,137695,1,8,0:0:0:0:
192,192,137695,1,0,0:0:0:0:
320,192,137785,1,8,0:0:0:0:
448,192,137785,1,0,0:0:0:0:
320,192,137876,1,8,0:0:0:0:
448,192,137876,1,0,0:0:0:0:
192,192,137967,1,2,0:0:0:0:
64,192,137967,1,0,0:0:0:0:
320,192,138058,1,0,0:0:0:0:
448,192,138149,1,8,0:0:0:0:
64,192,138149,1,0,0:0:0:0:
192,192,138240,1,0,0:0:0:0:
320,192,138331,1,2,0:0:0:0:
448,192,138331,1,0,0:0:0:0:
192,192,138422,1,0,0:0:0:0:
64,192,138513,1,8,0:0:0:0:
448,192,138513,1,0,0:0:0:0:
320,192,138604,1,0,0:0:0:0:
192,192,138695,1,2,0:0:0:0:
64,192,138695,1,0,0:0:0:0:
320,192,138785,1,0,0:0:0:0:
448,192,138876,1,8,0:0:0:0:
64,192,138876,1,0,0:0:0:0:
192,192,138967,1,0,0:0:0:0:
320,192,139058,1,2,0:0:0:0:
448,192,139058,1,0,0:0:0:0:
192,192,139149,1,0,0:0:0:0:
64,192,139240,1,8,0:0:0:0:
448,192,139240,1,0,0:0:0:0:
320,192,139331,1,0,0:0:0:0:
192,192,139422,1,2,0:0:0:0:
64,192,139422,1,0,0:0:0:0:
448,192,139513,1,0,0:0:0:0:
320,192,139604,1,8,0:0:0:0:
64,192,139604,1,0,0:0:0:0:
192,192,139695,1,0,0:0:0:0:
320,192,139785,1,2,0:0:0:0:
448,192,139785,1,0,0:0:0:0:
64,192,139876,1,0,0:0:0:0:
192,192,139967,1,8,0:0:0:0:
448,192,139967,1,0,0:0:0:0:
320,192,140058,1,0,0:0:0:0:
192,192,140149,1,2,0:0:0:0:
64,192,140149,1,0,0:0:0:0:
448,192,140240,1,0,0:0:0:0:
320,192,140331,1,8,0:0:0:0:
64,192,140331,1,0,0:0:0:0:
192,192,140422,1,0,0:0:0:0:
320,192,140513,1,2,0:0:0:0:
448,192,140513,1,0,0:0:0:0:
64,192,140604,1,0,0:0:0:0:
192,192,140695,1,8,0:0:0:0:
448,192,140695,1,0,0:0:0:0:
320,192,140785,1,0,0:0:0:0:
192,192,140876,1,12,0:0:0:0:
64,192,140876,1,0,0:0:0:0:
448,192,140876,1,0,0:0:0:0:
320,192,141058,1,0,0:0:0:0:
192,192,141240,1,0,0:0:0:0:
64,192,141422,1,0,0:0:0:0:
448,192,141604,1,0,0:0:0:0:
320,192,141785,1,0,0:0:0:0:
192,192,141967,1,0,0:0:0:0:
64,192,142149,1,0,0:0:0:0:
320,192,142331,1,0,0:0:0:0:
448,192,142513,1,0,0:0:0:0:
192,192,142695,1,0,0:0:0:0:
64,192,142876,1,0,0:0:0:0:
320,192,143058,1,0,0:0:0:0:
448,192,143240,1,0,0:0:0:0:
192,192,143422,1,0,0:0:0:0:
64,192,143604,1,0,0:0:0:0:
448,192,143785,1,0,0:0:0:0:
64,192,143876,1,0,0:0:0:0:
448,192,143967,1,0,0:0:0:0:
64,192,144058,1,0,0:0:0:0:
192,192,144149,1,0,0:0:0:0:
320,192,144240,1,0,0:0:0:0:
448,192,144331,1,0,0:0:0:0:
64,192,144422,1,0,0:0:0:0:
448,192,144513,1,0,0:0:0:0:
64,192,144604,1,0,0:0:0:0:
448,192,144695,1,0,0:0:0:0:
320,192,144785,1,0,0:0:0:0:
192,192,144876,1,0,0:0:0:0:
64,192,144967,1,0,0:0:0:0:
448,192,145058,1,0,0:0:0:0:
64,192,145149,1,0,0:0:0:0:
320,192,145240,1,0,0:0:0:0:
448,192,145240,1,0,0:0:0:0:
192,192,145331,1,0,0:0:0:0:
64,192,145331,1,0,0:0:0:0:
320,192,145422,1,0,0:0:0:0:
448,192,145422,1,0,0:0:0:0:
192,192,145513,1,0,0:0:0:0:
64,192,145513,1,0,0:0:0:0:
448,192,145604,1,0,0:0:0:0:
320,192,145604,1,0,0:0:0:0:
192,192,145695,1,0,0:0:0:0:
64,192,145695,1,0,0:0:0:0:
320,192,145785,1,0,0:0:0:0:
448,192,145785,1,0,0:0:0:0:
192,192,145876,1,0,0:0:0:0:
64,192,145876,1,0,0:0:0:0:
448,192,145967,1,0,0:0:0:0:
320,192,145967,1,0,0:0:0:0:
192,192,146058,1,0,0:0:0:0:
64,192,146058,1,0,0:0:0:0:
320,192,146149,1,0,0:0:0:0:
448,192,146149,1,0,0:0:0:0:
192,192,146240,1,0,0:0:0:0:
64,192,146240,1,0,0:0:0:0:
448,192,146331,1,0,0:0:0:0:
320,192,146331,1,0,0:0:0:0:
192,192,146422,1,0,0:0:0:0:
64,192,146422,1,0,0:0:0:0:
320,192,146513,1,0,0:0:0:0:
448,192,146513,1,0,0:0:0:0:
192,192,146604,1,0,0:0:0:0:
64,192,146695,1,0,0:0:0:0:
320,192,146695,1,0,0:0:0:0:
448,192,146695,1,0,0:0:0:0:
192,192,147422,1,0,0:0:0:0:
448,192,147513,1,0,0:0:0:0:
64,192,147604,1,0,0:0:0:0:
320,192,147695,1,0,0:0:0:0:
192,192,147785,1,0,0:0:0:0:
64,192,147876,1,0,0:0:0:0:
448,192,147967,1,0,0:0:0:0:
320,192,148058,1,0,0:0:0:0:
192,192,148149,1,6,0:0:0:0:
64,192,148149,1,0,0:0:0:0:
448,192,148149,1,0,0:0:0:0:
320,192,148331,1,0,0:0:0:0:
64,192,148422,1,0,0:0:0:0:
448,192,148513,1,8,0:0:0:0:
192,192,148513,1,0,0:0:0:0:
320,192,148513,1,0,0:0:0:0:
64,192,148604,1,0,0:0:0:0:
320,192,148695,1,0,0:0:0:0:
192,192,148785,1,0,0:0:0:0:
320,192,148876,1,2,0:0:0:0:
448,192,148876,1,0,0:0:0:0:
64,192,148967,1,0,0:0:0:0:
448,192,149058,1,0,0:0:0:0:
320,192,149149,1,0,0:0:0:0:
192,192,149240,1,8,0:0:0:0:
64,192,149240,1,0,0:0:0:0:
448,192,149240,1,0,0:0:0:0:
320,192,149331,1,0,0:0:0:0:
192,192,149422,1,0,0:0:0:0:
448,192,149513,1,0,0:0:0:0:
192,192,149604,1,2,0:0:0:0:
64,192,149604,1,0,0:0:0:0:
448,192,149695,1,0,0:0:0:0:
320,192,149785,1,0,0:0:0:0:
192,192,149876,1,0,0:0:0:0:
448,192,149967,1,8,0:0:0:0:
64,192,149967,1,0,0:0:0:0:
320,192,149967,1,0,0:0:0:0:
192,192,150058,1,0,0:0:0:0:
448,192,150149,1,0,0:0:0:0:
320,192,150240,1,0,0:0:0:0:
448,192,150331,1,2,0:0:0:0:
64,192,150331,1,0,0:0:0:0:
320,192,150422,1,0,0:0:0:0:
192,192,150513,1,0,0:0:0:0:
320,192,150604,1,0,0:0:0:0:
192,192,150695,1,8,0:0:0:0:
64,192,150695,1,0,0:0:0:0:
448,192,150695,1,0,0:0:0:0:
320,192,150785,1,0,0:0:0:0:
64,192,150876,1,0,0:0:0:0:
448,192,150967,1,0,0:0:0:0:
192,192,151058,1,2,0:0:0:0:
64,192,151058,1,0,0:0:0:0:
320,192,151149,1,0,0:0:0:0:
64,192,151240,1,0,0:0:0:0:
192,192,151331,1,0,0:0:0:0:
320,192,151422,1,8,0:0:0:0:
448,192,151422,1,0,0:0:0:0:
64,192,151422,1,0,0:0:0:0:
192,192,151513,1,0,0:0:0:0:
448,192,151604,1,0,0:0:0:0:
64,192,151695,1,0,0:0:0:0:
320,192,151785,1,2,0:0:0:0:
448,192,151785,1,0,0:0:0:0:
192,192,151876,1,0,0:0:0:0:
448,192,151967,1,0,0:0:0:0:
320,192,152058,1,0,0:0:0:0:
192,192,152149,1,8,0:0:0:0:
64,192,152149,1,0,0:0:0:0:
448,192,152149,1,0,0:0:0:0:
320,192,152240,1,0,0:0:0:0:
64,192,152331,1,0,0:0:0:0:
448,192,152422,1,0,0:0:0:0:
192,192,152513,1,2,0:0:0:0:
64,192,152513,1,0,0:0:0:0:
320,192,152604,1,0,0:0:0:0:
64,192,152695,1,0,0:0:0:0:
192,192,152785,1,0,0:0:0:0:
320,192,152876,1,8,0:0:0:0:
448,192,152876,1,0,0:0:0:0:
64,192,152876,1,0,0:0:0:0:
192,192,152967,1,0,0:0:0:0:
448,192,153058,1,0,0:0:0:0:
64,192,153149,1,0,0:0:0:0:
320,192,153240,1,2,0:0:0:0:
448,192,153240,1,0,0:0:0:0:
64,192,153331,1,0,0:0:0:0:
192,192,153422,1,0,0:0:0:0:
320,192,153513,1,0,0:0:0:0:
192,192,153604,1,8,0:0:0:0:
64,192,153604,1,0,0:0:0:0:
448,192,153604,1,0,0:0:0:0:
320,192,153695,1,0,0:0:0:0:
64,192,153785,1,0,0:0:0:0:
192,192,153876,1,0,0:0:0:0:
64,192,153967,1,2,0:0:0:0:
448,192,153967,1,0,0:0:0:0:
192,192,154149,1,0,0:0:0:0:
320,192,154240,1,0,0:0:0:0:
192,192,154331,1,8,0:0:0:0:
64,192,154331,1,0,0:0:0:0:
448,192,154331,1,0,0:0:0:0:
320,192,154422,1,0,0:0:0:0:
64,192,154513,1,0,0:0:0:0:
320,192,154604,1,0,0:0:0:0:
448,192,154695,1,2,0:0:0:0:
192,192,154695,1,0,0:0:0:0:
64,192,154785,1,0,0:0:0:0:
448,192,154876,1,0,0:0:0:0:
320,192,154967,1,0,0:0:0:0:
192,192,155058,1,8,0:0:0:0:
64,192,155058,1,0,0:0:0:0:
448,192,155058,1,0,0:0:0:0:
320,192,155149,1,0,0:0:0:0:
64,192,155240,1,0,0:0:0:0:
448,192,155331,1,0,0:0:0:0:
64,192,155422,1,2,0:0:0:0:
320,192,155422,1,0,0:0:0:0:
192,192,155513,1,0,0:0:0:0:
448,192,155604,1,0,0:0:0:0:
320,192,155695,1,0,0:0:0:0:
64,192,155785,1,8,0:0:0:0:
192,192,155785,1,0,0:0:0:0:
448,192,155785,1,0,0:0:0:0:
320,192,155876,1,0,0:0:0:0:
64,192,155967,1,0,0:0:0:0:
192,192,156058,1,0,0:0:0:0:
320,192,156149,1,2,0:0:0:0:
448,192,156149,1,0,0:0:0:0:
64,192,156240,1,0,0:0:0:0:
192,192,156331,1,0,0:0:0:0:
320,192,156422,1,0,0:0:0:0:
448,192,156513,1,8,0:0:0:0:
64,192,156513,1,0,0:0:0:0:
192,192,156513,1,0,0:0:0:0:
320,192,156604,1,0,0:0:0:0:
64,192,156695,1,0,0:0:0:0:
192,192,156785,1,0,0:0:0:0:
64,192,156876,1,2,0:0:0:0:
448,192,156876,1,0,0:0:0:0:
192,192,156967,1,0,0:0:0:0:
448,192,157058,1,0,0:0:0:0:
64,192,157149,1,0,0:0:0:0:
448,192,157240,128,0,157331:0:0:0:0:
320,192,157240,128,8,157331:0:0:0:0:
64,192,157331,128,0,157422:0:0:0:0:
192,192,157331,128,0,157422:0:0:0:0:
448,192,157422,1,0,0:0:0:0:
320,192,157513,1,0,0:0:0:0:
64,192,157604,1,2,0:0:0:0:
448,192,157604,1,0,0:0:0:0:
192,192,157695,1,0,0:0:0:0:
448,192,157785,1,0,0:0:0:0:
320,192,157876,1,0,0:0:0:0:
64,192,157967,128,0,158058:0:0:0:0:
192,192,157967,128,8,158058:0:0:0:0:
320,192,158058,128,0,158149:0:0:0:0:
448,192,158058,128,0,158149:0:0:0:0:
64,192,158149,1,0,0:0:0:0:
192,192,158240,1,0,0:0:0:0:
320,192,158331,1,2,0:0:0:0:
448,192,158331,1,0,0:0:0:0:
192,192,158422,1,0,0:0:0:0:
320,192,158513,1,0,0:0:0:0:
64,192,158604,1,0,0:0:0:0:
320,192,158695,1,8,0:0:0:0:
192,192,158695,1,0,0:0:0:0:
448,192,158695,1,0,0:0:0:0:
64,192,158785,1,0,0:0:0:0:
448,192,158876,1,0,0:0:0:0:
192,192,158967,1,0,0:0:0:0:
320,192,159058,1,2,0:0:0:0:
448,192,159058,1,0,0:0:0:0:
64,192,159149,1,0,0:0:0:0:
320,192,159240,1,0,0:0:0:0:
192,192,159331,1,0,0:0:0:0:
448,192,159422,1,8,0:0:0:0:
64,192,159422,1,0,0:0:0:0:
320,192,159422,1,0,0:0:0:0:
192,192,159513,1,0,0:0:0:0:
448,192,159604,1,0,0:0:0:0:
192,192,159695,1,0,0:0:0:0:
448,192,159785,1,6,0:0:0:0:
320,192,159785,1,0,0:0:0:0:
64,192,159785,1,0,0:0:0:0:
320,192,159967,1,0,0:0:0:0:
64,192,160058,1,0,0:0:0:0:
448,192,160149,1,8,0:0:0:0:
320,192,160149,1,0,0:0:0:0:
192,192,160149,1,0,0:0:0:0:
64,192,160240,1,0,0:0:0:0:
448,192,160331,1,0,0:0:0:0:
320,192,160422,1,0,0:0:0:0:
192,192,160513,1,2,0:0:0:0:
64,192,160513,1,0,0:0:0:0:
320,192,160604,1,0,0:0:0:0:
192,192,160695,1,0,0:0:0:0:
448,192,160785,1,0,0:0:0:0:
192,192,160876,1,8,0:0:0:0:
64,192,160876,1,0,0:0:0:0:
320,192,160876,1,0,0:0:0:0:
448,192,160967,1,0,0:0:0:0:
64,192,161058,1,0,0:0:0:0:
192,192,161149,1,0,0:0:0:0:
320,192,161240,1,2,0:0:0:0:
448,192,161240,1,0,0:0:0:0:
64,192,161331,1,0,0:0:0:0:
192,192,161422,1,0,0:0:0:0:
320,192,161513,1,0,0:0:0:0:
448,192,161604,1,8,0:0:0:0:
64,192,161604,1,0,0:0:0:0:
192,192,161604,1,0,0:0:0:0:
320,192,161695,1,0,0:0:0:0:
64,192,161785,1,0,0:0:0:0:
192,192,161876,1,0,0:0:0:0:
64,192,161967,1,2,0:0:0:0:
448,192,161967,1,0,0:0:0:0:
320,192,162058,1,0,0:0:0:0:
192,192,162149,1,0,0:0:0:0:
64,192,162240,1,0,0:0:0:0:
320,192,162331,1,8,0:0:0:0:
448,192,162331,1,0,0:0:0:0:
192,192,162331,1,0,0:0:0:0:
64,192,162422,1,0,0:0:0:0:
448,192,162513,1,0,0:0:0:0:
192,192,162604,1,0,0:0:0:0:
320,192,162695,1,2,0:0:0:0:
448,192,162695,1,0,0:0:0:0:
64,192,162785,1,0,0:0:0:0:
192,192,162876,1,0,0:0:0:0:
448,192,162967,1,0,0:0:0:0:
192,192,163058,1,8,0:0:0:0:
64,192,163058,1,0,0:0:0:0:
320,192,163058,1,0,0:0:0:0:
448,192,163149,1,0,0:0:0:0:
64,192,163240,1,0,0:0:0:0:
320,192,163331,1,0,0:0:0:0:
192,192,163422,1,2,0:0:0:0:
64,192,163422,1,0,0:0:0:0:
448,192,163513,1,0,0:0:0:0:
320,192,163604,1,0,0:0:0:0:
64,192,163695,1,0,0:0:0:0:
320,192,163785,1,8,0:0:0:0:
448,192,163785,1,0,0:0:0:0:
192,192,163785,1,0,0:0:0:0:
64,192,163876,1,0,0:0:0:0:
448,192,163967,1,0,0:0:0:0:
192,192,164058,1,0,0:0:0:0:
320,192,164149,1,2,0:0:0:0:
448,192,164149,1,0,0:0:0:0:
64,192,164240,1,0,0:0:0:0:
192,192,164331,1,0,0:0:0:0:
448,192,164422,1,0,0:0:0:0:
192,192,164513,1,8,0:0:0:0:
64,192,164513,1,0,0:0:0:0:
320,192,164513,1,0,0:0:0:0:
448,192,164604,1,0,0:0:0:0:
64,192,164695,1,0,0:0:0:0:
320,192,164785,1,0,0:0:0:0:
192,192,164876,1,2,0:0:0:0:
64,192,164876,1,0,0:0:0:0:
448,192,164967,1,0,0:0:0:0:
64,192,165058,1,0,0:0:0:0:
320,192,165149,1,0,0:0:0:0:
192,192,165240,1,8,0:0:0:0:
448,192,165240,1,0,0:0:0:0:
64,192,165240,1,0,0:0:0:0:
320,192,165331,1,0,0:0:0:0:
64,192,165422,1,0,0:0:0:0:
448,192,165513,1,0,0:0:0:0:
192,192,165604,1,2,0:0:0:0:
64,192,165604,1,0,0:0:0:0:
448,192,165695,1,0,0:0:0:0:
320,192,165785,1,0,0:0:0:0:
192,192,165876,1,0,0:0:0:0:
448,192,165967,1,8,0:0:0:0:
64,192,165967,1,0,0:0:0:0:
320,192,165967,1,0,0:0:0:0:
192,192,166058,1,0,0:0:0:0:
448,192,166149,1,0,0:0:0:0:
64,192,166240,1,0,0:0:0:0:
320,192,166331,1,2,0:0:0:0:
192,192,166331,1,0,0:0:0:0:
64,192,166422,1,0,0:0:0:0:
448,192,166513,1,0,0:0:0:0:
320,192,166604,1,0,0:0:0:0:
64,192,166695,1,8,0:0:0:0:
448,192,166695,1,0,0:0:0:0:
192,192,166695,1,0,0:0:0:0:
320,192,166785,1,0,0:0:0:0:
192,192,166876,1,0,0:0:0:0:
320,192,166967,1,0,0:0:0:0:
448,192,167058,1,2,0:0:0:0:
192,192,167058,1,0,0:0:0:0:
64,192,167149,1,0,0:0:0:0:
192,192,167240,1,0,0:0:0:0:
320,192,167331,1,0,0:0:0:0:
64,192,167422,1,8,0:0:0:0:
448,192,167422,1,0,0:0:0:0:
192,192,167422,1,0,0:0:0:0:
320,192,167513,1,0,0:0:0:0:
64,192,167604,1,0,0:0:0:0:
192,192,167695,1,0,0:0:0:0:
320,192,167785,1,2,0:0:0:0:
448,192,167785,1,0,0:0:0:0:
64,192,167876,1,0,0:0:0:0:
320,192,167967,1,0,0:0:0:0:
192,192,168058,1,0,0:0:0:0:
448,192,168149,1,8,0:0:0:0:
64,192,168149,1,0,0:0:0:0:
320,192,168149,1,0,0:0:0:0:
192,192,168240,1,0,0:0:0:0:
320,192,168331,1,0,0:0:0:0:
192,192,168422,1,0,0:0:0:0:
64,192,168513,1,2,0:0:0:0:
320,192,168513,1,0,0:0:0:0:
448,192,168604,1,0,0:0:0:0:
64,192,168695,1,0,0:0:0:0:
192,192,168785,1,0,0:0:0:0:
448,192,168876,128,0,168967:0:0:0:0:
320,192,168876,128,8,168967:0:0:0:0:
192,192,168967,128,0,169058:0:0:0:0:
64,192,168967,128,0,169058:0:0:0:0:
448,192,169058,1,0,0:0:0:0:
320,192,169149,1,0,0:0:0:0:
448,192,169240,1,2,0:0:0:0:
192,192,169240,1,0,0:0:0:0:
64,192,169331,1,0,0:0:0:0:
448,192,169422,1,0,0:0:0:0:
320,192,169513,1,0,0:0:0:0:
64,192,169604,128,8,169695:0:0:0:0:
192,192,169604,128,0,169695:0:0:0:0:
320,192,169695,128,0,169785:0:0:0:0:
448,192,169695,128,0,169785:0:0:0:0:
192,192,169785,1,0,0:0:0:0:
64,192,169876,1,0,0:0:0:0:
320,192,169967,1,2,0:0:0:0:
448,192,169967,1,0,0:0:0:0:
192,192,170058,1,0,0:0:0:0:
448,192,170149,1,0,0:0:0:0:
320,192,170240,1,0,0:0:0:0:
64,192,170331,1,8,0:0:0:0:
192,192,170331,1,0,0:0:0:0:
448,192,170331,1,0,0:0:0:0:
320,192,170422,1,0,0:0:0:0:
64,192,170513,1,0,0:0:0:0:
192,192,170604,1,0,0:0:0:0:
320,192,170695,1,2,0:0:0:0:
448,192,170695,1,0,0:0:0:0:
192,192,170785,1,0,0:0:0:0:
64,192,170876,1,8,0:0:0:0:
448,192,170876,1,0,0:0:0:0:
320,192,170967,1,8,0:0:0:0:
192,192,170967,1,0,0:0:0:0:
448,192,171058,1,2,0:0:0:0:
64,192,171058,1,0,0:0:0:0:
320,192,171149,1,0,0:0:0:0:
192,192,171240,1,8,0:0:0:0:
64,192,171240,1,0,0:0:0:0:
320,192,171331,1,0,0:0:0:0:
448,192,171422,1,6,0:0:0:0:
192,192,171422,1,0,0:0:0:0:
64,192,171422,1,0,0:0:0:0:
320,192,171513,1,0,0:0:0:0:
192,192,171604,1,0,0:0:0:0:
64,192,171604,1,0,0:0:0:0:
192,192,171695,1,0,0:0:0:0:
64,192,171695,1,0,0:0:0:0:
448,192,171785,1,8,0:0:0:0:
320,192,171876,1,0,0:0:0:0:
192,192,171876,1,0,0:0:0:0:
192,192,171967,1,0,0:0:0:0:
320,192,171967,1,0,0:0:0:0:
64,192,172058,1,0,0:0:0:0:
448,192,172149,1,2,0:0:0:0:
192,192,172149,1,0,0:0:0:0:
448,192,172240,1,0,0:0:0:0:
192,192,172240,1,0,0:0:0:0:
320,192,172331,1,0,0:0:0:0:
192,192,172422,1,0,0:0:0:0:
64,192,172422,1,0,0:0:0:0:
320,192,172513,1,8,0:0:0:0:
448,192,172513,1,0,0:0:0:0:
64,192,172604,1,0,0:0:0:0:
320,192,172695,1,0,0:0:0:0:
448,192,172695,1,0,0:0:0:0:
192,192,172785,1,0,0:0:0:0:
448,192,172876,1,2,0:0:0:0:
64,192,172876,1,0,0:0:0:0:
320,192,172967,1,0,0:0:0:0:
448,192,173058,1,0,0:0:0:0:
64,192,173058,1,0,0:0:0:0:
64,192,173149,1,0,0:0:0:0:
448,192,173149,1,0,0:0:0:0:
192,192,173240,1,8,0:0:0:0:
320,192,173331,1,0,0:0:0:0:
448,192,173331,1,0,0:0:0:0:
448,192,173422,1,0,0:0:0:0:
320,192,173422,1,0,0:0:0:0:
192,192,173513,1,0,0:0:0:0:
64,192,173604,1,2,0:0:0:0:
320,192,173604,1,0,0:0:0:0:
320,192,173695,1,0,0:0:0:0:
64,192,173695,1,0,0:0:0:0:
448,192,173785,1,0,0:0:0:0:
192,192,173876,1,0,0:0:0:0:
64,192,173876,1,0,0:0:0:0:
320,192,173967,1,8,0:0:0:0:
448,192,173967,1,0,0:0:0:0:
192,192,174058,1,0,0:0:0:0:
320,192,174149,1,0,0:0:0:0:
448,192,174149,1,0,0:0:0:0:
64,192,174240,1,0,0:0:0:0:
192,192,174331,1,2,0:0:0:0:
448,192,174331,1,0,0:0:0:0:
320,192,174422,1,0,0:0:0:0:
64,192,174513,1,0,0:0:0:0:
192,192,174513,1,0,0:0:0:0:
64,192,174604,1,0,0:0:0:0:
192,192,174604,1,0,0:0:0:0:
320,192,174695,1,8,0:0:0:0:
64,192,174785,1,0,0:0:0:0:
448,192,174785,1,0,0:0:0:0:
448,192,174876,1,0,0:0:0:0:
64,192,174876,1,0,0:0:0:0:
192,192,174967,1,0,0:0:0:0:
448,192,175058,1,2,0:0:0:0:
320,192,175058,1,0,0:0:0:0:
320,192,175149,1,0,0:0:0:0:
448,192,175149,1,0,0:0:0:0:
192,192,175240,1,0,0:0:0:0:
320,192,175331,1,0,0:0:0:0:
64,192,175331,1,0,0:0:0:0:
192,192,175422,1,8,0:0:0:0:
448,192,175422,1,0,0:0:0:0:
64,192,175513,1,0,0:0:0:0:
320,192,175604,1,0,0:0:0:0:
448,192,175604,1,0,0:0:0:0:
64,192,175695,1,0,0:0:0:0:
448,192,175785,1,2,0:0:0:0:
320,192,175785,1,0,0:0:0:0:
192,192,175785,1,0,0:0:0:0:
192,192,175967,1,0,0:0:0:0:
64,192,175967,1,0,0:0:0:0:
192,192,176058,1,0,0:0:0:0:
320,192,176149,1,8,0:0:0:0:
448,192,176149,1,0,0:0:0:0:
64,192,176149,1,0,0:0:0:0:
448,192,176331,1,0,0:0:0:0:
192,192,176331,1,0,0:0:0:0:
448,192,176422,1,0,0:0:0:0:
320,192,176513,1,2,0:0:0:0:
192,192,176513,1,0,0:0:0:0:
64,192,176513,1,0,0:0:0:0:
320,192,176695,1,0,0:0:0:0:
64,192,176695,1,0,0:0:0:0:
320,192,176785,1,0,0:0:0:0:
192,192,176876,1,8,0:0:0:0:
64,192,176876,1,0,0:0:0:0:
448,192,176876,1,0,0:0:0:0:
192,192,177058,1,0,0:0:0:0:
448,192,177058,1,0,0:0:0:0:
192,192,177149,1,0,0:0:0:0:
448,192,177240,1,6,0:0:0:0:
320,192,177240,1,0,0:0:0:0:
64,192,177240,1,0,0:0:0:0:
192,192,177331,1,0,0:0:0:0:
320,192,177422,1,0,0:0:0:0:
448,192,177422,1,0,0:0:0:0:
448,192,177513,1,0,0:0:0:0:
320,192,177513,1,0,0:0:0:0:
192,192,177604,1,8,0:0:0:0:
64,192,177695,1,0,0:0:0:0:
448,192,177695,1,0,0:0:0:0:
448,192,177785,1,0,0:0:0:0:
64,192,177785,1,0,0:0:0:0:
320,192,177876,1,0,0:0:0:0:
64,192,177967,1,2,0:0:0:0:
192,192,177967,1,0,0:0:0:0:
64,192,178058,1,0,0:0:0:0:
192,192,178058,1,0,0:0:0:0:
448,192,178149,1,0,0:0:0:0:
320,192,178240,1,0,0:0:0:0:
192,192,178240,1,0,0:0:0:0:
448,192,178331,1,8,0:0:0:0:
64,192,178331,1,0,0:0:0:0:
320,192,178422,1,0,0:0:0:0:
192,192,178513,1,0,0:0:0:0:
64,192,178513,1,0,0:0:0:0:
320,192,178604,1,0,0:0:0:0:
64,192,178695,1,2,0:0:0:0:
448,192,178695,1,0,0:0:0:0:
192,192,178785,1,0,0:0:0:0:
320,192,178876,1,0,0:0:0:0:
448,192,178876,1,0,0:0:0:0:
320,192,178967,1,0,0:0:0:0:
448,192,178967,1,0,0:0:0:0:
64,192,179058,1,8,0:0:0:0:
192,192,179149,1,0,0:0:0:0:
320,192,179149,1,0,0:0:0:0:
320,192,179240,1,0,0:0:0:0:
192,192,179240,1,0,0:0:0:0:
448,192,179331,1,0,0:0:0:0:
320,192,179422,1,2,0:0:0:0:
64,192,179422,1,0,0:0:0:0:
192,192,179513,1,0,0:0:0:0:
320,192,179604,1,0,0:0:0:0:
64,192,179604,1,0,0:0:0:0:
192,192,179695,1,0,0:0:0:0:
448,192,179785,1,8,0:0:0:0:
64,192,179785,1,0,0:0:0:0:
320,192,179876,1,0,0:0:0:0:
64,192,179967,1,0,0:0:0:0:
448,192,179967,1,0,0:0:0:0:
192,192,180058,1,0,0:0:0:0:
320,192,180149,1,2,0:0:0:0:
64,192,180149,1,0,0:0:0:0:
192,192,180240,1,0,0:0:0:0:
448,192,180331,1,0,0:0:0:0:
320,192,180331,1,0,0:0:0:0:
448,192,180422,1,0,0:0:0:0:
320,192,180422,1,0,0:0:0:0:
64,192,180513,1,8,0:0:0:0:
320,192,180604,1,0,0:0:0:0:
192,192,180604,1,0,0:0:0:0:
192,192,180695,1,0,0:0:0:0:
320,192,180695,1,0,0:0:0:0:
448,192,180785,1,0,0:0:0:0:
64,192,180876,1,2,0:0:0:0:
320,192,180876,1,0,0:0:0:0:
320,192,180967,1,0,0:0:0:0:
64,192,180967,1,0,0:0:0:0:
192,192,181058,1,0,0:0:0:0:
320,192,181149,1,0,0:0:0:0:
448,192,181149,1,0,0:0:0:0:
192,192,181240,1,8,0:0:0:0:
64,192,181240,1,0,0:0:0:0:
320,192,181331,1,8,0:0:0:0:
448,192,181331,1,0,0:0:0:0:
64,192,181422,1,8,0:0:0:0:
192,192,181422,1,0,0:0:0:0:
320,192,181513,1,8,0:0:0:0:
64,192,181604,1,2,0:0:0:0:
192,192,181604,1,0,0:0:0:0:
448,192,181604,1,0,0:0:0:0:
320,192,181785,1,0,0:0:0:0:
448,192,181876,1,2,0:0:0:0:
192,192,181876,1,0,0:0:0:0:
64,192,181876,1,0,0:0:0:0:
320,192,182058,1,0,0:0:0:0:
448,192,182149,1,2,0:0:0:0:
192,192,182149,1,0,0:0:0:0:
64,192,182149,1,0,0:0:0:0:
320,192,182331,1,0,0:0:0:0:
448,192,182422,1,2,0:0:0:0:
192,192,182422,1,0,0:0:0:0:
64,192,182422,1,0,0:0:0:0:
320,192,182604,1,0,0:0:0:0:
448,192,182695,1,8,0:0:0:0:
192,192,182695,1,0,0:0:0:0:
64,192,182695,1,0,0:0:0:0:
320,192,182876,1,0,0:0:0:0:
192,192,182876,1,0,0:0:0:0:
320,192,183058,1,12,0:0:0:0:
448,192,183058,1,0,0:0:0:0:
64,192,183058,128,0,184513:0:0:0:0:
192,192,183240,1,0,0:0:0:0:
320,192,183422,1,0,0:0:0:0:
448,192,183604,1,0,0:0:0:0:
320,192,183785,1,0,0:0:0:0:
192,192,183967,1,0,0:0:0:0:
320,192,184149,1,0,0:0:0:0:
448,192,184331,1,0,0:0:0:0:
192,192,184513,1,0,0:0:0:0:
320,192,184695,1,0,0:0:0:0:
64,192,184876,1,0,0:0:0:0:
448,192,185058,1,0,0:0:0:0:
192,192,185240,1,0,0:0:0:0:
320,192,185422,1,0,0:0:0:0:
64,192,185604,1,0,0:0:0:0:
448,192,185785,1,0,0:0:0:0:
320,192,185785,1,0,0:0:0:0:
192,192,185876,1,0,0:0:0:0:
64,192,185876,1,0,0:0:0:0:
320,192,185967,1,2,0:0:0:0:
448,192,185967,1,0,0:0:0:0:
320,192,186149,1,2,0:0:0:0:
448,192,186149,1,0,0:0:0:0:
320,192,186331,1,2,0:0:0:0:
448,192,186331,1,0,0:0:0:0:
448,192,186513,1,2,0:0:0:0:
320,192,186513,1,0,0:0:0:0:
192,192,186695,1,2,0:0:0:0:
64,192,186695,1,0,0:0:0:0:
192,192,186876,1,2,0:0:0:0:
64,192,186876,1,0,0:0:0:0:
192,192,187058,1,2,0:0:0:0:
64,192,187058,1,0,0:0:0:0:
192,192,187240,1,2,0:0:0:0:
64,192,187240,1,0,0:0:0:0:
320,192,187422,1,2,0:0:0:0:
448,192,187422,1,0,0:0:0:0:
64,192,187513,1,2,0:0:0:0:
192,192,187513,1,0,0:0:0:0:
320,192,187604,1,2,0:0:0:0:
448,192,187604,1,0,0:0:0:0:
64,192,187695,1,2,0:0:0:0:
192,192,187695,1,0,0:0:0:0:
320,192,187785,1,2,0:0:0:0:
448,192,187785,1,0,0:0:0:0:
192,192,187876,1,2,0:0:0:0:
64,192,187876,1,0,0:0:0:0:
448,192,187967,1,2,0:0:0:0:
320,192,188013,1,0,0:0:0:0:
192,192,188058,1,0,0:0:0:0:
64,192,188104,1,0,0:0:0:0:
320,192,188149,1,0,0:0:0:0:
448,192,188195,1,0,0:0:0:0:
64,192,188240,1,0,0:0:0:0:
192,192,188285,1,0,0:0:0:0:
448,192,188331,1,2,0:0:0:0:
320,192,188331,1,0,0:0:0:0:
64,192,188513,1,12,0:0:0:0:
192,192,188513,1,0,0:0:0:0:
320,192,188513,1,0,0:0:0:0:
448,192,188513,1,0,0:0:0:0:
64,192,188876,1,2,0:0:0:0:
320,192,188876,1,0,0:0:0:0:
448,192,188876,1,0,0:0:0:0:
192,192,188967,1,0,0:0:0:0:
64,192,189058,1,0,0:0:0:0:
320,192,189149,1,0,0:0:0:0:
192,192,189240,1,2,0:0:0:0:
448,192,189240,1,0,0:0:0:0:
320,192,189331,1,0,0:0:0:0:
448,192,189422,1,0,0:0:0:0:
192,192,189513,1,0,0:0:0:0:
64,192,189604,1,2,0:0:0:0:
448,192,189604,1,0,0:0:0:0:
320,192,189695,1,0,0:0:0:0:
64,192,189785,1,0,0:0:0:0:
192,192,189876,1,0,0:0:0:0:
64,192,189967,1,2,0:0:0:0:
448,192,189967,1,0,0:0:0:0:
320,192,190058,1,0,0:0:0:0:
64,192,190149,1,0,0:0:0:0:
192,192,190240,1,0,0:0:0:0:
320,192,190331,1,2,0:0:0:0:
448,192,190331,1,0,0:0:0:0:
64,192,190422,1,0,0:0:0:0:
192,192,190513,1,0,0:0:0:0:
320,192,190604,1,0,0:0:0:0:
64,192,190695,1,2,0:0:0:0:
192,192,190695,1,0,0:0:0:0:
448,192,190785,1,0,0:0:0:0:
320,192,190876,1,0,0:0:0:0:
192,192,190967,1,0,0:0:0:0:
64,192,191058,1,2,0:0:0:0:
320,192,191058,1,0,0:0:0:0:
448,192,191149,1,0,0:0:0:0:
192,192,191240,1,0,0:0:0:0:
320,192,191331,1,0,0:0:0:0:
192,192,191422,1,2,0:0:0:0:
448,192,191422,1,0,0:0:0:0:
64,192,191513,1,0,0:0:0:0:
320,192,191604,1,0,0:0:0:0:
192,192,191695,1,0,0:0:0:0:
64,192,191785,1,2,0:0:0:0:
448,192,191785,1,0,0:0:0:0:
320,192,191876,1,0,0:0:0:0:
192,192,191967,1,0,0:0:0:0:
320,192,192058,1,0,0:0:0:0:
448,192,192149,1,2,0:0:0:0:
64,192,192149,1,0,0:0:0:0:
192,192,192240,1,0,0:0:0:0:
320,192,192331,1,0,0:0:0:0:
192,192,192422,1,0,0:0:0:0:
64,192,192513,1,2,0:0:0:0:
320,192,192513,1,0,0:0:0:0:
448,192,192604,1,0,0:0:0:0:
192,192,192695,1,0,0:0:0:0:
64,192,192785,1,0,0:0:0:0:
192,192,192876,1,2,0:0:0:0:
448,192,192876,1,0,0:0:0:0:
64,192,192967,1,0,0:0:0:0:
320,192,193058,1,0,0:0:0:0:
448,192,193149,1,0,0:0:0:0:
192,192,193240,1,2,0:0:0:0:
64,192,193240,1,0,0:0:0:0:
320,192,193331,1,0,0:0:0:0:
64,192,193422,1,0,0:0:0:0:
320,192,193513,1,0,0:0:0:0:
64,192,193604,1,2,0:0:0:0:
192,192,193604,1,0,0:0:0:0:
448,192,193695,1,0,0:0:0:0:
192,192,193785,1,0,0:0:0:0:
448,192,193876,1,0,0:0:0:0:
64,192,193967,1,2,0:0:0:0:
320,192,193967,1,0,0:0:0:0:
192,192,194058,1,0,0:0:0:0:
448,192,194149,1,0,0:0:0:0:
320,192,194240,1,0,0:0:0:0:
192,192,194331,1,2,0:0:0:0:
64,192,194331,1,0,0:0:0:0:
448,192,194422,1,0,0:0:0:0:
320,192,194513,1,0,0:0:0:0:
192,192,194604,1,0,0:0:0:0:
64,192,194695,1,2,0:0:0:0:
448,192,194695,1,0,0:0:0:0:
320,192,194785,1,0,0:0:0:0:
192,192,194876,1,0,0:0:0:0:
320,192,194967,1,0,0:0:0:0:
64,192,195058,1,2,0:0:0:0:
448,192,195058,1,0,0:0:0:0:
192,192,195149,1,0,0:0:0:0:
320,192,195240,1,0,0:0:0:0:
192,192,195331,1,0,0:0:0:0:
64,192,195422,1,2,0:0:0:0:
320,192,195422,1,0,0:0:0:0:
448,192,195513,1,0,0:0:0:0:
192,192,195604,1,0,0:0:0:0:
320,192,195695,1,0,0:0:0:0:
192,192,195785,1,2,0:0:0:0:
448,192,195785,1,0,0:0:0:0:
64,192,195876,1,0,0:0:0:0:
320,192,195967,1,0,0:0:0:0:
192,192,196058,1,0,0:0:0:0:
64,192,196149,1,2,0:0:0:0:
448,192,196149,1,0,0:0:0:0:
320,192,196240,1,0,0:0:0:0:
64,192,196331,1,0,0:0:0:0:
192,192,196422,1,0,0:0:0:0:
64,192,196513,1,2,0:0:0:0:
448,192,196513,1,0,0:0:0:0:
320,192,196604,1,0,0:0:0:0:
64,192,196695,1,0,0:0:0:0:
192,192,196785,1,0,0:0:0:0:
320,192,196876,1,2,0:0:0:0:
448,192,196876,1,0,0:0:0:0:
64,192,196967,1,0,0:0:0:0:
192,192,197058,1,0,0:0:0:0:
320,192,197149,1,0,0:0:0:0:
192,192,197240,1,2,0:0:0:0:
64,192,197240,1,0,0:0:0:0:
448,192,197331,1,0,0:0:0:0:
320,192,197422,1,0,0:0:0:0:
192,192,197513,1,0,0:0:0:0:
64,192,197604,1,2,0:0:0:0:
320,192,197604,1,0,0:0:0:0:
192,192,197695,1,0,0:0:0:0:
448,192,197785,1,0,0:0:0:0:
320,192,197876,1,0,0:0:0:0:
192,192,197967,1,2,0:0:0:0:
448,192,197967,1,0,0:0:0:0:
320,192,198058,1,0,0:0:0:0:
64,192,198149,1,0,0:0:0:0:
192,192,198240,1,0,0:0:0:0:
320,192,198331,1,2,0:0:0:0:
448,192,198331,1,0,0:0:0:0:
64,192,198422,1,0,0:0:0:0:
320,192,198513,1,0,0:0:0:0:
448,192,198604,1,0,0:0:0:0:
192,192,198695,1,2,0:0:0:0:
64,192,198695,1,0,0:0:0:0:
448,192,198785,1,0,0:0:0:0:
192,192,198876,1,0,0:0:0:0:
64,192,198967,1,0,0:0:0:0:
320,192,199058,1,2,0:0:0:0:
448,192,199058,1,0,0:0:0:0:
64,192,199149,1,0,0:0:0:0:
320,192,199240,1,0,0:0:0:0:
64,192,199331,1,0,0:0:0:0:
448,192,199422,1,2,0:0:0:0:
320,192,199422,1,0,0:0:0:0:
192,192,199513,1,0,0:0:0:0:
448,192,199604,1,0,0:0:0:0:
192,192,199695,1,0,0:0:0:0:
320,192,199785,1,2,0:0:0:0:
64,192,199785,1,0,0:0:0:0:
192,192,199876,1,0,0:0:0:0:
320,192,199967,1,8,0:0:0:0:
448,192,199967,1,0,0:0:0:0:
320,192,200058,1,8,0:0:0:0:
448,192,200058,1,0,0:0:0:0:
192,192,200149,1,2,0:0:0:0:
64,192,200149,1,0,0:0:0:0:
320,192,200240,1,0,0:0:0:0:
64,192,200331,1,8,0:0:0:0:
192,192,200331,1,0,0:0:0:0:
192,192,200422,1,8,0:0:0:0:
64,192,200422,1,0,0:0:0:0:
64,192,200513,1,6,0:0:0:0:
320,192,200513,1,0,0:0:0:0:
448,192,200513,1,0,0:0:0:0:
192,192,200604,1,0,0:0:0:0:
448,192,200695,1,0,0:0:0:0:
320,192,200785,1,0,0:0:0:0:
192,192,200876,1,8,0:0:0:0:
64,192,200876,1,0,0:0:0:0:
448,192,200876,1,0,0:0:0:0:
320,192,200967,1,0,0:0:0:0:
192,192,201058,1,0,0:0:0:0:
64,192,201149,1,0,0:0:0:0:
448,192,201240,1,2,0:0:0:0:
320,192,201240,1,0,0:0:0:0:
192,192,201331,1,0,0:0:0:0:
448,192,201422,1,0,0:0:0:0:
64,192,201513,1,0,0:0:0:0:
320,192,201604,1,8,0:0:0:0:
448,192,201604,1,0,0:0:0:0:
192,192,201604,1,0,0:0:0:0:
64,192,201695,1,0,0:0:0:0:
320,192,201785,1,0,0:0:0:0:
448,192,201876,1,0,0:0:0:0:
192,192,201967,1,2,0:0:0:0:
64,192,201967,1,0,0:0:0:0:
320,192,202058,1,0,0:0:0:0:
192,192,202149,1,0,0:0:0:0:
448,192,202240,1,0,0:0:0:0:
320,192,202331,1,8,0:0:0:0:
192,192,202331,1,0,0:0:0:0:
64,192,202331,1,0,0:0:0:0:
448,192,202422,1,0,0:0:0:0:
192,192,202513,1,0,0:0:0:0:
64,192,202604,1,0,0:0:0:0:
320,192,202695,1,2,0:0:0:0:
448,192,202695,1,0,0:0:0:0:
192,192,202785,1,0,0:0:0:0:
448,192,202876,1,0,0:0:0:0:
320,192,202967,1,0,0:0:0:0:
192,192,203058,1,8,0:0:0:0:
64,192,203058,1,0,0:0:0:0:
448,192,203058,1,0,0:0:0:0:
320,192,203149,1,0,0:0:0:0:
64,192,203240,1,0,0:0:0:0:
192,192,203331,1,0,0:0:0:0:
320,192,203422,1,2,0:0:0:0:
448,192,203422,1,0,0:0:0:0:
64,192,203513,1,0,0:0:0:0:
192,192,203604,1,0,0:0:0:0:
320,192,203695,1,0,0:0:0:0:
192,192,203785,1,8,0:0:0:0:
64,192,203785,1,0,0:0:0:0:
448,192,203785,1,0,0:0:0:0:
320,192,203876,1,0,0:0:0:0:
192,192,203967,1,0,0:0:0:0:
64,192,204058,1,0,0:0:0:0:
320,192,204149,1,2,0:0:0:0:
448,192,204149,1,0,0:0:0:0:
64,192,204240,1,0,0:0:0:0:
192,192,204331,1,0,0:0:0:0:
320,192,204422,1,0,0:0:0:0:
448,192,204513,1,8,0:0:0:0:
192,192,204513,1,0,0:0:0:0:
64,192,204513,1,0,0:0:0:0:
320,192,204604,1,0,0:0:0:0:
192,192,204695,1,0,0:0:0:0:
64,192,204785,1,0,0:0:0:0:
320,192,204876,1,2,0:0:0:0:
448,192,204876,1,0,0:0:0:0:
64,192,204967,1,0,0:0:0:0:
320,192,205058,1,0,0:0:0:0:
64,192,205149,1,0,0:0:0:0:
192,192,205240,1,8,0:0:0:0:
320,192,205240,1,0,0:0:0:0:
448,192,205240,1,0,0:0:0:0:
64,192,205331,1,0,0:0:0:0:
448,192,205422,1,0,0:0:0:0:
64,192,205513,1,0,0:0:0:0:
448,192,205604,1,2,0:0:0:0:
192,192,205604,1,0,0:0:0:0:
64,192,205695,1,0,0:0:0:0:
448,192,205785,1,8,0:0:0:0:
320,192,205785,1,0,0:0:0:0:
320,192,205876,1,8,0:0:0:0:
448,192,205876,1,0,0:0:0:0:
192,192,205967,1,2,0:0:0:0:
64,192,205967,1,0,0:0:0:0:
320,192,206058,1,0,0:0:0:0:
64,192,206149,1,8,0:0:0:0:
448,192,206149,1,0,0:0:0:0:
192,192,206149,1,0,0:0:0:0:
320,192,206240,1,0,0:0:0:0:
64,192,206331,1,2,0:0:0:0:
448,192,206331,1,0,0:0:0:0:
192,192,206422,1,0,0:0:0:0:
320,192,206513,1,0,0:0:0:0:
192,192,206604,1,0,0:0:0:0:
64,192,206695,1,8,0:0:0:0:
448,192,206695,1,0,0:0:0:0:
320,192,206695,1,0,0:0:0:0:
192,192,206785,1,0,0:0:0:0:
320,192,206876,1,0,0:0:0:0:
448,192,206967,1,0,0:0:0:0:
192,192,207058,1,2,0:0:0:0:
64,192,207058,1,0,0:0:0:0:
320,192,207149,1,0,0:0:0:0:
64,192,207240,1,0,0:0:0:0:
192,192,207331,1,0,0:0:0:0:
320,192,207422,1,8,0:0:0:0:
448,192,207422,1,0,0:0:0:0:
64,192,207422,1,0,0:0:0:0:
192,192,207513,1,0,0:0:0:0:
320,192,207604,1,0,0:0:0:0:
192,192,207695,1,0,0:0:0:0:
64,192,207785,1,2,0:0:0:0:
448,192,207785,1,0,0:0:0:0:
320,192,207876,1,0,0:0:0:0:
192,192,207967,1,0,0:0:0:0:
320,192,208058,1,0,0:0:0:0:
192,192,208149,1,8,0:0:0:0:
64,192,208149,1,0,0:0:0:0:
448,192,208149,1,0,0:0:0:0:
320,192,208240,1,0,0:0:0:0:
192,192,208331,1,0,0:0:0:0:
64,192,208422,1,0,0:0:0:0:
320,192,208513,1,2,0:0:0:0:
448,192,208513,1,0,0:0:0:0:
192,192,208604,1,0,0:0:0:0:
64,192,208695,1,0,0:0:0:0:
448,192,208785,1,0,0:0:0:0:
320,192,208876,1,8,0:0:0:0:
192,192,208876,1,0,0:0:0:0:
64,192,208876,1,0,0:0:0:0:
448,192,208967,1,0,0:0:0:0:
320,192,209058,1,0,0:0:0:0:
192,192,209149,1,0,0:0:0:0:
320,192,209240,1,2,0:0:0:0:
64,192,209240,1,0,0:0:0:0:
448,192,209240,128,0,210513:0:0:0:0:
192,192,209331,1,0,0:0:0:0:
64,192,209422,1,0,0:0:0:0:
192,192,209513,1,0,0:0:0:0:
64,192,209604,1,8,0:0:0:0:
320,192,209604,1,0,0:0:0:0:
192,192,209695,1,0,0:0:0:0:
320,192,209785,1,0,0:0:0:0:
192,192,209876,1,0,0:0:0:0:
64,192,209967,1,2,0:0:0:0:
320,192,209967,1,0,0:0:0:0:
192,192,210058,1,0,0:0:0:0:
64,192,210149,1,0,0:0:0:0:
192,192,210240,1,0,0:0:0:0:
64,192,210331,1,8,0:0:0:0:
320,192,210331,1,0,0:0:0:0:
192,192,210422,1,0,0:0:0:0:
320,192,210513,1,0,0:0:0:0:
192,192,210604,1,0,0:0:0:0:
64,192,210695,1,8,0:0:0:0:
320,192,210695,1,0,0:0:0:0:
448,192,210695,1,0,0:0:0:0:
64,192,210876,1,0,0:0:0:0:
192,192,210967,1,8,0:0:0:0:
320,192,210967,1,0,0:0:0:0:
448,192,210967,1,0,0:0:0:0:
192,192,211149,1,0,0:0:0:0:
64,192,211240,1,8,0:0:0:0:
320,192,211240,1,0,0:0:0:0:
448,192,211240,1,0,0:0:0:0:
320,192,211422,1,0,0:0:0:0:
192,192,211513,1,0,0:0:0:0:
448,192,211604,1,0,0:0:0:0:
320,192,211604,1,0,0:0:0:0:
192,192,211695,1,0,0:0:0:0:
320,192,211785,1,12,0:0:0:0:
448,192,211785,1,0,0:0:0:0:
64,192,211785,128,0,211876:0:0:0:0:
192,192,211876,128,0,211967:0:0:0:0:
320,192,211967,128,0,212058:0:0:0:0:
448,192,212058,128,0,212149:0:0:0:0:
192,192,212149,128,6,212331:0:0:0:0:
64,192,212149,128,0,212331:0:0:0:0:
320,192,212240,128,0,212422:0:0:0:0:
448,192,212331,128,0,212513:0:0:0:0:
64,192,212422,128,0,212604:0:0:0:0:
192,192,212513,128,0,212695:0:0:0:0:
320,192,212604,128,0,212785:0:0:0:0:
448,192,212695,128,0,212876:0:0:0:0:
192,192,212785,128,0,212967:0:0:0:0:
320,192,212876,128,0,213058:0:0:0:0:
448,192,212967,128,0,213149:0:0:0:0:
64,192,213058,128,0,213240:0:0:0:0:
192,192,213149,128,0,213331:0:0:0:0:
320,192,213240,128,0,213422:0:0:0:0:
64,192,213331,128,0,213513:0:0:0:0:
192,192,213422,128,0,213604:0:0:0:0:
320,192,213513,128,0,213695:0:0:0:0:
448,192,213604,128,0,213785:0:0:0:0:
192,192,213695,128,0,213876:0:0:0:0:
64,192,213785,128,0,213967:0:0:0:0:
320,192,213876,128,0,214058:0:0:0:0:
192,192,213967,128,0,214149:0:0:0:0:
64,192,214058,128,0,214240:0:0:0:0:
448,192,214149,128,0,214331:0:0:0:0:
320,192,214240,128,0,214422:0:0:0:0:
192,192,214331,128,0,214513:0:0:0:0:
64,192,214422,128,0,214604:0:0:0:0:
320,192,214513,128,0,214695:0:0:0:0:
192,192,214604,128,0,214785:0:0:0:0:
64,192,214695,128,0,214876:0:0:0:0:
448,192,214785,128,0,214967:0:0:0:0:
192,192,214876,128,0,215058:0:0:0:0:
320,192,214967,128,0,215149:0:0:0:0:
448,192,215058,128,0,215240:0:0:0:0:
192,192,215149,128,0,215331:0:0:0:0:
320,192,215240,128,0,215422:0:0:0:0:
448,192,215331,128,0,215513:0:0:0:0:
64,192,215422,128,0,215604:0:0:0:0:
320,192,215513,128,0,215695:0:0:0:0:
192,192,215604,128,0,215785:0:0:0:0:
64,192,215695,128,0,215876:0:0:0:0:
448,192,215785,128,0,215967:0:0:0:0:
320,192,215876,128,0,216058:0:0:0:0:
192,192,215967,128,0,216149:0:0:0:0:
64,192,216058,128,0,216240:0:0:0:0:
448,192,216149,128,0,216331:0:0:0:0:
192,192,216240,128,0,216422:0:0:0:0:
320,192,216331,128,0,216513:0:0:0:0:
448,192,216422,128,0,216604:0:0:0:0:
64,192,216513,128,0,216695:0:0:0:0:
192,192,216604,128,0,216785:0:0:0:0:
320,192,216695,128,0,216876:0:0:0:0:
448,192,216785,128,0,216967:0:0:0:0:
64,192,216876,128,0,217058:0:0:0:0:
320,192,216967,128,0,217149:0:0:0:0:
192,192,217058,128,0,217240:0:0:0:0:
64,192,217149,128,0,217331:0:0:0:0:
448,192,217240,128,0,217422:0:0:0:0:
320,192,217331,128,0,217513:0:0:0:0:
64,192,217422,128,0,217604:0:0:0:0:
192,192,217513,128,0,217695:0:0:0:0:
448,192,217604,128,0,217785:0:0:0:0:
320,192,217695,128,0,217876:0:0:0:0:
192,192,217785,128,0,217967:0:0:0:0:
64,192,217876,128,0,218058:0:0:0:0:
448,192,217967,128,0,218149:0:0:0:0:
192,192,218058,128,0,218240:0:0:0:0:
64,192,218149,128,0,218331:0:0:0:0:
448,192,218240,128,0,218422:0:0:0:0:
320,192,218331,128,0,218513:0:0:0:0:
192,192,218422,128,0,218604:0:0:0:0:
64,192,218513,128,0,218695:0:0:0:0:
448,192,218604,128,0,218785:0:0:0:0:
192,192,218695,128,0,218876:0:0:0:0:
64,192,218785,128,0,218967:0:0:0:0:
448,192,218876,128,0,219058:0:0:0:0:
320,192,218967,128,0,219149:0:0:0:0:
192,192,219058,128,0,219240:0:0:0:0:
448,192,219149,128,0,219331:0:0:0:0:
320,192,219240,128,0,219422:0:0:0:0:
192,192,219331,128,0,219513:0:0:0:0:
64,192,219422,128,0,219604:0:0:0:0:
320,192,219513,128,0,219695:0:0:0:0:
448,192,219604,128,0,219785:0:0:0:0:
192,192,219695,128,0,219876:0:0:0:0:
320,192,219785,128,0,219967:0:0:0:0:
448,192,219876,128,0,220058:0:0:0:0:
64,192,219967,128,0,220149:0:0:0:0:
192,192,220058,128,0,220240:0:0:0:0:
320,192,220149,128,0,220331:0:0:0:0:
448,192,220240,128,0,220422:0:0:0:0:
192,192,220331,128,0,220513:0:0:0:0:
320,192,220422,128,0,220604:0:0:0:0:
448,192,220513,128,0,220695:0:0:0:0:
64,192,220604,128,0,220785:0:0:0:0:
320,192,220695,128,0,220876:0:0:0:0:
192,192,220785,128,0,220967:0:0:0:0:
64,192,220876,128,0,221058:0:0:0:0:
448,192,220967,128,0,221149:0:0:0:0:
320,192,221058,128,0,221240:0:0:0:0:
192,192,221149,128,0,221331:0:0:0:0:
448,192,221240,128,0,221422:0:0:0:0:
64,192,221331,128,0,221513:0:0:0:0:
320,192,221422,128,0,221604:0:0:0:0:
448,192,221513,128,0,221695:0:0:0:0:
64,192,221604,128,0,221785:0:0:0:0:
192,192,221695,128,0,221876:0:0:0:0:
320,192,221785,128,0,221967:0:0:0:0:
448,192,221876,128,0,222058:0:0:0:0:
64,192,221967,128,0,222149:0:0:0:0:
320,192,222058,128,0,222240:0:0:0:0:
192,192,222149,128,0,222331:0:0:0:0:
64,192,222240,128,0,222422:0:0:0:0:
448,192,222331,128,0,222513:0:0:0:0:
320,192,222422,128,0,222604:0:0:0:0:
64,192,222513,128,0,222695:0:0:0:0:
192,192,222604,128,0,222785:0:0:0:0:
448,192,222695,128,0,222876:0:0:0:0:
64,192,222785,128,0,222967:0:0:0:0:
192,192,222876,128,0,223058:0:0:0:0:
320,192,222967,128,0,223149:0:0:0:0:
448,192,223058,128,0,223240:0:0:0:0:
64,192,223149,128,0,223331:0:0:0:0:
192,192,223240,128,0,223422:0:0:0:0:
320,192,223331,128,0,223513:0:0:0:0:
64,192,223422,128,0,223604:0:0:0:0:
192,192,223513,128,0,223695:0:0:0:0:
320,192,223604,128,0,223785:0:0:0:0:
448,192,223695,128,0,223876:0:0:0:0:
64,192,223785,128,6,223876:0:0:0:0:
192,192,223785,128,0,223876:0:0:0:0:
320,192,224149,1,8,0:0:0:0:
448,192,224149,1,0,0:0:0:0:
64,192,224331,1,0,0:0:0:0:
192,192,224422,1,0,0:0:0:0:
448,192,224513,1,0,0:0:0:0:
320,192,224604,1,0,0:0:0:0:
192,192,224695,1,2,0:0:0:0:
64,192,224876,1,8,0:0:0:0:
448,192,224876,1,0,0:0:0:0:
320,192,225058,1,0,0:0:0:0:
64,192,225240,1,2,0:0:0:0:
192,192,225240,1,0,0:0:0:0:
448,192,225331,1,0,0:0:0:0:
192,192,225422,1,0,0:0:0:0:
320,192,225604,1,8,0:0:0:0:
448,192,225604,1,0,0:0:0:0:
192,192,225785,1,0,0:0:0:0:
64,192,225876,1,0,0:0:0:0:
448,192,225967,1,0,0:0:0:0:
320,192,226058,1,0,0:0:0:0:
192,192,226149,1,2,0:0:0:0:
64,192,226331,1,8,0:0:0:0:
448,192,226331,1,0,0:0:0:0:
192,192,226513,1,0,0:0:0:0:
320,192,226695,1,2,0:0:0:0:
448,192,226695,1,0,0:0:0:0:
192,192,227058,1,8,0:0:0:0:
64,192,227058,1,0,0:0:0:0:
448,192,227240,1,0,0:0:0:0:
320,192,227331,1,0,0:0:0:0:
64,192,227422,1,0,0:0:0:0:
192,192,227513,1,0,0:0:0:0:
320,192,227604,1,2,0:0:0:0:
64,192,227785,1,8,0:0:0:0:
448,192,227785,1,0,0:0:0:0:
192,192,227967,1,0,0:0:0:0:
320,192,228149,1,2,0:0:0:0:
448,192,228149,1,0,0:0:0:0:
64,192,228240,1,0,0:0:0:0:
320,192,228331,1,0,0:0:0:0:
192,192,228513,1,8,0:0:0:0:
64,192,228513,1,0,0:0:0:0:
320,192,228695,1,0,0:0:0:0:
448,192,228785,1,0,0:0:0:0:
64,192,228876,1,0,0:0:0:0:
192,192,228967,1,0,0:0:0:0:
320,192,229058,1,2,0:0:0:0:
448,192,229240,1,8,0:0:0:0:
64,192,229240,1,0,0:0:0:0:
192,192,229331,1,0,0:0:0:0:
320,192,229422,1,0,0:0:0:0:
448,192,229422,1,0,0:0:0:0:
192,192,229513,1,0,0:0:0:0:
64,192,229604,1,2,0:0:0:0:
448,192,229604,1,0,0:0:0:0:
192,192,229967,1,8,0:0:0:0:
64,192,229967,1,0,0:0:0:0:
320,192,230149,1,2,0:0:0:0:
448,192,230149,1,0,0:0:0:0:
192,192,230240,1,2,0:0:0:0:
64,192,230240,1,0,0:0:0:0:
320,192,230331,1,8,0:0:0:0:
448,192,230331,1,0,0:0:0:0:
64,192,230331,1,0,0:0:0:0:
192,192,230513,1,2,0:0:0:0:
320,192,230513,1,0,0:0:0:0:
64,192,230695,1,8,0:0:0:0:
192,192,230695,1,0,0:0:0:0:
448,192,230876,1,2,0:0:0:0:
320,192,230876,1,0,0:0:0:0:
64,192,231058,1,2,0:0:0:0:
448,192,231058,1,0,0:0:0:0:
192,192,231149,1,0,0:0:0:0:
320,192,231149,1,0,0:0:0:0:
64,192,231240,1,8,0:0:0:0:
192,192,231240,1,0,0:0:0:0:
448,192,231240,1,0,0:0:0:0:
320,192,231422,1,2,0:0:0:0:
448,192,231422,1,0,0:0:0:0:
64,192,231604,1,2,0:0:0:0:
192,192,231604,1,0,0:0:0:0:
320,192,231695,1,2,0:0:0:0:
448,192,231695,1,0,0:0:0:0:
448,192,231785,1,8,0:0:0:0:
192,192,231785,1,0,0:0:0:0:
64,192,231785,1,0,0:0:0:0:
320,192,231967,1,2,0:0:0:0:
192,192,231967,1,0,0:0:0:0:
64,192,232149,1,8,0:0:0:0:
320,192,232149,1,0,0:0:0:0:
448,192,232149,1,0,0:0:0:0:
64,192,232513,1,2,0:0:0:0:
192,192,232513,1,0,0:0:0:0:
320,192,232876,1,8,0:0:0:0:
448,192,232876,1,0,0:0:0:0:
64,192,233058,1,2,0:0:0:0:
320,192,233058,1,0,0:0:0:0:
448,192,233149,1,2,0:0:0:0:
192,192,233149,1,0,0:0:0:0:
320,192,233240,1,8,0:0:0:0:
64,192,233240,1,0,0:0:0:0:
448,192,233240,1,0,0:0:0:0:
192,192,233422,1,2,0:0:0:0:
64,192,233422,1,0,0:0:0:0:
448,192,233604,1,8,0:0:0:0:
192,192,233604,1,0,0:0:0:0:
320,192,233785,1,2,0:0:0:0:
448,192,233785,1,0,0:0:0:0:
64,192,233967,1,2,0:0:0:0:
192,192,233967,1,0,0:0:0:0:
320,192,234058,1,0,0:0:0:0:
448,192,234058,1,0,0:0:0:0:
448,192,234149,1,8,0:0:0:0:
192,192,234149,1,0,0:0:0:0:
64,192,234149,1,0,0:0:0:0:
192,192,234331,1,2,0:0:0:0:
320,192,234331,1,0,0:0:0:0:
64,192,234513,1,2,0:0:0:0:
448,192,234513,1,0,0:0:0:0:
192,192,234604,1,2,0:0:0:0:
320,192,234604,1,0,0:0:0:0:
64,192,234695,1,8,0:0:0:0:
320,192,234695,1,0,0:0:0:0:
448,192,234695,1,0,0:0:0:0:
192,192,234876,1,2,0:0:0:0:
64,192,234876,1,0,0:0:0:0:
320,192,235058,1,8,0:0:0:0:
192,192,235058,1,0,0:0:0:0:
320,192,235240,1,2,0:0:0:0:
448,192,235240,1,0,0:0:0:0:
192,192,235422,1,6,0:0:0:0:
64,192,235422,1,0,0:0:0:0:
448,192,235422,1,0,0:0:0:0:
320,192,235513,1,0,0:0:0:0:
192,192,235604,1,0,0:0:0:0:
448,192,235695,1,0,0:0:0:0:
64,192,235785,1,8,0:0:0:0:
320,192,235785,1,0,0:0:0:0:
192,192,235876,1,0,0:0:0:0:
320,192,235967,1,2,0:0:0:0:
448,192,235967,1,0,0:0:0:0:
192,192,236058,1,2,0:0:0:0:
64,192,236058,1,0,0:0:0:0:
320,192,236149,1,8,0:0:0:0:
448,192,236149,1,0,0:0:0:0:
192,192,236240,1,0,0:0:0:0:
64,192,236331,1,2,0:0:0:0:
448,192,236331,1,0,0:0:0:0:
192,192,236422,1,0,0:0:0:0:
64,192,236513,1,8,0:0:0:0:
320,192,236513,1,0,0:0:0:0:
448,192,236604,1,0,0:0:0:0:
64,192,236695,1,2,0:0:0:0:
192,192,236695,1,0,0:0:0:0:
320,192,236785,1,0,0:0:0:0:
64,192,236876,1,2,0:0:0:0:
448,192,236876,1,0,0:0:0:0:
192,192,236967,1,0,0:0:0:0:
320,192,236967,1,0,0:0:0:0:
64,192,237058,1,8,0:0:0:0:
448,192,237058,1,0,0:0:0:0:
192,192,237149,1,0,0:0:0:0:
448,192,237240,1,2,0:0:0:0:
64,192,237240,1,0,0:0:0:0:
320,192,237331,1,0,0:0:0:0:
64,192,237422,1,2,0:0:0:0:
192,192,237422,1,0,0:0:0:0:
448,192,237513,1,2,0:0:0:0:
320,192,237513,1,0,0:0:0:0:
64,192,237604,1,8,0:0:0:0:
192,192,237604,1,0,0:0:0:0:
448,192,237695,1,0,0:0:0:0:
320,192,237785,1,2,0:0:0:0:
64,192,237785,1,0,0:0:0:0:
192,192,237876,1,0,0:0:0:0:
64,192,237967,1,8,0:0:0:0:
448,192,237967,1,0,0:0:0:0:
320,192,238058,1,0,0:0:0:0:
192,192,238149,1,0,0:0:0:0:
448,192,238240,1,0,0:0:0:0:
64,192,238331,1,2,0:0:0:0:
320,192,238331,1,0,0:0:0:0:
192,192,238422,1,0,0:0:0:0:
448,192,238513,1,0,0:0:0:0:
320,192,238604,1,0,0:0:0:0:
192,192,238695,1,8,0:0:0:0:
64,192,238695,1,0,0:0:0:0:
448,192,238785,1,0,0:0:0:0:
64,192,238876,1,2,0:0:0:0:
320,192,238876,1,0,0:0:0:0:
448,192,238967,1,2,0:0:0:0:
192,192,238967,1,0,0:0:0:0:
320,192,239058,1,8,0:0:0:0:
64,192,239058,1,0,0:0:0:0:
192,192,239149,1,0,0:0:0:0:
64,192,239240,1,2,0:0:0:0:
448,192,239240,1,0,0:0:0:0:
320,192,239331,1,0,0:0:0:0:
192,192,239422,1,8,0:0:0:0:
64,192,239422,1,0,0:0:0:0:
448,192,239513,1,0,0:0:0:0:
320,192,239604,1,2,0:0:0:0:
192,192,239604,1,0,0:0:0:0:
64,192,239695,1,0,0:0:0:0:
320,192,239785,1,2,0:0:0:0:
448,192,239785,1,0,0:0:0:0:
192,192,239876,1,0,0:0:0:0:
64,192,239876,1,0,0:0:0:0:
320,192,239967,1,8,0:0:0:0:
448,192,239967,1,0,0:0:0:0:
64,192,240058,1,0,0:0:0:0:
192,192,240149,1,2,0:0:0:0:
448,192,240149,1,0,0:0:0:0:
320,192,240240,1,0,0:0:0:0:
64,192,240331,1,2,0:0:0:0:
448,192,240331,1,0,0:0:0:0:
192,192,240422,1,2,0:0:0:0:
320,192,240422,1,0,0:0:0:0:
64,192,240513,1,8,0:0:0:0:
448,192,240513,1,0,0:0:0:0:
320,192,240604,1,0,0:0:0:0:
64,192,240695,1,2,0:0:0:0:
192,192,240695,1,0,0:0:0:0:
320,192,240785,1,0,0:0:0:0:
192,192,240876,1,8,0:0:0:0:
448,192,240876,1,0,0:0:0:0:
64,192,240967,1,0,0:0:0:0:
448,192,241058,1,0,0:0:0:0:
192,192,241058,1,0,0:0:0:0:
320,192,241149,1,0,0:0:0:0:
64,192,241240,1,2,0:0:0:0:
192,192,241240,1,0,0:0:0:0:
448,192,241240,1,0,0:0:0:0:
320,192,241331,1,0,0:0:0:0:
192,192,241422,1,0,0:0:0:0:
320,192,241513,1,0,0:0:0:0:
64,192,241604,1,8,0:0:0:0:
448,192,241604,1,0,0:0:0:0:
192,192,241695,1,0,0:0:0:0:
320,192,241785,1,2,0:0:0:0:
448,192,241785,1,0,0:0:0:0:
192,192,241876,1,2,0:0:0:0:
64,192,241876,1,0,0:0:0:0:
320,192,241967,1,8,0:0:0:0:
448,192,241967,1,0,0:0:0:0:
192,192,242058,1,0,0:0:0:0:
64,192,242149,1,2,0:0:0:0:
448,192,242149,1,0,0:0:0:0:
192,192,242240,1,0,0:0:0:0:
64,192,242331,1,8,0:0:0:0:
320,192,242331,1,0,0:0:0:0:
448,192,242422,1,0,0:0:0:0:
192,192,242513,1,2,0:0:0:0:
64,192,242513,1,0,0:0:0:0:
320,192,242604,1,0,0:0:0:0:
448,192,242695,1,2,0:0:0:0:
192,192,242695,1,0,0:0:0:0:
64,192,242785,1,0,0:0:0:0:
320,192,242785,1,0,0:0:0:0:
192,192,242876,1,8,0:0:0:0:
448,192,242876,1,0,0:0:0:0:
64,192,242967,1,0,0:0:0:0:
320,192,243058,1,2,0:0:0:0:
448,192,243058,1,0,0:0:0:0:
192,192,243149,1,0,0:0:0:0:
320,192,243240,1,2,0:0:0:0:
64,192,243240,1,0,0:0:0:0:
192,192,243331,1,2,0:0:0:0:
448,192,243331,1,0,0:0:0:0:
320,192,243422,1,8,0:0:0:0:
64,192,243422,1,0,0:0:0:0:
448,192,243513,1,0,0:0:0:0:
192,192,243604,1,2,0:0:0:0:
64,192,243604,1,0,0:0:0:0:
320,192,243695,1,0,0:0:0:0:
64,192,243785,1,8,0:0:0:0:
448,192,243785,1,0,0:0:0:0:
192,192,243876,1,0,0:0:0:0:
320,192,243967,1,0,0:0:0:0:
192,192,244058,1,0,0:0:0:0:
64,192,244149,1,2,0:0:0:0:
320,192,244149,1,0,0:0:0:0:
448,192,244240,1,0,0:0:0:0:
192,192,244331,1,0,0:0:0:0:
320,192,244422,1,0,0:0:0:0:
64,192,244513,1,8,0:0:0:0:
448,192,244513,1,0,0:0:0:0:
320,192,244604,1,0,0:0:0:0:
192,192,244695,1,2,0:0:0:0:
448,192,244695,1,0,0:0:0:0:
320,192,244785,1,2,0:0:0:0:
64,192,244785,1,0,0:0:0:0:
192,192,244876,1,8,0:0:0:0:
448,192,244876,1,0,0:0:0:0:
64,192,244967,1,0,0:0:0:0:
320,192,245058,1,2,0:0:0:0:
448,192,245058,1,0,0:0:0:0:
192,192,245149,1,0,0:0:0:0:
448,192,245240,1,8,0:0:0:0:
320,192,245240,1,0,0:0:0:0:
192,192,245331,1,0,0:0:0:0:
448,192,245422,1,2,0:0:0:0:
64,192,245422,1,0,0:0:0:0:
320,192,245513,1,0,0:0:0:0:
192,192,245604,1,2,0:0:0:0:
64,192,245604,1,0,0:0:0:0:
320,192,245695,1,0,0:0:0:0:
448,192,245695,1,0,0:0:0:0:
192,192,245785,1,8,0:0:0:0:
64,192,245785,1,0,0:0:0:0:
320,192,245876,1,0,0:0:0:0:
64,192,245967,1,2,0:0:0:0:
448,192,245967,1,0,0:0:0:0:
192,192,246058,1,0,0:0:0:0:
320,192,246149,1,2,0:0:0:0:
448,192,246149,1,0,0:0:0:0:
192,192,246240,1,2,0:0:0:0:
64,192,246240,1,0,0:0:0:0:
320,192,246331,1,8,0:0:0:0:
448,192,246331,1,0,0:0:0:0:
192,192,246422,1,0,0:0:0:0:
448,192,246513,1,2,0:0:0:0:
64,192,246513,1,0,0:0:0:0:
320,192,246604,1,0,0:0:0:0:
192,192,246695,1,8,0:0:0:0:
64,192,246695,1,0,0:0:0:0:
320,192,246785,1,0,0:0:0:0:
448,192,246876,1,0,0:0:0:0:
64,192,246876,1,0,0:0:0:0:
192,192,246967,1,0,0:0:0:0:
320,192,247058,1,2,0:0:0:0:
448,192,247058,1,0,0:0:0:0:
64,192,247058,1,0,0:0:0:0:
64,192,247149,1,0,0:0:0:0:
320,192,247240,1,0,0:0:0:0:
192,192,247331,1,0,0:0:0:0:
64,192,247422,1,8,0:0:0:0:
320,192,247422,1,0,0:0:0:0:
448,192,247422,1,0,0:0:0:0:
448,192,247513,1,0,0:0:0:0:
64,192,247604,1,2,0:0:0:0:
192,192,247604,1,0,0:0:0:0:
320,192,247695,1,2,0:0:0:0:
448,192,247695,1,0,0:0:0:0:
192,192,247785,1,8,0:0:0:0:
64,192,247785,1,0,0:0:0:0:
448,192,247876,1,0,0:0:0:0:
192,192,247967,1,2,0:0:0:0:
320,192,247967,1,0,0:0:0:0:
64,192,248058,1,0,0:0:0:0:
320,192,248149,1,8,0:0:0:0:
448,192,248149,1,0,0:0:0:0:
192,192,248149,1,0,0:0:0:0:
192,192,248240,1,0,0:0:0:0:
448,192,248331,1,2,0:0:0:0:
64,192,248331,1,0,0:0:0:0:
320,192,248422,1,0,0:0:0:0:
192,192,248513,1,2,0:0:0:0:
64,192,248513,1,0,0:0:0:0:
448,192,248513,1,0,0:0:0:0:
448,192,248604,1,0,0:0:0:0:
64,192,248695,1,8,0:0:0:0:
320,192,248695,1,0,0:0:0:0:
192,192,248785,1,0,0:0:0:0:
64,192,248876,1,2,0:0:0:0:
448,192,248876,1,0,0:0:0:0:
320,192,248876,1,0,0:0:0:0:
320,192,248967,1,0,0:0:0:0:
192,192,249058,1,2,0:0:0:0:
64,192,249058,1,0,0:0:0:0:
320,192,249149,1,2,0:0:0:0:
448,192,249149,1,0,0:0:0:0:
192,192,249240,1,8,0:0:0:0:
64,192,249240,1,0,0:0:0:0:
320,192,249331,1,0,0:0:0:0:
192,192,249422,1,2,0:0:0:0:
448,192,249422,1,0,0:0:0:0:
64,192,249513,1,0,0:0:0:0:
320,192,249604,1,8,0:0:0:0:
448,192,249604,1,0,0:0:0:0:
192,192,249604,1,0,0:0:0:0:
192,192,249695,1,0,0:0:0:0:
320,192,249785,1,0,0:0:0:0:
64,192,249785,1,0,0:0:0:0:
448,192,249876,1,0,0:0:0:0:
192,192,249967,1,2,0:0:0:0:
64,192,249967,1,0,0:0:0:0:
320,192,249967,1,0,0:0:0:0:
192,192,250058,1,0,0:0:0:0:
320,192,250149,1,0,0:0:0:0:
448,192,250240,1,0,0:0:0:0:
192,192,250331,1,8,0:0:0:0:
320,192,250331,1,0,0:0:0:0:
64,192,250331,1,0,0:0:0:0:
320,192,250422,1,0,0:0:0:0:
192,192,250513,1,2,0:0:0:0:
64,192,250513,1,0,0:0:0:0:
448,192,250604,1,2,0:0:0:0:
320,192,250604,1,0,0:0:0:0:
192,192,250695,1,8,0:0:0:0:
64,192,250695,1,0,0:0:0:0:
448,192,250785,1,0,0:0:0:0:
192,192,250876,1,2,0:0:0:0:
320,192,250876,1,0,0:0:0:0:
64,192,250967,1,0,0:0:0:0:
320,192,251058,1,8,0:0:0:0:
448,192,251058,1,0,0:0:0:0:
192,192,251058,1,0,0:0:0:0:
192,192,251149,1,0,0:0:0:0:
448,192,251240,1,2,0:0:0:0:
64,192,251240,1,0,0:0:0:0:
192,192,251331,1,0,0:0:0:0:
320,192,251422,1,2,0:0:0:0:
448,192,251422,1,0,0:0:0:0:
192,192,251513,1,0,0:0:0:0:
64,192,251513,1,0,0:0:0:0:
320,192,251604,1,8,0:0:0:0:
448,192,251604,1,0,0:0:0:0:
192,192,251695,1,0,0:0:0:0:
64,192,251785,1,2,0:0:0:0:
448,192,251785,1,0,0:0:0:0:
320,192,251876,1,0,0:0:0:0:
192,192,251967,1,2,0:0:0:0:
64,192,251967,1,0,0:0:0:0:
320,192,252058,1,2,0:0:0:0:
448,192,252058,1,0,0:0:0:0:
192,192,252149,1,8,0:0:0:0:
64,192,252149,1,0,0:0:0:0:
320,192,252240,1,0,0:0:0:0:
448,192,252331,1,2,0:0:0:0:
64,192,252331,1,0,0:0:0:0:
192,192,252422,1,0,0:0:0:0:
64,192,252513,1,8,0:0:0:0:
320,192,252513,1,0,0:0:0:0:
192,192,252604,1,8,0:0:0:0:
448,192,252604,1,0,0:0:0:0:
320,192,252695,1,8,0:0:0:0:
64,192,252695,1,0,0:0:0:0:
192,192,252785,1,8,0:0:0:0:
448,192,252785,1,0,0:0:0:0:
320,192,252876,1,2,0:0:0:0:
64,192,252876,1,0,0:0:0:0:
192,192,252967,1,0,0:0:0:0:
320,192,253058,1,0,0:0:0:0:
64,192,253058,1,0,0:0:0:0:
448,192,253149,1,0,0:0:0:0:
64,192,253240,1,2,0:0:0:0:
192,192,253240,1,0,0:0:0:0:
320,192,253331,1,0,0:0:0:0:
192,192,253422,1,0,0:0:0:0:
448,192,253422,1,0,0:0:0:0:
64,192,253513,1,0,0:0:0:0:
320,192,253604,1,2,0:0:0:0:
448,192,253604,1,0,0:0:0:0:
192,192,253695,1,0,0:0:0:0:
320,192,253785,1,0,0:0:0:0:
64,192,253785,1,0,0:0:0:0:
448,192,253876,1,0,0:0:0:0:
64,192,253967,1,2,0:0:0:0:
192,192,253967,1,0,0:0:0:0:
448,192,254058,1,0,0:0:0:0:
320,192,254149,1,0,0:0:0:0:
64,192,254149,1,0,0:0:0:0:
192,192,254240,1,0,0:0:0:0:
448,192,254331,1,2,0:0:0:0:
64,192,254331,1,0,0:0:0:0:
320,192,254422,1,0,0:0:0:0:
192,192,254513,1,0,0:0:0:0:
64,192,254513,1,0,0:0:0:0:
320,192,254604,1,0,0:0:0:0:
64,192,254695,1,2,0:0:0:0:
448,192,254695,1,0,0:0:0:0:
192,192,254785,1,0,0:0:0:0:
320,192,254876,1,0,0:0:0:0:
448,192,254876,1,0,0:0:0:0:
192,192,254967,1,0,0:0:0:0:
64,192,255058,1,2,0:0:0:0:
448,192,255058,1,0,0:0:0:0:
320,192,255149,1,0,0:0:0:0:
192,192,255240,1,0,0:0:0:0:
64,192,255240,1,0,0:0:0:0:
320,192,255331,1,0,0:0:0:0:
64,192,255422,1,2,0:0:0:0:
448,192,255422,1,0,0:0:0:0:
192,192,255513,1,2,0:0:0:0:
320,192,255513,1,0,0:0:0:0:
448,192,255604,1,2,0:0:0:0:
64,192,255604,1,0,0:0:0:0:
192,192,255695,1,2,0:0:0:0:
320,192,255785,1,8,0:0:0:0:
448,192,255785,1,0,0:0:0:0:
192,192,255876,1,8,0:0:0:0:
64,192,255876,1,0,0:0:0:0:
320,192,255967,1,8,0:0:0:0:
448,192,255967,1,0,0:0:0:0:
192,192,256058,1,8,0:0:0:0:
64,192,256058,1,0,0:0:0:0:
320,192,256149,1,8,0:0:0:0:
448,192,256149,1,0,0:0:0:0:
192,192,256240,1,8,0:0:0:0:
64,192,256240,1,0,0:0:0:0:
320,192,256331,1,8,0:0:0:0:
448,192,256331,1,0,0:0:0:0:
192,192,256422,1,8,0:0:0:0:
64,192,256422,1,0,0:0:0:0:
320,192,256513,1,8,0:0:0:0:
448,192,256513,1,0,0:0:0:0:
192,192,256604,1,8,0:0:0:0:
64,192,256604,1,0,0:0:0:0:
320,192,256695,1,8,0:0:0:0:
448,192,256695,1,0,0:0:0:0:
192,192,256785,1,8,0:0:0:0:
64,192,256785,1,0,0:0:0:0:
320,192,256876,1,8,0:0:0:0:
448,192,256876,1,0,0:0:0:0:
192,192,256967,1,8,0:0:0:0:
64,192,256967,1,0,0:0:0:0:
320,192,257058,1,8,0:0:0:0:
448,192,257058,1,0,0:0:0:0:
192,192,257149,1,8,0:0:0:0:
64,192,257149,1,0,0:0:0:0:
448,192,257240,128,0,257422:0:0:0:0:
320,192,257331,128,0,257422:0:0:0:0:
64,192,257422,128,0,257604:0:0:0:0:
192,192,257513,128,0,257604:0:0:0:0:
320,192,257604,128,0,257785:0:0:0:0:
448,192,257695,128,0,257785:0:0:0:0:
192,192,257785,128,0,257967:0:0:0:0:
448,192,257876,128,0,257967:0:0:0:0:
64,192,257967,128,0,258149:0:0:0:0:
320,192,258058,128,0,258149:0:0:0:0:
192,192,258149,128,0,258331:0:0:0:0:
64,192,258240,128,0,258331:0:0:0:0:
320,192,258331,128,0,258513:0:0:0:0:
64,192,258422,128,0,258513:0:0:0:0:
448,192,258513,128,0,258695:0:0:0:0:
192,192,258604,128,0,258695:0:0:0:0:
64,192,260149,1,0,0:0:0:0:
192,192,260195,1,0,0:0:0:0:
448,192,260240,1,0,0:0:0:0:
320,192,260285,1,0,0:0:0:0:
64,192,260331,1,0,0:0:0:0:
192,192,260376,1,0,0:0:0:0:
448,192,260422,1,0,0:0:0:0:
320,192,260467,1,0,0:0:0:0:
64,192,260513,1,0,0:0:0:0:
192,192,260558,1,0,0:0:0:0:
448,192,260604,1,0,0:0:0:0:
320,192,260649,1,0,0:0:0:0:
64,192,260695,1,0,0:0:0:0:
192,192,260740,1,0,0:0:0:0:
448,192,260785,1,0,0:0:0:0:
320,192,260831,1,0,0:0:0:0:
64,192,260876,1,0,0:0:0:0:
192,192,260922,1,0,0:0:0:0:
448,192,260967,1,0,0:0:0:0:
320,192,261013,1,0,0:0:0:0:
64,192,261058,1,0,0:0:0:0:
192,192,261104,1,0,0:0:0:0:
448,192,261149,1,0,0:0:0:0:
320,192,261195,1,0,0:0:0:0:
64,192,261240,1,0,0:0:0:0:
192,192,261285,1,0,0:0:0:0:
448,192,261331,1,0,0:0:0:0:
320,192,261376,1,0,0:0:0:0:
64,192,261422,1,0,0:0:0:0:
192,192,261467,1,0,0:0:0:0:
448,192,261513,1,0,0:0:0:0:
320,192,261558,1,0,0:0:0:0:
192,192,261604,1,0,0:0:0:0:
64,192,261649,1,0,0:0:0:0:
448,192,261695,1,0,0:0:0:0:
320,192,261740,1,0,0:0:0:0:
192,192,261785,1,0,0:0:0:0:
64,192,261831,1,0,0:0:0:0:
320,192,261876,1,0,0:0:0:0:
448,192,261922,1,0,0:0:0:0:
64,192,261967,1,0,0:0:0:0:
192,192,262013,1,0,0:0:0:0:
320,192,262058,1,0,0:0:0:0:
448,192,262104,1,0,0:0:0:0:
192,192,262149,1,0,0:0:0:0:
64,192,262195,1,0,0:0:0:0:
448,192,262240,1,0,0:0:0:0:
320,192,262285,1,0,0:0:0:0:
192,192,262331,1,0,0:0:0:0:
64,192,262376,1,0,0:0:0:0:
320,192,262422,1,0,0:0:0:0:
448,192,262467,1,0,0:0:0:0:
64,192,262513,1,0,0:0:0:0:
192,192,262558,1,0,0:0:0:0:
320,192,262604,1,0,0:0:0:0:
448,192,262649,1,0,0:0:0:0:
192,192,262695,1,0,0:0:0:0:
64,192,262740,1,0,0:0:0:0:
448,192,262785,1,0,0:0:0:0:
320,192,262831,1,0,0:0:0:0:
192,192,262876,1,0,0:0:0:0:
64,192,262922,1,0,0:0:0:0:
320,192,262967,1,0,0:0:0:0:
448,192,263013,1,0,0:0:0:0:
64,192,263058,1,0,0:0:0:0:
192,192,263104,1,0,0:0:0:0:
448,192,263149,1,0,0:0:0:0:
320,192,263195,1,0,0:0:0:0:
64,192,263240,1,0,0:0:0:0:
192,192,263285,1,0,0:0:0:0:
448,192,263331,1,0,0:0:0:0:
320,192,263376,1,0,0:0:0:0:
64,192,263422,1,0,0:0:0:0:
192,192,263467,1,0,0:0:0:0:
448,192,263513,1,0,0:0:0:0:
320,192,263558,1,0,0:0:0:0:
64,192,263604,1,0,0:0:0:0:
192,192,263649,1,0,0:0:0:0:
448,192,263695,1,0,0:0:0:0:
320,192,263740,1,0,0:0:0:0:
64,192,263785,1,0,0:0:0:0:
192,192,263831,1,0,0:0:0:0:
448,192,263876,1,0,0:0:0:0:
320,192,263922,1,0,0:0:0:0:
64,192,263967,1,0,0:0:0:0:
192,192,264013,1,0,0:0:0:0:
448,192,264058,1,0,0:0:0:0:
320,192,264104,1,0,0:0:0:0:
64,192,264149,1,0,0:0:0:0:
192,192,264195,1,0,0:0:0:0:
448,192,264240,1,0,0:0:0:0:
320,192,264285,1,0,0:0:0:0:
64,192,264331,1,0,0:0:0:0:
192,192,264376,1,0,0:0:0:0:
448,192,264422,1,0,0:0:0:0:
320,192,264467,1,0,0:0:0:0:
192,192,264513,1,0,0:0:0:0:
64,192,264558,1,0,0:0:0:0:
448,192,264604,1,0,0:0:0:0:
320,192,264649,1,0,0:0:0:0:
192,192,264695,1,0,0:0:0:0:
64,192,264740,1,0,0:0:0:0:
320,192,264785,1,0,0:0:0:0:
448,192,264831,1,0,0:0:0:0:
64,192,264876,1,0,0:0:0:0:
192,192,264922,1,0,0:0:0:0:
320,192,264967,1,0,0:0:0:0:
448,192,265013,1,0,0:0:0:0:
192,192,265058,1,0,0:0:0:0:
64,192,265104,1,0,0:0:0:0:
448,192,265149,1,0,0:0:0:0:
320,192,265195,1,0,0:0:0:0:
192,192,265240,1,0,0:0:0:0:
64,192,265285,1,0,0:0:0:0:
320,192,265331,1,0,0:0:0:0:
448,192,265376,1,0,0:0:0:0:
64,192,265422,1,0,0:0:0:0:
192,192,265467,1,0,0:0:0:0:
320,192,265513,1,0,0:0:0:0:
448,192,265558,1,0,0:0:0:0:
192,192,265604,1,0,0:0:0:0:
64,192,265649,1,0,0:0:0:0:
448,192,265695,1,0,0:0:0:0:
320,192,265740,1,0,0:0:0:0:
192,192,265785,1,0,0:0:0:0:
64,192,265831,1,0,0:0:0:0:
320,192,265876,1,0,0:0:0:0:
448,192,265922,1,0,0:0:0:0:
64,192,265967,1,0,0:0:0:0:
192,192,266013,1,0,0:0:0:0:
448,192,266058,1,0,0:0:0:0:
320,192,266104,1,0,0:0:0:0:
64,192,266149,1,0,0:0:0:0:
192,192,266195,1,0,0:0:0:0:
448,192,266240,1,0,0:0:0:0:
320,192,266285,1,0,0:0:0:0:
64,192,266331,1,0,0:0:0:0:
192,192,266376,1,0,0:0:0:0:
448,192,266422,1,0,0:0:0:0:
320,192,266467,1,0,0:0:0:0:
64,192,266513,1,0,0:0:0:0:
192,192,266558,1,0,0:0:0:0:
448,192,266604,1,0,0:0:0:0:
320,192,266649,1,0,0:0:0:0:
64,192,266695,1,0,0:0:0:0:
192,192,266740,1,0,0:0:0:0:
448,192,266785,1,0,0:0:0:0:
320,192,266831,1,0,0:0:0:0:
64,192,266876,1,0,0:0:0:0:
192,192,266922,1,0,0:0:0:0:
448,192,266967,1,0,0:0:0:0:
320,192,267013,1,0,0:0:0:0:
64,192,267058,1,0,0:0:0:0:
192,192,267104,1,0,0:0:0:0:
448,192,267149,1,0,0:0:0:0:
320,192,267195,1,0,0:0:0:0:
64,192,267240,1,0,0:0:0:0:
192,192,267285,1,0,0:0:0:0:
448,192,267331,1,0,0:0:0:0:
320,192,267376,1,0,0:0:0:0:
192,192,267422,1,0,0:0:0:0:
64,192,267467,1,0,0:0:0:0:
448,192,267513,1,0,0:0:0:0:
320,192,267558,1,0,0:0:0:0:
192,192,267604,1,0,0:0:0:0:
64,192,267649,1,0,0:0:0:0:
320,192,267695,1,0,0:0:0:0:
448,192,267740,1,0,0:0:0:0:
64,192,267785,1,0,0:0:0:0:
192,192,267831,1,0,0:0:0:0:
320,192,267876,1,0,0:0:0:0:
448,192,267922,1,0,0:0:0:0:
192,192,267967,1,0,0:0:0:0:
64,192,268013,1,0,0:0:0:0:
448,192,268058,1,0,0:0:0:0:
320,192,268104,1,0,0:0:0:0:
192,192,268149,1,0,0:0:0:0:
64,192,268195,1,0,0:0:0:0:
320,192,268240,1,0,0:0:0:0:
448,192,268285,1,0,0:0:0:0:
64,192,268331,1,0,0:0:0:0:
192,192,268376,1,0,0:0:0:0:
320,192,268422,1,0,0:0:0:0:
448,192,268467,1,0,0:0:0:0:
192,192,268513,1,0,0:0:0:0:
64,192,268558,1,0,0:0:0:0:
448,192,268604,1,0,0:0:0:0:
320,192,268649,1,0,0:0:0:0:
192,192,268695,1,0,0:0:0:0:
64,192,268740,1,0,0:0:0:0:
320,192,268785,1,0,0:0:0:0:
448,192,268831,1,0,0:0:0:0:
64,192,268876,1,0,0:0:0:0:
192,192,268922,1,0,0:0:0:0:
448,192,268967,1,0,0:0:0:0:
320,192,269013,1,0,0:0:0:0:
64,192,269058,1,0,0:0:0:0:
192,192,269104,1,0,0:0:0:0:
448,192,269149,5,0,0:0:0:0:
320,192,269195,1,0,0:0:0:0:
64,192,269240,1,0,0:0:0:0:
192,192,269285,1,0,0:0:0:0:
448,192,269331,1,0,0:0:0:0:
320,192,269376,1,0,0:0:0:0:
64,192,269422,1,0,0:0:0:0:
192,192,269467,1,0,0:0:0:0:
448,192,269513,1,0,0:0:0:0:
320,192,269558,1,0,0:0:0:0:
64,192,269604,1,0,0:0:0:0:
192,192,269649,1,0,0:0:0:0:
448,192,269695,1,0,0:0:0:0:
320,192,269740,1,0,0:0:0:0:
64,192,269785,1,0,0:0:0:0:
192,192,269831,1,0,0:0:0:0:
448,192,269876,1,0,0:0:0:0:
320,192,269922,1,0,0:0:0:0:
64,192,269967,1,0,0:0:0:0:
192,192,270013,1,0,0:0:0:0:
448,192,270058,1,0,0:0:0:0:
320,192,270104,1,0,0:0:0:0:
64,192,270149,1,0,0:0:0:0:
192,192,270195,1,0,0:0:0:0:
448,192,270240,1,0,0:0:0:0:
320,192,270285,1,0,0:0:0:0:
192,192,270331,5,0,0:0:0:0:
64,192,270331,1,0,0:0:0:0:
448,192,270422,1,0,0:0:0:0:
320,192,270422,1,0,0:0:0:0:
64,192,270513,1,0,0:0:0:0:
192,192,270513,1,0,0:0:0:0:
320,192,270604,1,0,0:0:0:0:
448,192,270604,1,0,0:0:0:0:
192,192,270695,1,0,0:0:0:0:
64,192,270695,1,0,0:0:0:0:
448,192,270785,1,0,0:0:0:0:
320,192,270785,1,0,0:0:0:0:
64,192,270876,1,0,0:0:0:0:
192,192,270876,1,0,0:0:0:0:
448,192,270967,1,0,0:0:0:0:
320,192,270967,1,0,0:0:0:0:
64,192,271058,1,0,0:0:0:0:
192,192,271058,1,0,0:0:0:0:
320,192,271149,1,0,0:0:0:0:
448,192,271149,1,0,0:0:0:0:
64,192,271240,1,0,0:0:0:0:
192,192,271240,1,0,0:0:0:0:
320,192,271331,1,0,0:0:0:0:
448,192,271331,1,0,0:0:0:0:
64,192,271422,1,0,0:0:0:0:
192,192,271422,1,0,0:0:0:0:
192,192,271513,1,0,0:0:0:0:
64,192,271513,1,0,0:0:0:0:
320,192,271604,1,0,0:0:0:0:
448,192,271604,1,0,0:0:0:0:
320,192,271695,1,0,0:0:0:0:
448,192,271695,1,0,0:0:0:0:
64,192,271785,128,0,271831:0:0:0:0:
192,192,271785,128,0,271831:0:0:0:0:
320,192,273240,128,0,274513:0:0:0:0:
192,192,273967,1,0,0:0:0:0:
448,192,274058,1,0,0:0:0:0:
64,192,274149,1,0,0:0:0:0:
448,192,274240,1,0,0:0:0:0:
64,192,274331,1,0,0:0:0:0:
192,192,274422,1,0,0:0:0:0:
448,192,274513,1,0,0:0:0:0:
320,192,274604,1,0,0:0:0:0:
192,192,274695,1,6,0:0:0:0:
64,192,274695,1,0,0:0:0:0:
448,192,274695,1,0,0:0:0:0:
320,192,274876,1,0,0:0:0:0:
64,192,274967,1,0,0:0:0:0:
448,192,275058,1,8,0:0:0:0:
320,192,275149,1,0,0:0:0:0:
64,192,275240,1,0,0:0:0:0:
448,192,275331,1,0,0:0:0:0:
192,192,275422,1,2,0:0:0:0:
448,192,275513,1,0,0:0:0:0:
64,192,275604,1,2,0:0:0:0:
192,192,275695,1,0,0:0:0:0:
320,192,275785,1,8,0:0:0:0:
64,192,275876,1,0,0:0:0:0:
448,192,275967,1,0,0:0:0:0:
320,192,276058,1,0,0:0:0:0:
192,192,276149,1,6,0:0:0:0:
64,192,276240,1,0,0:0:0:0:
448,192,276331,1,2,0:0:0:0:
320,192,276422,1,0,0:0:0:0:
64,192,276513,1,8,0:0:0:0:
192,192,276604,1,0,0:0:0:0:
320,192,276695,1,2,0:0:0:0:
64,192,276785,1,0,0:0:0:0:
320,192,276876,1,2,0:0:0:0:
192,192,276967,1,0,0:0:0:0:
448,192,277058,1,2,0:0:0:0:
320,192,277149,1,0,0:0:0:0:
64,192,277240,1,8,0:0:0:0:
192,192,277331,1,0,0:0:0:0:
448,192,277422,1,0,0:0:0:0:
320,192,277513,1,0,0:0:0:0:
192,192,277604,1,2,0:0:0:0:
448,192,277695,1,0,0:0:0:0:
320,192,277785,1,0,0:0:0:0:
192,192,277876,1,0,0:0:0:0:
448,192,277967,1,8,0:0:0:0:
320,192,278058,1,0,0:0:0:0:
64,192,278149,1,0,0:0:0:0:
320,192,278240,1,0,0:0:0:0:
192,192,278331,1,2,0:0:0:0:
64,192,278422,1,0,0:0:0:0:
448,192,278513,1,2,0:0:0:0:
320,192,278604,1,0,0:0:0:0:
64,192,278695,1,8,0:0:0:0:
192,192,278785,1,0,0:0:0:0:
448,192,278876,1,0,0:0:0:0:
64,192,278967,1,0,0:0:0:0:
192,192,279058,1,6,0:0:0:0:
320,192,279149,1,0,0:0:0:0:
448,192,279240,1,2,0:0:0:0:
64,192,279331,1,0,0:0:0:0:
192,192,279422,1,8,0:0:0:0:
320,192,279513,1,0,0:0:0:0:
448,192,279604,1,2,0:0:0:0:
192,192,279695,1,0,0:0:0:0:
64,192,279785,1,2,0:0:0:0:
448,192,279876,1,0,0:0:0:0:
192,192,279967,1,2,0:0:0:0:
448,192,280058,1,0,0:0:0:0:
320,192,280149,1,8,0:0:0:0:
64,192,280240,1,0,0:0:0:0:
448,192,280331,1,2,0:0:0:0:
64,192,280422,1,0,0:0:0:0:
320,192,280513,1,2,0:0:0:0:
192,192,280695,1,0,0:0:0:0:
448,192,280785,1,0,0:0:0:0:
64,192,280876,1,8,0:0:0:0:
192,192,280967,1,0,0:0:0:0:
448,192,281058,1,0,0:0:0:0:
320,192,281149,1,0,0:0:0:0:
192,192,281240,1,2,0:0:0:0:
320,192,281331,1,0,0:0:0:0:
64,192,281422,1,2,0:0:0:0:
192,192,281513,1,0,0:0:0:0:
320,192,281604,1,8,0:0:0:0:
448,192,281695,1,0,0:0:0:0:
192,192,281785,1,0,0:0:0:0:
320,192,281876,1,0,0:0:0:0:
64,192,281967,1,6,0:0:0:0:
192,192,282058,1,0,0:0:0:0:
448,192,282149,1,2,0:0:0:0:
192,192,282240,1,0,0:0:0:0:
320,192,282331,1,8,0:0:0:0:
448,192,282422,1,0,0:0:0:0:
192,192,282513,1,2,0:0:0:0:
64,192,282604,1,0,0:0:0:0:
320,192,282695,1,2,0:0:0:0:
448,192,282785,1,0,0:0:0:0:
192,192,282876,1,2,0:0:0:0:
64,192,282967,1,0,0:0:0:0:
448,192,283058,1,8,0:0:0:0:
320,192,283149,1,0,0:0:0:0:
192,192,283240,1,0,0:0:0:0:
64,192,283331,1,0,0:0:0:0:
448,192,283422,1,2,0:0:0:0:
320,192,283513,1,0,0:0:0:0:
64,192,283604,1,0,0:0:0:0:
192,192,283695,1,0,0:0:0:0:
320,192,283785,1,8,0:0:0:0:
64,192,283876,1,0,0:0:0:0:
448,192,283967,1,0,0:0:0:0:
192,192,284058,1,0,0:0:0:0:
320,192,284149,1,2,0:0:0:0:
192,192,284240,1,0,0:0:0:0:
64,192,284331,1,2,0:0:0:0:
192,192,284422,1,0,0:0:0:0:
448,192,284513,1,8,0:0:0:0:
320,192,284604,1,0,0:0:0:0:
192,192,284695,1,0,0:0:0:0:
320,192,284785,1,0,0:0:0:0:
448,192,284876,1,6,0:0:0:0:
192,192,284967,1,0,0:0:0:0:
320,192,285058,1,2,0:0:0:0:
448,192,285149,1,0,0:0:0:0:
64,192,285240,1,8,0:0:0:0:
320,192,285331,1,0,0:0:0:0:
192,192,285422,1,2,0:0:0:0:
64,192,285513,1,0,0:0:0:0:
320,192,285604,1,2,0:0:0:0:
448,192,285695,1,0,0:0:0:0:
64,192,285785,1,2,0:0:0:0:
192,192,285876,1,0,0:0:0:0:
448,192,285967,1,8,0:0:0:0:
320,192,286058,1,0,0:0:0:0:
192,192,286149,1,2,0:0:0:0:
320,192,286240,1,0,0:0:0:0:
64,192,286331,1,6,0:0:0:0:
192,192,286331,1,0,0:0:0:0:
448,192,286331,1,0,0:0:0:0:
320,192,286513,1,0,0:0:0:0:
192,192,286604,1,0,0:0:0:0:
64,192,286695,1,8,0:0:0:0:
320,192,286695,1,0,0:0:0:0:
448,192,286695,1,0,0:0:0:0:
192,192,286785,1,0,0:0:0:0:
448,192,286876,1,0,0:0:0:0:
320,192,286967,1,0,0:0:0:0:
192,192,287058,1,0,0:0:0:0:
448,192,287149,1,0,0:0:0:0:
64,192,287240,1,2,0:0:0:0:
320,192,287331,1,0,0:0:0:0:
192,192,287422,1,8,0:0:0:0:
64,192,287422,1,0,0:0:0:0:
448,192,287422,1,0,0:0:0:0:
320,192,287513,1,0,0:0:0:0:
192,192,287604,1,0,0:0:0:0:
320,192,287695,1,0,0:0:0:0:
448,192,287785,1,0,0:0:0:0:
64,192,287876,1,0,0:0:0:0:
192,192,287967,1,0,0:0:0:0:
320,192,288058,1,0,0:0:0:0:
64,192,288149,1,0,0:0:0:0:
448,192,288149,1,0,0:0:0:0:
192,192,288149,1,0,0:0:0:0:
320,192,288240,1,0,0:0:0:0:
64,192,288331,1,0,0:0:0:0:
320,192,288422,1,0,0:0:0:0:
192,192,288513,1,0,0:0:0:0:
448,192,288604,1,0,0:0:0:0:
64,192,288695,1,2,0:0:0:0:
192,192,288785,1,0,0:0:0:0:
320,192,288876,1,8,0:0:0:0:
448,192,288876,1,0,0:0:0:0:
64,192,288876,1,0,0:0:0:0:
192,192,288967,1,0,0:0:0:0:
448,192,289058,1,0,0:0:0:0:
320,192,289149,1,0,0:0:0:0:
192,192,289240,1,2,0:0:0:0:
448,192,289331,1,0,0:0:0:0:
64,192,289422,1,0,0:0:0:0:
192,192,289513,1,0,0:0:0:0:
320,192,289604,1,8,0:0:0:0:
448,192,289604,1,0,0:0:0:0:
64,192,289604,1,0,0:0:0:0:
192,192,289695,1,0,0:0:0:0:
448,192,289785,1,0,0:0:0:0:
320,192,289876,1,0,0:0:0:0:
192,192,289967,1,0,0:0:0:0:
448,192,290058,1,0,0:0:0:0:
320,192,290149,1,2,0:0:0:0:
64,192,290240,1,0,0:0:0:0:
192,192,290331,1,8,0:0:0:0:
320,192,290331,1,0,0:0:0:0:
448,192,290331,1,0,0:0:0:0:
64,192,290422,1,0,0:0:0:0:
448,192,290513,1,0,0:0:0:0:
320,192,290604,1,0,0:0:0:0:
192,192,290695,1,0,0:0:0:0:
448,192,290785,1,0,0:0:0:0:
64,192,290876,1,0,0:0:0:0:
320,192,290967,1,0,0:0:0:0:
192,192,291058,1,0,0:0:0:0:
64,192,291058,1,0,0:0:0:0:
448,192,291058,1,0,0:0:0:0:
320,192,291149,1,0,0:0:0:0:
64,192,291240,1,0,0:0:0:0:
192,192,291331,1,0,0:0:0:0:
320,192,291422,1,0,0:0:0:0:
64,192,291513,1,0,0:0:0:0:
448,192,291604,1,2,0:0:0:0:
192,192,291695,1,0,0:0:0:0:
448,192,291785,1,8,0:0:0:0:
64,192,291876,1,0,0:0:0:0:
320,192,291967,1,2,0:0:0:0:
64,192,292058,1,0,0:0:0:0:
448,192,292149,1,2,0:0:0:0:
192,192,292240,1,0,0:0:0:0:
320,192,292331,1,0,0:0:0:0:
448,192,292422,1,0,0:0:0:0:
320,192,292513,1,8,0:0:0:0:
192,192,292513,1,0,0:0:0:0:
64,192,292513,1,0,0:0:0:0:
448,192,292604,1,0,0:0:0:0:
192,192,292695,1,0,0:0:0:0:
64,192,292785,1,0,0:0:0:0:
320,192,292876,1,0,0:0:0:0:
192,192,292967,1,0,0:0:0:0:
320,192,293058,1,2,0:0:0:0:
448,192,293149,1,0,0:0:0:0:
320,192,293240,1,8,0:0:0:0:
192,192,293240,1,0,0:0:0:0:
64,192,293240,1,0,0:0:0:0:
448,192,293331,1,0,0:0:0:0:
192,192,293422,1,0,0:0:0:0:
320,192,293513,1,0,0:0:0:0:
64,192,293604,1,0,0:0:0:0:
192,192,293695,1,0,0:0:0:0:
320,192,293785,1,0,0:0:0:0:
192,192,293876,1,0,0:0:0:0:
64,192,293967,1,0,0:0:0:0:
320,192,293967,1,0,0:0:0:0:
448,192,293967,1,0,0:0:0:0:
192,192,294058,1,0,0:0:0:0:
448,192,294149,1,0,0:0:0:0:
320,192,294240,1,0,0:0:0:0:
192,192,294331,1,0,0:0:0:0:
448,192,294422,1,0,0:0:0:0:
64,192,294513,1,2,0:0:0:0:
192,192,294604,1,0,0:0:0:0:
320,192,294695,1,8,0:0:0:0:
448,192,294695,1,0,0:0:0:0:
64,192,294695,1,0,0:0:0:0:
192,192,294785,1,0,0:0:0:0:
448,192,294876,1,0,0:0:0:0:
64,192,294967,1,0,0:0:0:0:
320,192,295058,1,2,0:0:0:0:
192,192,295149,1,0,0:0:0:0:
448,192,295240,1,0,0:0:0:0:
192,192,295331,1,0,0:0:0:0:
320,192,295422,1,8,0:0:0:0:
448,192,295422,1,0,0:0:0:0:
64,192,295422,1,0,0:0:0:0:
192,192,295513,1,0,0:0:0:0:
320,192,295604,1,0,0:0:0:0:
192,192,295695,1,0,0:0:0:0:
64,192,295785,1,0,0:0:0:0:
448,192,295876,1,0,0:0:0:0:
64,192,295967,1,2,0:0:0:0:
192,192,296058,1,0,0:0:0:0:
320,192,296149,1,8,0:0:0:0:
448,192,296149,1,0,0:0:0:0:
64,192,296149,1,0,0:0:0:0:
192,192,296240,1,0,0:0:0:0:
320,192,296331,1,0,0:0:0:0:
448,192,296422,1,0,0:0:0:0:
64,192,296513,128,0,296695:0:0:0:0:
192,192,296604,128,0,296695:0:0:0:0:
448,192,296695,128,0,296876:0:0:0:0:
320,192,296785,128,0,296876:0:0:0:0:
192,192,296876,128,0,297058:0:0:0:0:
448,192,296967,128,0,297058:0:0:0:0:
64,192,297058,128,0,297240:0:0:0:0:
320,192,297149,128,0,297240:0:0:0:0:
448,192,297240,128,0,297422:0:0:0:0:
192,192,297331,128,0,297422:0:0:0:0:
64,192,297422,1,8,0:0:0:0:
320,192,297422,1,0,0:0:0:0:
192,192,297513,1,8,0:0:0:0:
448,192,297513,1,0,0:0:0:0:
320,192,297604,1,8,0:0:0:0:
64,192,297604,1,0,0:0:0:0:
64,192,297785,1,8,0:0:0:0:
320,192,297785,1,0,0:0:0:0:
320,192,297967,1,6,0:0:0:0:
448,192,297967,1,0,0:0:0:0:
64,192,297967,1,0,0:0:0:0:
192,192,297967,1,0,0:0:0:0:
320,192,298149,1,0,0:0:0:0:
448,192,298149,128,0,298240:0:0:0:0:
64,192,298240,128,0,298331:0:0:0:0:
192,192,298331,1,8,0:0:0:0:
320,192,298331,1,0,0:0:0:0:
448,192,298331,1,0,0:0:0:0:
64,192,298422,128,0,298513:0:0:0:0:
320,192,298513,128,0,298604:0:0:0:0:
448,192,298604,1,0,0:0:0:0:
64,192,298695,1,2,0:0:0:0:
192,192,298695,128,0,298785:0:0:0:0:
320,192,298785,128,0,298876:0:0:0:0:
64,192,298876,1,0,0:0:0:0:
448,192,298967,1,0,0:0:0:0:
320,192,299058,1,8,0:0:0:0:
64,192,299058,128,0,299149:0:0:0:0:
192,192,299058,128,0,299149:0:0:0:0:
64,192,299240,128,0,299331:0:0:0:0:
320,192,299240,128,0,299331:0:0:0:0:
64,192,299422,128,0,299513:0:0:0:0:
448,192,299422,128,0,299513:0:0:0:0:
320,192,299513,1,0,0:0:0:0:
192,192,299604,128,0,299695:0:0:0:0:
64,192,299695,128,0,299785:0:0:0:0:
320,192,299785,1,8,0:0:0:0:
448,192,299785,1,0,0:0:0:0:
192,192,299785,1,0,0:0:0:0:
64,192,299876,1,0,0:0:0:0:
320,192,299967,1,0,0:0:0:0:
448,192,299967,128,0,300058:0:0:0:0:
192,192,300058,1,0,0:0:0:0:
320,192,300149,1,0,0:0:0:0:
64,192,300149,128,2,300240:0:0:0:0:
448,192,300240,1,0,0:0:0:0:
192,192,300331,1,0,0:0:0:0:
320,192,300422,1,0,0:0:0:0:
192,192,300513,1,8,0:0:0:0:
448,192,300513,1,0,0:0:0:0:
64,192,300513,128,0,300604:0:0:0:0:
320,192,300604,1,0,0:0:0:0:
64,192,300695,128,0,300785:0:0:0:0:
320,192,300785,1,0,0:0:0:0:
64,192,300876,128,0,300967:0:0:0:0:
192,192,300876,128,2,300967:0:0:0:0:
448,192,300967,128,0,301058:0:0:0:0:
320,192,301058,128,0,301149:0:0:0:0:
192,192,301149,128,0,301240:0:0:0:0:
64,192,301240,1,8,0:0:0:0:
320,192,301240,1,0,0:0:0:0:
448,192,301240,128,0,301331:0:0:0:0:
192,192,301331,1,0,0:0:0:0:
448,192,301422,128,0,301513:0:0:0:0:
192,192,301513,1,0,0:0:0:0:
448,192,301604,128,0,301695:0:0:0:0:
320,192,301604,128,2,301695:0:0:0:0:
64,192,301695,128,0,301785:0:0:0:0:
192,192,301785,128,0,301876:0:0:0:0:
320,192,301876,128,0,301967:0:0:0:0:
192,192,301967,1,8,0:0:0:0:
448,192,301967,1,0,0:0:0:0:
64,192,301967,128,0,302058:0:0:0:0:
320,192,302058,1,0,0:0:0:0:
64,192,302149,128,0,302240:0:0:0:0:
320,192,302240,1,0,0:0:0:0:
64,192,302331,128,0,302422:0:0:0:0:
192,192,302331,128,2,302422:0:0:0:0:
448,192,302422,128,0,302513:0:0:0:0:
320,192,302513,128,0,302604:0:0:0:0:
192,192,302604,128,0,302695:0:0:0:0:
64,192,302695,1,8,0:0:0:0:
320,192,302695,1,0,0:0:0:0:
448,192,302695,128,0,302785:0:0:0:0:
192,192,302785,1,0,0:0:0:0:
448,192,302876,128,0,302967:0:0:0:0:
192,192,302967,1,0,0:0:0:0:
320,192,303058,1,2,0:0:0:0:
448,192,303058,128,0,303149:0:0:0:0:
192,192,303149,128,0,303240:0:0:0:0:
64,192,303240,128,0,303331:0:0:0:0:
320,192,303331,128,0,303422:0:0:0:0:
192,192,303422,1,8,0:0:0:0:
64,192,303422,1,0,0:0:0:0:
448,192,303422,128,0,303513:0:0:0:0:
320,192,303513,128,0,303604:0:0:0:0:
64,192,303604,128,0,303695:0:0:0:0:
192,192,303695,128,0,303785:0:0:0:0:
320,192,303785,1,2,0:0:0:0:
448,192,303785,1,0,0:0:0:0:
192,192,303967,1,0,0:0:0:0:
64,192,303967,128,0,304058:0:0:0:0:
448,192,304058,128,0,304149:0:0:0:0:
192,192,304149,1,8,0:0:0:0:
64,192,304149,1,0,0:0:0:0:
320,192,304149,1,0,0:0:0:0:
448,192,304240,128,0,304331:0:0:0:0:
64,192,304331,128,0,304422:0:0:0:0:
192,192,304422,1,0,0:0:0:0:
448,192,304513,1,2,0:0:0:0:
320,192,304513,128,0,304604:0:0:0:0:
64,192,304604,128,0,304695:0:0:0:0:
448,192,304695,1,0,0:0:0:0:
192,192,304785,1,0,0:0:0:0:
64,192,304876,1,8,0:0:0:0:
320,192,304876,128,0,304967:0:0:0:0:
448,192,304876,128,0,304967:0:0:0:0:
64,192,305058,128,0,305149:0:0:0:0:
448,192,305058,128,0,305149:0:0:0:0:
64,192,305240,128,0,305331:0:0:0:0:
192,192,305240,128,2,305331:0:0:0:0:
448,192,305331,1,0,0:0:0:0:
320,192,305422,128,0,305513:0:0:0:0:
192,192,305513,128,0,305604:0:0:0:0:
64,192,305604,1,8,0:0:0:0:
320,192,305604,1,0,0:0:0:0:
448,192,305604,1,0,0:0:0:0:
192,192,305695,1,0,0:0:0:0:
320,192,305785,1,0,0:0:0:0:
448,192,305785,128,0,305876:0:0:0:0:
192,192,305876,1,0,0:0:0:0:
448,192,305967,1,0,0:0:0:0:
64,192,305967,128,2,306058:0:0:0:0:
320,192,306058,1,0,0:0:0:0:
192,192,306149,1,0,0:0:0:0:
320,192,306240,1,0,0:0:0:0:
192,192,306331,1,0,0:0:0:0:
448,192,306331,1,0,0:0:0:0:
64,192,306331,128,8,306422:0:0:0:0:
320,192,306422,1,0,0:0:0:0:
64,192,306513,128,0,306604:0:0:0:0:
320,192,306604,1,0,0:0:0:0:
64,192,306695,128,0,306785:0:0:0:0:
192,192,306695,128,2,306785:0:0:0:0:
448,192,306785,128,0,306876:0:0:0:0:
320,192,306876,128,0,306967:0:0:0:0:
192,192,306967,128,0,307058:0:0:0:0:
320,192,307058,128,0,307149:0:0:0:0:
448,192,307058,128,8,307149:0:0:0:0:
192,192,307149,128,0,307240:0:0:0:0:
64,192,307149,128,0,307240:0:0:0:0:
448,192,307240,1,0,0:0:0:0:
192,192,307331,1,0,0:0:0:0:
448,192,307422,128,0,307513:0:0:0:0:
320,192,307422,128,2,307513:0:0:0:0:
64,192,307513,128,0,307604:0:0:0:0:
192,192,307604,128,0,307695:0:0:0:0:
320,192,307695,128,0,307785:0:0:0:0:
64,192,307785,128,8,307876:0:0:0:0:
192,192,307785,128,0,307876:0:0:0:0:
320,192,307876,128,0,307967:0:0:0:0:
448,192,307876,128,0,307967:0:0:0:0:
64,192,307967,1,0,0:0:0:0:
192,192,308058,1,0,0:0:0:0:
320,192,308149,1,2,0:0:0:0:
448,192,308149,128,0,308240:0:0:0:0:
192,192,308240,1,0,0:0:0:0:
448,192,308331,128,0,308422:0:0:0:0:
320,192,308422,1,0,0:0:0:0:
192,192,308513,1,8,0:0:0:0:
448,192,308513,1,0,0:0:0:0:
64,192,308513,128,0,308604:0:0:0:0:
320,192,308604,1,0,0:0:0:0:
64,192,308695,128,0,308785:0:0:0:0:
192,192,308785,1,0,0:0:0:0:
448,192,308876,1,2,0:0:0:0:
320,192,308876,128,0,308967:0:0:0:0:
64,192,308967,1,0,0:0:0:0:
192,192,309058,128,0,309149:0:0:0:0:
320,192,309149,1,0,0:0:0:0:
192,192,309240,1,8,0:0:0:0:
448,192,309240,1,0,0:0:0:0:
64,192,309240,128,0,309331:0:0:0:0:
320,192,309331,1,0,0:0:0:0:
192,192,309422,1,0,0:0:0:0:
320,192,309513,1,0,0:0:0:0:
192,192,309604,1,6,0:0:0:0:
64,192,309604,1,0,0:0:0:0:
448,192,309604,1,0,0:0:0:0:
192,192,309785,1,0,0:0:0:0:
64,192,309785,128,0,309876:0:0:0:0:
448,192,309876,128,0,309967:0:0:0:0:
320,192,309967,1,8,0:0:0:0:
192,192,309967,1,0,0:0:0:0:
64,192,309967,1,0,0:0:0:0:
448,192,310058,128,0,310149:0:0:0:0:
192,192,310149,128,0,310240:0:0:0:0:
64,192,310240,1,0,0:0:0:0:
448,192,310331,1,2,0:0:0:0:
320,192,310331,128,0,310422:0:0:0:0:
192,192,310422,128,0,310513:0:0:0:0:
448,192,310513,1,0,0:0:0:0:
64,192,310604,1,0,0:0:0:0:
192,192,310695,1,8,0:0:0:0:
448,192,310695,128,0,310785:0:0:0:0:
320,192,310695,128,0,310785:0:0:0:0:
448,192,310876,128,0,310967:0:0:0:0:
192,192,310876,128,0,310967:0:0:0:0:
448,192,311058,128,0,311149:0:0:0:0:
64,192,311058,128,0,311149:0:0:0:0:
192,192,311149,1,0,0:0:0:0:
320,192,311240,128,0,311331:0:0:0:0:
448,192,311331,128,0,311422:0:0:0:0:
192,192,311422,1,8,0:0:0:0:
64,192,311422,1,0,0:0:0:0:
320,192,311422,1,0,0:0:0:0:
448,192,311513,1,0,0:0:0:0:
192,192,311604,1,0,0:0:0:0:
64,192,311604,128,0,311695:0:0:0:0:
320,192,311695,1,0,0:0:0:0:
192,192,311785,1,0,0:0:0:0:
448,192,311785,128,2,311876:0:0:0:0:
64,192,311876,1,0,0:0:0:0:
320,192,311967,1,0,0:0:0:0:
192,192,312058,1,0,0:0:0:0:
320,192,312149,1,8,0:0:0:0:
64,192,312149,1,0,0:0:0:0:
448,192,312149,128,0,312240:0:0:0:0:
192,192,312240,1,0,0:0:0:0:
448,192,312331,128,0,312422:0:0:0:0:
192,192,312422,1,0,0:0:0:0:
448,192,312513,128,0,312604:0:0:0:0:
320,192,312513,128,2,312604:0:0:0:0:
64,192,312604,128,0,312695:0:0:0:0:
192,192,312695,128,0,312785:0:0:0:0:
320,192,312785,128,0,312876:0:0:0:0:
448,192,312876,1,8,0:0:0:0:
192,192,312876,1,0,0:0:0:0:
64,192,312876,128,0,312967:0:0:0:0:
320,192,312967,1,0,0:0:0:0:
64,192,313058,128,0,313149:0:0:0:0:
320,192,313149,1,0,0:0:0:0:
64,192,313240,128,0,313331:0:0:0:0:
192,192,313240,128,2,313331:0:0:0:0:
448,192,313331,128,0,313422:0:0:0:0:
320,192,313422,128,0,313513:0:0:0:0:
192,192,313513,128,0,313604:0:0:0:0:
320,192,313604,1,8,0:0:0:0:
64,192,313604,1,0,0:0:0:0:
448,192,313604,128,0,313695:0:0:0:0:
192,192,313695,1,0,0:0:0:0:
448,192,313785,128,0,313876:0:0:0:0:
192,192,313876,1,0,0:0:0:0:
448,192,313967,128,0,314058:0:0:0:0:
320,192,313967,128,2,314058:0:0:0:0:
64,192,314058,128,0,314149:0:0:0:0:
192,192,314149,128,0,314240:0:0:0:0:
320,192,314240,128,0,314331:0:0:0:0:
448,192,314331,1,8,0:0:0:0:
192,192,314331,1,0,0:0:0:0:
64,192,314331,128,0,314422:0:0:0:0:
320,192,314422,1,0,0:0:0:0:
64,192,314513,128,0,314604:0:0:0:0:
320,192,314604,1,0,0:0:0:0:
192,192,314695,1,2,0:0:0:0:
64,192,314695,128,0,314785:0:0:0:0:
320,192,314785,128,0,314876:0:0:0:0:
448,192,314876,128,0,314967:0:0:0:0:
192,192,314967,128,0,315058:0:0:0:0:
320,192,315058,1,8,0:0:0:0:
448,192,315058,1,0,0:0:0:0:
64,192,315058,128,0,315149:0:0:0:0:
192,192,315149,128,0,315240:0:0:0:0:
448,192,315240,128,0,315331:0:0:0:0:
320,192,315331,128,0,315422:0:0:0:0:
192,192,315422,1,2,0:0:0:0:
64,192,315422,1,0,0:0:0:0:
320,192,315604,1,0,0:0:0:0:
448,192,315604,128,0,315695:0:0:0:0:
64,192,315695,128,0,315785:0:0:0:0:
320,192,315785,1,8,0:0:0:0:
448,192,315785,1,0,0:0:0:0:
192,192,315785,1,0,0:0:0:0:
64,192,315876,128,0,315967:0:0:0:0:
448,192,315967,128,0,316058:0:0:0:0:
320,192,316058,1,0,0:0:0:0:
64,192,316149,1,2,0:0:0:0:
192,192,316149,128,0,316240:0:0:0:0:
448,192,316240,128,0,316331:0:0:0:0:
64,192,316331,1,0,0:0:0:0:
320,192,316422,1,0,0:0:0:0:
448,192,316513,1,8,0:0:0:0:
192,192,316513,128,0,316604:0:0:0:0:
64,192,316513,128,0,316604:0:0:0:0:
448,192,316695,128,0,316785:0:0:0:0:
64,192,316695,128,0,316785:0:0:0:0:
448,192,316876,128,0,316967:0:0:0:0:
320,192,316876,128,2,316967:0:0:0:0:
64,192,316967,1,0,0:0:0:0:
192,192,317058,128,0,317149:0:0:0:0:
320,192,317149,128,0,317240:0:0:0:0:
448,192,317240,1,8,0:0:0:0:
192,192,317240,1,0,0:0:0:0:
64,192,317240,1,0,0:0:0:0:
320,192,317331,1,0,0:0:0:0:
192,192,317422,1,0,0:0:0:0:
64,192,317422,128,0,317513:0:0:0:0:
320,192,317513,1,0,0:0:0:0:
64,192,317604,1,0,0:0:0:0:
448,192,317604,128,2,317695:0:0:0:0:
192,192,317695,1,0,0:0:0:0:
320,192,317785,1,0,0:0:0:0:
192,192,317876,1,0,0:0:0:0:
320,192,317967,1,0,0:0:0:0:
64,192,317967,1,0,0:0:0:0:
448,192,317967,128,8,318058:0:0:0:0:
192,192,318058,1,0,0:0:0:0:
448,192,318149,128,0,318240:0:0:0:0:
192,192,318240,1,0,0:0:0:0:
448,192,318331,128,0,318422:0:0:0:0:
320,192,318331,128,2,318422:0:0:0:0:
64,192,318422,128,0,318513:0:0:0:0:
192,192,318513,128,0,318604:0:0:0:0:
320,192,318604,128,0,318695:0:0:0:0:
192,192,318695,128,0,318785:0:0:0:0:
64,192,318695,128,8,318785:0:0:0:0:
320,192,318785,128,0,318876:0:0:0:0:
448,192,318785,128,0,318876:0:0:0:0:
64,192,318876,1,0,0:0:0:0:
320,192,318967,1,0,0:0:0:0:
64,192,319058,128,0,319149:0:0:0:0:
192,192,319058,128,2,319149:0:0:0:0:
448,192,319149,128,0,319240:0:0:0:0:
320,192,319240,128,0,319331:0:0:0:0:
192,192,319331,128,0,319422:0:0:0:0:
448,192,319422,128,8,319513:0:0:0:0:
320,192,319422,128,0,319513:0:0:0:0:
192,192,319513,128,0,319604:0:0:0:0:
64,192,319513,128,0,319604:0:0:0:0:
448,192,319604,1,0,0:0:0:0:
320,192,319695,1,0,0:0:0:0:
192,192,319785,1,2,0:0:0:0:
64,192,319785,128,0,319876:0:0:0:0:
320,192,319876,1,0,0:0:0:0:
64,192,319967,128,0,320058:0:0:0:0:
192,192,320058,1,0,0:0:0:0:
320,192,320149,1,8,0:0:0:0:
64,192,320149,1,0,0:0:0:0:
448,192,320149,128,0,320240:0:0:0:0:
192,192,320240,1,0,0:0:0:0:
448,192,320331,128,0,320422:0:0:0:0:
320,192,320422,1,0,0:0:0:0:
64,192,320513,1,2,0:0:0:0:
192,192,320513,128,0,320604:0:0:0:0:
320,192,320604,1,0,0:0:0:0:
64,192,320695,1,8,0:0:0:0:
448,192,320695,1,0,0:0:0:0:
192,192,320785,1,8,0:0:0:0:
320,192,320785,1,0,0:0:0:0:
64,192,320876,1,2,0:0:0:0:
448,192,320876,1,0,0:0:0:0:
192,192,320967,1,0,0:0:0:0:
320,192,321058,1,8,0:0:0:0:
448,192,321058,1,0,0:0:0:0:
192,192,321149,1,0,0:0:0:0:
64,192,321240,1,6,0:0:0:0:
320,192,321240,1,0,0:0:0:0:
448,192,321240,1,0,0:0:0:0:
192,192,321331,1,0,0:0:0:0:
320,192,321422,1,0,0:0:0:0:
448,192,321422,1,0,0:0:0:0:
64,192,321513,1,0,0:0:0:0:
192,192,321513,1,0,0:0:0:0:
320,192,321604,1,8,0:0:0:0:
448,192,321604,1,0,0:0:0:0:
64,192,321604,1,0,0:0:0:0:
448,192,321695,1,0,0:0:0:0:
320,192,321695,1,0,0:0:0:0:
64,192,321785,1,0,0:0:0:0:
192,192,321785,1,0,0:0:0:0:
320,192,321876,1,0,0:0:0:0:
64,192,321967,1,2,0:0:0:0:
448,192,321967,1,0,0:0:0:0:
448,192,322058,1,0,0:0:0:0:
64,192,322058,1,0,0:0:0:0:
192,192,322149,1,0,0:0:0:0:
320,192,322240,1,0,0:0:0:0:
448,192,322240,1,0,0:0:0:0:
192,192,322331,1,8,0:0:0:0:
64,192,322331,1,0,0:0:0:0:
448,192,322331,1,0,0:0:0:0:
192,192,322422,1,0,0:0:0:0:
320,192,322513,1,0,0:0:0:0:
448,192,322513,1,0,0:0:0:0:
64,192,322604,1,0,0:0:0:0:
448,192,322695,1,2,0:0:0:0:
192,192,322695,1,0,0:0:0:0:
320,192,322785,1,0,0:0:0:0:
64,192,322876,1,0,0:0:0:0:
192,192,322876,1,0,0:0:0:0:
448,192,322967,1,0,0:0:0:0:
320,192,322967,1,0,0:0:0:0:
64,192,323058,1,8,0:0:0:0:
192,192,323058,1,0,0:0:0:0:
448,192,323058,1,0,0:0:0:0:
64,192,323149,1,0,0:0:0:0:
192,192,323149,1,0,0:0:0:0:
448,192,323240,1,0,0:0:0:0:
320,192,323240,1,0,0:0:0:0:
192,192,323331,1,0,0:0:0:0:
64,192,323422,1,2,0:0:0:0:
320,192,323422,1,0,0:0:0:0:
320,192,323513,1,0,0:0:0:0:
64,192,323513,1,0,0:0:0:0:
448,192,323604,1,0,0:0:0:0:
192,192,323695,1,0,0:0:0:0:
64,192,323695,1,0,0:0:0:0:
448,192,323785,1,8,0:0:0:0:
64,192,323785,1,0,0:0:0:0:
320,192,323785,1,0,0:0:0:0:
320,192,323876,1,0,0:0:0:0:
192,192,323967,1,0,0:0:0:0:
64,192,323967,1,0,0:0:0:0:
448,192,324058,1,0,0:0:0:0:
64,192,324149,1,2,0:0:0:0:
320,192,324149,1,0,0:0:0:0:
192,192,324240,1,0,0:0:0:0:
320,192,324331,1,0,0:0:0:0:
448,192,324331,1,0,0:0:0:0:
64,192,324422,1,0,0:0:0:0:
192,192,324422,1,0,0:0:0:0:
64,192,324513,1,8,0:0:0:0:
320,192,324513,1,0,0:0:0:0:
448,192,324513,1,0,0:0:0:0:
448,192,324604,1,0,0:0:0:0:
320,192,324604,1,0,0:0:0:0:
64,192,324695,1,0,0:0:0:0:
192,192,324695,1,0,0:0:0:0:
320,192,324785,1,0,0:0:0:0:
448,192,324876,1,2,0:0:0:0:
64,192,324876,1,0,0:0:0:0:
64,192,324967,1,0,0:0:0:0:
448,192,324967,1,0,0:0:0:0:
192,192,325058,1,0,0:0:0:0:
320,192,325149,1,0,0:0:0:0:
448,192,325149,1,0,0:0:0:0:
192,192,325240,1,8,0:0:0:0:
64,192,325240,1,0,0:0:0:0:
448,192,325240,1,0,0:0:0:0:
320,192,325331,1,0,0:0:0:0:
64,192,325422,1,0,0:0:0:0:
192,192,325422,1,0,0:0:0:0:
320,192,325513,1,0,0:0:0:0:
64,192,325604,1,2,0:0:0:0:
192,192,325604,1,0,0:0:0:0:
448,192,325604,1,0,0:0:0:0:
192,192,325785,1,0,0:0:0:0:
320,192,325876,1,0,0:0:0:0:
192,192,325967,1,8,0:0:0:0:
448,192,325967,1,0,0:0:0:0:
64,192,325967,1,0,0:0:0:0:
64,192,326149,1,0,0:0:0:0:
448,192,326240,1,0,0:0:0:0:
64,192,326331,1,2,0:0:0:0:
192,192,326331,1,0,0:0:0:0:
320,192,326331,1,0,0:0:0:0:
320,192,326513,1,0,0:0:0:0:
192,192,326604,1,0,0:0:0:0:
64,192,326695,1,8,0:0:0:0:
320,192,326695,1,0,0:0:0:0:
448,192,326695,1,0,0:0:0:0:
448,192,326876,1,0,0:0:0:0:
64,192,326967,1,0,0:0:0:0:
192,192,327058,1,6,0:0:0:0:
320,192,327058,1,0,0:0:0:0:
448,192,327058,1,0,0:0:0:0:
320,192,327149,1,0,0:0:0:0:
192,192,327240,1,0,0:0:0:0:
64,192,327240,1,0,0:0:0:0:
448,192,327331,1,0,0:0:0:0:
320,192,327331,1,0,0:0:0:0:
448,192,327422,1,8,0:0:0:0:
192,192,327422,1,0,0:0:0:0:
64,192,327422,1,0,0:0:0:0:
64,192,327513,1,0,0:0:0:0:
192,192,327513,1,0,0:0:0:0:
448,192,327604,1,0,0:0:0:0:
320,192,327604,1,0,0:0:0:0:
192,192,327695,1,0,0:0:0:0:
448,192,327785,1,2,0:0:0:0:
64,192,327785,1,0,0:0:0:0:
64,192,327876,1,0,0:0:0:0:
448,192,327876,1,0,0:0:0:0:
320,192,327967,1,0,0:0:0:0:
192,192,328058,1,0,0:0:0:0:
64,192,328058,1,0,0:0:0:0:
320,192,328149,1,8,0:0:0:0:
448,192,328149,1,0,0:0:0:0:
64,192,328149,1,0,0:0:0:0:
320,192,328240,1,0,0:0:0:0:
192,192,328331,1,0,0:0:0:0:
64,192,328331,1,0,0:0:0:0:
448,192,328422,1,0,0:0:0:0:
64,192,328513,1,2,0:0:0:0:
320,192,328513,1,0,0:0:0:0:
192,192,328604,1,0,0:0:0:0:
448,192,328695,1,0,0:0:0:0:
320,192,328695,1,0,0:0:0:0:
64,192,328785,1,0,0:0:0:0:
192,192,328785,1,0,0:0:0:0:
448,192,328876,1,8,0:0:0:0:
320,192,328876,1,0,0:0:0:0:
64,192,328876,1,0,0:0:0:0:
448,192,328967,1,0,0:0:0:0:
320,192,328967,1,0,0:0:0:0:
64,192,329058,1,0,0:0:0:0:
192,192,329058,1,0,0:0:0:0:
320,192,329149,1,0,0:0:0:0:
448,192,329240,1,2,0:0:0:0:
192,192,329240,1,0,0:0:0:0:
320,192,329331,1,0,0:0:0:0:
192,192,329422,1,0,0:0:0:0:
64,192,329422,1,0,0:0:0:0:
320,192,329513,1,0,0:0:0:0:
448,192,329513,1,0,0:0:0:0:
64,192,329604,1,8,0:0:0:0:
448,192,329604,1,0,0:0:0:0:
192,192,329604,1,0,0:0:0:0:
192,192,329695,1,0,0:0:0:0:
320,192,329785,1,0,0:0:0:0:
448,192,329785,1,0,0:0:0:0:
64,192,329876,1,0,0:0:0:0:
448,192,329967,1,2,0:0:0:0:
192,192,329967,1,0,0:0:0:0:
320,192,330058,1,0,0:0:0:0:
192,192,330149,1,0,0:0:0:0:
64,192,330149,1,0,0:0:0:0:
448,192,330240,1,0,0:0:0:0:
320,192,330240,1,0,0:0:0:0:
448,192,330331,1,8,0:0:0:0:
192,192,330331,1,0,0:0:0:0:
64,192,330331,1,0,0:0:0:0:
64,192,330422,1,0,0:0:0:0:
192,192,330422,1,0,0:0:0:0:
448,192,330513,1,0,0:0:0:0:
320,192,330513,1,0,0:0:0:0:
192,192,330604,1,0,0:0:0:0:
64,192,330695,1,2,0:0:0:0:
448,192,330695,1,0,0:0:0:0:
448,192,330785,1,0,0:0:0:0:
64,192,330785,1,0,0:0:0:0:
320,192,330876,1,0,0:0:0:0:
192,192,330967,1,0,0:0:0:0:
64,192,330967,1,0,0:0:0:0:
320,192,331058,1,8,0:0:0:0:
448,192,331058,1,0,0:0:0:0:
64,192,331058,1,0,0:0:0:0:
320,192,331149,1,8,0:0:0:0:
448,192,331149,1,0,0:0:0:0:
64,192,331240,1,8,0:0:0:0:
192,192,331240,1,0,0:0:0:0:
192,192,331331,1,8,0:0:0:0:
64,192,331331,1,0,0:0:0:0:
320,192,331422,1,2,0:0:0:0:
448,192,331422,1,0,0:0:0:0:
320,192,331513,1,0,0:0:0:0:
192,192,331604,1,0,0:0:0:0:
320,192,331695,1,2,0:0:0:0:
64,192,331695,1,0,0:0:0:0:
448,192,331695,1,0,0:0:0:0:
192,192,331785,1,0,0:0:0:0:
320,192,331876,1,0,0:0:0:0:
64,192,331967,1,2,0:0:0:0:
192,192,331967,1,0,0:0:0:0:
448,192,331967,1,0,0:0:0:0:
320,192,332058,1,0,0:0:0:0:
192,192,332149,1,0,0:0:0:0:
64,192,332240,1,2,0:0:0:0:
320,192,332240,1,0,0:0:0:0:
448,192,332240,1,0,0:0:0:0:
192,192,332331,1,0,0:0:0:0:
320,192,332422,1,0,0:0:0:0:
448,192,332513,1,8,0:0:0:0:
192,192,332513,1,0,0:0:0:0:
64,192,332513,1,0,0:0:0:0:
192,192,332695,1,0,0:0:0:0:
320,192,332695,1,0,0:0:0:0:
320,192,332876,1,12,0:0:0:0:
448,192,332876,1,0,0:0:0:0:
192,192,332876,1,0,0:0:0:0:
64,192,332876,128,0,334331:0:0:0:0:
448,192,333058,1,0,0:0:0:0:
192,192,333240,1,0,0:0:0:0:
320,192,333422,1,0,0:0:0:0:
448,192,333604,1,0,0:0:0:0:
192,192,333785,1,0,0:0:0:0:
320,192,333967,1,0,0:0:0:0:
448,192,334149,1,0,0:0:0:0:
192,192,334331,1,0,0:0:0:0:
64,192,334513,1,0,0:0:0:0:
320,192,334695,1,0,0:0:0:0:
448,192,334876,1,0,0:0:0:0:
192,192,335058,1,0,0:0:0:0:
64,192,335240,1,0,0:0:0:0:
320,192,335422,1,0,0:0:0:0:
192,192,335604,1,8,0:0:0:0:
64,192,335604,1,0,0:0:0:0:
64,192,335695,1,8,0:0:0:0:
192,192,335695,1,0,0:0:0:0:
320,192,335785,1,2,0:0:0:0:
448,192,335785,1,0,0:0:0:0:
320,192,335967,1,2,0:0:0:0:
448,192,335967,1,0,0:0:0:0:
320,192,336149,1,2,0:0:0:0:
448,192,336149,1,0,0:0:0:0:
320,192,336331,1,2,0:0:0:0:
448,192,336331,1,0,0:0:0:0:
192,192,336513,1,2,0:0:0:0:
64,192,336513,1,0,0:0:0:0:
192,192,336695,1,2,0:0:0:0:
64,192,336695,1,0,0:0:0:0:
64,192,336876,1,2,0:0:0:0:
192,192,336876,1,0,0:0:0:0:
192,192,337058,1,2,0:0:0:0:
64,192,337058,1,0,0:0:0:0:
448,192,337240,1,2,0:0:0:0:
320,192,337240,1,0,0:0:0:0:
192,192,337331,1,2,0:0:0:0:
64,192,337331,1,0,0:0:0:0:
448,192,337422,1,2,0:0:0:0:
320,192,337422,1,0,0:0:0:0:
192,192,337513,1,2,0:0:0:0:
64,192,337513,1,0,0:0:0:0:
448,192,337604,1,2,0:0:0:0:
320,192,337604,1,0,0:0:0:0:
64,192,337695,1,2,0:0:0:0:
192,192,337695,1,0,0:0:0:0:
448,192,337785,1,2,0:0:0:0:
320,192,337831,1,0,0:0:0:0:
192,192,337876,1,0,0:0:0:0:
64,192,337922,1,0,0:0:0:0:
320,192,337967,1,0,0:0:0:0:
448,192,338013,1,0,0:0:0:0:
64,192,338058,1,0,0:0:0:0:
192,192,338104,1,0,0:0:0:0:
320,192,338149,1,2,0:0:0:0:
448,192,338149,1,0,0:0:0:0:
320,192,338331,1,12,0:0:0:0:
448,192,338331,1,0,0:0:0:0:
64,192,338331,1,0,0:0:0:0:
192,192,338331,1,0,0:0:0:0:
64,192,338695,128,4,350331:0:0:0:0:
320,192,338695,128,0,338785:0:0:0:0:
448,192,338695,128,0,338785:0:0:0:0:
192,192,338785,128,0,338876:0:0:0:0:
320,192,338876,128,0,338967:0:0:0:0:
448,192,338967,128,0,339058:0:0:0:0:
192,192,339058,128,0,339149:0:0:0:0:
320,192,339149,128,0,339240:0:0:0:0:
448,192,339240,128,0,339331:0:0:0:0:
320,192,339331,128,0,339422:0:0:0:0:
192,192,339422,128,0,339513:0:0:0:0:
448,192,339513,128,0,339604:0:0:0:0:
320,192,339604,128,0,339695:0:0:0:0:
192,192,339695,128,0,339785:0:0:0:0:
448,192,339785,128,0,339876:0:0:0:0:
320,192,339876,128,0,339967:0:0:0:0:
192,192,339967,128,0,340058:0:0:0:0:
320,192,340058,128,0,340149:0:0:0:0:
448,192,340149,128,0,340240:0:0:0:0:
192,192,340240,128,0,340331:0:0:0:0:
320,192,340331,128,0,340422:0:0:0:0:
448,192,340422,128,0,340513:0:0:0:0:
192,192,340513,128,0,340604:0:0:0:0:
320,192,340604,128,0,340695:0:0:0:0:
192,192,340695,128,0,340785:0:0:0:0:
448,192,340785,128,0,340876:0:0:0:0:
320,192,340876,128,0,340967:0:0:0:0:
192,192,340967,128,0,341058:0:0:0:0:
320,192,341058,128,0,341149:0:0:0:0:
448,192,341149,128,0,341240:0:0:0:0:
192,192,341240,128,0,341331:0:0:0:0:
320,192,341331,128,0,341422:0:0:0:0:
448,192,341422,128,0,341513:0:0:0:0:
320,192,341513,128,0,341604:0:0:0:0:
192,192,341604,128,0,341695:0:0:0:0:
448,192,341695,128,0,341785:0:0:0:0:
320,192,341785,128,0,341876:0:0:0:0:
192,192,341876,128,0,341967:0:0:0:0:
448,192,341967,128,0,342058:0:0:0:0:
320,192,342058,128,0,342149:0:0:0:0:
192,192,342149,128,0,342240:0:0:0:0:
320,192,342240,128,0,342331:0:0:0:0:
448,192,342331,128,0,342422:0:0:0:0:
192,192,342422,128,0,342513:0:0:0:0:
320,192,342513,128,0,342604:0:0:0:0:
448,192,342604,128,0,342695:0:0:0:0:
192,192,342695,128,0,342785:0:0:0:0:
320,192,342785,128,0,342876:0:0:0:0:
192,192,342876,128,0,342967:0:0:0:0:
448,192,342967,128,0,343058:0:0:0:0:
320,192,343058,128,0,343149:0:0:0:0:
448,192,343149,128,0,343240:0:0:0:0:
192,192,343240,128,0,343331:0:0:0:0:
320,192,343331,128,0,343422:0:0:0:0:
448,192,343422,128,0,343513:0:0:0:0:
192,192,343513,128,0,343604:0:0:0:0:
320,192,343604,128,0,343695:0:0:0:0:
448,192,343695,128,0,343785:0:0:0:0:
320,192,343785,128,0,343876:0:0:0:0:
192,192,343876,128,0,343967:0:0:0:0:
448,192,343967,128,0,344058:0:0:0:0:
320,192,344058,128,0,344149:0:0:0:0:
448,192,344149,128,0,344240:0:0:0:0:
192,192,344240,128,0,344331:0:0:0:0:
320,192,344331,128,0,344422:0:0:0:0:
448,192,344422,128,0,344513:0:0:0:0:
192,192,344513,128,0,344604:0:0:0:0:
320,192,344604,128,0,344695:0:0:0:0:
448,192,344695,128,0,344785:0:0:0:0:
320,192,344785,128,0,344876:0:0:0:0:
192,192,344876,128,0,344967:0:0:0:0:
320,192,344967,128,0,345058:0:0:0:0:
448,192,345058,128,0,345149:0:0:0:0:
192,192,345149,128,0,345240:0:0:0:0:
320,192,345240,128,0,345331:0:0:0:0:
448,192,345331,128,0,345422:0:0:0:0:
192,192,345422,128,0,345513:0:0:0:0:
448,192,345513,128,0,345604:0:0:0:0:
320,192,345604,128,0,345695:0:0:0:0:
192,192,345695,128,0,345785:0:0:0:0:
448,192,345785,128,0,345876:0:0:0:0:
320,192,345876,128,0,345967:0:0:0:0:
192,192,345967,128,0,346058:0:0:0:0:
320,192,346058,128,0,346149:0:0:0:0:
448,192,346149,128,0,346240:0:0:0:0:
192,192,346240,128,0,346331:0:0:0:0:
320,192,346331,128,0,346422:0:0:0:0:
448,192,346422,128,0,346513:0:0:0:0:
320,192,346513,128,0,346604:0:0:0:0:
192,192,346604,128,0,346695:0:0:0:0:
448,192,346695,128,0,346785:0:0:0:0:
320,192,346785,128,0,346876:0:0:0:0:
448,192,346876,128,0,346967:0:0:0:0:
192,192,346967,128,0,347058:0:0:0:0:
320,192,347058,128,0,347149:0:0:0:0:
448,192,347149,128,0,347240:0:0:0:0:
192,192,347240,128,0,347331:0:0:0:0:
320,192,347331,128,0,347422:0:0:0:0:
192,192,347422,128,0,347513:0:0:0:0:
448,192,347513,128,0,347604:0:0:0:0:
320,192,347604,128,0,347695:0:0:0:0:
192,192,347695,128,0,347785:0:0:0:0:
320,192,347785,128,0,347876:0:0:0:0:
448,192,347876,128,0,347967:0:0:0:0:
192,192,347967,128,0,348058:0:0:0:0:
320,192,348058,128,0,348149:0:0:0:0:
448,192,348149,128,0,348240:0:0:0:0:
192,192,348240,128,0,348331:0:0:0:0:
448,192,348331,128,0,348422:0:0:0:0:
320,192,348422,128,0,348513:0:0:0:0:
192,192,348513,128,0,348604:0:0:0:0:
320,192,348604,128,0,348695:0:0:0:0:
448,192,348695,128,0,348785:0:0:0:0:
192,192,348785,128,0,348876:0:0:0:0:
320,192,348876,128,0,348967:0:0:0:0:
448,192,348967,128,0,349058:0:0:0:0:
192,192,349058,128,0,349149:0:0:0:0:
448,192,349149,128,0,349240:0:0:0:0:
192,192,349240,128,0,349422:0:0:0:0:
320,192,349331,128,0,349513:0:0:0:0:
448,192,349422,128,0,349604:0:0:0:0:
192,192,349513,128,0,349695:0:0:0:0:
320,192,349604,128,0,349785:0:0:0:0:
448,192,349695,128,0,349876:0:0:0:0:
192,192,349785,128,0,349967:0:0:0:0:
320,192,349876,128,0,350058:0:0:0:0:
448,192,349967,128,0,350149:0:0:0:0:
192,192,350058,128,0,350331:0:0:0:0:
320,192,350149,128,0,350331:0:0:0:0:
448,192,350240,128,0,350331:0:0:0:0:
