osu file format v14

[General]
AudioFilename: audio.mp3
AudioLeadIn: 0
PreviewTime: 52784
Countdown: 0
SampleSet: Normal
StackLeniency: 0.7
Mode: 2
LetterboxInBreaks: 0
WidescreenStoryboard: 0

[Editor]
DistanceSpacing: 0.9
BeatDivisor: 8
GridSize: 16
TimelineZoom: 2.5

[Metadata]
Title:Hoshi ga Furanai Machi
TitleUnicode:星が降らない街
Artist:Chroma
ArtistUnicode:黑魔
Creator:Rocma
Version:Wish
Source:
Tags:HAPPYNATION #02 Jirachi electronic chiptune instrumental wonjae paranoid grapes _asriel
BeatmapID:2343238
BeatmapSetID:1121344

[Difficulty]
HPDrainRate:6
CircleSize:3.7
OverallDifficulty:9.7
ApproachRate:9.7
SliderMultiplier:2.56
SliderTickRate:2

[Events]
//Background and Video events
0,0,"BG.png",0,0
//Break Periods
2,258803,259653
//Storyboard Layer 0 (Background)
//Storyboard Layer 1 (Fail)
//Storyboard Layer 2 (Pass)
//Storyboard Layer 3 (Foreground)
//Storyboard Layer 4 (Overlay)
//Storyboard Sound Samples

[TimingPoints]
2694,363.636363636364,4,1,2,50,1,0
2694,-200,4,1,2,50,0,0
37603,-100,4,1,2,50,0,0
53603,-100,4,1,2,70,0,1
76875,-100,4,1,2,60,0,0
105966,-100,4,1,2,70,0,0
117603,-100,4,1,2,50,0,0
129239,-100,4,1,2,60,0,0
140875,-100,4,1,2,50,0,0
148148,-100,4,1,2,70,0,1
171421,-100,4,1,2,60,0,0
188875,-100,4,1,2,40,0,0
199784,-100,4,1,2,50,0,0
200512,-100,4,1,2,60,0,0
212148,-100,4,1,2,40,0,0
226694,-80,4,1,2,50,0,0
228148,-100,4,1,2,50,0,0
257239,-71.4285714285714,4,1,2,50,0,0
260148,-100,4,1,2,50,0,0
260512,-100,4,1,2,60,0,0
260875,-100,4,1,2,70,0,0
261239,-100,4,1,2,80,0,0
261603,-100,4,1,2,50,0,0
261966,-100,4,1,2,40,0,0
262330,-100,4,1,2,30,0,0
262694,-100,4,1,2,20,0,0
263057,-100,4,1,2,50,0,0
263421,-100,4,1,2,60,0,0
263784,-100,4,1,2,70,0,0
264148,-100,4,1,2,80,0,0
264512,-100,4,1,2,50,0,0
264875,-100,4,1,2,40,0,0
265239,-100,4,1,2,30,0,0
265603,-100,4,1,2,20,0,0
265966,-100,4,1,2,50,0,0
266057,-100,4,1,2,5,0,0
266148,-100,4,1,2,50,0,0
266330,-100,4,1,2,60,0,0
266421,-100,4,1,2,5,0,0
266512,-100,4,1,2,60,0,0
266693,-100,4,1,2,70,0,0
266784,-100,4,1,2,5,0,0
266875,-100,4,1,2,70,0,0
267057,-100,4,1,2,80,0,0
267148,-100,4,1,2,5,0,0
267239,-100,4,1,2,80,0,0
267421,-100,4,1,2,50,0,0
267784,-100,4,1,2,40,0,0
268148,-100,4,1,2,30,0,0
268512,-100,4,1,2,20,0,0
268875,-100,4,1,2,50,0,0
268966,-100,4,1,2,20,0,0
269239,-100,4,1,2,60,0,0
269330,-100,4,1,2,20,0,0
269602,-100,4,1,2,70,0,0
269694,-100,4,1,2,30,0,0
269966,-100,4,1,2,80,0,0
270057,-100,4,1,2,30,0,0
270330,-100,4,1,2,50,0,0
270693,-100,4,1,2,60,0,0
271057,-100,4,1,2,70,0,0
271421,-100,4,1,2,80,0,0
273239,-100,4,1,2,40,0,0
274694,-100,4,1,2,50,0,0
286330,-100,4,1,2,60,0,0
297421,-100,4,1,2,70,0,1
321239,-100,4,1,2,60,0,0
332875,-100,4,1,2,50,0,0
338694,-100,4,1,2,40,0,0
341603,-100,4,1,2,30,0,0
344512,-100,4,1,2,20,0,0
347421,-100,4,1,2,10,0,0

[Colours]
Combo1 : 0,128,255
Combo2 : 255,255,102

[HitObjects]
256,192,1421,12,0,2512,0:0:0:0:
256,288,2694,5,6,0:0:0:0:
336,272,2875,2,0,L|352:208,1,64,0|0,0:0|0:0,0:0:0:0:
432,208,3239,1,0,0:0:0:0:
256,288,3421,5,4,0:0:0:0:
336,272,3602,2,0,L|352:208,1,64,0|0,0:0|0:0,0:0:0:0:
432,208,3966,1,0,0:0:0:0:
256,288,4148,5,4,0:0:0:0:
336,272,4330,2,0,L|352:208,1,64,0|0,0:0|0:0,0:0:0:0:
256,192,4693,1,0,0:0:0:0:
432,304,4875,5,4,0:0:0:0:
352,288,5057,2,0,L|336:224,1,64,0|0,0:0|0:0,0:0:0:0:
432,208,5420,1,8,0:0:0:0:
256,288,5603,5,4,0:0:0:0:
176,272,5784,2,0,L|160:208,1,64,0|0,0:0|0:0,0:0:0:0:
80,208,6148,1,0,0:0:0:0:
256,288,6330,5,4,0:0:0:0:
176,272,6512,2,0,L|160:208,1,64,0|0,0:0|0:0,0:0:0:0:
80,208,6875,1,0,0:0:0:0:
256,288,7057,5,4,0:0:0:0:
176,272,7239,2,0,L|160:208,1,64,0|0,0:0|0:0,0:0:0:0:
256,192,7602,1,0,0:0:0:0:
80,304,7784,5,4,0:0:0:0:
160,288,7966,2,0,L|176:224,1,64,0|8,0:0|0:0,0:0:0:0:
80,208,8329,1,8,0:0:0:0:
256,288,8512,6,0,L|272:224,1,64,4|0,0:0|0:0,0:0:0:0:
352,192,8875,1,0,0:0:0:0:
272,160,9057,1,0,0:0:0:0:
368,272,9239,6,0,L|384:208,1,64,4|0,0:0|0:0,0:0:0:0:
464,176,9602,1,0,0:0:0:0:
384,144,9784,1,0,0:0:0:0:
256,208,9966,6,0,L|272:144,1,64,4|0,0:0|0:0,0:0:0:0:
352,112,10329,1,0,0:0:0:0:
432,96,10511,1,0,0:0:0:0:
256,208,10694,6,0,L|272:144,1,64,4|0,0:0|0:0,0:0:0:0:
352,112,11057,1,0,0:0:0:0:
432,96,11239,1,8,0:0:0:0:
256,288,11421,6,0,L|240:224,1,64,4|0,0:0|0:0,0:0:0:0:
160,192,11784,1,0,0:0:0:0:
240,160,11966,1,0,0:0:0:0:
144,272,12148,6,0,L|128:208,1,64,4|0,0:0|0:0,0:0:0:0:
48,176,12511,1,0,0:0:0:0:
128,144,12693,1,0,0:0:0:0:
256,208,12875,6,0,L|240:144,1,64,4|0,0:0|0:0,0:0:0:0:
160,112,13238,1,0,0:0:0:0:
80,96,13420,1,0,0:0:0:0:
256,208,13603,6,0,L|240:144,1,64,4|0,0:0|0:0,0:0:0:0:
160,112,13966,1,8,0:0:0:0:
80,96,14148,1,8,0:0:0:0:
256,272,14330,5,6,0:0:0:0:
144,256,14512,2,0,L|144:176,1,64,8|0,0:0|0:0,0:0:0:0:
256,208,14875,2,0,L|256:144,1,64,8|0,0:0|0:0,0:0:0:0:
368,256,15239,2,0,L|368:176,1,64,8|0,0:0|0:0,0:0:0:0:
256,160,15603,1,8,0:0:0:0:
368,128,15784,5,4,0:0:0:0:
256,240,15966,2,0,L|192:240,1,64,8|0,0:0|0:0,0:0:0:0:
304,272,16330,2,0,L|368:272,1,64,8|0,0:0|0:0,0:0:0:0:
256,320,16694,2,0,L|336:320,1,64,8|0,0:0|0:0,0:0:0:0:
192,288,17057,1,8,0:0:0:0:
320,256,17239,5,4,0:0:0:0:
192,224,17421,2,0,L|192:160,1,64,8|0,0:0|0:0,0:0:0:0:
320,160,17784,2,0,L|400:160,1,64,8|0,0:0|0:0,0:0:0:0:
256,160,18148,2,0,L|256:96,1,64,8|0,0:0|0:0,0:0:0:0:
384,96,18512,1,8,0:0:0:0:
256,80,18694,5,4,0:0:0:0:
128,144,18875,2,0,L|192:144,1,64,8|0,0:0|0:0,0:0:0:0:
64,192,19239,2,0,L|64:256,1,64,8|0,0:0|0:0,0:0:0:0:
192,288,19603,2,0,L|128:288,1,64,8|0,0:0|0:0,0:0:0:0:
256,240,19966,1,8,0:0:0:0:
384,224,20148,6,0,L|320:224,1,64,4|0,0:0|0:0,0:0:0:0:
256,208,20512,2,0,L|256:128,1,64,8|0,0:0|0:0,0:0:0:0:
384,224,20875,2,0,L|320:224,1,64,0|0,0:0|0:0,0:0:0:0:
256,208,21239,2,0,L|256:128,1,64,8|0,0:0|0:0,0:0:0:0:
128,224,21603,6,0,L|192:224,1,64,4|0,0:0|0:0,0:0:0:0:
256,208,21967,2,0,L|256:128,1,64,8|0,0:0|0:0,0:0:0:0:
128,224,22330,2,0,L|192:224,1,64,0|0,0:0|0:0,0:0:0:0:
256,208,22694,2,0,L|256:128,1,64,8|8,0:0|0:0,0:0:0:0:
128,160,23057,6,0,L|64:160,1,64,4|0,0:0|0:0,0:0:0:0:
128,112,23421,2,0,L|128:48,1,64,8|0,0:0|0:0,0:0:0:0:
256,160,23784,2,0,L|320:160,1,64,0|0,0:0|0:0,0:0:0:0:
256,112,24148,2,0,L|256:48,1,64,8|0,0:0|0:0,0:0:0:0:
384,160,24512,6,0,L|448:160,1,64,4|0,0:0|0:0,0:0:0:0:
384,112,24876,2,0,L|320:112,1,64,8|0,0:0|0:0,0:0:0:0:
192,160,25239,2,0,L|128:160,1,64,0|0,0:0|0:0,0:0:0:0:
192,112,25603,2,0,L|256:112,1,64,8|8,0:0|0:0,0:0:0:0:
400,240,25966,5,6,0:0:0:0:
256,224,26148,2,0,L|256:160,1,64,8|0,0:0|0:0,0:0:0:0:
400,144,26512,1,8,0:0:0:0:
112,240,26694,5,0,0:0:0:0:
256,224,26876,2,0,L|256:160,1,64,4|8,0:0|0:0,0:0:0:0:
400,144,27240,1,8,0:0:0:0:
112,240,27421,5,4,0:0:0:0:
256,224,27603,2,0,L|256:160,1,64,8|0,0:0|0:0,0:0:0:0:
112,144,27967,1,8,0:0:0:0:
400,240,28149,5,0,0:0:0:0:
256,224,28331,2,0,L|256:160,1,64,4|8,0:0|0:0,0:0:0:0:
112,144,28695,1,8,0:0:0:0:
400,304,28875,5,4,0:0:0:0:
256,272,29057,1,8,0:0:0:0:
400,240,29239,2,0,L|400:160,1,64,0|8,0:0|0:0,0:0:0:0:
112,304,29603,5,0,0:0:0:0:
256,272,29785,1,4,0:0:0:0:
400,240,29967,2,0,L|400:160,1,64,8|8,0:0|0:0,0:0:0:0:
112,176,30330,6,0,L|112:240,1,64,4|8,0:0|0:0,0:0:0:0:
256,272,30693,1,0,0:0:0:0:
112,304,30875,1,8,0:0:0:0:
400,176,31058,6,0,L|400:240,1,64,0|4,0:0|0:0,0:0:0:0:
256,272,31421,1,8,0:0:0:0:
112,304,31603,1,8,0:0:0:0:
432,336,31784,6,0,L|480:256,1,64,4|8,0:0|0:0,0:0:0:0:
432,224,32148,1,0,0:0:0:0:
336,224,32330,1,8,0:0:0:0:
80,336,32512,2,0,L|32:256,1,64,0|4,0:0|0:0,0:0:0:0:
80,224,32875,1,8,0:0:0:0:
176,224,33057,1,8,0:0:0:0:
432,336,33239,6,0,L|352:336,1,64,4|8,0:0|0:0,0:0:0:0:
320,256,33603,1,0,0:0:0:0:
368,192,33784,1,8,0:0:0:0:
80,336,33966,2,0,L|160:336,1,64,0|4,0:0|0:0,0:0:0:0:
192,256,34330,1,8,0:0:0:0:
144,192,34511,1,8,0:0:0:0:
416,336,34694,6,0,L|416:272,1,64,4|8,0:0|0:0,0:0:0:0:
496,224,35057,2,0,L|432:224,1,64,0|8,0:0|0:0,0:0:0:0:
160,336,35421,2,0,L|160:272,1,64,0|4,0:0|0:0,0:0:0:0:
80,224,35784,2,0,L|144:224,1,64,8|8,0:0|0:0,0:0:0:0:
416,224,36148,6,0,L|336:224,1,64,4|8,0:0|0:0,0:0:0:0:
192,208,36512,1,0,0:0:0:0:
352,160,36694,1,8,0:0:0:0:
192,160,36875,2,0,L|192:80,1,64,0|4,0:0|0:0,0:0:0:0:
208,96,37103,1,0,0:0:0:0:
96,96,37148,2,0,L|80:96,1,16,4|0,0:0|0:0,0:0:0:0:
192,48,37239,2,0,L|256:48,1,64,8|4,0:0|0:0,0:0:0:0:
448,80,37512,1,8,0:0:0:0:
256,144,37603,6,0,L|112:144,1,128,4|0,0:0|0:0,0:0:0:0:
384,224,37966,1,8,0:0:0:0:
128,256,38148,1,0,0:0:0:0:
256,160,38330,6,0,L|112:160,1,128,4|0,0:0|0:0,0:0:0:0:
384,240,38693,1,8,0:0:0:0:
128,272,38875,1,0,0:0:0:0:
256,192,39057,6,0,L|240:64,1,128,4|0,0:0|0:0,0:0:0:0:
384,240,39421,1,8,0:0:0:0:
128,272,39603,1,0,0:0:0:0:
256,192,39784,6,0,L|240:64,1,128,4|0,0:0|0:0,0:0:0:0:
384,240,40148,1,8,0:0:0:0:
128,272,40330,1,8,0:0:0:0:
256,192,40512,6,0,L|272:64,1,128,4|0,0:0|0:0,0:0:0:0:
128,240,40876,1,8,0:0:0:0:
384,272,41058,1,0,0:0:0:0:
256,192,41239,6,0,L|272:64,1,128,4|0,0:0|0:0,0:0:0:0:
128,240,41603,1,8,0:0:0:0:
384,272,41785,1,0,0:0:0:0:
256,144,41966,6,0,L|400:144,1,128,4|0,0:0|0:0,0:0:0:0:
128,224,42329,1,8,0:0:0:0:
384,256,42511,1,0,0:0:0:0:
256,144,42694,6,0,L|400:144,1,128,4|0,0:0|0:0,0:0:0:0:
128,224,43057,1,8,0:0:0:0:
384,256,43239,1,8,0:0:0:0:
256,272,43421,6,0,L|240:128,1,128,4|0,0:0|0:0,0:0:0:0:
144,128,43784,1,8,0:0:0:0:
16,128,43966,1,0,0:0:0:0:
272,256,44148,2,0,L|256:112,1,128,4|0,0:0|0:0,0:0:0:0:
160,112,44511,1,8,0:0:0:0:
32,112,44693,1,0,0:0:0:0:
288,256,44875,6,0,L|272:112,1,128,4|0,0:0|0:0,0:0:0:0:
368,112,45238,1,8,0:0:0:0:
496,112,45420,1,8,0:0:0:0:
240,240,45603,6,0,L|224:96,1,128,4|0,0:0|0:0,0:0:0:0:
320,96,45966,1,8,0:0:0:0:
448,96,46148,1,8,0:0:0:0:
160,288,46330,6,0,L|144:160,1,128,4|0,0:0|0:0,0:0:0:0:
224,112,46694,1,8,0:0:0:0:
64,112,46875,1,0,0:0:0:0:
352,288,47057,6,0,L|368:160,1,128,4|0,0:0|0:0,0:0:0:0:
288,112,47421,1,8,0:0:0:0:
448,112,47602,1,0,0:0:0:0:
64,288,47784,6,0,L|96:160,1,128,4|0,0:0|0:0,0:0:0:0:
208,128,48148,1,8,0:0:0:0:
384,112,48330,1,8,0:0:0:0:
96,272,48512,6,0,L|128:144,1,128,4|0,0:0|0:0,0:0:0:0:
240,112,48876,1,8,0:0:0:0:
416,96,49058,1,8,0:0:0:0:
112,80,49239,6,0,B|112:208|112:208|240:208|240:208|80:208,1,384,4|0,0:0|0:0,0:0:0:0:
256,176,49966,2,0,B|256:304|256:304|384:304|384:304|224:304,1,384,4|0,0:0|0:0,0:0:0:0:
400,80,50694,6,0,B|400:208|400:208|272:208|272:208|128:208,1,384,4|0,0:0|0:0,0:0:0:0:
400,80,51421,2,0,B|400:208|400:208|272:208|272:208|128:208,1,384,4|2,0:0|0:0,0:0:0:0:
144,176,52057,2,0,L|144:96,1,64
224,160,52239,2,0,L|224:80,2,64
304,144,52512,2,0,L|304:80,2,64
384,112,52784,1,0,0:0:0:0:
208,160,52875,6,0,L|128:160,1,64,8|0,0:0|0:0,0:0:0:0:
120,100,53057,2,0,L|152:180,1,64,0|0,0:0|0:0,0:0:0:0:
304,160,53239,2,0,L|384:160,1,64,8|0,0:0|0:0,0:0:0:0:
392,100,53421,2,0,L|360:180,1,64,8|8,0:0|0:0,0:0:0:0:
112,256,53603,6,0,L|240:256,1,128,4|0,0:0|0:0,0:0:0:0:
176,256,53875,1,4,0:0:0:0:
336,224,53966,2,0,L|352:160,1,64,8|0,0:0|0:0,0:0:0:0:
192,192,54148,2,0,L|176:128,1,64,4|4,0:0|0:0,0:0:0:0:
336,96,54330,6,0,L|256:96,1,64,8|0,0:0|0:0,0:0:0:0:
192,112,54512,2,0,L|256:112,1,64,4|4,0:0|0:0,0:0:0:0:
176,192,54694,1,8,0:0:0:0:
115,204,54784,1,0,0:0:0:0:
90,261,54875,1,8,0:0:0:0:
119,315,54966,1,8,0:0:0:0:
320,336,55057,6,0,L|336:176,1,128,4|0,0:0|0:0,0:0:0:0:
400,192,55330,1,4,0:0:0:0:
208,176,55421,2,0,L|208:112,1,64,8|0,0:0|0:0,0:0:0:0:
16,144,55603,2,0,L|80:144,1,64,8|8,0:0|0:0,0:0:0:0:
320,336,55784,6,0,L|336:176,1,128,4|0,0:0|0:0,0:0:0:0:
400,192,56057,1,4,0:0:0:0:
208,176,56148,2,0,L|208:112,1,64,8|0,0:0|0:0,0:0:0:0:
16,144,56330,2,0,L|80:144,1,64,8|8,0:0|0:0,0:0:0:0:
320,336,56512,6,0,L|304:192,1,128,4|0,0:0|0:0,0:0:0:0:
224,192,56784,1,4,0:0:0:0:
400,96,56875,2,0,L|320:96,1,64,8|0,0:0|0:0,0:0:0:0:
160,96,57057,2,0,L|64:96,1,64,8|8,0:0|0:0,0:0:0:0:
320,336,57239,6,0,L|304:192,1,128,4|0,0:0|0:0,0:0:0:0:
224,192,57511,1,4,0:0:0:0:
400,96,57603,2,0,L|320:96,1,64,8|0,0:0|0:0,0:0:0:0:
160,96,57784,2,0,L|64:96,1,64,8|8,0:0|0:0,0:0:0:0:
320,336,57966,6,0,L|304:192,1,128,4|0,0:0|0:0,0:0:0:0:
224,192,58238,1,4,0:0:0:0:
400,96,58330,2,0,L|320:96,1,64,8|0,0:0|0:0,0:0:0:0:
160,96,58512,2,0,L|64:96,1,64,8|8,0:0|0:0,0:0:0:0:
272,144,58694,6,0,L|288:240,1,64,4|0,0:0|0:0,0:0:0:0:
208,240,58875,2,0,L|272:240,1,64,4|0,0:0|0:0,0:0:0:0:
448,240,59057,2,0,L|464:336,1,64,8|0,0:0|0:0,0:0:0:0:
384,336,59239,2,0,L|448:336,1,64,8|8,0:0|0:0,0:0:0:0:
256,336,59421,6,0,L|128:336,1,128,4|0,0:0|0:0,0:0:0:0:
192,336,59694,1,4,0:0:0:0:
16,272,59784,2,0,L|32:208,1,64,8|0,0:0|0:0,0:0:0:0:
208,208,59966,2,0,L|272:208,1,64,4|4,0:0|0:0,0:0:0:0:
480,160,60148,6,0,L|416:160,1,64,8|0,0:0|0:0,0:0:0:0:
336,160,60330,2,0,L|272:160,1,64,4|4,0:0|0:0,0:0:0:0:
352,96,60512,1,8,0:0:0:0:
412,105,60602,1,0,0:0:0:0:
439,160,60693,1,8,0:0:0:0:
408,214,60784,1,8,0:0:0:0:
128,336,60875,6,0,L|112:176,1,128,4|0,0:0|0:0,0:0:0:0:
32,192,61148,1,4,0:0:0:0:
224,192,61239,2,0,L|224:128,1,64,8|0,0:0|0:0,0:0:0:0:
416,144,61421,2,0,L|416:64,1,64,8|8,0:0|0:0,0:0:0:0:
128,336,61603,6,0,L|112:176,1,128,4|0,0:0|0:0,0:0:0:0:
32,192,61876,1,4,0:0:0:0:
224,192,61967,2,0,L|224:128,1,64,8|0,0:0|0:0,0:0:0:0:
416,144,62149,2,0,L|416:64,1,64,8|8,0:0|0:0,0:0:0:0:
192,64,62330,6,0,L|256:64,1,64,4|0,0:0|0:0,0:0:0:0:
160,128,62512,2,0,L|160:192,1,64,4|4,0:0|0:0,0:0:0:0:
352,208,62694,2,0,L|288:208,1,64,8|0,0:0|0:0,0:0:0:0:
480,208,62875,2,0,L|480:144,1,64,8|8,0:0|0:0,0:0:0:0:
288,112,63057,6,0,L|208:112,1,64,4|0,0:0|0:0,0:0:0:0:
320,160,63239,2,0,L|320:224,1,64,8|4,0:0|0:0,0:0:0:0:
128,256,63421,2,0,L|64:256,1,64,8|0,0:0|0:0,0:0:0:0:
256,304,63603,2,0,L|256:240,1,64,8|8,0:0|0:0,0:0:0:0:
80,336,63784,5,4,0:0:0:0:
160,320,63875,2,0,L|176:240,2,64,0|4|0,0:0|0:0|0:0,0:0:0:0:
336,288,64148,2,0,L|352:208,2,64,8|0|8,0:0|0:0|0:0,0:0:0:0:
416,288,64421,1,4,0:0:0:0:
176,272,64512,2,0,L|96:272,1,64,8|0,0:0|0:0,0:0:0:0:
336,272,64694,2,0,L|416:272,1,64,8|0,0:0|0:0,0:0:0:0:
192,192,64875,2,0,L|352:192,1,128,4|8,0:0|0:0,0:0:0:0:
256,192,65148,1,8,0:0:0:0:
432,208,65239,6,0,L|288:208,1,128,4|0,0:0|0:0,0:0:0:0:
368,208,65512,1,4,0:0:0:0:
192,208,65603,2,0,L|176:128,1,64,8|0,0:0|0:0,0:0:0:0:
352,96,65784,2,0,L|288:96,1,64,4|4,0:0|0:0,0:0:0:0:
80,144,65966,6,0,L|160:144,1,64,8|0,0:0|0:0,0:0:0:0:
64,176,66148,2,0,L|48:256,1,64,4|4,0:0|0:0,0:0:0:0:
144,256,66330,1,8,0:0:0:0:
200,236,66420,1,0,0:0:0:0:
203,176,66511,1,8,0:0:0:0:
148,151,66602,1,8,0:0:0:0:
304,128,66694,6,0,L|448:128,1,128,4|0,0:0|0:0,0:0:0:0:
448,64,66966,1,4,0:0:0:0:
272,64,67057,2,0,L|256:128,1,64,8|0,0:0|0:0,0:0:0:0:
80,144,67239,2,0,L|16:144,1,64,8|8,0:0|0:0,0:0:0:0:
304,128,67421,6,0,L|448:128,1,128,4|0,0:0|0:0,0:0:0:0:
448,64,67693,1,4,0:0:0:0:
272,64,67784,2,0,L|256:128,1,64,8|0,0:0|0:0,0:0:0:0:
80,144,67966,2,0,L|15:145,1,64,8|8,0:0|0:0,0:0:0:0:
304,256,68148,6,0,L|176:256,1,128,4|0,0:0|0:0,0:0:0:0:
240,208,68421,1,4,0:0:0:0:
48,192,68512,2,0,L|48:128,1,64,8|0,0:0|0:0,0:0:0:0:
240,96,68694,2,0,L|160:96,1,64,8|8,0:0|0:0,0:0:0:0:
368,272,68875,6,0,L|240:272,1,128,4|0,0:0|0:0,0:0:0:0:
304,224,69148,1,4,0:0:0:0:
112,208,69239,2,0,L|112:144,1,64,8|0,0:0|0:0,0:0:0:0:
304,112,69421,2,0,L|224:112,1,64,8|8,0:0|0:0,0:0:0:0:
432,240,69603,6,0,L|304:240,1,128,4|0,0:0|0:0,0:0:0:0:
368,192,69876,1,0,0:0:0:0:
176,176,69967,2,0,L|176:112,1,64,8|0,0:0|0:0,0:0:0:0:
368,80,70149,2,0,L|288:80,1,64,8|8,0:0|0:0,0:0:0:0:
112,192,70330,6,0,L|192:192,3,64,4|0|4|0,0:0|0:0|0:0|0:0,0:0:0:0:
368,208,70694,2,0,L|288:208,1,64,8|0,0:0|0:0,0:0:0:0:
496,256,70875,2,0,L|416:256,1,64,8|8,0:0|0:0,0:0:0:0:
192,256,71057,6,0,L|336:256,1,128,4|0,0:0|0:0,0:0:0:0:
256,256,71330,1,4,0:0:0:0:
64,208,71421,2,0,L|128:208,1,64,8|0,0:0|0:0,0:0:0:0:
320,160,71603,2,0,L|240:160,1,64,4|4,0:0|0:0,0:0:0:0:
448,176,71784,6,0,L|432:96,1,64,8|0,0:0|0:0,0:0:0:0:
352,96,71966,2,0,L|416:96,1,64,4|4,0:0|0:0,0:0:0:0:
336,240,72148,1,8,0:0:0:0:
290,279,72238,1,0,0:0:0:0:
304,339,72329,1,8,0:0:0:0:
363,353,72420,1,8,0:0:0:0:
112,352,72512,6,0,L|96:192,1,128,4|0,0:0|0:0,0:0:0:0:
176,208,72784,1,4,0:0:0:0:
368,144,72875,2,0,L|256:144,1,64,8|0,0:0|0:0,0:0:0:0:
496,176,73057,2,0,L|416:176,1,64,8|8,0:0|0:0,0:0:0:0:
112,352,73239,6,0,L|96:192,1,128,4|0,0:0|0:0,0:0:0:0:
176,208,73511,1,4,0:0:0:0:
368,144,73603,2,0,L|256:144,1,64,8|0,0:0|0:0,0:0:0:0:
496,176,73784,2,0,L|416:176,1,64,8|8,0:0|0:0,0:0:0:0:
240,192,73966,6,0,L|160:192,2,64,4|0|4,0:0|0:0|0:0,0:0:0:0:
48,192,74239,1,4,0:0:0:0:
240,272,74330,2,0,L|304:272,1,64,8|0,0:0|0:0,0:0:0:0:
112,272,74512,2,0,L|96:208,1,64,8|8,0:0|0:0,0:0:0:0:
272,192,74694,6,0,L|352:192,2,64,4|0|8,0:0|0:0|0:0,0:0:0:0:
464,192,74967,1,4,0:0:0:0:
272,272,75058,2,0,L|208:272,1,64,8|0,0:0|0:0,0:0:0:0:
400,272,75240,2,0,L|320:272,1,64,8|8,0:0|0:0,0:0:0:0:
128,256,75421,6,0,L|144:176,1,64,4|0,0:0|0:0,0:0:0:0:
224,160,75603,2,0,L|144:160,1,64,4|0,0:0|0:0,0:0:0:0:
336,128,75784,2,0,L|416:128,1,64,8|0,0:0|0:0,0:0:0:0:
192,80,75966,2,0,L|112:80,1,64,8|4,0:0|0:0,0:0:0:0:
432,192,76148,6,0,L|416:272,1,64,8|0,0:0|0:0,0:0:0:0:
224,304,76330,1,8,0:0:0:0:
416,304,76421,1,0,0:0:0:0:
224,240,76512,2,0,L|144:240,1,64,4|0,0:0|0:0,0:0:0:0:
240,176,76694,2,0,L|144:176,1,64,8|8,0:0|0:0,0:0:0:0:
384,160,76875,6,0,L|400:96,1,64,10|0,0:0|0:0,0:0:0:0:
480,64,77057,2,0,L|416:64,1,64,0|0,0:0|0:0,0:0:0:0:
240,64,77239,2,0,L|320:64,3,64,8|0|8|0,0:0|0:0|0:0|0:0,0:0:0:0:
112,112,77603,6,0,L|48:112,1,64,8|8,0:0|0:0,0:0:0:0:
224,160,77784,2,0,L|288:160,1,64,0|8,0:0|0:0,0:0:0:0:
112,240,77966,2,0,L|240:240,1,128,8|8,0:0|0:0,0:0:0:0:
176,240,78239,1,0,0:0:0:0:
368,224,78330,6,0,L|464:224,1,64,8|0,0:0|0:0,0:0:0:0:
240,176,78512,2,0,L|160:176,1,64,8|0,0:0|0:0,0:0:0:0:
384,128,78694,2,0,L|368:64,1,64,8|8,0:0|0:0,0:0:0:0:
288,32,78875,2,0,L|368:32,1,64,0|8,0:0|0:0,0:0:0:0:
176,80,79057,6,0,L|160:144,1,64,8|8,0:0|0:0,0:0:0:0:
240,144,79239,2,0,L|224:208,1,64,0|8,0:0|0:0,0:0:0:0:
144,256,79421,2,0,L|304:256,1,128,8|8,0:0|0:0,0:0:0:0:
208,256,79694,1,0,0:0:0:0:
384,240,79784,6,0,L|464:240,1,64,8|0,0:0|0:0,0:0:0:0:
368,208,79966,2,0,L|352:128,1,64,8|0,0:0|0:0,0:0:0:0:
160,160,80148,2,0,L|176:64,1,64,8|8,0:0|0:0,0:0:0:0:
256,112,80330,2,0,L|240:32,1,64,0|8,0:0|0:0,0:0:0:0:
64,144,80512,6,0,L|144:144,1,64,8|0,0:0|0:0,0:0:0:0:
320,144,80694,2,0,L|400:144,1,64,8|8,0:0|0:0,0:0:0:0:
176,240,80875,2,0,L|160:112,1,128,8|8,0:0|0:0,0:0:0:0:
240,112,81148,1,0,0:0:0:0:
416,288,81239,6,0,L|272:288,1,128,4|8,0:0|0:0,0:0:0:0:
352,288,81512,1,8,0:0:0:0:
96,288,81603,2,0,L|240:288,1,128,4|4,0:0|0:0,0:0:0:0:
160,288,81876,1,8,0:0:0:0:
384,272,81966,6,0,L|320:144,1,128,8|4,0:0|0:0,0:0:0:0:
384,128,82239,1,4,0:0:0:0:
128,240,82330,2,0,L|192:112,1,128,8|4,0:0|0:0,0:0:0:0:
128,96,82603,1,8,0:0:0:0:
304,80,82694,6,0,L|224:80,1,64,0|0,0:0|0:0,0:0:0:0:
320,128,82875,2,0,L|320:208,1,64,0|0,0:0|0:0,0:0:0:0:
160,256,83057,2,0,L|240:256,3,64,8|0|8|0,0:0|0:0|0:0|0:0,0:0:0:0:
32,208,83421,6,0,L|48:128,1,64,8|8,0:0|0:0,0:0:0:0:
208,128,83603,2,0,L|320:128,1,64,8|0,0:0|0:0,0:0:0:0:
80,64,83784,2,0,L|208:64,1,128,8|8,0:0|0:0,0:0:0:0:
144,64,84057,1,0,0:0:0:0:
336,64,84148,6,0,L|400:64,1,64,8|0,0:0|0:0,0:0:0:0:
240,144,84330,2,0,L|224:224,1,64,8|8,0:0|0:0,0:0:0:0:
400,256,84512,2,0,L|320:256,1,64,8|0,0:0|0:0,0:0:0:0:
416,208,84694,2,0,L|320:208,1,64,8|0,0:0|0:0,0:0:0:0:
160,192,84875,6,0,L|256:192,1,64,8|0,0:0|0:0,0:0:0:0:
32,144,85057,2,0,L|128:144,1,64,8|0,0:0|0:0,0:0:0:0:
288,144,85239,2,0,L|224:144,1,64,8|0,0:0|0:0,0:0:0:0:
304,176,85421,2,0,L|304:256,1,64,8|0,0:0|0:0,0:0:0:0:
96,320,85603,6,0,L|112:256,1,64,8|0,0:0|0:0,0:0:0:0:
192,240,85784,2,0,L|128:240,1,64,8|8,0:0|0:0,0:0:0:0:
320,240,85966,1,8,0:0:0:0:
378,222,86056,1,0,0:0:0:0:
388,162,86147,1,8,0:0:0:0:
339,126,86238,1,0,0:0:0:0:
144,128,86330,6,0,L|160:48,1,64,8|0,0:0|0:0,0:0:0:0:
320,96,86512,2,0,L|336:16,1,64,8|8,0:0|0:0,0:0:0:0:
144,208,86694,2,0,L|64:208,1,64,8|0,0:0|0:0,0:0:0:0:
272,288,86875,2,0,L|192:288,1,64,8|0,0:0|0:0,0:0:0:0:
400,272,87057,6,0,L|416:128,1,128,4|8,0:0|0:0,0:0:0:0:
192,144,87330,2,0,L|320:144,1,128,4|8,0:0|0:0,0:0:0:0:
112,272,87603,2,0,L|96:128,1,128,4|8,0:0|0:0,0:0:0:0:
320,144,87876,2,0,L|192:144,1,128,4|8,0:0|0:0,0:0:0:0:
384,208,88148,6,0,L|464:208,1,64,4|0,0:0|0:0,0:0:0:0:
256,256,88330,2,0,L|176:256,1,64,4|4,0:0|0:0,0:0:0:0:
384,320,88512,6,0,L|400:192,1,128,4|0,0:0|0:0,0:0:0:0:
256,208,88875,1,4,0:0:0:0:
240,80,89057,2,0,P|320:128|224:224,1,256,8|4,0:0|0:0,0:0:0:0:
368,256,89603,1,4,0:0:0:0:
240,80,89784,6,0,P|320:128|224:224,1,256,8|4,0:0|0:0,0:0:0:0:
128,224,90330,1,8,0:0:0:0:
256,224,90512,2,0,P|352:208|432:64,1,256,8|4,0:0|0:0,0:0:0:0:
288,64,91057,1,8,0:0:0:0:
432,64,91239,2,0,L|352:64,1,64,8|8,0:0|0:0,0:0:0:0:
208,128,91421,6,0,L|336:128,1,128,4|0,0:0|0:0,0:0:0:0:
64,192,91784,2,0,L|48:352,1,128,4|0,0:0|0:0,0:0:0:0:
304,128,92148,6,0,L|176:128,1,128,4|0,0:0|0:0,0:0:0:0:
448,192,92512,2,0,L|464:352,1,128,4|8,0:0|0:0,0:0:0:0:
80,352,92875,6,0,L|64:288,1,64,4|0,0:0|0:0,0:0:0:0:
176,288,93057,2,0,L|176:224,1,64,4|0,0:0|0:0,0:0:0:0:
272,272,93239,2,0,L|272:192,1,64,4|0,0:0|0:0,0:0:0:0:
384,240,93421,2,0,L|400:192,1,32,8|0,0:0|0:0,0:0:0:0:
240,176,93512,2,0,L|224:128,1,32,8|0,0:0|0:0,0:0:0:0:
384,128,93603,5,4,0:0:0:0:
416,128,93648,1,0,0:0:0:0:
448,128,93693,1,0,0:0:0:0:
416,128,93739,1,0,0:0:0:0:
384,80,93784,2,0,L|304:80,1,64,4|0,0:0|0:0,0:0:0:0:
144,80,93966,1,8,0:0:0:0:
176,192,94148,2,0,L|240:192,1,64,4|4,0:0|0:0,0:0:0:0:
64,336,94330,6,0,L|48:208,1,128,4|0,0:0|0:0,0:0:0:0:
128,208,94603,1,0,0:0:0:0:
208,208,94694,2,0,L|224:80,1,128,8|0,0:0|0:0,0:0:0:0:
304,80,94966,1,0,0:0:0:0:
400,96,95057,6,0,L|336:96,6,64,4|0|0|0|4|0|8,0:0|0:0|0:0|0:0|0:0|0:0|0:0,0:0:0:0:
304,96,95694,1,8,0:0:0:0:
128,160,95784,6,0,L|272:160,1,128,8|0,0:0|0:0,0:0:0:0:
96,208,96057,2,0,L|80:64,1,128,8|0,0:0|0:0,0:0:0:0:
240,64,96330,2,0,L|176:64,1,64,4|0,0:0|0:0,0:0:0:0:
352,112,96512,6,0,L|368:208,1,64,8|0,0:0|0:0,0:0:0:0:
288,208,96694,2,0,L|352:208,1,64,8|0,0:0|0:0,0:0:0:0:
160,208,96875,2,0,L|144:144,1,64,4|0,0:0|0:0,0:0:0:0:
320,96,97057,2,0,L|256:96,1,64,8|8,0:0|0:0,0:0:0:0:
448,96,97239,6,0,L|464:240,1,128,4|0,0:0|0:0,0:0:0:0:
384,240,97512,1,0,0:0:0:0:
304,208,97603,2,0,L|288:352,1,128,8|0,0:0|0:0,0:0:0:0:
112,336,97876,1,0,0:0:0:0:
288,336,97966,6,0,L|432:336,1,128,4|0,0:0|0:0,0:0:0:0:
352,336,98239,1,4,0:0:0:0:
160,288,98330,2,0,L|144:144,1,128,8|0,0:0|0:0,0:0:0:0:
208,160,98603,1,0,0:0:0:0:
304,224,98694,6,0,L|240:224,7,64,8|0|0|0|4|0|8|8,0:0|0:0|0:0|0:0|0:0|0:0|0:0|0:0,0:0:0:0:
416,240,99421,6,0,L|432:112,1,128,4|4,0:0|0:0,0:0:0:0:
368,96,99694,1,0,0:0:0:0:
208,112,99784,2,0,L|192:48,1,64,8|0,0:0|0:0,0:0:0:0:
288,96,99966,2,0,L|304:32,1,64,8|8,0:0|0:0,0:0:0:0:
96,272,100148,6,0,L|112:128,1,128,4|0,0:0|0:0,0:0:0:0:
192,144,100421,1,0,0:0:0:0:
272,192,100512,2,0,L|288:48,1,128,8|0,0:0|0:0,0:0:0:0:
368,64,100785,1,0,0:0:0:0:
272,32,100875,6,0,L|208:32,6,64,4|0|0|0|4|0|8,0:0|0:0|0:0|0:0|0:0|0:0|0:0,0:0:0:0:
192,80,101512,1,8,0:0:0:0:
400,144,101603,6,0,L|416:288,1,128,8|0,0:0|0:0,0:0:0:0:
336,288,101875,1,8,0:0:0:0:
128,256,101966,2,0,L|272:256,1,128,4|0,0:0|0:0,0:0:0:0:
112,208,102330,2,0,L|96:64,1,128,4|0,0:0|0:0,0:0:0:0:
352,64,102694,2,0,L|192:64,1,128,8|0,0:0|0:0,0:0:0:0:
480,160,103057,6,0,L|320:160,1,128,4|0,0:0|0:0,0:0:0:0:
336,80,103330,1,4,0:0:0:0:
320,160,103421,2,0,L|160:160,1,128,8|0,0:0|0:0,0:0:0:0:
256,160,103694,1,0,0:0:0:0:
80,176,103784,6,0,L|64:304,1,128,4|0,0:0|0:0,0:0:0:0:
240,320,104148,1,8,0:0:0:0:
64,320,104330,1,0,0:0:0:0:
240,256,104512,6,0,L|304:256,7,64,4|0|0|0|4|0|8|8,0:0|0:0|0:0|0:0|0:0|0:0|0:0|0:0,0:0:0:0:
224,208,105239,5,8,0:0:0:0:
163,209,105329,1,0,0:0:0:0:
96,208,105420,1,4,0:0:0:0:
256,128,105512,2,0,L|256:96,2,32,0|0|8,0:0|0:0|0:0,0:0:0:0:
416,80,105694,1,0,0:0:0:0:
352,80,105784,1,8,0:0:0:0:
288,80,105875,1,0,0:0:0:0:
96,160,105966,6,0,L|96:288,1,128,4|0,0:0|0:0,0:0:0:0:
368,304,106330,1,8,0:0:0:0:
224,288,106512,2,0,L|224:224,1,64,0|0,0:0|0:0,0:0:0:0:
128,256,106694,2,0,L|128:176,1,64,0|0,0:0|0:0,0:0:0:0:
32,288,106875,2,0,L|176:288,1,128,4|8,0:0|0:0,0:0:0:0:
320,288,107239,2,0,L|256:288,1,64,8|8,0:0|0:0,0:0:0:0:
448,256,107421,6,0,L|432:128,1,128,4|0,0:0|0:0,0:0:0:0:
240,112,107694,2,0,L|384:112,1,128,8|0,0:0|0:0,0:0:0:0:
208,176,107966,2,0,L|144:176,1,64,4|0,0:0|0:0,0:0:0:0:
336,144,108148,6,0,L|352:80,1,64,4|0,0:0|0:0,0:0:0:0:
432,96,108330,2,0,L|416:32,1,64,8|0,0:0|0:0,0:0:0:0:
240,32,108512,2,0,L|320:32,1,64,8|0,0:0|0:0,0:0:0:0:
128,64,108694,2,0,L|112:144,1,64,8|8,0:0|0:0,0:0:0:0:
304,160,108875,6,0,L|304:288,1,128,4|0,0:0|0:0,0:0:0:0:
48,304,109239,1,8,0:0:0:0:
192,288,109421,2,0,L|192:224,1,64,4|0,0:0|0:0,0:0:0:0:
288,224,109603,2,0,L|288:160,1,64,0|0,0:0|0:0,0:0:0:0:
192,112,109784,1,4,0:0:0:0:
448,80,109966,2,0,L|304:80,1,128,8|0,0:0|0:0,0:0:0:0:
48,160,110330,6,0,L|176:160,1,128,4|0,0:0|0:0,0:0:0:0:
256,160,110603,1,0,0:0:0:0:
176,224,110694,6,0,L|96:224,5,64,8|0|0|0|4|0,0:0|0:0|0:0|0:0|0:0|0:0,0:0:0:0:
288,256,111239,6,0,L|272:336,1,64,8|8,0:0|0:0,0:0:0:0:
192,352,111421,2,0,L|272:352,1,64,8|0,0:0|0:0,0:0:0:0:
176,304,111603,2,0,L|112:304,1,64,8|0,0:0|0:0,0:0:0:0:
288,272,111784,6,0,L|432:272,1,128,4|0,0:0|0:0,0:0:0:0:
128,192,112148,1,8,0:0:0:0:
272,176,112330,2,0,L|272:112,1,64,4|0,0:0|0:0,0:0:0:0:
368,144,112512,2,0,L|368:80,1,64,0|0,0:0|0:0,0:0:0:0:
464,176,112694,2,0,L|336:176,1,128,4|8,0:0|0:0,0:0:0:0:
480,272,113057,2,0,L|416:272,1,64,8|8,0:0|0:0,0:0:0:0:
224,288,113239,6,0,L|208:160,1,128,8|8,0:0|0:0,0:0:0:0:
128,160,113512,1,8,0:0:0:0:
320,176,113603,2,0,L|336:48,1,128,4|0,0:0|0:0,0:0:0:0:
192,48,113966,2,0,L|336:48,1,128,8|4,0:0|0:0,0:0:0:0:
64,176,114330,2,0,L|208:176,1,128,8|0,0:0|0:0,0:0:0:0:
448,240,114694,6,0,L|320:240,1,128,4|0,0:0|0:0,0:0:0:0:
64,240,115057,1,8,0:0:0:0:
208,208,115239,2,0,L|208:128,1,64,0|0,0:0|0:0,0:0:0:0:
304,176,115421,2,0,L|304:112,1,64,0|0,0:0|0:0,0:0:0:0:
400,208,115603,1,4,0:0:0:0:
144,272,115784,2,0,L|304:272,1,128,8|0,0:0|0:0,0:0:0:0:
16,208,116148,6,0,L|144:208,1,128,4|0,0:0|0:0,0:0:0:0:
80,208,116421,1,0,0:0:0:0:
160,208,116512,6,0,L|256:208,5,64,8|0|0|0|4|0,0:0|0:0|0:0|0:0|0:0|0:0,0:0:0:0:
400,160,117057,6,0,L|320:160,1,64,8|8,0:0|0:0,0:0:0:0:
160,144,117239,2,0,L|144:80,1,64,4|0,0:0|0:0,0:0:0:0:
64,48,117421,2,0,L|128:48,1,64,8|0,0:0|0:0,0:0:0:0:
336,80,117603,6,0,L|176:80,1,128,6|0,0:0|0:0,0:0:0:0:
368,128,117966,1,4,0:0:0:0:
112,176,118148,2,0,L|368:176,1,256,8|0,0:0|0:0,0:0:0:0:
208,160,118694,1,4,0:0:0:0:
464,224,118875,6,0,L|176:224,1,256,8|0,0:0|0:0,0:0:0:0:
48,224,119421,1,4,0:0:0:0:
304,192,119603,2,0,L|32:192,1,256,8|0,0:0|0:0,0:0:0:0:
208,160,120148,1,4,0:0:0:0:
464,128,120330,1,8,0:0:0:0:
336,80,120512,6,0,L|208:80,1,128,4|0,0:0|0:0,0:0:0:0:
336,208,120875,1,8,0:0:0:0:
176,304,121057,2,0,L|176:48,1,256
304,64,121603,1,8,0:0:0:0:
464,320,121784,6,0,L|464:64,1,256
336,64,122330,1,8,0:0:0:0:
144,80,122512,2,0,L|144:352,1,256,0|4,0:0|0:0,0:0:0:0:
416,320,123057,1,8,0:0:0:0:
128,320,123239,6,0,B|256:320|256:320|128:320|128:320|256:320|256:320|128:320|128:320|256:320|256:320|128:320|128:320|256:320|256:320|128:320|128:320|256:320|256:320|128:320|128:320|256:320,1,1408,8|0,0:0|0:0,0:0:0:0:
176,272,125330,1,0,0:0:0:0:
256,256,125421,1,0,0:0:0:0:
176,224,125512,1,0,0:0:0:0:
256,192,125603,1,0,0:0:0:0:
176,160,125694,1,0,0:0:0:0:
256,128,125784,5,4,0:0:0:0:
112,112,125966,1,8,0:0:0:0:
384,320,126148,6,0,B|256:320|256:320|384:320|384:320|256:320|256:320|384:320|384:320|256:320|256:320|384:320|384:320|256:320|256:320|384:320|384:320|256:320|256:320|384:320|384:320|256:320,1,1408,8|0,0:0|0:0,0:0:0:0:
336,304,128239,1,0,0:0:0:0:
256,272,128330,1,0,0:0:0:0:
336,256,128421,1,0,0:0:0:0:
256,224,128512,5,0,0:0:0:0:
336,192,128603,1,0,0:0:0:0:
160,176,128694,1,4,0:0:0:0:
240,144,128785,1,4,0:0:0:0:
48,176,128875,2,0,L|32:48,1,128,8|4,0:0|0:0,0:0:0:0:
112,48,129148,1,0,0:0:0:0:
304,48,129239,6,0,L|304:192,1,128,4|0,0:0|0:0,0:0:0:0:
432,192,129603,1,8,0:0:0:0:
176,192,129784,2,0,L|176:128,1,64,4|4,0:0|0:0,0:0:0:0:
96,96,129966,2,0,L|224:96,1,128,8|4,0:0|0:0,0:0:0:0:
80,176,130330,1,8,0:0:0:0:
224,240,130512,6,0,B|352:240|352:240|208:240,1,256,8|4,0:0|0:0,0:0:0:0:
480,208,131057,1,8,0:0:0:0:
336,160,131239,2,0,L|336:80,1,64,4|4,0:0|0:0,0:0:0:0:
240,112,131421,2,0,L|96:112,1,128,8|4,0:0|0:0,0:0:0:0:
288,64,131784,2,0,L|416:64,1,128,4|8,0:0|0:0,0:0:0:0:
128,224,132148,6,0,L|256:224,1,128,4|0,0:0|0:0,0:0:0:0:
112,144,132512,1,8,0:0:0:0:
256,128,132694,2,0,L|256:48,1,64,4|4,0:0|0:0,0:0:0:0:
352,64,132875,2,0,L|352:208,1,128,8|4,0:0|0:0,0:0:0:0:
208,256,133239,2,0,L|368:256,1,128,8|0,0:0|0:0,0:0:0:0:
176,192,133603,5,4,0:0:0:0:
416,176,133784,2,0,L|272:176,1,128,8|0,0:0|0:0,0:0:0:0:
448,144,134148,2,0,L|448:64,1,64,4|4,0:0|0:0,0:0:0:0:
352,64,134330,2,0,L|496:64,1,128,8|0,0:0|0:0,0:0:0:0:
224,176,134694,2,0,L|224:240,1,64,8|0,0:0|0:0,0:0:0:0:
48,304,134875,2,0,L|128:304,1,64,8|8,0:0|0:0,0:0:0:0:
320,304,135057,6,0,L|176:304,1,128,4|0,0:0|0:0,0:0:0:0:
448,240,135421,2,0,L|448:96,1,128,8|0,0:0|0:0,0:0:0:0:
192,304,135784,2,0,L|336:304,1,128,4|0,0:0|0:0,0:0:0:0:
64,240,136148,2,0,L|64:96,1,128,8|0,0:0|0:0,0:0:0:0:
320,112,136512,6,0,L|480:112,1,128,8|0,0:0|0:0,0:0:0:0:
192,256,136875,2,0,L|192:112,1,128,8|0,0:0|0:0,0:0:0:0:
448,256,137239,2,0,L|304:256,1,128,8|0,0:0|0:0,0:0:0:0:
64,256,137603,2,0,L|64:176,1,64,8|0,0:0|0:0,0:0:0:0:
240,192,137784,2,0,L|240:128,1,64,8|8,0:0|0:0,0:0:0:0:
416,256,137966,5,8,0:0:0:0:
256,256,138148,1,8,0:0:0:0:
432,208,138330,1,8,0:0:0:0:
272,208,138512,1,8,0:0:0:0:
16,256,138694,5,8,0:0:0:0:
176,256,138876,1,8,0:0:0:0:
352,208,139057,1,8,0:0:0:0:
192,208,139239,1,8,0:0:0:0:
496,256,139421,5,8,0:0:0:0:
336,256,139603,1,8,0:0:0:0:
176,256,139784,1,8,0:0:0:0:
16,256,139966,1,8,0:0:0:0:
288,176,140148,5,8,0:0:0:0:
128,176,140330,1,8,0:0:0:0:
304,112,140512,1,8,0:0:0:0:
464,112,140694,1,8,0:0:0:0:
112,320,140875,5,4,0:0:0:0:
224,304,141057,2,0,B|224:176|224:176|352:176,1,256,8|0,0:0|0:0,0:0:0:0:
352,176,141784,2,0,B|352:48|352:48|480:48,1,256,8|0,0:0|0:0,0:0:0:0:
496,192,142512,6,0,L|208:192,1,256,8|0,0:0|0:0,0:0:0:0:
240,288,143239,2,0,B|368:288|368:288|224:288,1,256,8|0,0:0|0:0,0:0:0:0:
80,256,143784,6,0,B|208:256|208:256|208:128,1,256,4|8,0:0|0:0,0:0:0:0:
144,128,144239,1,0,0:0:0:0:
240,96,144330,2,0,L|304:96,1,64,0|0,0:0|0:0,0:0:0:0:
208,64,144512,2,0,L|208:0,1,64,8|0,0:0|0:0,0:0:0:0:
304,32,144694,2,0,L|384:32,1,64,0|0,0:0|0:0,0:0:0:0:
272,128,144875,2,0,L|176:128,1,64,8|0,0:0|0:0,0:0:0:0:
304,176,145057,2,0,L|304:240,1,64,8|0,0:0|0:0,0:0:0:0:
96,304,145239,6,0,L|160:304,1,64,8|0,0:0|0:0,0:0:0:0:
80,272,145421,2,0,L|80:192,1,64,0|0,0:0|0:0,0:0:0:0:
176,208,145603,2,0,L|256:208,1,64,8|0,0:0|0:0,0:0:0:0:
64,160,145784,2,0,L|64:64,1,64,8|0,0:0|0:0,0:0:0:0:
240,80,145966,6,0,L|160:80,1,64,8|0,0:0|0:0,0:0:0:0:
256,112,146148,2,0,L|256:176,1,64,0|0,0:0|0:0,0:0:0:0:
176,208,146330,2,0,L|240:208,1,64,8|0,0:0|0:0,0:0:0:0:
416,208,146512,2,0,L|352:208,1,64,8|0,0:0|0:0,0:0:0:0:
128,32,146694,6,0,B|128:336|128:336|128:128|128:128|192:128|192:128|128:128|128:128|192:128,1,704
16,192,147784,2,0,L|96:192,3,64,8|0|8|0,0:0|0:0|0:0|0:0,0:0:0:0:
256,240,148148,6,0,L|96:240,1,128,4|0,0:0|0:0,0:0:0:0:
192,240,148421,1,4,0:0:0:0:
16,176,148512,2,0,L|96:176,1,64,8|0,0:0|0:0,0:0:0:0:
256,176,148694,2,0,L|256:112,1,64,4|4,0:0|0:0,0:0:0:0:
448,128,148875,6,0,L|384:128,1,64,8|0,0:0|0:0,0:0:0:0:
384,64,149057,2,0,L|464:64,1,64,4|4,0:0|0:0,0:0:0:0:
272,64,149239,2,0,L|272:160,1,64,8|0,0:0|0:0,0:0:0:0:
96,176,149421,2,0,L|176:176,1,64,8|8,0:0|0:0,0:0:0:0:
352,288,149603,6,0,L|192:288,1,128,4|0,0:0|0:0,0:0:0:0:
224,224,149875,1,4,0:0:0:0:
48,208,149966,2,0,L|48:144,1,64,8|0,0:0|0:0,0:0:0:0:
224,112,150148,2,0,L|160:112,1,64,8|8,0:0|0:0,0:0:0:0:
352,288,150330,6,0,L|192:288,1,128,4|0,0:0|0:0,0:0:0:0:
224,224,150602,1,4,0:0:0:0:
48,208,150693,2,0,L|48:144,1,64,8|0,0:0|0:0,0:0:0:0:
224,112,150875,2,0,L|160:112,1,64,8|8,0:0|0:0,0:0:0:0:
352,288,151057,6,0,L|352:144,1,128,4|0,0:0|0:0,0:0:0:0:
432,160,151330,1,4,0:0:0:0:
240,144,151421,2,0,L|240:64,1,64,8|0,0:0|0:0,0:0:0:0:
416,144,151603,2,0,L|336:144,1,64,8|8,0:0|0:0,0:0:0:0:
160,288,151784,6,0,L|160:144,1,128,4|0,0:0|0:0,0:0:0:0:
80,160,152057,1,4,0:0:0:0:
272,144,152148,2,0,L|272:64,1,64,8|0,0:0|0:0,0:0:0:0:
96,144,152330,2,0,L|160:144,1,64,8|8,0:0|0:0,0:0:0:0:
352,288,152512,6,0,L|352:144,1,128,4|0,0:0|0:0,0:0:0:0:
432,160,152785,1,0,0:0:0:0:
240,144,152876,2,0,L|240:64,1,64,8|0,0:0|0:0,0:0:0:0:
416,144,153058,2,0,L|416:64,1,64,8|8,0:0|0:0,0:0:0:0:
240,224,153239,5,4,0:0:0:0:
416,224,153330,1,0,0:0:0:0:
352,224,153420,1,4,0:0:0:0:
288,224,153511,1,0,0:0:0:0:
112,224,153603,2,0,L|192:224,1,64,8|0,0:0|0:0,0:0:0:0:
352,176,153784,2,0,L|272:176,1,64,8|8,0:0|0:0,0:0:0:0:
80,160,153966,6,0,L|240:160,1,128,4|0,0:0|0:0,0:0:0:0:
144,160,154239,1,4,0:0:0:0:
320,128,154330,2,0,L|320:64,1,64,8|0,0:0|0:0,0:0:0:0:
496,48,154512,2,0,L|416:48,1,64,4|4,0:0|0:0,0:0:0:0:
256,64,154694,6,0,L|256:144,1,64,8|0,0:0|0:0,0:0:0:0:
192,64,154875,2,0,L|192:128,1,64,4|4,0:0|0:0,0:0:0:0:
16,224,155057,2,0,L|80:224,1,64,8|0,0:0|0:0,0:0:0:0:
256,224,155239,2,0,L|320:224,1,64,8|8,0:0|0:0,0:0:0:0:
128,224,155421,6,0,L|128:96,1,128,4|0,0:0|0:0,0:0:0:0:
208,96,155694,1,4,0:0:0:0:
384,112,155784,2,0,L|320:112,1,64,8|0,0:0|0:0,0:0:0:0:
496,160,155966,2,0,L|416:160,1,64,8|8,0:0|0:0,0:0:0:0:
128,224,156148,6,0,L|128:96,1,128,4|0,0:0|0:0,0:0:0:0:
208,96,156421,1,4,0:0:0:0:
384,112,156512,2,0,L|320:112,1,64,8|0,0:0|0:0,0:0:0:0:
496,160,156693,2,0,L|416:160,1,64,8|8,0:0|0:0,0:0:0:0:
224,240,156875,6,0,L|320:240,1,64,4|0,0:0|0:0,0:0:0:0:
368,208,157057,2,0,L|288:208,1,64,4|4,0:0|0:0,0:0:0:0:
480,160,157239,2,0,L|400:160,1,64,8|0,0:0|0:0,0:0:0:0:
240,160,157421,2,0,L|320:160,1,64,8|8,0:0|0:0,0:0:0:0:
112,192,157603,6,0,L|48:192,2,64,4|0|8,0:0|0:0|0:0,0:0:0:0:
288,224,157875,1,4,0:0:0:0:
112,272,157966,2,0,L|192:272,1,64,8|0,0:0|0:0,0:0:0:0:
352,288,158148,2,0,L|416:288,1,64,8|8,0:0|0:0,0:0:0:0:
176,224,158330,6,0,L|176:160,1,64,4|0,0:0|0:0,0:0:0:0:
96,160,158512,2,0,L|32:160,1,64,4|0,0:0|0:0,0:0:0:0:
208,112,158694,2,0,L|208:48,1,64,8|0,0:0|0:0,0:0:0:0:
384,48,158875,2,0,L|448:48,1,64,8|4,0:0|0:0,0:0:0:0:
240,160,159057,6,0,L|176:160,1,64,8|0,0:0|0:0,0:0:0:0:
368,256,159239,2,0,L|288:256,1,64,8|0,0:0|0:0,0:0:0:0:
112,288,159421,2,0,L|240:288,1,128,4|8,0:0|0:0,0:0:0:0:
176,288,159694,1,8,0:0:0:0:
400,208,159784,6,0,L|272:208,1,128,4|0,0:0|0:0,0:0:0:0:
336,208,160057,1,4,0:0:0:0:
160,160,160148,2,0,L|80:160,1,64,8|0,0:0|0:0,0:0:0:0:
272,112,160330,2,0,L|352:112,1,64,4|4,0:0|0:0,0:0:0:0:
160,272,160512,6,0,L|224:272,1,64,8|0,0:0|0:0,0:0:0:0:
224,208,160694,2,0,L|160:208,1,64,4|4,0:0|0:0,0:0:0:0:
336,176,160875,2,0,L|336:112,1,64,8|0,0:0|0:0,0:0:0:0:
160,112,161057,2,0,L|80:112,1,64,8|8,0:0|0:0,0:0:0:0:
272,304,161239,6,0,L|400:304,1,128,4|0,0:0|0:0,0:0:0:0:
416,224,161512,1,4,0:0:0:0:
240,208,161603,2,0,L|224:144,1,64,8|0,0:0|0:0,0:0:0:0:
48,160,161784,2,0,L|32:96,1,64,8|8,0:0|0:0,0:0:0:0:
272,304,161966,6,0,L|400:304,1,128,4|0,0:0|0:0,0:0:0:0:
416,224,162239,1,4,0:0:0:0:
240,208,162330,2,0,L|224:144,1,64,8|0,0:0|0:0,0:0:0:0:
48,160,162512,2,0,L|32:96,1,64,8|8,0:0|0:0,0:0:0:0:
240,256,162694,6,0,L|112:256,1,128,4|0,0:0|0:0,0:0:0:0:
176,256,162966,1,4,0:0:0:0:
352,176,163057,2,0,L|272:176,1,64,8|0,0:0|0:0,0:0:0:0:
112,176,163239,2,0,L|32:176,1,64,8|8,0:0|0:0,0:0:0:0:
272,256,163421,6,0,L|400:256,1,128,4|0,0:0|0:0,0:0:0:0:
336,256,163693,1,4,0:0:0:0:
160,176,163784,2,0,L|240:176,1,64,8|0,0:0|0:0,0:0:0:0:
400,176,163966,2,0,L|480:176,1,64,8|8,0:0|0:0,0:0:0:0:
240,256,164148,6,0,L|112:256,1,128,4|0,0:0|0:0,0:0:0:0:
176,256,164420,1,4,0:0:0:0:
352,176,164512,2,0,L|272:176,1,64,8|0,0:0|0:0,0:0:0:0:
112,176,164693,2,0,L|32:176,1,64,8|8,0:0|0:0,0:0:0:0:
224,128,164875,5,4,0:0:0:0:
48,80,164966,2,0,L|112:80,2,64,0|4|0,0:0|0:0|0:0,0:0:0:0:
224,160,165239,2,0,L|288:160,1,64,8|0,0:0|0:0,0:0:0:0:
112,224,165421,2,0,L|176:224,1,64,8|8,0:0|0:0,0:0:0:0:
384,256,165603,6,0,L|224:256,1,128,4|0,0:0|0:0,0:0:0:0:
320,256,165875,1,4,0:0:0:0:
144,208,165966,2,0,L|208:208,1,64,8|0,0:0|0:0,0:0:0:0:
32,160,166148,2,0,L|32:96,1,64,4|4,0:0|0:0,0:0:0:0:
208,80,166330,6,0,L|208:160,1,64,8|0,0:0|0:0,0:0:0:0:
272,144,166512,2,0,L|272:224,1,64,4|4,0:0|0:0,0:0:0:0:
448,272,166694,2,0,L|384:272,1,64,8|0,0:0|0:0,0:0:0:0:
208,288,166875,2,0,L|272:288,1,64,8|8,0:0|0:0,0:0:0:0:
96,288,167057,6,0,L|96:160,1,128,4|0,0:0|0:0,0:0:0:0:
160,160,167330,1,4,0:0:0:0:
336,112,167421,2,0,L|256:112,1,64,8|0,0:0|0:0,0:0:0:0:
448,144,167603,2,0,L|384:144,1,64,8|8,0:0|0:0,0:0:0:0:
96,288,167784,6,0,L|96:160,1,128,4|0,0:0|0:0,0:0:0:0:
160,160,168057,1,4,0:0:0:0:
336,112,168148,2,0,L|256:112,1,64,8|0,0:0|0:0,0:0:0:0:
448,144,168330,2,0,L|384:144,1,64,8|8,0:0|0:0,0:0:0:0:
192,208,168512,6,0,L|256:208,2,64,4|0|4,0:0|0:0|0:0,0:0:0:0:
384,240,168784,1,4,0:0:0:0:
192,272,168875,2,0,L|128:272,1,64,8|0,0:0|0:0,0:0:0:0:
320,176,169057,2,0,L|400:176,1,64,8|8,0:0|0:0,0:0:0:0:
192,128,169239,5,4,0:0:0:0:
256,128,169329,1,0,0:0:0:0:
320,128,169420,1,8,0:0:0:0:
128,192,169512,1,4,0:0:0:0:
320,256,169603,2,0,L|256:256,1,64,8|0,0:0|0:0,0:0:0:0:
448,304,169784,2,0,L|352:304,1,64,8|8,0:0|0:0,0:0:0:0:
64,224,169966,6,0,L|48:160,1,64,4|0,0:0|0:0,0:0:0:0:
224,144,170148,2,0,L|288:144,1,64,4|0,0:0|0:0,0:0:0:0:
112,64,170330,2,0,L|192:64,1,64,8|0,0:0|0:0,0:0:0:0:
352,64,170512,2,0,L|288:64,1,64,8|4,0:0|0:0,0:0:0:0:
480,160,170694,6,0,L|400:160,1,64,8|0,0:0|0:0,0:0:0:0:
240,160,170875,1,8,0:0:0:0:
416,160,170966,1,0,0:0:0:0:
240,240,171057,2,0,L|160:240,3,64,4|0|8|8,0:0|0:0|0:0|0:0,0:0:0:0:
368,224,171421,5,10,0:0:0:0:
288,192,171512,2,0,L|288:128,2,64,0|0|0,0:0|0:0|0:0,0:0:0:0:
112,144,171784,2,0,L|112:64,1,64,8|0,0:0|0:0,0:0:0:0:
32,80,171966,2,0,L|32:144,1,64,8|0,0:0|0:0,0:0:0:0:
224,208,172148,6,0,L|144:208,1,64,8|8,0:0|0:0,0:0:0:0:
240,256,172330,2,0,L|320:256,1,64,0|8,0:0|0:0,0:0:0:0:
112,320,172512,2,0,L|272:320,1,128,8|8,0:0|0:0,0:0:0:0:
176,320,172784,1,0,0:0:0:0:
384,272,172875,6,0,L|384:208,1,64,8|0,0:0|0:0,0:0:0:0:
464,160,173057,1,8,0:0:0:0:
384,160,173148,1,0,0:0:0:0:
176,160,173239,1,8,0:0:0:0:
256,144,173330,2,0,L|256:80,2,64,8|0|8,0:0|0:0|0:0,0:0:0:0:
448,112,173603,6,0,L|448:192,1,64,8|8,0:0|0:0,0:0:0:0:
368,192,173784,2,0,L|368:272,1,64,0|8,0:0|0:0,0:0:0:0:
176,336,173966,2,0,L|352:336,1,128,8|8,0:0|0:0,0:0:0:0:
240,336,174239,1,0,0:0:0:0:
432,304,174330,5,8,0:0:0:0:
352,304,174421,1,0,0:0:0:0:
432,256,174512,2,0,L|432:192,1,64,8|0,0:0|0:0,0:0:0:0:
240,192,174694,2,0,L|240:128,2,64,8|8|0,0:0|0:0|0:0,0:0:0:0:
320,112,174966,1,8,0:0:0:0:
128,128,175057,2,0,L|64:128,1,64,8|0,0:0|0:0,0:0:0:0:
256,208,175239,2,0,L|320:208,1,64,8|8,0:0|0:0,0:0:0:0:
128,288,175421,2,0,L|272:288,1,128,8|8,0:0|0:0,0:0:0:0:
448,288,175694,1,0,0:0:0:0:
256,240,175784,6,0,L|256:112,1,128,4|8,0:0|0:0,0:0:0:0:
80,112,176057,1,8,0:0:0:0:
256,240,176148,2,0,L|256:112,1,128,4|4,0:0|0:0,0:0:0:0:
336,112,176421,1,8,0:0:0:0:
160,240,176512,6,0,L|160:112,1,128,8|4,0:0|0:0,0:0:0:0:
336,112,176785,1,4,0:0:0:0:
160,240,176875,2,0,L|160:112,1,128,8|4,0:0|0:0,0:0:0:0:
80,112,177148,1,8,0:0:0:0:
272,128,177239,6,0,L|272:192,2,64,0|0|0,0:0|0:0|0:0,0:0:0:0:
352,128,177512,1,0,0:0:0:0:
160,272,177603,2,0,L|160:192,1,64,8|0,0:0|0:0,0:0:0:0:
240,208,177784,2,0,L|240:144,1,64,8|0,0:0|0:0,0:0:0:0:
432,112,177966,5,8,0:0:0:0:
352,112,178057,1,8,0:0:0:0:
432,160,178148,2,0,L|432:240,1,64,8|0,0:0|0:0,0:0:0:0:
240,256,178330,2,0,L|96:256,1,128,8|8,0:0|0:0,0:0:0:0:
176,256,178603,1,0,0:0:0:0:
368,208,178694,5,8,0:0:0:0:
288,176,178784,2,0,L|288:112,1,64,0|8,0:0|0:0,0:0:0:0:
208,96,178966,1,8,0:0:0:0:
400,112,179057,2,0,L|400:48,1,64,8|0,0:0|0:0,0:0:0:0:
480,48,179239,2,0,L|480:112,1,64,8|0,0:0|0:0,0:0:0:0:
288,192,179421,6,0,L|368:192,1,64,8|0,0:0|0:0,0:0:0:0:
160,288,179603,2,0,L|224:288,1,64,8|0,0:0|0:0,0:0:0:0:
32,336,179784,2,0,L|32:256,1,64,8|0,0:0|0:0,0:0:0:0:
112,256,179966,1,8,0:0:0:0:
32,256,180057,1,0,0:0:0:0:
224,208,180148,5,8,0:0:0:0:
144,176,180239,2,0,L|144:112,2,64,0|8|8,0:0|0:0|0:0,0:0:0:0:
336,160,180512,2,0,L|336:96,2,64,8|0|8,0:0|0:0|0:0,0:0:0:0:
416,96,180784,1,0,0:0:0:0:
224,96,180875,2,0,L|144:96,1,64,8|0,0:0|0:0,0:0:0:0:
352,176,181057,2,0,L|272:176,1,64,8|8,0:0|0:0,0:0:0:0:
96,224,181239,2,0,L|160:224,1,64,8|0,0:0|0:0,0:0:0:0:
336,272,181421,1,8,0:0:0:0:
160,288,181512,1,0,0:0:0:0:
336,224,181603,5,4,0:0:0:0:
337,187,181693,1,0,0:0:0:0:
166,225,181784,1,8,0:0:0:0:
347,152,181875,1,4,0:0:0:0:
366,121,181966,1,0,0:0:0:0:
189,160,182057,1,8,0:0:0:0:
391,94,182148,5,4,0:0:0:0:
422,75,182239,1,0,0:0:0:0:
246,88,182330,1,8,0:0:0:0:
457,64,182421,1,4,0:0:0:0:
494,62,182512,1,0,0:0:0:0:
318,46,182603,1,8,0:0:0:0:
112,96,182694,2,0,L|224:208,1,128,4|4,0:0|0:0,0:0:0:0:
480,224,183057,5,4,0:0:0:0:
320,208,183239,2,0,L|320:352,1,128,0|4,0:0|0:0,0:0:0:0:
320,80,183603,2,0,P|240:128|336:224,1,256,8|4,0:0|0:0,0:0:0:0:
448,224,184148,1,4,0:0:0:0:
320,80,184330,6,0,P|240:128|336:224,1,256,8|4,0:0|0:0,0:0:0:0:
448,224,184875,1,8,0:0:0:0:
192,80,185057,2,0,P|112:128|208:224,1,256,8|4,0:0|0:0,0:0:0:0:
320,224,185603,1,8,0:0:0:0:
64,240,185784,2,0,L|128:240,1,64,8|8,0:0|0:0,0:0:0:0:
320,256,185966,6,0,L|320:128,1,128,4|0,0:0|0:0,0:0:0:0:
464,128,186330,2,0,L|288:128,1,128,4|0,0:0|0:0,0:0:0:0:
192,256,186694,2,0,L|192:128,1,128,4|0,0:0|0:0,0:0:0:0:
48,128,187058,2,0,L|224:128,1,128,4|8,0:0|0:0,0:0:0:0:
464,240,187421,6,0,L|400:240,1,64,4|0,0:0|0:0,0:0:0:0:
320,208,187603,2,0,L|400:208,1,64,4|0,0:0|0:0,0:0:0:0:
304,176,187784,2,0,L|240:176,1,64,4|0,0:0|0:0,0:0:0:0:
80,144,187966,2,0,L|48:144,1,32,8|0,0:0|0:0,0:0:0:0:
176,144,188057,2,0,L|208:144,1,32,8|0,0:0|0:0,0:0:0:0:
80,208,188148,2,0,L|48:208,1,32,4|0,0:0|0:0,0:0:0:0:
32,256,188239,1,0,0:0:0:0:
48,208,188284,2,0,L|80:208,1,32,0|4,0:0|0:0,0:0:0:0:
480,208,188512,5,8,0:0:0:0:
464,288,188875,5,2,0:0:0:0:
368,272,188966,1,0,0:0:0:0:
380,211,189056,1,0,0:0:0:0:
437,189,189147,1,0,0:0:0:0:
352,160,189239,1,0,0:0:0:0:
291,148,189329,1,0,0:0:0:0:
268,91,189420,1,0,0:0:0:0:
304,41,189511,1,0,0:0:0:0:
400,32,189603,6,0,L|384:112,1,64
304,96,189784,2,0,L|320:176,1,64,0|0,0:0|0:0,0:0:0:0:
416,176,189966,2,0,L|432:240,1,64,0|0,0:0|0:0,0:0:0:0:
352,240,190148,2,0,L|336:304,1,64,0|0,0:0|0:0,0:0:0:0:
240,320,190330,5,0,0:0:0:0:
186,291,190420,1,0,0:0:0:0:
191,231,190511,1,0,0:0:0:0:
248,212,190602,1,0,0:0:0:0:
160,176,190694,1,0,0:0:0:0:
102,156,190785,1,0,0:0:0:0:
97,96,190876,1,0,0:0:0:0:
151,68,190966,1,0,0:0:0:0:
246,282,191057,5,0,0:0:0:0:
299,253,191147,1,0,0:0:0:0:
294,193,191238,1,0,0:0:0:0:
237,174,191329,1,0,0:0:0:0:
326,138,191421,1,0,0:0:0:0:
384,118,191512,1,0,0:0:0:0:
389,58,191603,1,0,0:0:0:0:
335,30,191693,1,0,0:0:0:0:
240,48,191784,6,0,L|224:112,1,64,0|0,0:0|0:0,0:0:0:0:
144,144,191966,2,0,L|80:144,1,64,0|0,0:0|0:0,0:0:0:0:
176,192,192148,2,0,L|240:192,1,64,0|0,0:0|0:0,0:0:0:0:
320,208,192330,2,0,L|336:272,1,64,0|0,0:0|0:0,0:0:0:0:
240,80,192512,6,0,L|224:144,1,64,0|0,0:0|0:0,0:0:0:0:
144,176,192694,2,0,L|80:176,1,64,0|0,0:0|0:0,0:0:0:0:
176,224,192876,2,0,L|240:224,1,64,0|0,0:0|0:0,0:0:0:0:
320,240,193058,2,0,L|336:304,1,64,0|0,0:0|0:0,0:0:0:0:
256,336,193239,5,0,0:0:0:0:
352,320,193330,2,0,L|336:240,2,64,0|0|0,0:0|0:0|0:0,0:0:0:0:
256,256,193603,2,0,L|240:176,2,64,0|0|0,0:0|0:0|0:0,0:0:0:0:
352,256,193875,1,0,0:0:0:0:
256,192,193966,6,0,L|240:128,1,64,0|0,0:0|0:0,0:0:0:0:
160,96,194148,2,0,L|224:96,1,64,0|0,0:0|0:0,0:0:0:0:
144,144,194330,2,0,L|80:144,1,64,0|0,0:0|0:0,0:0:0:0:
160,192,194512,2,0,L|176:272,1,64,0|0,0:0|0:0,0:0:0:0:
352,272,194694,5,0,0:0:0:0:
256,256,194784,1,0,0:0:0:0:
198,231,194874,1,0,0:0:0:0:
174,173,194965,1,0,0:0:0:0:
256,64,195057,1,0,0:0:0:0:
199,86,195148,1,0,0:0:0:0:
188,146,195239,1,0,0:0:0:0:
234,187,195329,1,0,0:0:0:0:
336,192,195421,6,0,L|352:256,1,64,0|0,0:0|0:0,0:0:0:0:
432,256,195603,2,0,L|416:320,1,64,0|0,0:0|0:0,0:0:0:0:
323,289,195784,2,0,L|338:226,1,64,0|0,0:0|0:0,0:0:0:0:
258,353,195966,2,0,L|242:290,1,64,0|0,0:0|0:0,0:0:0:0:
144,272,196148,5,0,0:0:0:0:
127,212,196238,1,0,0:0:0:0:
161,160,196329,1,0,0:0:0:0:
222,152,196420,1,0,0:0:0:0:
128,112,196512,2,0,L|112:32,1,64,0|0,0:0|0:0,0:0:0:0:
192,96,196694,2,0,L|208:16,1,64,0|0,0:0|0:0,0:0:0:0:
304,288,196875,5,0,0:0:0:0:
320,228,196965,1,0,0:0:0:0:
286,176,197056,1,0,0:0:0:0:
225,168,197147,1,0,0:0:0:0:
320,128,197239,2,0,L|336:48,1,64,0|0,0:0|0:0,0:0:0:0:
256,112,197421,2,0,L|352:112,1,64,0|0,0:0|0:0,0:0:0:0:
224,64,197603,6,0,L|192:144,2,64,0|0|0,0:0|0:0|0:0,0:0:0:0:
160,64,197875,1,0,0:0:0:0:
256,64,197966,2,0,L|288:144,2,64,0|0|0,0:0|0:0|0:0,0:0:0:0:
320,64,198238,1,0,0:0:0:0:
224,160,198330,6,0,L|256:240,1,64,0|0,0:0|0:0,0:0:0:0:
320,224,198512,2,0,L|352:304,1,64,0|0,0:0|0:0,0:0:0:0:
256,192,198694,2,0,L|224:272,1,64,0|0,0:0|0:0,0:0:0:0:
160,256,198876,2,0,L|128:336,1,64,0|0,0:0|0:0,0:0:0:0:
240,336,199057,5,0,0:0:0:0:
286,296,199147,1,0,0:0:0:0:
269,238,199238,1,0,0:0:0:0:
210,227,199329,1,0,0:0:0:0:
304,192,199421,2,0,L|368:192,1,64,0|0,0:0|0:0,0:0:0:0:
272,144,199603,2,0,L|208:144,1,64,0|0,0:0|0:0,0:0:0:0:
304,96,199784,6,0,L|320:256,1,128,4|4,0:0|0:0,0:0:0:0:
400,224,200057,1,8,0:0:0:0:
304,288,200148,2,0,L|384:288,1,64,4|0,0:0|0:0,0:0:0:0:
272,224,200330,2,0,L|336:224,1,64,8|8,0:0|0:0,0:0:0:0:
112,304,200512,6,0,L|112:176,1,128,4|0,0:0|0:0,0:0:0:0:
368,160,200875,1,8,0:0:0:0:
208,160,201057,2,0,L|208:240,1,64,0|0,0:0|0:0,0:0:0:0:
128,224,201239,1,0,0:0:0:0:
72,246,201329,1,0,0:0:0:0:
74,306,201420,1,4,0:0:0:0:
131,325,201511,1,0,0:0:0:0:
304,320,201603,2,0,L|176:320,1,128,8|0,0:0|0:0,0:0:0:0:
432,304,201966,6,0,L|432:176,1,128,4|0,0:0|0:0,0:0:0:0:
176,160,202329,1,8,0:0:0:0:
336,160,202512,2,0,L|272:160,1,64,4|4,0:0|0:0,0:0:0:0:
352,208,202694,2,0,L|416:208,3,64,8|0|4|0,0:0|0:0|0:0|0:0,0:0:0:0:
256,288,203057,2,0,L|128:288,1,128,8|0,0:0|0:0,0:0:0:0:
384,240,203421,5,4,0:0:0:0:
288,208,203512,2,0,L|272:144,2,64,0|0|0,0:0|0:0|0:0,0:0:0:0:
192,192,203784,1,8,0:0:0:0:
96,176,203875,2,0,L|112:112,2,64,0|0|0,0:0|0:0|0:0,0:0:0:0:
288,128,204148,5,4,0:0:0:0:
192,96,204239,2,0,L|176:32,2,64,0|4|0,0:0|0:0|0:0,0:0:0:0:
96,128,204512,1,8,0:0:0:0:
192,96,204603,2,0,L|208:32,2,64,0|0|0,0:0|0:0|0:0,0:0:0:0:
384,96,204875,6,0,L|400:160,1,64,4|0,0:0|0:0,0:0:0:0:
464,192,205057,2,0,L|400:192,1,64,0|0,0:0|0:0,0:0:0:0:
304,192,205239,2,0,L|288:256,1,64,8|0,0:0|0:0,0:0:0:0:
224,288,205421,2,0,L|288:288,1,64,0|0,0:0|0:0,0:0:0:0:
112,304,205603,6,0,L|48:304,1,64
208,224,205784,2,0,L|144:224,1,64,4|0,0:0|0:0,0:0:0:0:
240,192,205966,2,0,L|256:112,1,64,8|0,0:0|0:0,0:0:0:0:
336,96,206148,2,0,L|256:96,1,64,8|8,0:0|0:0,0:0:0:0:
96,128,206330,6,0,L|256:128,1,128,4|0,0:0|0:0,0:0:0:0:
480,128,206694,1,8,0:0:0:0:
320,176,206875,2,0,L|320:240,1,64,0|0,0:0|0:0,0:0:0:0:
240,288,207057,1,0,0:0:0:0:
303,285,207147,1,0,0:0:0:0:
355,251,207238,1,4,0:0:0:0:
382,193,207329,1,0,0:0:0:0:
208,176,207421,2,0,L|208:32,1,128,8|0,0:0|0:0,0:0:0:0:
480,48,207784,6,0,L|336:48,1,128,4|0,0:0|0:0,0:0:0:0:
96,80,208148,1,8,0:0:0:0:
256,112,208330,2,0,L|320:112,1,64,4|4,0:0|0:0,0:0:0:0:
240,160,208512,2,0,L|160:160,3,64,8|0|4|0,0:0|0:0|0:0|0:0,0:0:0:0:
336,256,208875,2,0,L|208:256,1,128,8|0,0:0|0:0,0:0:0:0:
464,224,209239,5,4,0:0:0:0:
368,208,209330,1,0,0:0:0:0:
352,145,209420,1,0,0:0:0:0:
336,83,209511,1,0,0:0:0:0:
240,224,209603,1,8,0:0:0:0:
144,208,209694,1,0,0:0:0:0:
128,145,209784,1,0,0:0:0:0:
112,83,209875,1,0,0:0:0:0:
288,112,209966,6,0,L|304:32,1,64,0|0,0:0|0:0,0:0:0:0:
384,96,210148,2,0,L|400:16,1,64,4|0,0:0|0:0,0:0:0:0:
224,112,210330,2,0,L|208:32,1,64,8|0,0:0|0:0,0:0:0:0:
32,112,210512,2,0,L|48:32,1,64,0|0,0:0|0:0,0:0:0:0:
240,176,210694,6,0,L|240:240,1,64,4|0,0:0|0:0,0:0:0:0:
160,240,210875,1,0,0:0:0:0:
352,208,210966,2,0,L|352:272,1,64,4|0,0:0|0:0,0:0:0:0:
432,272,211147,1,0,0:0:0:0:
144,224,211239,6,0,L|144:288,1,64,4|0,0:0|0:0,0:0:0:0:
64,288,211420,1,0,0:0:0:0:
272,288,211512,2,0,L|336:288,1,64,4|4,0:0|0:0,0:0:0:0:
160,240,211694,1,0,0:0:0:0:
352,192,211784,5,4,0:0:0:0:
409,169,211874,1,0,0:0:0:0:
423,109,211965,1,4,0:0:0:0:
381,63,212056,1,4,0:0:0:0:
288,48,212148,6,0,L|272:176,1,128,10|0,0:0|0:0,0:0:0:0:
192,176,212421,2,0,L|208:304,1,128,0|0,0:0|0:0,0:0:0:0:
128,224,212694,2,0,L|112:352,1,128,0|0,0:0|0:0,0:0:0:0:
32,144,212966,2,0,L|48:272,1,128,0|0,0:0|0:0,0:0:0:0:
128,272,213239,2,0,L|272:272,1,128,0|0,0:0|0:0,0:0:0:0:
400,256,213603,6,0,L|416:112,1,128,8|0,0:0|0:0,0:0:0:0:
336,112,213875,1,0,0:0:0:0:
480,80,214148,1,0,0:0:0:0:
288,240,214330,2,0,L|272:96,1,128,0|0,0:0|0:0,0:0:0:0:
352,96,214602,1,0,0:0:0:0:
208,64,214875,1,0,0:0:0:0:
48,32,215057,6,0,B|48:352|48:352|48:64|48:64|48:336|48:336|48:192|48:192|64:32|288:32|304:192,1,1408,8|0,0:0|0:0,0:0:0:0:
304,304,217239,2,0,B|239:196|239:196|324:98|324:98|188:97,1,384,0|0,0:0|0:0,0:0:0:0:
448,128,217966,6,0,L|464:256,1,128,8|0,0:0|0:0,0:0:0:0:
384,192,218239,2,0,L|368:320,1,128,0|0,0:0|0:0,0:0:0:0:
192,224,218512,2,0,L|176:352,1,128,0|0,0:0|0:0,0:0:0:0:
96,48,218784,2,0,L|80:176,1,128,0|0,0:0|0:0,0:0:0:0:
160,176,219057,2,0,L|288:176,1,128,0|0,0:0|0:0,0:0:0:0:
144,320,219421,6,0,L|128:176,1,128,8|0,0:0|0:0,0:0:0:0:
48,176,219694,1,0,0:0:0:0:
208,176,219966,1,0,0:0:0:0:
384,256,220148,6,0,L|368:112,1,128,0|0,0:0|0:0,0:0:0:0:
288,112,220421,1,0,0:0:0:0:
448,112,220693,1,0,0:0:0:0:
288,336,220875,6,0,B|230:223|230:223|287:107|287:107|160:106|160:106|288:106|288:106|342:223|342:223|287:341|287:341|414:342|414:343|415:343|415:343|288:342|288:342|287:212|287:212|162:207|162:207|160:78|160:78|288:80|288:80|16:80,1,1792,8|0,0:0|0:0,0:0:0:0:
32,144,223512,1,0,0:0:0:0:
48,192,223603,1,0,0:0:0:0:
112,224,223694,1,0,0:0:0:0:
320,272,223784,6,0,L|176:272,1,128,4|0,0:0|0:0,0:0:0:0:
272,208,224057,2,0,L|432:208,1,128,4|0,0:0|0:0,0:0:0:0:
320,160,224330,2,0,L|320:32,1,128,4|0,0:0|0:0,0:0:0:0:
240,32,224603,2,0,L|240:176,1,128,4|0,0:0|0:0,0:0:0:0:
160,176,224875,2,0,L|160:240,1,64,4|0,0:0|0:0,0:0:0:0:
80,128,225057,2,0,L|80:192,1,64,8|0,0:0|0:0,0:0:0:0:
256,304,225239,6,0,L|272:240,1,64,4|0,0:0|0:0,0:0:0:0:
352,224,225421,1,0,0:0:0:0:
256,192,225603,2,0,L|224:64,2,128,4|8|0,0:0|0:0|0:0,0:0:0:0:
384,192,226148,2,0,L|416:64,2,128,0|4|8,0:0|0:0|0:0,0:0:0:0:
112,288,226694,6,0,B|272:288|272:288|288:128|288:128|127:129|127:129|254:34|254:34|413:34|413:34|287:132|287:132|418:227,1,1120,4|0,0:0|0:0,0:0:0:0:
256,304,228148,6,0,B|233:179|233:179|103:179|103:179|74:52,1,384,4|0,0:0|0:0,0:0:0:0:
224,48,228875,2,0,L|352:48,1,128,4|0,0:0|0:0,0:0:0:0:
208,112,229239,2,0,L|96:112,2,64,4|0|0,0:0|0:0|0:0,0:0:0:0:
480,304,229603,5,4,0:0:0:0:
336,288,229784,2,0,L|320:160,1,128,0|4,0:0|0:0,0:0:0:0:
176,160,230148,2,0,L|160:80,1,64,4|4,0:0|0:0,0:0:0:0:
80,64,230330,2,0,L|224:64,1,128,8|0,0:0|0:0,0:0:0:0:
368,128,230694,1,0,0:0:0:0:
240,128,230875,6,0,B|176:240|176:240|240:352,1,256,4|0,0:0|0:0,0:0:0:0:
368,320,231421,2,0,L|336:256,1,64,4|0,0:0|0:0,0:0:0:0:
256,224,231603,2,0,L|384:224,2,128,4|8|0,0:0|0:0|0:0,0:0:0:0:
400,160,232148,2,0,L|432:32,1,128,4|0,0:0|0:0,0:0:0:0:
176,48,232512,6,0,L|160:128,1,64,4|0,0:0|0:0,0:0:0:0:
80,144,232694,2,0,L|0:144,1,64,0|0,0:0|0:0,0:0:0:0:
112,176,232875,2,0,L|192:176,1,64,8|0,0:0|0:0,0:0:0:0:
256,192,233057,2,0,L|272:272,1,64,0|0,0:0|0:0,0:0:0:0:
172,158,233239,6,0,L|188:238,1,64,0|0,0:0|0:0,0:0:0:0:
268,254,233421,2,0,L|348:254,1,64,4|0,0:0|0:0,0:0:0:0:
236,286,233603,2,0,L|156:286,1,64,8|0,0:0|0:0,0:0:0:0:
92,302,233784,2,0,L|76:382,1,64,0|0,0:0|0:0,0:0:0:0:
272,352,233966,6,0,B|305:228|305:228|432:224|432:224|399:99|399:99|272:96|272:96|400:96|400:96|256:96,1,768,4|4,0:0|0:0,0:0:0:0:
192,96,235148,2,0,L|192:32,2,64,0|0|0,0:0|0:0|0:0,0:0:0:0:
432,304,235421,6,0,L|416:176,1,128,4|0,0:0|0:0,0:0:0:0:
336,176,235694,1,0,0:0:0:0:
240,176,235784,2,0,L|224:80,1,64,8|0,0:0|0:0,0:0:0:0:
144,80,235966,1,0,0:0:0:0:
224,80,236057,1,0,0:0:0:0:
128,144,236148,6,0,L|112:272,1,128,0|4,0:0|0:0,0:0:0:0:
256,288,236512,1,8,0:0:0:0:
112,288,236694,1,0,0:0:0:0:
272,208,236875,5,4,0:0:0:0:
16,176,237057,2,0,L|160:176,2,128,8|0|4,0:0|0:0|0:0,0:0:0:0:
80,176,237512,1,0,0:0:0:0:
256,272,237603,6,0,L|272:144,1,128,8|0,0:0|0:0,0:0:0:0:
416,128,237966,1,4,0:0:0:0:
272,112,238148,1,8,0:0:0:0:
448,336,238330,6,0,P|365:281|451:185,1,256,4|0,0:0|0:0,0:0:0:0:
288,176,238875,2,0,L|272:80,1,64,4|4,0:0|0:0,0:0:0:0:
192,112,239057,2,0,L|336:112,1,128,8|0,0:0|0:0,0:0:0:0:
176,48,239421,2,0,L|32:48,1,128,4|0,0:0|0:0,0:0:0:0:
320,128,239784,5,8,0:0:0:0:
176,176,239966,2,0,L|160:240,1,64,0|0,0:0|0:0,0:0:0:0:
256,240,240148,2,0,L|288:384,1,128,4|0,0:0|0:0,0:0:0:0:
144,336,240512,6,0,B|208:336|208:336|163:288|163:288|225:288|225:288|162:282|162:282|207:234|207:234|144:232|144:232,1,384,4|0,0:0|0:0,0:0:0:0:
416,288,241239,6,0,L|400:160,1,128,4|0,0:0|0:0,0:0:0:0:
320,144,241512,1,0,0:0:0:0:
416,112,241603,2,0,L|336:112,1,64,8|0,0:0|0:0,0:0:0:0:
272,112,241784,2,0,L|208:112,1,64,4|4,0:0|0:0,0:0:0:0:
288,208,241966,6,0,L|432:208,1,128,8|0,0:0|0:0,0:0:0:0:
464,176,242239,1,0,0:0:0:0:
416,144,242330,1,8,0:0:0:0:
256,144,242512,1,0,0:0:0:0:
432,80,242694,5,4,0:0:0:0:
176,144,242875,2,0,L|320:144,1,128,8|0,0:0|0:0,0:0:0:0:
432,144,243239,1,4,0:0:0:0:
288,272,243421,2,0,L|272:192,1,64,8|0,0:0|0:0,0:0:0:0:
352,176,243603,1,0,0:0:0:0:
192,128,243784,2,0,L|320:128,1,128,8|0,0:0|0:0,0:0:0:0:
48,272,244148,6,0,B|71:145|71:145|200:148|200:148|236:27|236:27|367:31|367:31|238:27|238:27|367:34|367:34|394:153,1,896,4|0,0:0|0:0,0:0:0:0:
240,176,245603,6,0,L|224:256,1,64,4|0,0:0|0:0,0:0:0:0:
320,272,245784,2,0,L|224:272,1,64,8|0,0:0|0:0,0:0:0:0:
336,240,245966,2,0,L|480:240,1,128,4|4,0:0|0:0,0:0:0:0:
400,240,246239,1,4,0:0:0:0:
208,224,246330,5,8,0:0:0:0:
267,209,246420,1,0,0:0:0:0:
288,152,246511,1,0,0:0:0:0:
252,102,246602,1,0,0:0:0:0:
144,160,246694,1,8,0:0:0:0:
84,145,246784,1,0,0:0:0:0:
63,88,246875,1,0,0:0:0:0:
99,38,246966,1,0,0:0:0:0:
320,224,247057,6,0,L|192:224,1,128,4|0,0:0|0:0,0:0:0:0:
256,224,247330,1,0,0:0:0:0:
160,176,247421,1,4,0:0:0:0:
240,176,247512,2,0,L|256:96,1,64,0|4,0:0|0:0,0:0:0:0:
176,112,247694,1,0,0:0:0:0:
368,96,247784,6,0,L|464:96,2,64,8|0|0,0:0|0:0|0:0,0:0:0:0:
496,208,248148,2,0,L|368:208,1,128,4|8,0:0|0:0,0:0:0:0:
96,224,248512,6,0,L|256:224,1,128,4|0,0:0|0:0,0:0:0:0:
240,144,248784,1,0,0:0:0:0:
320,80,248875,2,0,L|176:80,1,128,4|8,0:0|0:0,0:0:0:0:
448,144,249239,5,4,0:0:0:0:
320,176,249421,2,0,L|320:240,1,64,0|0,0:0|0:0,0:0:0:0:
224,240,249603,2,0,L|224:112,1,128,4|8,0:0|0:0,0:0:0:0:
384,128,249966,6,0,L|448:128,2,64,4|0|0,0:0|0:0|0:0,0:0:0:0:
256,192,250330,2,0,L|336:192,1,64,8|0,0:0|0:0,0:0:0:0:
384,192,250512,2,0,L|464:192,1,64,8|0,0:0|0:0,0:0:0:0:
256,256,250694,6,0,L|176:256,2,64,4|0|0,0:0|0:0|0:0,0:0:0:0:
128,192,251057,2,0,L|192:192,1,64,8|0,0:0|0:0,0:0:0:0:
256,192,251239,2,0,L|336:192,1,64,8|0,0:0|0:0,0:0:0:0:
128,144,251421,6,0,L|112:64,1,64,4|0,0:0|0:0,0:0:0:0:
192,64,251603,1,0,0:0:0:0:
48,224,251784,2,0,L|32:144,1,64,8|0,0:0|0:0,0:0:0:0:
208,176,251966,2,0,L|224:96,1,64,4|4,0:0|0:0,0:0:0:0:
400,96,252148,6,0,L|336:96,3,64,8|0|0|0,0:0|0:0|0:0|0:0,0:0:0:0:
160,112,252512,2,0,L|240:112,1,64,8|0,0:0|0:0,0:0:0:0:
48,192,252694,2,0,L|128:192,1,64,8|8,0:0|0:0,0:0:0:0:
352,240,252875,6,0,L|288:240,1,64,4|0,0:0|0:0,0:0:0:0:
208,224,253057,2,0,L|192:128,1,64,8|8,0:0|0:0,0:0:0:0:
288,128,253239,2,0,L|224:128,1,64,4|0,0:0|0:0,0:0:0:0:
32,112,253421,2,0,L|16:16,1,64,8|4,0:0|0:0,0:0:0:0:
192,48,253603,6,0,L|208:128,1,64,8|0,0:0|0:0,0:0:0:0:
288,128,253784,2,0,L|384:128,1,64,4|4,0:0|0:0,0:0:0:0:
256,176,253966,2,0,L|272:256,1,64,8|0,0:0|0:0,0:0:0:0:
352,256,254148,2,0,L|448:256,1,64,4|8,0:0|0:0,0:0:0:0:
192,320,254330,6,0,L|128:320,1,64,4|0,0:0|0:0,0:0:0:0:
208,288,254512,2,0,L|224:208,1,64,8|8,0:0|0:0,0:0:0:0:
304,192,254694,2,0,L|224:192,1,64,4|0,0:0|0:0,0:0:0:0:
432,160,254875,2,0,L|448:80,1,64,8|4,0:0|0:0,0:0:0:0:
224,80,255057,6,0,L|208:160,1,64,8|0,0:0|0:0,0:0:0:0:
288,160,255239,2,0,L|208:160,1,64,4|4,0:0|0:0,0:0:0:0:
48,192,255421,2,0,L|32:272,1,64,8|0,0:0|0:0,0:0:0:0:
224,272,255603,2,0,L|144:272,1,64,4|8,0:0|0:0,0:0:0:0:
336,240,255784,6,0,L|416:240,2,64,4|0|8,0:0|0:0|0:0,0:0:0:0:
496,192,256057,1,8,0:0:0:0:
320,144,256148,2,0,L|384:144,1,64,4|0,0:0|0:0,0:0:0:0:
208,80,256330,2,0,L|128:80,1,64,4|8,0:0|0:0,0:0:0:0:
320,176,256512,6,0,L|320:240,1,64,4|0,0:0|0:0,0:0:0:0:
144,256,256694,2,0,L|208:256,1,64,4|4,0:0|0:0,0:0:0:0:
384,208,256875,1,8,0:0:0:0:
320,208,256965,1,0,0:0:0:0:
256,208,257056,1,8,0:0:0:0:
432,144,257148,1,8,0:0:0:0:
199,243,257239,6,0,B|110:241|110:241|164:168|164:168|75:166|75:166|163:156|163:156|115:80|115:80|208:79,1,537.59998359375,6|0,0:0|0:0,0:0:0:0:
313,243,257966,2,0,B|402:241|402:241|348:168|348:168|437:166|437:166|349:156|349:156|397:80|397:80|304:79,1,537.59998359375,4|0,0:0|0:0,0:0:0:0:
213,78,258603,1,4,0:0:0:0:
208,336,260148,6,0,B|144:336|144:336|251:178|251:178|185:179|185:179|296:25|296:25|230:25|230:25|350:177|350:177|288:176|288:176|414:342,1,1024,0|0,0:0|0:0,0:0:0:0:
464,288,261694,6,0,L|464:224,2,64
368,208,261966,1,0,0:0:0:0:
416,192,262057,2,0,L|416:112,2,64,0|0|0,0:0|0:0|0:0,0:0:0:0:
336,128,262330,5,0,0:0:0:0:
352,112,262421,2,0,L|352:48,2,64,0|0|0,0:0|0:0|0:0,0:0:0:0:
272,80,262694,2,0,L|272:16,3,64,0|0|0|0,0:0|0:0|0:0|0:0,0:0:0:0:
352,336,263057,6,0,B|416:336|416:336|309:178|309:178|375:179|375:179|264:25|264:25|330:25|330:25|210:177|210:177|272:176|272:176|146:342,1,1024,0|0,0:0|0:0,0:0:0:0:
224,320,264603,6,0,L|256:256,2,64
128,256,264875,1,0,0:0:0:0:
176,240,264966,2,0,L|192:176,2,64,0|0|0,0:0|0:0|0:0,0:0:0:0:
112,144,265239,5,0,0:0:0:0:
144,128,265330,2,0,L|151:63,2,64,0|0|0,0:0|0:0|0:0,0:0:0:0:
80,96,265603,2,0,L|80:0,3,64,0|0|0|0,0:0|0:0|0:0|0:0,0:0:0:0:
160,112,265966,5,0,0:0:0:0:
240,112,266057,2,0,L|176:304,1,192,0|0,0:0|0:0,0:0:0:0:
256,112,266421,2,0,L|192:304,1,192,0|0,0:0|0:0,0:0:0:0:
272,112,266784,2,0,L|208:304,1,192,0|0,0:0|0:0,0:0:0:0:
304,112,267148,2,0,L|240:304,1,192,0|0,0:0|0:0,0:0:0:0:
179,294,267512,5,0,0:0:0:0:
243,294,267602,1,0,0:0:0:0:
307,294,267693,1,0,0:0:0:0:
243,294,267784,1,0,0:0:0:0:
195,294,267875,1,0,0:0:0:0:
243,294,267966,1,0,0:0:0:0:
291,294,268057,1,0,0:0:0:0:
243,294,268148,5,0,0:0:0:0:
211,294,268239,1,0,0:0:0:0:
243,294,268330,1,0,0:0:0:0:
275,294,268421,1,0,0:0:0:0:
243,294,268512,2,0,L|240:224,3,64,0|0|0|0,0:0|0:0|0:0|0:0,0:0:0:0:
320,224,268875,5,0,0:0:0:0:
400,224,268966,1,0,0:0:0:0:
384,161,269056,1,0,0:0:0:0:
368,99,269147,1,0,0:0:0:0:
353,37,269238,1,0,0:0:0:0:
432,208,269330,1,0,0:0:0:0:
416,145,269420,1,0,0:0:0:0:
400,83,269511,1,0,0:0:0:0:
385,21,269602,5,0,0:0:0:0:
464,208,269694,1,0,0:0:0:0:
448,145,269784,1,0,0:0:0:0:
432,83,269875,1,0,0:0:0:0:
417,21,269966,1,0,0:0:0:0:
496,208,270057,1,0,0:0:0:0:
480,145,270147,1,0,0:0:0:0:
464,83,270238,1,0,0:0:0:0:
449,21,270329,5,0,0:0:0:0:
385,21,270421,1,0,0:0:0:0:
320,16,270512,1,0,0:0:0:0:
256,16,270603,1,0,0:0:0:0:
352,80,270694,1,0,0:0:0:0:
288,80,270784,1,0,0:0:0:0:
223,75,270875,1,0,0:0:0:0:
159,75,270966,1,0,0:0:0:0:
320,160,271057,6,0,L|416:160,1,64
192,160,271239,2,0,L|272:160,1,64,0|0,0:0|0:0,0:0:0:0:
416,208,271421,2,0,L|480:208,1,64
320,160,271603,1,0,0:0:0:0:
160,160,271694,1,0,0:0:0:0:
384,160,271784,5,4,0:0:0:0:
256,192,273239,12,0,274512,0:0:0:0:
256,224,274694,6,0,L|400:224,1,128,6|0,0:0|0:0,0:0:0:0:
240,160,275057,1,8,0:0:0:0:
384,96,275239,1,0,0:0:0:0:
352,96,275329,1,0,0:0:0:0:
320,96,275420,1,0,0:0:0:0:
288,96,275511,1,0,0:0:0:0:
256,96,275602,1,0,0:0:0:0:
400,160,275784,2,0,L|400:288,1,128,8|0,0:0|0:0,0:0:0:0:
256,224,276148,6,0,L|112:224,1,128,0|0,0:0|0:0,0:0:0:0:
272,160,276511,1,8,0:0:0:0:
128,96,276693,1,0,0:0:0:0:
160,96,276783,1,0,0:0:0:0:
192,96,276874,1,0,0:0:0:0:
224,96,276965,1,0,0:0:0:0:
256,96,277056,1,0,0:0:0:0:
112,160,277239,2,0,L|112:288,1,128,8|0,0:0|0:0,0:0:0:0:
256,304,277603,6,0,L|256:176,1,128,0|0,0:0|0:0,0:0:0:0:
400,176,277966,1,8,0:0:0:0:
256,128,278148,1,0,0:0:0:0:
224,128,278238,1,0,0:0:0:0:
192,128,278329,1,0,0:0:0:0:
224,128,278421,1,0,0:0:0:0:
256,128,278511,1,0,0:0:0:0:
400,112,278694,2,0,L|400:240,1,128,8|0,0:0|0:0,0:0:0:0:
256,288,279057,6,0,L|176:288,2,64,0|0|0,0:0|0:0|0:0,0:0:0:0:
112,256,279421,1,8,0:0:0:0:
256,192,279603,2,0,L|176:192,1,64,0|0,0:0|0:0,0:0:0:0:
256,192,279784,2,0,L|272:112,1,64,4|0,0:0|0:0,0:0:0:0:
352,96,279966,2,0,L|416:96,1,64,0|0,0:0|0:0,0:0:0:0:
320,64,280148,2,0,L|224:64,1,64,8|0,0:0|0:0,0:0:0:0:
352,128,280330,2,0,L|352:224,1,64,0|0,0:0|0:0,0:0:0:0:
256,224,280512,6,0,L|112:224,1,128,6|0,0:0|0:0,0:0:0:0:
272,160,280875,1,8,0:0:0:0:
128,96,281057,1,0,0:0:0:0:
160,96,281147,1,0,0:0:0:0:
192,96,281238,1,0,0:0:0:0:
224,96,281329,1,0,0:0:0:0:
256,96,281420,1,0,0:0:0:0:
112,160,281602,2,0,L|112:288,1,128,8|0,0:0|0:0,0:0:0:0:
256,224,281966,6,0,L|400:224,1,128,0|0,0:0|0:0,0:0:0:0:
240,160,282329,1,8,0:0:0:0:
384,96,282511,1,0,0:0:0:0:
352,96,282603,1,0,0:0:0:0:
320,96,282694,1,0,0:0:0:0:
288,96,282783,1,0,0:0:0:0:
256,96,282874,1,0,0:0:0:0:
400,160,283057,2,0,L|400:288,1,128,8|0,0:0|0:0,0:0:0:0:
256,304,283421,6,0,L|256:176,1,128,4|0,0:0|0:0,0:0:0:0:
128,176,283784,2,0,L|48:176,3,64,8|0|0|0,0:0|0:0|0:0|0:0,0:0:0:0:
160,144,284148,2,0,L|160:0,1,128,0|4,0:0|0:0,0:0:0:0:
288,32,284512,2,0,L|352:32,1,64,8|0,0:0|0:0,0:0:0:0:
288,32,284694,2,0,L|208:32,1,64,0|0,0:0|0:0,0:0:0:0:
320,96,284875,5,4,0:0:0:0:
379,93,284965,1,0,0:0:0:0:
401,148,285056,1,0,0:0:0:0:
355,186,285147,1,0,0:0:0:0:
272,224,285239,2,0,L|352:224,1,64,8|0,0:0|0:0,0:0:0:0:
256,272,285421,2,0,L|176:272,1,64,0|0,0:0|0:0,0:0:0:0:
368,240,285603,6,0,L|384:176,1,64,4|0,0:0|0:0,0:0:0:0:
224,192,285784,2,0,L|208:96,1,64,4|0,0:0|0:0,0:0:0:0:
384,96,285966,2,0,L|224:96,1,128,8|8,0:0|0:0,0:0:0:0:
416,144,286239,1,8,0:0:0:0:
256,288,286330,6,0,L|256:208,3,64,4|0|0|0,0:0|0:0|0:0|0:0,0:0:0:0:
96,192,286694,5,8,0:0:0:0:
256,304,286784,1,0,0:0:0:0:
315,287,286874,1,0,0:0:0:0:
341,231,286965,1,0,0:0:0:0:
313,175,287056,1,0,0:0:0:0:
253,161,287147,1,0,0:0:0:0:
320,112,287239,2,0,L|256:112,1,64,0|0,0:0|0:0,0:0:0:0:
80,192,287421,5,8,0:0:0:0:
256,304,287512,2,0,L|256:224,2,64,0|0|0,0:0|0:0|0:0,0:0:0:0:
336,256,287784,1,0,0:0:0:0:
339,192,287874,1,0,0:0:0:0:
310,136,287965,1,0,0:0:0:0:
258,100,288056,1,0,0:0:0:0:
64,192,288148,5,8,0:0:0:0:
256,304,288239,2,0,L|320:304,2,64,0|0|0,0:0|0:0|0:0,0:0:0:0:
336,256,288512,2,0,L|416:256,1,64,0|0,0:0|0:0,0:0:0:0:
320,256,288694,2,0,L|240:256,1,64,0|0,0:0|0:0,0:0:0:0:
48,192,288875,5,8,0:0:0:0:
256,192,288966,2,0,L|336:192,2,64,0|0|0,0:0|0:0|0:0,0:0:0:0:
176,144,289239,2,0,L|176:80,1,64,0|0,0:0|0:0,0:0:0:0:
256,128,289421,2,0,L|256:64,1,64,0|0,0:0|0:0,0:0:0:0:
32,192,289603,5,8,0:0:0:0:
256,80,289694,2,0,L|192:80,2,64,0|0|0,0:0|0:0|0:0,0:0:0:0:
328,108,289966,1,0,0:0:0:0:
350,166,290056,1,0,0:0:0:0:
317,218,290147,1,0,0:0:0:0:
255,223,290238,1,0,0:0:0:0:
16,192,290330,5,8,0:0:0:0:
256,304,290421,2,0,L|256:240,2,64,0|0|0,0:0|0:0|0:0,0:0:0:0:
320,240,290694,2,0,L|240:240,3,64,0|0|0|0,0:0|0:0|0:0|0:0,0:0:0:0:
32,192,291057,5,8,0:0:0:0:
256,192,291148,2,0,L|336:192,2,64,0|0|0,0:0|0:0|0:0,0:0:0:0:
192,144,291421,2,0,L|272:144,1,64,4|0,0:0|0:0,0:0:0:0:
320,80,291603,2,0,L|256:80,1,64,0|0,0:0|0:0,0:0:0:0:
48,192,291784,5,8,0:0:0:0:
368,192,291966,2,0,L|432:192,1,64,8|8,0:0|0:0,0:0:0:0:
256,288,292148,6,0,L|256:208,3,64,4|0|0|0,0:0|0:0|0:0|0:0,0:0:0:0:
416,192,292512,5,8,0:0:0:0:
256,304,292602,1,0,0:0:0:0:
197,287,292694,1,0,0:0:0:0:
171,231,292783,1,0,0:0:0:0:
199,175,292874,1,0,0:0:0:0:
259,161,292965,1,0,0:0:0:0:
192,112,293057,2,0,L|256:112,1,64,0|0,0:0|0:0,0:0:0:0:
432,192,293239,5,8,0:0:0:0:
256,304,293330,2,0,L|256:224,2,64,0|0|0,0:0|0:0|0:0,0:0:0:0:
176,256,293602,1,0,0:0:0:0:
173,192,293694,1,0,0:0:0:0:
202,136,293783,1,0,0:0:0:0:
254,100,293874,1,0,0:0:0:0:
448,192,293966,5,8,0:0:0:0:
256,304,294057,2,0,L|192:304,2,64,0|0|0,0:0|0:0|0:0,0:0:0:0:
176,256,294330,2,0,L|96:256,1,64,0|0,0:0|0:0,0:0:0:0:
192,256,294512,2,0,L|272:256,1,64,0|0,0:0|0:0,0:0:0:0:
464,192,294693,5,8,0:0:0:0:
256,192,294784,2,0,L|176:192,2,64,0|0|0,0:0|0:0|0:0,0:0:0:0:
432,144,295057,2,0,L|432:80,1,64,4|0,0:0|0:0,0:0:0:0:
256,128,295239,2,0,L|256:64,1,64,0|0,0:0|0:0,0:0:0:0:
480,192,295421,5,8,0:0:0:0:
256,80,295512,2,0,L|320:80,2,64,0|0|0,0:0|0:0|0:0,0:0:0:0:
80,112,295784,1,4,0:0:0:0:
128,176,295874,1,0,0:0:0:0:
192,176,295965,1,0,0:0:0:0:
256,176,296056,1,0,0:0:0:0:
496,192,296148,5,8,0:0:0:0:
256,304,296239,2,0,L|256:240,2,64,0|0|0,0:0|0:0|0:0,0:0:0:0:
48,320,296512,6,0,L|80:256,1,64,4|0,0:0|0:0,0:0:0:0:
176,272,296694,2,0,L|192:192,1,64,0|0,0:0|0:0,0:0:0:0:
288,224,296875,2,0,L|288:144,1,64,8|0,0:0|0:0,0:0:0:0:
384,176,297057,2,0,L|368:96,1,64,8|8,0:0|0:0,0:0:0:0:
272,96,297239,6,0,L|352:96,1,64,4|0,0:0|0:0,0:0:0:0:
176,160,297421,1,4,0:0:0:0:
336,160,297512,1,4,0:0:0:0:
112,240,297603,2,0,L|192:240,1,64,8|0,0:0|0:0,0:0:0:0:
400,240,297784,2,0,L|320:240,1,64,8|8,0:0|0:0,0:0:0:0:
112,192,297966,6,0,L|128:112,1,64,4|0,0:0|0:0,0:0:0:0:
304,112,298148,1,0,0:0:0:0:
128,112,298239,1,4,0:0:0:0:
304,176,298330,2,0,L|320:256,1,64,8|0,0:0|0:0,0:0:0:0:
496,256,298512,2,0,L|432:256,1,64,4|4,0:0|0:0,0:0:0:0:
256,240,298694,5,8,0:0:0:0:
336,224,298784,2,0,L|352:160,2,64,0|4|4,0:0|0:0|0:0,0:0:0:0:
160,224,299057,2,0,L|240:224,1,64,8|0,0:0|0:0,0:0:0:0:
48,208,299239,2,0,L|32:144,1,64,8|8,0:0|0:0,0:0:0:0:
224,96,299421,5,4,0:0:0:0:
400,144,299512,1,0,0:0:0:0:
336,144,299602,1,0,0:0:0:0:
272,144,299693,1,4,0:0:0:0:
96,224,299784,2,0,L|192:224,1,64,8|0,0:0|0:0,0:0:0:0:
336,224,299966,2,0,L|416:224,1,64,8|8,0:0|0:0,0:0:0:0:
224,96,300148,5,4,0:0:0:0:
400,144,300239,1,0,0:0:0:0:
336,144,300329,1,0,0:0:0:0:
272,144,300420,1,4,0:0:0:0:
96,224,300512,2,0,L|192:224,1,64,8|0,0:0|0:0,0:0:0:0:
336,224,300693,2,0,L|416:224,1,64,8|8,0:0|0:0,0:0:0:0:
224,272,300875,5,4,0:0:0:0:
48,272,300966,1,0,0:0:0:0:
56,208,301056,1,0,0:0:0:0:
63,144,301147,1,4,0:0:0:0:
240,112,301239,2,0,L|176:112,1,64,8|0,0:0|0:0,0:0:0:0:
352,96,301421,2,0,L|416:96,1,64,8|8,0:0|0:0,0:0:0:0:
224,272,301603,5,4,0:0:0:0:
48,272,301694,1,0,0:0:0:0:
56,208,301784,1,0,0:0:0:0:
63,144,301875,1,4,0:0:0:0:
240,112,301967,2,0,L|176:112,1,64,8|0,0:0|0:0,0:0:0:0:
352,96,302149,2,0,L|416:96,1,64,8|8,0:0|0:0,0:0:0:0:
224,272,302330,5,4,0:0:0:0:
48,272,302421,1,0,0:0:0:0:
56,208,302511,1,0,0:0:0:0:
63,144,302602,1,4,0:0:0:0:
240,112,302694,2,0,L|176:112,1,64,8|0,0:0|0:0,0:0:0:0:
352,96,302876,2,0,L|416:96,1,64,8|8,0:0|0:0,0:0:0:0:
224,224,303057,6,0,L|208:128,1,64,4|0,0:0|0:0,0:0:0:0:
384,128,303239,2,0,L|304:128,1,64,4|0,0:0|0:0,0:0:0:0:
496,80,303421,2,0,L|400:80,1,64,8|0,0:0|0:0,0:0:0:0:
256,96,303603,2,0,L|320:96,1,64,8|8,0:0|0:0,0:0:0:0:
144,160,303784,6,0,L|128:224,1,64,4|0,0:0|0:0,0:0:0:0:
304,272,303966,1,0,0:0:0:0:
128,272,304057,1,4,0:0:0:0:
304,208,304148,2,0,L|368:208,1,64,8|0,0:0|0:0,0:0:0:0:
192,144,304330,2,0,L|256:144,1,64,4|4,0:0|0:0,0:0:0:0:
80,112,304512,6,0,L|16:112,3,64,8|0|4|4,0:0|0:0|0:0|0:0,0:0:0:0:
192,176,304875,2,0,L|208:240,1,64,8|0,0:0|0:0,0:0:0:0:
384,256,305057,2,0,L|448:256,1,64,8|8,0:0|0:0,0:0:0:0:
272,208,305239,5,4,0:0:0:0:
448,144,305330,1,0,0:0:0:0:
384,144,305420,1,0,0:0:0:0:
320,144,305511,1,4,0:0:0:0:
144,128,305603,2,0,L|208:128,1,64,8|0,0:0|0:0,0:0:0:0:
32,208,305784,2,0,L|112:208,1,64,8|8,0:0|0:0,0:0:0:0:
272,208,305966,5,4,0:0:0:0:
448,144,306057,1,0,0:0:0:0:
384,144,306147,1,0,0:0:0:0:
320,144,306238,1,4,0:0:0:0:
144,128,306330,2,0,L|208:128,1,64,8|0,0:0|0:0,0:0:0:0:
32,208,306512,2,0,L|112:208,1,64,8|8,0:0|0:0,0:0:0:0:
304,224,306694,6,0,L|240:224,1,64,4|0,0:0|0:0,0:0:0:0:
416,192,306875,2,0,L|432:128,1,64,4|4,0:0|0:0,0:0:0:0:
224,176,307057,2,0,L|288:176,1,64,8|0,0:0|0:0,0:0:0:0:
112,144,307239,2,0,L|96:80,1,64,8|8,0:0|0:0,0:0:0:0:
304,64,307421,6,0,L|320:128,1,64,4|0,0:0|0:0,0:0:0:0:
496,176,307603,2,0,L|416:176,1,64,8|4,0:0|0:0,0:0:0:0:
256,160,307784,2,0,L|240:224,1,64,8|0,0:0|0:0,0:0:0:0:
64,272,307966,2,0,L|144:272,1,64,8|8,0:0|0:0,0:0:0:0:
320,240,308148,5,4,0:0:0:0:
160,208,308239,1,0,0:0:0:0:
224,192,308329,1,4,0:0:0:0:
229,126,308420,1,0,0:0:0:0:
48,96,308512,1,8,0:0:0:0:
240,96,308603,1,0,0:0:0:0:
176,80,308693,1,8,0:0:0:0:
240,96,308784,1,8,0:0:0:0:
432,128,308875,6,0,L|352:128,1,64,8|0,0:0|0:0,0:0:0:0:
192,144,309057,2,0,L|256:144,1,64,8|0,0:0|0:0,0:0:0:0:
80,224,309239,2,0,L|224:224,1,128,4|8,0:0|0:0,0:0:0:0:
384,224,309512,1,8,0:0:0:0:
208,176,309603,6,0,L|128:176,1,64,4|0,0:0|0:0,0:0:0:0:
320,128,309784,1,0,0:0:0:0:
144,128,309875,1,4,0:0:0:0:
320,64,309966,2,0,L|416:64,1,64,8|0,0:0|0:0,0:0:0:0:
208,128,310148,2,0,L|272:128,1,64,4|4,0:0|0:0,0:0:0:0:
448,176,310330,6,0,L|352:176,3,64,8|0|4|4,0:0|0:0|0:0|0:0,0:0:0:0:
208,176,310694,2,0,L|288:176,1,64,8|0,0:0|0:0,0:0:0:0:
96,160,310875,2,0,L|80:96,1,64,8|8,0:0|0:0,0:0:0:0:
256,80,311057,5,4,0:0:0:0:
432,96,311148,2,0,L|496:96,2,64,0|0|4,0:0|0:0|0:0,0:0:0:0:
256,160,311421,2,0,L|336:160,1,64,8|0,0:0|0:0,0:0:0:0:
144,176,311603,2,0,L|64:176,1,64,8|8,0:0|0:0,0:0:0:0:
256,80,311784,5,4,0:0:0:0:
432,96,311875,2,0,L|496:96,2,64,0|0|4,0:0|0:0|0:0,0:0:0:0:
256,160,312148,2,0,L|336:160,1,64,8|0,0:0|0:0,0:0:0:0:
144,176,312330,2,0,L|64:176,1,64,8|8,0:0|0:0,0:0:0:0:
256,288,312512,5,4,0:0:0:0:
80,256,312603,1,0,0:0:0:0:
144,256,312693,1,0,0:0:0:0:
208,256,312784,1,4,0:0:0:0:
32,192,312875,2,0,L|32:128,1,64,8|0,0:0|0:0,0:0:0:0:
208,112,313057,2,0,L|96:112,1,64,8|8,0:0|0:0,0:0:0:0:
320,288,313239,5,4,0:0:0:0:
144,256,313330,1,0,0:0:0:0:
208,256,313420,1,0,0:0:0:0:
272,256,313511,1,4,0:0:0:0:
96,192,313603,2,0,L|96:128,1,64,8|0,0:0|0:0,0:0:0:0:
272,112,313784,2,0,L|160:112,1,64,8|8,0:0|0:0,0:0:0:0:
384,288,313966,5,4,0:0:0:0:
208,256,314057,1,0,0:0:0:0:
272,256,314147,1,0,0:0:0:0:
336,256,314238,1,4,0:0:0:0:
160,192,314330,2,0,L|160:128,1,64,8|0,0:0|0:0,0:0:0:0:
336,112,314512,2,0,L|224:112,1,64,8|8,0:0|0:0,0:0:0:0:
448,160,314694,6,0,L|448:224,1,64,4|0,0:0|0:0,0:0:0:0:
272,256,314875,2,0,L|336:256,1,64,4|0,0:0|0:0,0:0:0:0:
160,208,315057,2,0,L|80:208,1,64,8|0,0:0|0:0,0:0:0:0:
272,144,315239,2,0,L|192:144,1,64,8|8,0:0|0:0,0:0:0:0:
16,128,315421,6,0,L|80:128,1,64,4|0,0:0|0:0,0:0:0:0:
256,80,315603,1,0,0:0:0:0:
80,48,315694,1,4,0:0:0:0:
256,128,315784,2,0,L|272:208,1,64,8|0,0:0|0:0,0:0:0:0:
448,192,315966,2,0,L|464:272,1,64,4|4,0:0|0:0,0:0:0:0:
288,288,316148,6,0,L|352:288,1,64,8|0,0:0|0:0,0:0:0:0:
288,224,316330,2,0,L|272:144,1,64,4|4,0:0|0:0,0:0:0:0:
80,160,316512,2,0,L|64:80,1,64,8|0,0:0|0:0,0:0:0:0:
256,112,316694,2,0,L|272:32,1,64,8|0,0:0|0:0,0:0:0:0:
448,48,316875,5,4,0:0:0:0:
272,32,316966,1,0,0:0:0:0:
208,32,317056,1,0,0:0:0:0:
144,32,317147,1,4,0:0:0:0:
336,112,317239,2,0,L|400:112,1,64,8|0,0:0|0:0,0:0:0:0:
224,192,317421,2,0,L|288:192,1,64,8|8,0:0|0:0,0:0:0:0:
464,64,317603,5,4,0:0:0:0:
288,48,317694,1,0,0:0:0:0:
224,48,317784,1,0,0:0:0:0:
160,48,317875,1,4,0:0:0:0:
352,128,317967,2,0,L|416:128,1,64,8|0,0:0|0:0,0:0:0:0:
240,208,318149,2,0,L|304:208,1,64,8|8,0:0|0:0,0:0:0:0:
128,192,318330,6,0,L|64:192,1,64,4|0,0:0|0:0,0:0:0:0:
240,256,318512,2,0,L|320:256,1,64,4|4,0:0|0:0,0:0:0:0:
480,288,318694,1,8,0:0:0:0:
304,288,318784,1,0,0:0:0:0:
480,224,318875,2,0,L|416:224,1,64,8|8,0:0|0:0,0:0:0:0:
240,208,319057,6,0,L|336:208,1,64,4|0,0:0|0:0,0:0:0:0:
128,176,319239,2,0,L|64:176,1,64,8|4,0:0|0:0,0:0:0:0:
240,96,319421,1,8,0:0:0:0:
64,96,319512,1,0,0:0:0:0:
240,160,319603,2,0,L|304:160,1,64,8|8,0:0|0:0,0:0:0:0:
32,304,319784,6,0,L|16:224,1,64,4|0,0:0|0:0,0:0:0:0:
208,256,319966,2,0,L|224:176,1,64,4|0,0:0|0:0,0:0:0:0:
416,304,320148,2,0,L|400:224,1,64,8|0,0:0|0:0,0:0:0:0:
224,208,320330,1,8,0:0:0:0:
48,192,320421,1,4,0:0:0:0:
256,160,320512,6,0,L|336:160,1,64,8|0,0:0|0:0,0:0:0:0:
144,112,320694,1,8,0:0:0:0:
320,80,320784,1,0,0:0:0:0:
144,48,320875,1,4,0:0:0:0:
208,48,320965,1,0,0:0:0:0:
272,48,321056,1,8,0:0:0:0:
448,64,321148,1,8,0:0:0:0:
272,144,321239,6,0,L|256:224,1,64,10|0,0:0|0:0,0:0:0:0:
176,240,321421,1,0,0:0:0:0:
256,240,321512,1,0,0:0:0:0:
464,208,321603,1,8,0:0:0:0:
384,192,321694,1,0,0:0:0:0:
464,160,321784,1,8,0:0:0:0:
384,144,321875,1,0,0:0:0:0:
192,144,321966,5,8,0:0:0:0:
352,128,322057,1,8,0:0:0:0:
192,96,322147,1,0,0:0:0:0:
352,80,322238,1,8,0:0:0:0:
176,48,322330,2,0,L|48:48,1,128,8|8,0:0|0:0,0:0:0:0:
112,48,322603,1,0,0:0:0:0:
368,176,322694,5,8,0:0:0:0:
112,208,322875,2,0,L|192:208,1,64,8|0,0:0|0:0,0:0:0:0:
16,160,323057,2,0,L|16:96,1,64,8|8,0:0|0:0,0:0:0:0:
176,112,323239,2,0,L|176:48,1,64,0|8,0:0|0:0,0:0:0:0:
352,144,323421,6,0,L|352:80,1,64,8|8,0:0|0:0,0:0:0:0:
256,112,323603,2,0,L|256:48,1,64,0|8,0:0|0:0,0:0:0:0:
160,144,323784,2,0,L|16:144,1,128,8|8,0:0|0:0,0:0:0:0:
320,288,324148,6,0,L|336:224,1,64,8|0,0:0|0:0,0:0:0:0:
416,192,324330,1,8,0:0:0:0:
336,192,324421,1,0,0:0:0:0:
176,176,324512,1,8,0:0:0:0:
256,176,324603,1,8,0:0:0:0:
176,176,324694,1,0,0:0:0:0:
256,176,324784,1,8,0:0:0:0:
64,128,324875,5,8,0:0:0:0:
224,128,324966,1,0,0:0:0:0:
64,80,325057,1,8,0:0:0:0:
224,80,325148,1,8,0:0:0:0:
416,64,325239,2,0,L|272:64,1,128,8|8,0:0|0:0,0:0:0:0:
16,256,325603,5,4,0:0:0:0:
272,256,325784,2,0,L|192:256,1,64,8|8,0:0|0:0,0:0:0:0:
432,176,325966,1,4,0:0:0:0:
176,176,326148,2,0,L|256:176,1,64,4|8,0:0|0:0,0:0:0:0:
496,256,326330,5,8,0:0:0:0:
240,256,326512,2,0,L|320:256,1,64,4|4,0:0|0:0,0:0:0:0:
112,176,326693,1,8,0:0:0:0:
256,160,326875,2,0,L|176:160,1,64,4|8,0:0|0:0,0:0:0:0:
16,160,327057,6,0,L|80:160,1,64
160,160,327239,2,0,L|96:160,1,64,0|0,0:0|0:0,0:0:0:0:
304,288,327421,2,0,L|384:288,3,64,8|0|8|0,0:0|0:0|0:0|0:0,0:0:0:0:
176,240,327784,5,8,0:0:0:0:
16,224,327875,1,8,0:0:0:0:
176,240,327966,1,8,0:0:0:0:
16,224,328057,1,0,0:0:0:0:
208,176,328148,2,0,L|352:176,1,128,8|8,0:0|0:0,0:0:0:0:
272,176,328421,1,0,0:0:0:0:
464,128,328512,5,8,0:0:0:0:
208,96,328694,2,0,L|288:96,1,64,8|8,0:0|0:0,0:0:0:0:
96,160,328875,2,0,L|96:224,1,64,8|0,0:0|0:0,0:0:0:0:
272,224,329057,2,0,L|272:288,1,64,8|0,0:0|0:0,0:0:0:0:
32,320,329239,5,8,0:0:0:0:
192,320,329330,1,0,0:0:0:0:
480,320,329421,1,8,0:0:0:0:
320,320,329512,1,0,0:0:0:0:
128,256,329603,2,0,L|224:256,1,64,8|0,0:0|0:0,0:0:0:0:
16,192,329784,2,0,L|16:112,1,64,8|0,0:0|0:0,0:0:0:0:
256,112,329966,6,0,L|112:112,1,128,8|8,0:0|0:0,0:0:0:0:
192,112,330239,1,8,0:0:0:0:
16,208,330330,2,0,L|96:208,3,64,8|0|8|0,0:0|0:0|0:0|0:0,0:0:0:0:
288,208,330694,5,8,0:0:0:0:
128,208,330784,1,0,0:0:0:0:
288,208,330875,1,8,0:0:0:0:
448,208,330966,1,8,0:0:0:0:
80,128,331057,2,0,L|16:128,1,64,8|0,0:0|0:0,0:0:0:0:
432,128,331239,2,0,L|496:128,1,64,8|0,0:0|0:0,0:0:0:0:
256,288,331421,6,0,L|256:224,1,64,8|0,0:0|0:0,0:0:0:0:
48,208,331603,1,8,0:0:0:0:
256,288,331694,2,0,L|256:224,1,64,8|0,0:0|0:0,0:0:0:0:
48,208,331876,1,8,0:0:0:0:
256,288,331966,6,0,L|256:224,1,64,8|0,0:0|0:0,0:0:0:0:
464,208,332148,1,8,0:0:0:0:
256,288,332239,2,0,L|256:224,1,64,8|0,0:0|0:0,0:0:0:0:
464,208,332421,1,8,0:0:0:0:
256,144,332512,6,0,L|256:16,1,128,12|4,0:0|0:0,0:0:0:0:
176,16,332784,1,0,0:0:0:0:
464,32,332875,5,6,0:0:0:0:
464,144,333057,2,0,B|336:144|336:144|336:272,1,256,0|8,0:0|0:0,0:0:0:0:
336,112,333784,2,0,B|208:112|208:112|208:240,1,256,0|8,0:0|0:0,0:0:0:0:
208,64,334512,6,0,B|80:64|80:64|224:64,1,256,0|8,0:0|0:0,0:0:0:0:
208,176,335239,2,0,B|336:176|336:176|192:176,1,256,0|8,0:0|0:0,0:0:0:0:
384,128,335694,1,8,0:0:0:0:
208,96,335784,6,0,L|192:240,1,128,4|0,0:0|0:0,0:0:0:0:
48,192,336148,2,0,L|64:336,1,128,4|0,0:0|0:0,0:0:0:0:
208,128,336512,2,0,L|224:272,1,128,4|0,0:0|0:0,0:0:0:0:
368,224,336876,2,0,L|352:368,1,128,4|0,0:0|0:0,0:0:0:0:
112,352,337239,6,0,L|96:288,1,64,4|0,0:0|0:0,0:0:0:0:
16,256,337421,2,0,L|80:256,1,64,4|0,0:0|0:0,0:0:0:0:
272,256,337603,2,0,L|288:192,1,64,4|0,0:0|0:0,0:0:0:0:
464,160,337784,2,0,L|432:160,1,32,4|0,0:0|0:0,0:0:0:0:
272,160,337875,2,0,L|304:160,1,32,4|0,0:0|0:0,0:0:0:0:
464,96,337966,2,0,L|496:96,4,32,8|0|0|0|0,0:0|0:0|0:0|0:0|0:0,0:0:0:0:
48,96,338330,5,8,0:0:0:0:
256,96,338694,1,0,0:0:0:0:
256,192,338875,12,0,350239,0:0:0:0:
