osu file format v14

[General]
AudioFilename: audio.mp3
AudioLeadIn: 0
PreviewTime: 52784
Countdown: 0
SampleSet: Normal
StackLeniency: 0.7
Mode: 2
LetterboxInBreaks: 0
WidescreenStoryboard: 1

[Editor]
Bookmarks: 223784
DistanceSpacing: 0.9
BeatDivisor: 4
GridSize: 16
TimelineZoom: 2.5

[Metadata]
Title:Hoshi ga Furanai Machi
TitleUnicode:星が降らない街
Artist:Chroma
ArtistUnicode:黑魔
Creator:Rocma
Version:Collab Overdose
Source:
Tags:HAPPYNATION #02 Jirachi electronic chiptune instrumental wonjae paranoid grapes _asriel
BeatmapID:2349931
BeatmapSetID:1121344

[Difficulty]
HPDrainRate:5
CircleSize:3.5
OverallDifficulty:9.4
ApproachRate:9.4
SliderMultiplier:2.56
SliderTickRate:2

[Events]
//Background and Video events
0,0,"BG.png",0,0
//Break Periods
2,258803,259594
//Storyboard Layer 0 (Background)
//Storyboard Layer 1 (Fail)
//Storyboard Layer 2 (Pass)
//Storyboard Layer 3 (Foreground)
//Storyboard Layer 4 (Overlay)
//Storyboard Sound Samples

[TimingPoints]
2694,363.636363636364,4,1,2,50,1,0
2694,-200,4,1,2,50,0,0
37603,-100,4,1,2,50,0,0
53603,-100,4,1,2,70,0,1
76875,-100,4,1,2,60,0,0
105966,-100,4,1,2,70,0,0
117603,-100,4,1,2,50,0,0
129239,-100,4,1,2,60,0,0
140875,-100,4,1,2,50,0,0
148148,-100,4,1,2,70,0,1
171421,-100,4,1,2,60,0,0
188875,-100,4,1,2,40,0,0
199784,-100,4,1,2,50,0,0
200512,-100,4,1,2,60,0,0
212148,-100,4,1,2,40,0,0
226694,-80,4,1,2,50,0,0
228148,-100,4,1,2,50,0,0
257239,-71.4285714285714,4,1,2,50,0,0
260148,-100,4,1,2,50,0,0
260512,-100,4,1,2,60,0,0
260875,-100,4,1,2,70,0,0
261239,-100,4,1,2,80,0,0
261603,-100,4,1,2,50,0,0
261966,-100,4,1,2,40,0,0
262330,-100,4,1,2,30,0,0
262694,-100,4,1,2,20,0,0
263057,-100,4,1,2,50,0,0
263421,-100,4,1,2,60,0,0
263784,-100,4,1,2,70,0,0
264148,-100,4,1,2,80,0,0
264512,-100,4,1,2,50,0,0
264875,-100,4,1,2,40,0,0
265239,-100,4,1,2,30,0,0
265603,-100,4,1,2,20,0,0
265966,-100,4,1,2,50,0,0
266057,-100,4,1,2,5,0,0
266148,-100,4,1,2,50,0,0
266330,-100,4,1,2,60,0,0
266421,-100,4,1,2,5,0,0
266512,-100,4,1,2,60,0,0
266693,-100,4,1,2,70,0,0
266784,-100,4,1,2,5,0,0
266875,-100,4,1,2,70,0,0
267057,-100,4,1,2,80,0,0
267148,-100,4,1,2,5,0,0
267239,-100,4,1,2,80,0,0
267421,-100,4,1,2,50,0,0
267784,-100,4,1,2,40,0,0
268148,-100,4,1,2,30,0,0
268512,-100,4,1,2,20,0,0
268875,-100,4,1,2,50,0,0
268966,-100,4,1,2,10,0,0
269239,-100,4,1,2,60,0,0
269330,-100,4,1,2,10,0,0
269602,-100,4,1,2,70,0,0
269694,-100,4,1,2,10,0,0
269966,-100,4,1,2,80,0,0
270057,-100,4,1,2,10,0,0
270330,-100,4,1,2,50,0,0
270693,-100,4,1,2,60,0,0
271057,-100,4,1,2,70,0,0
271421,-100,4,1,2,80,0,0
273239,-100,4,1,2,40,0,0
274694,-100,4,1,2,50,0,0
286330,-100,4,1,2,60,0,0
297421,-100,4,1,2,70,0,1
321239,-100,4,1,2,60,0,0
332875,-100,4,1,2,50,0,0
338239,-75.187969924812,4,1,2,50,0,0
338694,-100,4,1,2,40,0,0
341603,-100,4,1,2,30,0,0
344512,-100,4,1,2,20,0,0
347421,-100,4,1,2,10,0,0

[Colours]
Combo1 : 0,128,255
Combo2 : 255,255,102

[HitObjects]
256,192,1421,12,0,2512,0:0:0:0:
320,320,2694,6,0,L|304:240,1,64,6|0,0:0|0:0,0:0:0:0:
416,256,3057,2,0,L|432:176,1,64,0|0,0:0|0:0,0:0:0:0:
304,192,3421,2,0,L|288:112,1,64,4|0,0:0|0:0,0:0:0:0:
400,128,3784,2,0,L|416:48,1,64,0|0,0:0|0:0,0:0:0:0:
272,304,4149,6,0,L|288:224,1,64,4|0,0:0|0:0,0:0:0:0:
176,240,4512,2,0,L|160:160,1,64,0|0,0:0|0:0,0:0:0:0:
64,176,4876,2,0,L|80:96,1,64,4|0,0:0|0:0,0:0:0:0:
176,112,5239,2,0,L|160:32,1,64,0|8,0:0|0:0,0:0:0:0:
304,32,5603,5,4,0:0:0:0:
312,94,5784,1,0,0:0:0:0:
353,142,5966,1,0,0:0:0:0:
414,161,6148,1,0,0:0:0:0:
272,192,6330,1,4,0:0:0:0:
263,254,6511,1,0,0:0:0:0:
222,302,6693,1,0,0:0:0:0:
161,321,6875,1,0,0:0:0:0:
320,336,7057,6,0,L|336:256,1,64,4|0,0:0|0:0,0:0:0:0:
448,224,7421,2,0,L|368:224,1,64,0|0,0:0|0:0,0:0:0:0:
272,208,7784,2,0,L|256:128,1,64,4|0,0:0|0:0,0:0:0:0:
144,96,8148,2,0,L|224:96,1,64,8|8,0:0|0:0,0:0:0:0:
80,144,8512,5,4,0:0:0:0:
23,165,8693,1,0,0:0:0:0:
24,225,8875,1,0,0:0:0:0:
80,246,9057,1,0,0:0:0:0:
192,224,9239,1,4,0:0:0:0:
248,245,9420,1,0,0:0:0:0:
247,305,9602,1,0,0:0:0:0:
191,326,9784,1,0,0:0:0:0:
336,320,9966,6,0,L|416:320,1,64,4|0,0:0|0:0,0:0:0:0:
464,272,10330,2,0,L|400:272,1,64,0|0,0:0|0:0,0:0:0:0:
256,256,10694,2,0,L|176:256,1,64,4|0,0:0|0:0,0:0:0:0:
128,208,11058,2,0,L|192:208,1,64,0|8,0:0|0:0,0:0:0:0:
64,176,11421,6,0,L|48:96,1,64,4|0,0:0|0:0,0:0:0:0:
144,80,11784,2,0,L|208:80,1,64,0|0,0:0|0:0,0:0:0:0:
304,160,12148,2,0,L|320:80,1,64,4|0,0:0|0:0,0:0:0:0:
224,64,12512,2,0,L|160:64,1,64,0|0,0:0|0:0,0:0:0:0:
288,48,12875,5,4,0:0:0:0:
350,55,13056,1,0,0:0:0:0:
402,92,13238,1,0,0:0:0:0:
429,149,13420,1,0,0:0:0:0:
304,176,13603,1,4,0:0:0:0:
241,183,13784,1,0,0:0:0:0:
189,220,13966,1,8,0:0:0:0:
162,277,14148,1,8,0:0:0:0:
272,288,14330,5,6,0:0:0:0:
368,256,14512,2,0,L|368:176,1,64,8|0,0:0|0:0,0:0:0:0:
464,160,14875,1,8,0:0:0:0:
320,224,15057,1,0,0:0:0:0:
224,192,15239,2,0,L|224:112,1,64,8|0,0:0|0:0,0:0:0:0:
128,96,15602,1,8,0:0:0:0:
272,96,15784,5,4,0:0:0:0:
368,112,15966,2,0,L|368:192,1,64,8|0,0:0|0:0,0:0:0:0:
272,192,16330,1,8,0:0:0:0:
128,208,16512,1,0,0:0:0:0:
224,224,16694,2,0,L|224:304,1,64,8|0,0:0|0:0,0:0:0:0:
128,304,17058,1,8,0:0:0:0:
288,304,17239,6,0,L|368:304,1,64,4|8,0:0|0:0,0:0:0:0:
224,256,17603,2,0,L|224:192,1,64,0|8,0:0|0:0,0:0:0:0:
96,160,17966,2,0,L|160:160,1,64,0|8,0:0|0:0,0:0:0:0:
288,176,18330,2,0,L|368:176,1,64,0|8,0:0|0:0,0:0:0:0:
224,144,18694,6,0,L|160:144,1,64,4|8,0:0|0:0,0:0:0:0:
288,80,19057,1,0,0:0:0:0:
160,48,19239,1,8,0:0:0:0:
288,208,19421,2,0,L|352:208,1,64,0|8,0:0|0:0,0:0:0:0:
224,144,19784,1,0,0:0:0:0:
352,112,19966,1,8,0:0:0:0:
208,80,20148,5,4,0:0:0:0:
150,102,20329,1,0,0:0:0:0:
138,162,20511,1,8,0:0:0:0:
181,205,20693,1,0,0:0:0:0:
304,192,20875,1,0,0:0:0:0:
361,214,21056,1,0,0:0:0:0:
373,274,21238,1,8,0:0:0:0:
330,317,21420,1,0,0:0:0:0:
192,320,21603,6,0,L|272:320,1,64,4|0,0:0|0:0,0:0:0:0:
128,320,21966,2,0,L|48:320,1,64,8|0,0:0|0:0,0:0:0:0:
192,240,22330,2,0,L|112:240,1,64,0|0,0:0|0:0,0:0:0:0:
256,240,22693,2,0,L|336:240,1,64,8|8,0:0|0:0,0:0:0:0:
192,192,23057,6,0,L|176:112,1,64,4|0,0:0|0:0,0:0:0:0:
96,96,23421,2,0,L|160:96,1,64,8|0,0:0|0:0,0:0:0:0:
288,144,23784,2,0,L|304:64,1,64,0|0,0:0|0:0,0:0:0:0:
384,48,24148,2,0,L|320:48,1,64,8|0,0:0|0:0,0:0:0:0:
176,48,24512,6,0,L|96:48,1,64,4|0,0:0|0:0,0:0:0:0:
240,112,24875,2,0,L|176:112,1,64,8|0,0:0|0:0,0:0:0:0:
304,144,25239,2,0,L|384:144,1,64,0|0,0:0|0:0,0:0:0:0:
240,208,25602,2,0,L|304:208,1,64,8|8,0:0|0:0,0:0:0:0:
48,320,25966,5,6,0:0:0:0:
160,288,26148,2,0,L|240:288,1,64,8|0,0:0|0:0,0:0:0:0:
80,240,26512,2,0,L|80:176,1,64,8|0,0:0|0:0,0:0:0:0:
224,160,26875,2,0,L|144:160,1,64,4|8,0:0|0:0,0:0:0:0:
16,160,27239,1,8,0:0:0:0:
272,272,27421,5,4,0:0:0:0:
160,240,27603,2,0,L|96:240,1,64,8|0,0:0|0:0,0:0:0:0:
256,208,27967,2,0,L|256:144,1,64,8|0,0:0|0:0,0:0:0:0:
96,112,28330,2,0,L|176:112,1,64,4|8,0:0|0:0,0:0:0:0:
320,112,28694,1,8,0:0:0:0:
64,176,28875,5,4,0:0:0:0:
176,192,29057,2,0,L|176:256,1,64,8|0,0:0|0:0,0:0:0:0:
336,288,29421,2,0,L|256:288,1,64,8|0,0:0|0:0,0:0:0:0:
448,256,29784,2,0,L|448:176,1,64,4|8,0:0|0:0,0:0:0:0:
288,192,30148,1,8,0:0:0:0:
32,192,30330,5,4,0:0:0:0:
192,176,30512,2,0,L|256:176,1,64,8|0,0:0|0:0,0:0:0:0:
96,144,30875,1,8,0:0:0:0:
256,208,31057,1,0,0:0:0:0:
416,192,31239,2,0,L|336:192,1,64,4|8,0:0|0:0,0:0:0:0:
192,192,31602,1,8,0:0:0:0:
464,320,31784,5,4,0:0:0:0:
352,288,31966,2,0,L|272:288,1,64,8|0,0:0|0:0,0:0:0:0:
432,240,32330,2,0,L|432:176,1,64,8|0,0:0|0:0,0:0:0:0:
288,160,32693,2,0,L|368:160,1,64,4|8,0:0|0:0,0:0:0:0:
496,160,33057,1,8,0:0:0:0:
240,272,33239,5,4,0:0:0:0:
352,240,33421,2,0,L|416:240,1,64,8|0,0:0|0:0,0:0:0:0:
256,208,33785,2,0,L|256:144,1,64,8|0,0:0|0:0,0:0:0:0:
416,112,34148,2,0,L|336:112,1,64,4|8,0:0|0:0,0:0:0:0:
192,112,34512,1,8,0:0:0:0:
448,176,34693,5,4,0:0:0:0:
336,192,34875,2,0,L|336:256,1,64,8|0,0:0|0:0,0:0:0:0:
176,288,35239,2,0,L|256:288,1,64,8|0,0:0|0:0,0:0:0:0:
64,256,35602,2,0,L|64:176,1,64,4|8,0:0|0:0,0:0:0:0:
224,192,35966,1,8,0:0:0:0:
480,192,36148,5,4,0:0:0:0:
320,176,36330,2,0,L|384:176,1,64,8|0,0:0|0:0,0:0:0:0:
224,64,36693,1,8,0:0:0:0:
384,128,36875,1,0,0:0:0:0:
224,128,37057,2,0,L|208:128,4,16,4|0|4|0|8,0:0|0:0|0:0|0:0|0:0,0:0:0:0:
368,128,37421,2,0,L|400:128,1,32,4|8,0:0|0:0,0:0:0:0:
192,288,37603,6,0,L|48:288,1,128,4|0,0:0|0:0,0:0:0:0:
208,240,37966,2,0,L|352:240,1,128,8|0,0:0|0:0,0:0:0:0:
80,224,38330,2,0,L|224:224,1,128,4|0,0:0|0:0,0:0:0:0:
352,176,38693,2,0,L|480:176,1,128,8|0,0:0|0:0,0:0:0:0:
224,128,39057,6,0,L|96:128,1,128,4|0,0:0|0:0,0:0:0:0:
240,208,39421,2,0,L|96:208,1,128,8|0,0:0|0:0,0:0:0:0:
368,160,39784,2,0,L|496:160,1,128,4|0,0:0|0:0,0:0:0:0:
352,240,40148,2,0,L|496:240,1,128,8|8,0:0|0:0,0:0:0:0:
208,336,40512,6,0,L|208:208,1,128,4|0,0:0|0:0,0:0:0:0:
48,176,40875,2,0,L|176:176,1,128,8|0,0:0|0:0,0:0:0:0:
432,272,41239,2,0,L|432:144,1,128,4|0,0:0|0:0,0:0:0:0:
272,112,41602,2,0,L|400:112,1,128,8|0,0:0|0:0,0:0:0:0:
128,128,41966,6,0,L|128:256,1,128,4|0,0:0|0:0,0:0:0:0:
288,288,42330,2,0,L|416:288,1,128,8|0,0:0|0:0,0:0:0:0:
160,240,42694,2,0,L|304:240,1,128,4|0,0:0|0:0,0:0:0:0:
448,240,43057,2,0,L|448:96,1,128,8|8,0:0|0:0,0:0:0:0:
192,112,43421,6,0,L|32:112,3,128,4|0|8|0,0:0|0:0|0:0|0:0,0:0:0:0:
320,112,44148,2,0,L|480:112,3,128,4|0|8|0,0:0|0:0|0:0|0:0,0:0:0:0:
192,176,44875,2,0,L|192:304,1,128,4|0,0:0|0:0,0:0:0:0:
32,336,45239,2,0,L|160:336,1,128,8|8,0:0|0:0,0:0:0:0:
432,336,45603,2,0,L|304:336,1,128,4|0,0:0|0:0,0:0:0:0:
464,304,45966,2,0,L|464:176,1,128,8|8,0:0|0:0,0:0:0:0:
176,192,46330,6,0,L|320:192,1,128,4|0,0:0|0:0,0:0:0:0:
160,160,46694,2,0,L|16:160,1,128,8|0,0:0|0:0,0:0:0:0:
288,128,47057,2,0,L|144:128,1,128,4|0,0:0|0:0,0:0:0:0:
304,96,47421,2,0,L|448:96,1,128,8|0,0:0|0:0,0:0:0:0:
144,96,47784,6,0,L|144:256,1,128,4|0,0:0|0:0,0:0:0:0:
272,256,48148,1,8,0:0:0:0:
448,288,48330,1,8,0:0:0:0:
192,96,48512,6,0,L|192:256,1,128,4|0,0:0|0:0,0:0:0:0:
320,256,48876,1,8,0:0:0:0:
144,272,49058,1,8,0:0:0:0:
448,320,49239,6,0,L|448:192,1,128,4|0,0:0|0:0,0:0:0:0:
336,176,49603,1,0,0:0:0:0:
208,192,49784,2,0,P|128:144|240:64,1,256,0|0,0:0|0:0,0:0:0:0:
320,48,50330,1,0,0:0:0:0:
432,208,50512,2,0,P|352:160|464:80,1,256,0|0,0:0|0:0,0:0:0:0:
320,48,51057,1,0,0:0:0:0:
64,64,51239,6,0,P|96:144|256:208,1,256,0|0,0:0|0:0,0:0:0:0:
128,224,51784,1,0,0:0:0:0:
256,208,51966,2,0,P|336:176|384:128,1,128,2|0,0:0|0:0,0:0:0:0:
256,64,52875,5,8,0:0:0:0:
195,76,52965,1,0,0:0:0:0:
175,133,53056,1,0,0:0:0:0:
213,181,53147,1,0,0:0:0:0:
304,192,53239,1,8,0:0:0:0:
364,204,53329,1,0,0:0:0:0:
384,261,53420,1,8,0:0:0:0:
346,309,53511,1,8,0:0:0:0:
176,336,53603,6,0,L|32:336,1,128,4|0,0:0|0:0,0:0:0:0:
112,336,53875,1,4,0:0:0:0:
288,320,53966,2,0,L|304:240,1,64,8|0,0:0|0:0,0:0:0:0:
112,256,54148,2,0,L|96:176,1,64,4|4,0:0|0:0,0:0:0:0:
288,192,54330,1,8,0:0:0:0:
333,151,54420,1,0,0:0:0:0:
322,91,54511,1,4,0:0:0:0:
265,69,54602,1,4,0:0:0:0:
176,48,54694,2,0,L|272:48,1,64,8|0,0:0|0:0,0:0:0:0:
416,48,54875,2,0,L|336:48,1,64,8|8,0:0|0:0,0:0:0:0:
160,96,55057,6,0,L|144:240,1,128,4|0,0:0|0:0,0:0:0:0:
224,240,55330,1,4,0:0:0:0:
400,256,55421,1,8,0:0:0:0:
445,214,55511,1,0,0:0:0:0:
438,153,55602,1,8,0:0:0:0:
384,124,55693,1,8,0:0:0:0:
160,96,55784,6,0,L|144:240,1,128,4|0,0:0|0:0,0:0:0:0:
224,240,56057,1,4,0:0:0:0:
400,256,56148,1,8,0:0:0:0:
445,214,56238,1,0,0:0:0:0:
438,153,56329,1,8,0:0:0:0:
384,124,56420,1,8,0:0:0:0:
176,112,56512,6,0,L|320:112,1,128,4|0,0:0|0:0,0:0:0:0:
240,112,56784,1,4,0:0:0:0:
64,160,56875,1,8,0:0:0:0:
18,201,56965,1,0,0:0:0:0:
31,261,57056,1,8,0:0:0:0:
89,281,57147,1,8,0:0:0:0:
256,128,57239,6,0,L|400:128,1,128,4|0,0:0|0:0,0:0:0:0:
320,128,57512,1,4,0:0:0:0:
144,176,57603,1,8,0:0:0:0:
99,217,57693,1,0,0:0:0:0:
112,277,57784,1,8,0:0:0:0:
170,297,57875,1,8,0:0:0:0:
336,160,57966,6,0,L|480:160,1,128,4|0,0:0|0:0,0:0:0:0:
400,160,58239,1,4,0:0:0:0:
224,208,58330,1,8,0:0:0:0:
178,249,58420,1,0,0:0:0:0:
191,309,58511,1,8,0:0:0:0:
249,329,58602,1,8,0:0:0:0:
416,240,58694,6,0,L|400:160,1,64,4|0,0:0|0:0,0:0:0:0:
336,144,58875,2,0,L|272:144,1,64,4|0,0:0|0:0,0:0:0:0:
112,128,59057,2,0,L|32:128,1,64,8|0,0:0|0:0,0:0:0:0:
128,80,59239,2,0,L|224:80,1,64,8|8,0:0|0:0,0:0:0:0:
400,96,59421,6,0,L|256:96,1,128,4|0,0:0|0:0,0:0:0:0:
208,96,59694,1,4,0:0:0:0:
368,160,59784,2,0,L|432:160,1,64,8|0,0:0|0:0,0:0:0:0:
272,208,59966,2,0,L|192:208,1,64,4|4,0:0|0:0,0:0:0:0:
384,320,60148,5,8,0:0:0:0:
404,260,60238,1,0,0:0:0:0:
376,204,60329,1,4,0:0:0:0:
317,184,60420,1,4,0:0:0:0:
224,160,60512,2,0,L|288:160,1,64,8|0,0:0|0:0,0:0:0:0:
448,128,60694,2,0,L|464:48,1,64,8|8,0:0|0:0,0:0:0:0:
256,64,60875,6,0,L|112:64,1,128,4|0,0:0|0:0,0:0:0:0:
192,64,61148,1,4,0:0:0:0:
352,64,61239,1,8,0:0:0:0:
416,64,61329,1,0,0:0:0:0:
480,64,61420,1,8,0:0:0:0:
416,64,61512,1,8,0:0:0:0:
240,144,61603,6,0,L|96:144,1,128,4|0,0:0|0:0,0:0:0:0:
176,144,61876,1,4,0:0:0:0:
336,144,61967,1,8,0:0:0:0:
400,144,62057,1,0,0:0:0:0:
464,144,62148,1,8,0:0:0:0:
400,144,62240,1,8,0:0:0:0:
224,272,62330,6,0,L|160:272,1,64,4|0,0:0|0:0,0:0:0:0:
256,240,62512,2,0,L|320:240,1,64,4|4,0:0|0:0,0:0:0:0:
480,176,62694,2,0,L|400:176,1,64,8|0,0:0|0:0,0:0:0:0:
256,160,62875,2,0,L|176:160,1,64,8|8,0:0|0:0,0:0:0:0:
352,64,63057,6,0,L|416:64,1,64,4|0,0:0|0:0,0:0:0:0:
256,64,63239,2,0,L|176:64,1,64,8|4,0:0|0:0,0:0:0:0:
16,144,63421,2,0,L|96:144,1,64,8|0,0:0|0:0,0:0:0:0:
240,128,63603,2,0,L|304:128,1,64,8|8,0:0|0:0,0:0:0:0:
96,208,63784,6,0,L|80:352,1,128,4|4,0:0|0:0,0:0:0:0:
256,224,64148,2,0,L|272:368,1,128,8|8,0:0|0:0,0:0:0:0:
208,352,64421,1,4,0:0:0:0:
400,336,64512,2,0,L|480:336,1,64,8|0,0:0|0:0,0:0:0:0:
384,304,64694,2,0,L|288:304,1,64,8|0,0:0|0:0,0:0:0:0:
112,272,64875,2,0,L|256:272,1,128,4|8,0:0|0:0,0:0:0:0:
304,272,65148,1,8,0:0:0:0:
96,224,65239,6,0,L|80:80,1,128,4|0,0:0|0:0,0:0:0:0:
160,96,65512,1,4,0:0:0:0:
320,80,65603,2,0,L|256:80,1,64,8|0,0:0|0:0,0:0:0:0:
96,144,65784,2,0,L|160:144,1,64,4|4,0:0|0:0,0:0:0:0:
336,144,65966,5,8,0:0:0:0:
328,206,66056,1,0,0:0:0:0:
289,255,66147,1,4,0:0:0:0:
229,276,66238,1,4,0:0:0:0:
144,272,66330,2,0,L|128:208,1,64,8|0,0:0|0:0,0:0:0:0:
320,176,66512,2,0,L|336:112,1,64,8|8,0:0|0:0,0:0:0:0:
144,80,66694,6,0,L|288:80,1,128,4|0,0:0|0:0,0:0:0:0:
352,80,66966,1,4,0:0:0:0:
192,176,67057,2,0,L|96:176,1,64,8|0,0:0|0:0,0:0:0:0:
208,128,67239,2,0,L|320:128,1,64,8|8,0:0|0:0,0:0:0:0:
432,80,67421,6,0,L|288:80,1,128,4|0,0:0|0:0,0:0:0:0:
224,80,67693,1,4,0:0:0:0:
384,176,67784,2,0,L|480:176,1,64,8|0,0:0|0:0,0:0:0:0:
368,128,67966,2,0,L|256:128,1,64,8|8,0:0|0:0,0:0:0:0:
128,256,68148,6,0,L|112:112,1,128,4|0,0:0|0:0,0:0:0:0:
192,112,68421,1,4,0:0:0:0:
352,48,68512,1,8,0:0:0:0:
288,48,68602,1,0,0:0:0:0:
224,48,68693,1,8,0:0:0:0:
160,48,68784,1,8,0:0:0:0:
320,288,68875,6,0,L|336:144,1,128,4|0,0:0|0:0,0:0:0:0:
256,144,69148,1,4,0:0:0:0:
96,80,69239,1,8,0:0:0:0:
160,80,69329,1,0,0:0:0:0:
224,80,69420,1,8,0:0:0:0:
288,80,69511,1,8,0:0:0:0:
128,256,69603,6,0,L|112:112,1,128,4|0,0:0|0:0,0:0:0:0:
192,112,69876,1,0,0:0:0:0:
352,48,69967,1,8,0:0:0:0:
288,48,70057,1,0,0:0:0:0:
224,48,70148,1,8,0:0:0:0:
160,48,70239,1,8,0:0:0:0:
336,112,70330,5,4,0:0:0:0:
393,134,70420,1,0,0:0:0:0:
405,194,70511,1,4,0:0:0:0:
362,237,70602,1,0,0:0:0:0:
176,240,70694,5,8,0:0:0:0:
132,196,70785,1,0,0:0:0:0:
145,136,70876,1,8,0:0:0:0:
202,114,70966,1,8,0:0:0:0:
448,304,71057,6,0,L|432:160,1,128,4|0,0:0|0:0,0:0:0:0:
352,160,71330,1,4,0:0:0:0:
176,144,71421,2,0,L|192:64,1,64,8|0,0:0|0:0,0:0:0:0:
368,96,71603,2,0,L|384:16,1,64,4|4,0:0|0:0,0:0:0:0:
192,48,71784,5,8,0:0:0:0:
131,56,71874,1,0,0:0:0:0:
112,114,71965,1,4,0:0:0:0:
155,157,72056,1,4,0:0:0:0:
240,176,72148,2,0,L|336:176,1,64,8|0,0:0|0:0,0:0:0:0:
128,240,72330,2,0,L|64:240,1,64,8|8,0:0|0:0,0:0:0:0:
256,304,72512,6,0,L|432:304,1,128,4|0,0:0|0:0,0:0:0:0:
320,304,72784,1,4,0:0:0:0:
144,304,72875,2,0,L|160:224,1,64,8|0,0:0|0:0,0:0:0:0:
240,224,73057,2,0,L|304:224,1,64,8|8,0:0|0:0,0:0:0:0:
144,144,73239,6,0,L|320:144,1,128,4|0,0:0|0:0,0:0:0:0:
208,144,73511,1,4,0:0:0:0:
32,144,73603,2,0,L|48:64,1,64,8|0,0:0|0:0,0:0:0:0:
128,64,73784,2,0,L|192:64,1,64,8|8,0:0|0:0,0:0:0:0:
352,208,73966,5,4,0:0:0:0:
416,208,74056,1,0,0:0:0:0:
352,208,74147,1,4,0:0:0:0:
288,208,74238,1,4,0:0:0:0:
96,208,74330,2,0,L|176:208,1,64,8|0,0:0|0:0,0:0:0:0:
336,192,74512,2,0,L|448:192,1,64,8|8,0:0|0:0,0:0:0:0:
208,160,74694,5,4,0:0:0:0:
144,160,74784,1,0,0:0:0:0:
80,160,74875,1,8,0:0:0:0:
16,160,74966,1,4,0:0:0:0:
192,96,75057,2,0,L|272:96,1,64,8|0,0:0|0:0,0:0:0:0:
80,64,75239,2,0,L|16:64,1,64,8|8,0:0|0:0,0:0:0:0:
240,48,75421,6,0,L|256:128,1,64,4|0,0:0|0:0,0:0:0:0:
176,128,75603,2,0,L|160:208,1,64,4|0,0:0|0:0,0:0:0:0:
336,144,75784,2,0,L|352:224,1,64,8|0,0:0|0:0,0:0:0:0:
176,256,75966,2,0,L|160:336,1,64,8|4,0:0|0:0,0:0:0:0:
352,336,76148,6,0,L|480:336,1,128,8|8,0:0|0:0,0:0:0:0:
416,336,76421,1,0,0:0:0:0:
224,320,76512,2,0,L|208:240,1,64,4|0,0:0|0:0,0:0:0:0:
400,256,76694,2,0,L|384:176,1,64,8|8,0:0|0:0,0:0:0:0:
192,208,76875,5,10,0:0:0:0:
136,182,76965,1,0,0:0:0:0:
135,122,77056,1,0,0:0:0:0:
190,95,77147,1,0,0:0:0:0:
288,96,77239,2,0,L|352:96,2,64,8|0|8,0:0|0:0|0:0,0:0:0:0:
144,160,77603,5,8,0:0:0:0:
320,176,77694,2,0,L|336:320,1,128,8|8,0:0|0:0,0:0:0:0:
144,208,77966,2,0,L|128:352,1,128,8|8,0:0|0:0,0:0:0:0:
400,336,78330,6,0,L|256:336,1,128,8|8,0:0|0:0,0:0:0:0:
256,272,78603,1,0,0:0:0:0:
352,240,78694,2,0,L|432:240,2,64,8|8|0,0:0|0:0|0:0,0:0:0:0:
176,192,79057,5,8,0:0:0:0:
256,176,79148,2,0,L|240:32,1,128,8|8,0:0|0:0,0:0:0:0:
160,160,79421,2,0,L|144:16,1,128,8|8,0:0|0:0,0:0:0:0:
416,272,79784,6,0,L|432:128,1,128,8|8,0:0|0:0,0:0:0:0:
352,144,80057,1,0,0:0:0:0:
256,112,80148,1,8,0:0:0:0:
320,112,80238,1,8,0:0:0:0:
384,112,80329,1,0,0:0:0:0:
256,64,80512,5,8,0:0:0:0:
96,96,80603,2,0,L|80:272,1,128,0|8,0:0|0:0,0:0:0:0:
272,144,80875,2,0,L|416:144,1,128,8|8,0:0|0:0,0:0:0:0:
144,144,81239,6,0,L|112:288,1,128,4|8,0:0|0:0,0:0:0:0:
112,208,81512,1,8,0:0:0:0:
208,208,81603,2,0,L|352:208,1,128,4|4,0:0|0:0,0:0:0:0:
352,128,81876,1,8,0:0:0:0:
128,176,81966,6,0,L|112:32,1,128,8|4,0:0|0:0,0:0:0:0:
192,32,82239,1,4,0:0:0:0:
272,192,82330,2,0,L|288:48,1,128,8|4,0:0|0:0,0:0:0:0:
208,48,82603,1,8,0:0:0:0:
416,96,82694,6,0,B|480:96|480:96|480:160,1,128,0|0,0:0|0:0,0:0:0:0:
400,160,82966,1,0,0:0:0:0:
320,176,83057,2,0,L|320:240,1,64,8|0,0:0|0:0,0:0:0:0:
400,256,83239,2,0,L|480:256,1,64,8|0,0:0|0:0,0:0:0:0:
272,320,83421,5,8,0:0:0:0:
272,240,83512,2,0,L|416:240,1,128,8|0,0:0|0:0,0:0:0:0:
320,192,83784,2,0,L|240:192,1,64,8|0,0:0|0:0,0:0:0:0:
352,144,83966,2,0,L|416:144,1,64,8|0,0:0|0:0,0:0:0:0:
208,128,84148,6,0,L|208:256,1,128,8|8,0:0|0:0,0:0:0:0:
288,256,84421,1,8,0:0:0:0:
208,288,84512,2,0,L|144:288,1,64,8|0,0:0|0:0,0:0:0:0:
208,224,84694,2,0,L|272:224,1,64,8|0,0:0|0:0,0:0:0:0:
48,208,84875,6,0,L|64:128,1,64,8|0,0:0|0:0,0:0:0:0:
240,160,85057,2,0,L|256:80,1,64,8|0,0:0|0:0,0:0:0:0:
432,176,85239,2,0,L|416:96,1,64,8|0,0:0|0:0,0:0:0:0:
336,128,85421,2,0,L|320:48,1,64,8|0,0:0|0:0,0:0:0:0:
144,48,85603,6,0,L|128:176,1,128,8|8,0:0|0:0,0:0:0:0:
208,192,85875,1,8,0:0:0:0:
128,272,85966,1,8,0:0:0:0:
72,249,86056,1,0,0:0:0:0:
74,189,86147,1,8,0:0:0:0:
131,170,86238,1,0,0:0:0:0:
304,128,86330,5,8,0:0:0:0:
224,96,86421,2,0,L|224:240,1,128,0|8,0:0|0:0,0:0:0:0:
400,240,86694,2,0,L|464:240,1,64,8|0,0:0|0:0,0:0:0:0:
288,288,86875,2,0,L|208:288,1,64,8|0,0:0|0:0,0:0:0:0:
384,272,87057,6,0,L|368:128,1,128,4|8,0:0|0:0,0:0:0:0:
208,224,87330,2,0,L|224:80,1,128,4|8,0:0|0:0,0:0:0:0:
384,80,87603,2,0,L|256:80,1,128,4|8,0:0|0:0,0:0:0:0:
96,144,87875,2,0,L|224:144,1,128,4|8,0:0|0:0,0:0:0:0:
384,192,88148,2,0,L|384:48,1,128,4|4,0:0|0:0,0:0:0:0:
304,64,88421,1,4,0:0:0:0:
96,64,88512,5,4,0:0:0:0:
240,80,88694,2,0,L|256:224,2,128,0|4|8,0:0|0:0|0:0,0:0:0:0:
384,80,89421,2,0,L|400:224,2,128,4|4|8,0:0|0:0|0:0,0:0:0:0:
240,80,90148,2,0,L|224:224,1,128,4|8,0:0|0:0,0:0:0:0:
368,224,90512,1,8,0:0:0:0:
96,304,90875,2,0,L|80:176,1,128,4|8,0:0|0:0,0:0:0:0:
224,176,91239,2,0,L|240:96,1,64,8|8,0:0|0:0,0:0:0:0:
48,96,91421,6,0,L|192:96,1,128,4|0,0:0|0:0,0:0:0:0:
336,96,91784,2,0,L|208:96,1,128,4|0,0:0|0:0,0:0:0:0:
368,144,92148,2,0,L|384:272,1,128,4|0,0:0|0:0,0:0:0:0:
224,272,92512,2,0,L|96:272,1,128,4|8,0:0|0:0,0:0:0:0:
384,256,92875,6,0,L|400:176,1,64,4|0,0:0|0:0,0:0:0:0:
304,192,93057,2,0,L|288:112,1,64,4|0,0:0|0:0,0:0:0:0:
464,160,93239,2,0,L|480:80,1,64,4|0,0:0|0:0,0:0:0:0:
288,80,93421,1,8,0:0:0:0:
256,80,93466,1,0,0:0:0:0:
224,80,93511,1,8,0:0:0:0:
384,80,93603,1,4,0:0:0:0:
416,80,93648,1,0,0:0:0:0:
448,80,93693,1,0,0:0:0:0:
416,80,93739,1,0,0:0:0:0:
384,80,93784,1,4,0:0:0:0:
64,80,93966,5,8,0:0:0:0:
64,176,94148,2,0,L|144:176,1,64,4|4,0:0|0:0,0:0:0:0:
304,272,94330,6,0,L|304:128,1,128,4|0,0:0|0:0,0:0:0:0:
224,128,94603,1,0,0:0:0:0:
48,272,94694,2,0,L|48:128,1,128,8|0,0:0|0:0,0:0:0:0:
128,128,94967,1,0,0:0:0:0:
208,112,95057,2,0,L|208:48,1,64,4|0,0:0|0:0,0:0:0:0:
272,112,95239,2,0,L|272:48,1,64,0|0,0:0|0:0,0:0:0:0:
208,112,95421,2,0,L|208:48,1,64,4|0,0:0|0:0,0:0:0:0:
272,112,95603,2,0,L|192:112,1,64,8|8,0:0|0:0,0:0:0:0:
32,176,95784,6,0,L|176:176,1,128,8|0,0:0|0:0,0:0:0:0:
224,176,96057,1,8,0:0:0:0:
400,256,96148,2,0,L|256:256,1,128,0|4,0:0|0:0,0:0:0:0:
432,208,96512,2,0,L|448:64,1,128,8|8,0:0|0:0,0:0:0:0:
176,176,96875,2,0,L|160:32,1,128,4|8,0:0|0:0,0:0:0:0:
432,32,97239,6,0,L|288:32,1,128,4|0,0:0|0:0,0:0:0:0:
240,32,97512,1,0,0:0:0:0:
400,96,97603,2,0,L|416:224,1,128,8|0,0:0|0:0,0:0:0:0:
352,240,97875,1,0,0:0:0:0:
192,240,97966,6,0,L|336:240,1,128,4|0,0:0|0:0,0:0:0:0:
176,176,98330,2,0,P|128:144|192:48,1,192,8|0,0:0|0:0,0:0:0:0:
272,64,98694,6,0,L|272:128,1,64,8|0,0:0|0:0,0:0:0:0:
336,96,98875,2,0,L|336:160,1,64,0|0,0:0|0:0,0:0:0:0:
272,64,99057,2,0,L|272:128,1,64,4|0,0:0|0:0,0:0:0:0:
336,96,99239,2,0,L|336:160,1,64,8|8,0:0|0:0,0:0:0:0:
272,64,99421,2,0,L|272:128,1,64,4|0,0:0|0:0,0:0:0:0:
336,176,99603,2,0,L|256:176,1,64,4|0,0:0|0:0,0:0:0:0:
176,208,99784,2,0,L|240:208,1,64,8|0,0:0|0:0,0:0:0:0:
336,240,99966,2,0,L|256:240,1,64,8|8,0:0|0:0,0:0:0:0:
48,320,100148,6,0,L|64:176,1,128,4|0,0:0|0:0,0:0:0:0:
128,192,100421,1,0,0:0:0:0:
288,192,100512,2,0,L|304:48,1,128,8|0,0:0|0:0,0:0:0:0:
240,64,100785,1,0,0:0:0:0:
144,80,100875,6,0,L|144:144,1,64,4|0,0:0|0:0,0:0:0:0:
208,144,101057,2,0,L|208:224,1,64,0|0,0:0|0:0,0:0:0:0:
144,80,101239,2,0,L|144:144,1,64,4|0,0:0|0:0,0:0:0:0:
208,144,101421,2,0,L|288:144,1,64,8|8,0:0|0:0,0:0:0:0:
448,160,101603,6,0,L|304:160,1,128,8|0,0:0|0:0,0:0:0:0:
288,96,101875,1,8,0:0:0:0:
464,128,101966,2,0,L|480:272,1,128,4|0,0:0|0:0,0:0:0:0:
336,304,102330,2,0,L|480:304,1,128,4|0,0:0|0:0,0:0:0:0:
288,272,102694,2,0,L|144:272,1,128,8|0,0:0|0:0,0:0:0:0:
416,240,103057,6,0,L|288:240,1,128,4|0,0:0|0:0,0:0:0:0:
224,240,103330,1,4,0:0:0:0:
64,208,103421,2,0,L|208:208,1,128,8|0,0:0|0:0,0:0:0:0:
256,208,103694,1,0,0:0:0:0:
96,160,103784,2,0,L|80:16,1,128,4|0,0:0|0:0,0:0:0:0:
256,128,104148,2,0,L|272:-16,1,128,8|0,0:0|0:0,0:0:0:0:
128,32,104512,6,0,L|272:32,1,128,4|0,0:0|0:0,0:0:0:0:
320,32,104784,1,0,0:0:0:0:
240,80,104875,2,0,L|240:160,1,64,4|0,0:0|0:0,0:0:0:0:
176,160,105057,2,0,L|176:224,1,64,8|8,0:0|0:0,0:0:0:0:
272,96,105239,2,0,L|272:176,1,64,8|0,0:0|0:0,0:0:0:0:
176,160,105421,2,0,L|240:160,1,64,4|0,0:0|0:0,0:0:0:0:
432,176,105603,1,8,0:0:0:0:
487,198,105693,1,0,0:0:0:0:
485,258,105784,1,8,0:0:0:0:
428,277,105875,1,0,0:0:0:0:
240,288,105966,6,0,L|384:288,2,128,4|0|8,0:0|0:0|0:0,0:0:0:0:
384,224,106512,2,0,L|448:224,1,64,0|0,0:0|0:0,0:0:0:0:
368,176,106694,1,0,0:0:0:0:
308,164,106784,1,0,0:0:0:0:
289,107,106875,1,4,0:0:0:0:
330,62,106966,1,0,0:0:0:0:
432,48,107057,2,0,L|288:48,1,128,8|8,0:0|0:0,0:0:0:0:
224,48,107330,1,8,0:0:0:0:
48,112,107421,6,0,L|64:256,1,128,4|0,0:0|0:0,0:0:0:0:
256,288,107694,2,0,L|270:160,1,128,8|0,0:0|0:0,0:0:0:0:
368,192,107966,2,0,L|353:64,1,128,4|4,0:0|0:0,0:0:0:0:
208,64,108330,1,8,0:0:0:0:
464,144,108512,2,0,L|320:144,1,128,8|8,0:0|0:0,0:0:0:0:
80,224,108875,6,0,L|240:224,1,128,4|0,0:0|0:0,0:0:0:0:
336,224,109239,1,8,0:0:0:0:
192,160,109421,2,0,L|128:160,1,64,4|0,0:0|0:0,0:0:0:0:
224,112,109603,1,0,0:0:0:0:
279,86,109693,1,0,0:0:0:0:
280,26,109784,1,4,0:0:0:0:
225,0,109875,1,0,0:0:0:0:
128,48,109966,2,0,L|256:48,1,128,8|0,0:0|0:0,0:0:0:0:
320,48,110239,1,0,0:0:0:0:
96,144,110330,6,0,L|96:208,1,64,4|0,0:0|0:0,0:0:0:0:
176,192,110512,2,0,L|176:256,1,64,0|0,0:0|0:0,0:0:0:0:
96,144,110694,2,0,L|96:208,1,64,8|0,0:0|0:0,0:0:0:0:
176,192,110876,2,0,L|176:256,1,64,0|0,0:0|0:0,0:0:0:0:
96,144,111057,2,0,L|96:224,1,64,4|0,0:0|0:0,0:0:0:0:
176,256,111239,2,0,L|96:256,1,64,8|8,0:0|0:0,0:0:0:0:
16,288,111421,2,0,L|112:288,1,64,8|0,0:0|0:0,0:0:0:0:
240,288,111603,2,0,L|320:288,1,64,8|0,0:0|0:0,0:0:0:0:
128,240,111784,6,0,L|128:80,1,128,4|0,0:0|0:0,0:0:0:0:
256,96,112148,1,8,0:0:0:0:
128,64,112330,2,0,L|48:64,1,64,4|0,0:0|0:0,0:0:0:0:
144,128,112512,2,0,L|208:128,1,64,0|0,0:0|0:0,0:0:0:0:
144,128,112694,2,0,L|80:128,1,64,4|0,0:0|0:0,0:0:0:0:
176,192,112875,2,0,L|304:192,1,128,8|8,0:0|0:0,0:0:0:0:
240,192,113148,1,8,0:0:0:0:
64,192,113239,6,0,L|80:48,1,128,8|8,0:0|0:0,0:0:0:0:
144,64,113512,1,8,0:0:0:0:
240,176,113603,2,0,L|256:32,1,128,4|0,0:0|0:0,0:0:0:0:
112,32,113966,2,0,L|240:32,1,128,8|4,0:0|0:0,0:0:0:0:
496,80,114330,2,0,L|352:80,1,128,8|0,0:0|0:0,0:0:0:0:
192,144,114694,6,0,L|336:144,2,128,4|0|8,0:0|0:0|0:0,0:0:0:0:
352,192,115239,2,0,L|448:192,1,64,0|0,0:0|0:0,0:0:0:0:
320,240,115421,2,0,L|176:240,2,128,0|4|8,0:0|0:0|0:0,0:0:0:0:
176,192,115966,2,0,L|112:192,1,64,0|0,0:0|0:0,0:0:0:0:
288,192,116148,6,0,L|304:48,1,128,4|0,0:0|0:0,0:0:0:0:
144,144,116512,2,0,L|128:0,1,128,8|0,0:0|0:0,0:0:0:0:
288,16,116875,1,4,0:0:0:0:
32,192,117057,2,0,L|96:192,1,64,8|8,0:0|0:0,0:0:0:0:
192,160,117239,2,0,L|64:160,1,128,4|8,0:0|0:0,0:0:0:0:
336,288,117603,6,0,L|464:288,1,128,6|0,0:0|0:0,0:0:0:0:
480,160,117966,1,4,0:0:0:0:
320,160,118148,2,0,L|32:160,1,256,8|0,0:0|0:0,0:0:0:0:
48,48,118694,1,4,0:0:0:0:
208,48,118875,6,0,L|496:48,1,256,8|0,0:0|0:0,0:0:0:0:
320,112,119421,1,4,0:0:0:0:
480,176,119603,2,0,L|192:176,1,256,8|0,0:0|0:0,0:0:0:0:
368,224,120148,1,4,0:0:0:0:
208,224,120330,1,8,0:0:0:0:
368,320,120512,6,0,L|384:192,1,128,4|0,0:0|0:0,0:0:0:0:
256,160,120875,1,8,0:0:0:0:
400,64,121057,2,0,P|464:128|368:256,1,256,0|0,0:0|0:0,0:0:0:0:
256,256,121603,1,8,0:0:0:0:
392,253,121784,6,0,P|468:161|400:64,1,256,0|0,0:0|0:0,0:0:0:0:
256,64,122330,1,8,0:0:0:0:
80,64,122512,2,0,P|96:160|272:224,1,256,0|4,0:0|0:0,0:0:0:0:
496,240,123057,1,8,0:0:0:0:
208,352,123239,6,0,B|80:352|80:352|80:224|80:224|208:224|208:224|208:96|208:96|80:96|80:96|80:224|80:224|208:224|208:224|208:352|208:352|80:352,1,1152,8|0,0:0|0:0,0:0:0:0:
128,304,124966,1,0,0:0:0:0:
80,288,125057,1,0,0:0:0:0:
128,272,125148,1,0,0:0:0:0:
80,256,125239,1,0,0:0:0:0:
128,240,125330,1,0,0:0:0:0:
80,224,125421,1,0,0:0:0:0:
128,208,125512,1,0,0:0:0:0:
80,192,125603,6,0,L|64:48,1,128,0|4,0:0|0:0,0:0:0:0:
208,48,125966,1,8,0:0:0:0:
480,352,126148,6,0,B|352:352|352:352|352:224|352:224|480:224|480:224|480:96|480:96|352:96|352:96|352:224|352:224|480:224|480:224|480:352|480:352|352:352,1,1152,8|0,0:0|0:0,0:0:0:0:
304,320,127875,1,0,0:0:0:0:
352,304,127966,1,0,0:0:0:0:
304,288,128057,1,0,0:0:0:0:
352,272,128148,1,0,0:0:0:0:
304,256,128239,1,0,0:0:0:0:
352,240,128330,1,0,0:0:0:0:
304,224,128421,1,0,0:0:0:0:
352,208,128512,6,0,L|512:208,1,128,0|4,0:0|0:0,0:0:0:0:
416,208,128784,1,4,0:0:0:0:
224,208,128875,2,0,L|64:208,1,128,8|4,0:0|0:0,0:0:0:0:
368,96,129239,6,0,L|384:240,1,128,4|0,0:0|0:0,0:0:0:0:
256,256,129603,1,8,0:0:0:0:
416,288,129784,2,0,L|416:224,1,64,4|4,0:0|0:0,0:0:0:0:
336,224,129966,2,0,L|336:80,1,128,8|4,0:0|0:0,0:0:0:0:
464,96,130330,1,8,0:0:0:0:
208,112,130512,6,0,P|128:128|48:288,1,256,8|4,0:0|0:0,0:0:0:0:
192,288,131057,2,0,L|48:288,1,128,8|4,0:0|0:0,0:0:0:0:
336,256,131421,2,0,L|352:96,1,128,8|4,0:0|0:0,0:0:0:0:
192,112,131784,2,0,L|336:112,1,128,4|8,0:0|0:0,0:0:0:0:
48,224,132148,6,0,L|176:224,1,128,4|0,0:0|0:0,0:0:0:0:
336,208,132512,1,8,0:0:0:0:
176,160,132694,2,0,L|176:96,1,64,4|4,0:0|0:0,0:0:0:0:
256,112,132875,2,0,L|256:-32,1,128,8|4,0:0|0:0,0:0:0:0:
112,32,133239,2,0,L|256:32,1,128,8|0,0:0|0:0,0:0:0:0:
96,96,133603,5,4,0:0:0:0:
352,160,133784,2,0,L|208:160,2,128,8|0|4,0:0|0:0|0:0,0:0:0:0:
288,160,134239,1,4,0:0:0:0:
208,224,134330,2,0,L|64:224,1,128,8|0,0:0|0:0,0:0:0:0:
240,288,134694,2,0,L|336:288,1,64,8|0,0:0|0:0,0:0:0:0:
208,240,134875,2,0,L|128:240,1,64,8|8,0:0|0:0,0:0:0:0:
352,224,135057,6,0,L|368:96,1,128,4|0,0:0|0:0,0:0:0:0:
496,64,135421,2,0,L|336:64,1,128,8|0,0:0|0:0,0:0:0:0:
224,224,135784,2,0,L|208:96,1,128,4|0,0:0|0:0,0:0:0:0:
80,64,136148,2,0,L|240:64,1,128,8|0,0:0|0:0,0:0:0:0:
464,128,136512,6,0,L|304:128,1,128,8|0,0:0|0:0,0:0:0:0:
480,192,136875,2,0,L|496:320,1,128,8|0,0:0|0:0,0:0:0:0:
304,144,137239,2,0,L|464:144,1,128,8|0,0:0|0:0,0:0:0:0:
288,208,137603,2,0,L|208:208,1,64,8|0,0:0|0:0,0:0:0:0:
320,176,137784,2,0,L|416:176,1,64,8|8,0:0|0:0,0:0:0:0:
192,272,137966,6,0,L|48:272,3,128,8|8|8|8,0:0|0:0|0:0|0:0,0:0:0:0:
320,272,138694,2,0,L|464:272,3,128,8|8|8|8,0:0|0:0|0:0|0:0,0:0:0:0:
192,272,139421,2,0,L|64:272,1,128,8|8,0:0|0:0,0:0:0:0:
320,272,139784,2,0,L|448:272,1,128,8|8,0:0|0:0,0:0:0:0:
192,208,140148,2,0,L|336:208,1,128,8|8,0:0|0:0,0:0:0:0:
64,96,140512,1,8,0:0:0:0:
448,96,140694,1,8,0:0:0:0:
192,96,140875,5,4,0:0:0:0:
336,96,141057,2,0,L|336:224,1,128,8|0,0:0|0:0,0:0:0:0:
336,96,141421,2,0,L|64:96,1,256,0|8,0:0|0:0,0:0:0:0:
192,96,141966,1,0,0:0:0:0:
80,176,142148,6,0,L|352:176,1,256,0|8,0:0|0:0,0:0:0:0:
464,176,142694,1,0,0:0:0:0:
336,176,142875,2,0,L|80:176,1,256,0|8,0:0|0:0,0:0:0:0:
208,176,143421,1,0,0:0:0:0:
80,176,143603,1,0,0:0:0:0:
384,320,143784,6,0,P|432:224|368:192,1,192,4|0,0:0|0:0,0:0:0:0:
288,192,144148,2,0,L|272:96,1,64,8|0,0:0|0:0,0:0:0:0:
368,144,144330,2,0,L|352:48,1,64,0|0,0:0|0:0,0:0:0:0:
272,80,144512,2,0,L|192:80,1,64,8|0,0:0|0:0,0:0:0:0:
288,32,144694,2,0,L|368:32,1,64,0|0,0:0|0:0,0:0:0:0:
256,160,144875,1,8,0:0:0:0:
200,185,144965,1,0,0:0:0:0:
199,245,145056,1,8,0:0:0:0:
254,272,145147,1,0,0:0:0:0:
432,304,145239,6,0,L|336:304,1,64,8|0,0:0|0:0,0:0:0:0:
288,304,145421,2,0,L|208:304,1,64,0|0,0:0|0:0,0:0:0:0:
304,256,145603,2,0,L|368:256,1,64,8|0,0:0|0:0,0:0:0:0:
192,224,145784,2,0,L|192:160,1,64,8|0,0:0|0:0,0:0:0:0:
368,144,145966,6,0,L|288:144,1,64,8|0,0:0|0:0,0:0:0:0:
224,96,146148,2,0,L|304:96,1,64,0|0,0:0|0:0,0:0:0:0:
368,48,146330,2,0,L|272:48,1,64,8|0,0:0|0:0,0:0:0:0:
112,48,146512,2,0,L|112:128,1,64,8|0,0:0|0:0,0:0:0:0:
304,160,146694,5,4,0:0:0:0:
304,304,147421,2,0,L|368:304,1,64,8|0,0:0|0:0,0:0:0:0:
288,256,147603,2,0,L|224:256,1,64,0|0,0:0|0:0,0:0:0:0:
416,208,147784,2,0,L|480:208,1,64,8|0,0:0|0:0,0:0:0:0:
272,160,147966,2,0,L|192:160,1,64,8|0,0:0|0:0,0:0:0:0:
400,112,148148,6,0,L|416:288,1,128,4|0,0:0|0:0,0:0:0:0:
336,256,148421,1,4,0:0:0:0:
160,288,148512,2,0,L|240:288,1,64,8|0,0:0|0:0,0:0:0:0:
400,336,148694,2,0,L|464:336,1,64,4|4,0:0|0:0,0:0:0:0:
272,288,148875,6,0,L|192:288,1,64,8|0,0:0|0:0,0:0:0:0:
288,240,149057,2,0,L|368:240,1,64,4|4,0:0|0:0,0:0:0:0:
176,208,149239,2,0,L|160:112,1,64,8|0,0:0|0:0,0:0:0:0:
336,128,149421,2,0,L|352:32,1,64,8|8,0:0|0:0,0:0:0:0:
128,64,149603,6,0,L|112:192,1,128,4|0,0:0|0:0,0:0:0:0:
192,192,149875,1,4,0:0:0:0:
352,224,149966,1,8,0:0:0:0:
288,224,150056,1,0,0:0:0:0:
224,224,150147,1,8,0:0:0:0:
160,224,150238,1,8,0:0:0:0:
384,64,150330,6,0,L|400:192,1,128,4|0,0:0|0:0,0:0:0:0:
320,192,150602,1,4,0:0:0:0:
160,224,150693,1,8,0:0:0:0:
224,224,150783,1,0,0:0:0:0:
288,224,150874,1,8,0:0:0:0:
352,224,150965,1,8,0:0:0:0:
144,176,151057,6,0,P|104:126|160:96,1,128,4|0,0:0|0:0,0:0:0:0:
224,96,151330,1,4,0:0:0:0:
48,160,151421,2,0,L|32:96,1,64,8|0,0:0|0:0,0:0:0:0:
112,80,151603,2,0,L|176:80,1,64,8|8,0:0|0:0,0:0:0:0:
368,176,151784,6,0,P|408:126|352:96,1,128,4|0,0:0|0:0,0:0:0:0:
288,96,152057,1,4,0:0:0:0:
464,160,152148,2,0,L|480:96,1,64,8|0,0:0|0:0,0:0:0:0:
400,80,152330,2,0,L|336:80,1,64,8|8,0:0|0:0,0:0:0:0:
144,176,152512,6,0,P|104:126|160:96,1,128,4|0,0:0|0:0,0:0:0:0:
224,96,152785,1,0,0:0:0:0:
48,160,152876,2,0,L|32:96,1,64,8|0,0:0|0:0,0:0:0:0:
112,80,153058,2,0,L|176:80,1,64,8|8,0:0|0:0,0:0:0:0:
368,176,153239,6,0,L|288:176,1,64,4|0,0:0|0:0,0:0:0:0:
224,208,153421,2,0,L|288:208,1,64,4|0,0:0|0:0,0:0:0:0:
448,272,153603,2,0,L|384:272,1,64,8|0,0:0|0:0,0:0:0:0:
224,272,153784,2,0,L|144:272,1,64,8|8,0:0|0:0,0:0:0:0:
368,240,153966,6,0,L|384:112,1,128,4|0,0:0|0:0,0:0:0:0:
304,112,154239,1,4,0:0:0:0:
144,112,154330,2,0,L|48:112,1,64,8|0,0:0|0:0,0:0:0:0:
240,64,154512,2,0,L|304:64,1,64,4|4,0:0|0:0,0:0:0:0:
112,176,154694,5,8,0:0:0:0:
56,198,154784,1,0,0:0:0:0:
58,258,154875,1,4,0:0:0:0:
115,277,154966,1,4,0:0:0:0:
288,272,155057,2,0,L|352:272,1,64,8|0,0:0|0:0,0:0:0:0:
192,240,155239,2,0,L|80:240,1,64,8|8,0:0|0:0,0:0:0:0:
320,224,155421,6,0,L|336:96,1,128,4|0,0:0|0:0,0:0:0:0:
256,96,155694,1,4,0:0:0:0:
448,224,155784,1,8,0:0:0:0:
459,162,155874,1,0,0:0:0:0:
431,106,155965,1,8,0:0:0:0:
374,79,156056,1,8,0:0:0:0:
192,224,156148,6,0,L|176:96,1,128,4|0,0:0|0:0,0:0:0:0:
256,96,156421,1,4,0:0:0:0:
64,224,156511,1,8,0:0:0:0:
52,162,156603,1,0,0:0:0:0:
80,106,156694,1,8,0:0:0:0:
137,79,156783,1,8,0:0:0:0:
336,160,156875,6,0,L|352:240,1,64,4|0,0:0|0:0,0:0:0:0:
272,224,157057,2,0,L|256:304,1,64,4|4,0:0|0:0,0:0:0:0:
448,256,157239,2,0,L|464:336,1,64,8|0,0:0|0:0,0:0:0:0:
288,352,157421,2,0,L|224:352,1,64,8|8,0:0|0:0,0:0:0:0:
48,336,157603,6,0,L|64:256,1,64,4|0,0:0|0:0,0:0:0:0:
224,240,157784,2,0,L|304:240,1,64,8|4,0:0|0:0,0:0:0:0:
464,192,157966,2,0,L|368:192,1,64,8|0,0:0|0:0,0:0:0:0:
192,144,158148,2,0,L|288:144,1,64,8|8,0:0|0:0,0:0:0:0:
437,226,158330,5,4,0:0:0:0:
464,176,158420,1,0,0:0:0:0:
437,226,158511,1,4,0:0:0:0:
380,244,158602,1,0,0:0:0:0:
160,272,158694,2,0,L|240:272,1,64,8|0,0:0|0:0,0:0:0:0:
448,304,158875,2,0,L|384:304,1,64,8|4,0:0|0:0,0:0:0:0:
160,320,159057,6,0,L|144:224,1,64,8|0,0:0|0:0,0:0:0:0:
240,256,159239,2,0,L|224:160,1,64,8|0,0:0|0:0,0:0:0:0:
48,192,159421,2,0,L|32:48,1,128,4|8,0:0|0:0,0:0:0:0:
112,48,159694,1,8,0:0:0:0:
304,64,159784,6,0,L|176:64,1,128,4|0,0:0|0:0,0:0:0:0:
240,64,160057,1,4,0:0:0:0:
432,96,160148,2,0,L|416:176,1,64,8|0,0:0|0:0,0:0:0:0:
224,192,160330,2,0,L|112:192,1,64,4|4,0:0|0:0,0:0:0:0:
352,304,160512,5,8,0:0:0:0:
397,264,160602,1,0,0:0:0:0:
383,204,160693,1,4,0:0:0:0:
324,190,160784,1,4,0:0:0:0:
144,192,160875,2,0,L|160:112,1,64,8|0,0:0|0:0,0:0:0:0:
336,96,161057,2,0,L|400:96,1,64,8|8,0:0|0:0,0:0:0:0:
224,80,161239,6,0,L|80:80,1,128,4|0,0:0|0:0,0:0:0:0:
160,80,161512,1,4,0:0:0:0:
336,160,161603,1,8,0:0:0:0:
398,163,161693,1,0,0:0:0:0:
437,211,161784,1,8,0:0:0:0:
428,273,161875,1,8,0:0:0:0:
256,96,161966,6,0,L|112:96,1,128,4|0,0:0|0:0,0:0:0:0:
192,96,162239,1,4,0:0:0:0:
368,176,162330,1,8,0:0:0:0:
430,179,162420,1,0,0:0:0:0:
469,227,162511,1,8,0:0:0:0:
460,289,162602,1,8,0:0:0:0:
272,320,162694,6,0,L|256:176,1,128,4|0,0:0|0:0,0:0:0:0:
336,176,162966,1,4,0:0:0:0:
160,144,163057,2,0,L|80:144,1,64,8|0,0:0|0:0,0:0:0:0:
80,81,163239,2,0,L|96:145,1,64,8|8,0:0|0:0,0:0:0:0:
272,320,163421,6,0,L|288:176,1,128,4|0,0:0|0:0,0:0:0:0:
208,176,163693,1,4,0:0:0:0:
384,144,163784,2,0,L|464:144,1,64,8|0,0:0|0:0,0:0:0:0:
464,81,163966,2,0,L|448:145,1,64,8|8,0:0|0:0,0:0:0:0:
272,320,164148,6,0,L|256:176,1,128,4|0,0:0|0:0,0:0:0:0:
336,176,164420,1,4,0:0:0:0:
160,144,164512,2,0,L|80:144,1,64,8|0,0:0|0:0,0:0:0:0:
80,81,164693,2,0,L|96:145,1,64,8|8,0:0|0:0,0:0:0:0:
272,144,164875,6,0,L|352:144,1,64,4|0,0:0|0:0,0:0:0:0:
256,192,165057,2,0,L|240:272,1,64,4|0,0:0|0:0,0:0:0:0:
416,272,165239,2,0,L|480:272,1,64,8|0,0:0|0:0,0:0:0:0:
304,288,165421,2,0,L|224:288,1,64,8|8,0:0|0:0,0:0:0:0:
64,272,165603,6,0,L|208:272,1,128,4|0,0:0|0:0,0:0:0:0:
256,272,165875,1,4,0:0:0:0:
96,208,165966,2,0,L|16:208,1,64,8|0,0:0|0:0,0:0:0:0:
192,160,166148,2,0,L|288:160,1,64,4|4,0:0|0:0,0:0:0:0:
432,160,166330,5,8,0:0:0:0:
463,108,166420,1,0,0:0:0:0:
427,60,166511,1,4,0:0:0:0:
368,48,166602,1,4,0:0:0:0:
192,32,166694,2,0,L|112:32,1,64,8|0,0:0|0:0,0:0:0:0:
304,48,166875,2,0,L|384:48,1,64,8|8,0:0|0:0,0:0:0:0:
160,144,167057,6,0,L|144:272,1,128,4|0,0:0|0:0,0:0:0:0:
224,272,167330,1,4,0:0:0:0:
384,208,167421,2,0,L|304:208,1,64,8|0,0:0|0:0,0:0:0:0:
240,176,167603,2,0,L|304:176,1,64,8|8,0:0|0:0,0:0:0:0:
464,128,167784,6,0,L|480:256,1,128,4|0,0:0|0:0,0:0:0:0:
400,256,168057,1,4,0:0:0:0:
240,192,168148,2,0,L|320:192,1,64,8|0,0:0|0:0,0:0:0:0:
384,160,168330,2,0,L|320:160,1,64,8|8,0:0|0:0,0:0:0:0:
160,176,168512,6,0,L|64:176,1,64,4|0,0:0|0:0,0:0:0:0:
192,208,168694,2,0,L|288:208,1,64,4|4,0:0|0:0,0:0:0:0:
432,256,168875,2,0,L|336:256,1,64,8|0,0:0|0:0,0:0:0:0:
192,288,169057,2,0,L|128:288,1,64,8|8,0:0|0:0,0:0:0:0:
304,240,169239,6,0,L|384:240,1,64,4|0,0:0|0:0,0:0:0:0:
288,208,169421,2,0,L|192:208,1,64,8|4,0:0|0:0,0:0:0:0:
48,176,169603,2,0,L|128:176,1,64,8|0,0:0|0:0,0:0:0:0:
304,144,169784,2,0,L|224:144,1,64,8|8,0:0|0:0,0:0:0:0:
64,160,169966,5,4,0:0:0:0:
78,221,170056,1,0,0:0:0:0:
125,263,170147,1,4,0:0:0:0:
188,270,170238,1,0,0:0:0:0:
368,224,170330,2,0,L|288:224,1,64,8|0,0:0|0:0,0:0:0:0:
128,192,170512,2,0,L|224:192,1,64,8|4,0:0|0:0,0:0:0:0:
400,144,170694,6,0,L|256:144,1,128,8|8,0:0|0:0,0:0:0:0:
336,144,170966,1,0,0:0:0:0:
496,96,171057,2,0,L|352:96,1,128,4|8,0:0|0:0,0:0:0:0:
80,144,171421,6,0,L|80:208,2,64,10|0|0,0:0|0:0|0:0,0:0:0:0:
160,144,171694,1,0,0:0:0:0:
256,144,171784,1,8,0:0:0:0:
192,144,171874,1,0,0:0:0:0:
128,144,171965,1,8,0:0:0:0:
272,224,172148,5,8,0:0:0:0:
432,176,172239,2,0,L|288:176,1,128,8|8,0:0|0:0,0:0:0:0:
144,128,172512,2,0,L|288:128,1,128,8|8,0:0|0:0,0:0:0:0:
16,112,172875,5,8,0:0:0:0:
160,112,173057,2,0,L|240:112,1,64,8|0,0:0|0:0,0:0:0:0:
64,192,173239,2,0,L|48:272,1,64,8|8,0:0|0:0,0:0:0:0:
128,272,173421,1,0,0:0:0:0:
288,272,173603,5,8,0:0:0:0:
368,256,173694,2,0,L|352:112,1,128,8|8,0:0|0:0,0:0:0:0:
272,176,173966,2,0,L|416:176,1,128,8|8,0:0|0:0,0:0:0:0:
144,128,174330,6,0,L|0:128,1,128,8|8,0:0|0:0,0:0:0:0:
96,128,174603,1,0,0:0:0:0:
16,96,174694,1,8,0:0:0:0:
80,96,174784,1,8,0:0:0:0:
144,96,174875,1,0,0:0:0:0:
304,240,175057,5,8,0:0:0:0:
464,128,175148,2,0,L|320:128,1,128,0|8,0:0|0:0,0:0:0:0:
176,64,175421,2,0,L|304:64,1,128,8|8,0:0|0:0,0:0:0:0:
16,208,175784,6,0,L|176:208,1,128,4|8,0:0|0:0,0:0:0:0:
224,208,176057,1,8,0:0:0:0:
384,208,176148,2,0,L|368:80,1,128,4|4,0:0|0:0,0:0:0:0:
288,80,176421,1,8,0:0:0:0:
496,208,176512,6,0,L|336:208,1,128,8|4,0:0|0:0,0:0:0:0:
288,208,176785,1,4,0:0:0:0:
128,208,176876,2,0,L|256:208,1,128,8|4,0:0|0:0,0:0:0:0:
272,128,177149,1,8,0:0:0:0:
48,112,177239,6,0,L|32:256,1,128,0|0,0:0|0:0,0:0:0:0:
112,256,177512,1,0,0:0:0:0:
208,256,177603,2,0,L|288:256,2,64,8|0|8,0:0|0:0|0:0,0:0:0:0:
336,208,177966,1,8,0:0:0:0:
496,176,178057,2,0,L|368:176,1,128,8|0,0:0|0:0,0:0:0:0:
208,128,178330,2,0,L|192:256,1,128,8|8,0:0|0:0,0:0:0:0:
464,288,178694,6,0,L|336:288,1,128,8|8,0:0|0:0,0:0:0:0:
320,224,178966,1,8,0:0:0:0:
400,208,179057,2,0,L|416:128,1,64,8|0,0:0|0:0,0:0:0:0:
320,128,179239,1,8,0:0:0:0:
32,144,179421,6,0,L|112:144,1,64,8|0,0:0|0:0,0:0:0:0:
256,144,179603,2,0,L|320:144,1,64,8|0,0:0|0:0,0:0:0:0:
480,144,179784,2,0,L|416:144,1,64,8|0,0:0|0:0,0:0:0:0:
336,144,179966,2,0,L|240:144,1,64,8|0,0:0|0:0,0:0:0:0:
80,208,180148,6,0,L|96:352,1,128,8|8,0:0|0:0,0:0:0:0:
176,336,180421,1,8,0:0:0:0:
94,335,180512,2,0,L|84:254,1,64,8|0,0:0|0:0,0:0:0:0:
166,266,180694,1,8,0:0:0:0:
304,256,180875,1,8,0:0:0:0:
144,192,180966,2,0,L|288:192,1,128,0|8,0:0|0:0,0:0:0:0:
448,160,181239,2,0,L|368:160,1,64,8|0,0:0|0:0,0:0:0:0:
224,160,181421,2,0,L|160:160,1,64,8|0,0:0|0:0,0:0:0:0:
336,112,181603,6,0,L|416:112,2,64,4|0|8,0:0|0:0|0:0,0:0:0:0:
176,80,181875,1,4,0:0:0:0:
240,80,181965,1,0,0:0:0:0:
304,80,182056,1,8,0:0:0:0:
144,112,182148,2,0,L|64:112,2,64,4|0|8,0:0|0:0|0:0,0:0:0:0:
304,160,182421,2,0,L|384:160,2,64,4|0|8,0:0|0:0|0:0,0:0:0:0:
96,224,182694,2,0,L|256:224,1,128,4|4,0:0|0:0,0:0:0:0:
496,224,183057,6,0,L|368:224,2,128,4|0|4,0:0|0:0|0:0,0:0:0:0:
352,192,183603,2,0,P|273:132|352:29,1,256,8|4,0:0|0:0,0:0:0:0:
496,48,184148,1,4,0:0:0:0:
352,192,184330,2,0,P|273:132|352:29,1,256,8|4,0:0|0:0,0:0:0:0:
496,48,184875,1,8,0:0:0:0:
208,208,185057,2,0,P|129:148|208:45,1,256,8|4,0:0|0:0,0:0:0:0:
352,48,185603,1,8,0:0:0:0:
80,64,185784,2,0,L|64:160,1,64,8|8,0:0|0:0,0:0:0:0:
256,144,185966,6,0,L|272:288,1,128,4|0,0:0|0:0,0:0:0:0:
128,288,186330,1,4,0:0:0:0:
272,304,186512,1,0,0:0:0:0:
128,224,186694,2,0,L|112:96,1,128,4|0,0:0|0:0,0:0:0:0:
256,80,187057,1,4,0:0:0:0:
80,48,187239,1,8,0:0:0:0:
352,128,187421,6,0,L|416:128,1,64,4|0,0:0|0:0,0:0:0:0:
224,176,187603,2,0,L|208:256,1,64,4|0,0:0|0:0,0:0:0:0:
304,256,187784,2,0,L|368:256,1,64,4|0,0:0|0:0,0:0:0:0:
144,256,187966,2,0,L|112:256,2,32,8|0|8,0:0|0:0|0:0,0:0:0:0:
336,192,188148,2,0,L|368:192,1,32,4|0,0:0|0:0,0:0:0:0:
384,144,188239,1,0,0:0:0:0:
368,192,188284,2,0,L|336:192,1,32,0|4,0:0|0:0,0:0:0:0:
16,176,188512,1,8,0:0:0:0:
80,272,188875,6,0,L|208:272,1,128,2|0,0:0|0:0,0:0:0:0:
240,208,189148,1,0,0:0:0:0:
208,272,189239,2,0,L|80:272,1,128,0|0,0:0|0:0,0:0:0:0:
64,208,189512,1,0,0:0:0:0:
80,144,189603,2,0,L|160:144,2,64,0|0|0,0:0|0:0|0:0,0:0:0:0:
208,144,189966,2,0,L|352:144,1,128,0|0,0:0|0:0,0:0:0:0:
352,80,190239,1,0,0:0:0:0:
336,32,190330,6,0,L|192:32,1,128,0|0,0:0|0:0,0:0:0:0:
336,128,190694,2,0,L|352:192,2,64,0|0|0,0:0|0:0|0:0,0:0:0:0:
208,160,191057,2,0,L|352:160,1,128,0|0,0:0|0:0,0:0:0:0:
208,256,191421,2,0,L|192:320,2,64,0|0|0,0:0|0:0|0:0,0:0:0:0:
352,256,191784,6,0,L|352:112,1,128,0|0,0:0|0:0,0:0:0:0:
288,112,192057,1,0,0:0:0:0:
224,208,192148,2,0,L|224:64,1,128,0|0,0:0|0:0,0:0:0:0:
384,64,192512,2,0,L|256:64,1,128,0|0,0:0|0:0,0:0:0:0:
224,112,192784,1,0,0:0:0:0:
256,64,192875,2,0,L|384:64,1,128,0|0,0:0|0:0,0:0:0:0:
224,288,193239,6,0,L|224:224,1,64,0|0,0:0|0:0,0:0:0:0:
208,208,193421,2,0,L|208:128,1,64,0|0,0:0|0:0,0:0:0:0:
304,224,193603,2,0,L|304:160,1,64,0|0,0:0|0:0,0:0:0:0:
288,144,193785,2,0,L|288:64,1,64,0|0,0:0|0:0,0:0:0:0:
384,288,193966,6,0,L|384:224,1,64,0|0,0:0|0:0,0:0:0:0:
368,208,194148,2,0,L|368:128,1,64,0|0,0:0|0:0,0:0:0:0:
256,128,194330,2,0,L|96:128,1,128,0|0,0:0|0:0,0:0:0:0:
192,128,194603,1,0,0:0:0:0:
432,272,194694,6,0,L|304:272,1,128,0|0,0:0|0:0,0:0:0:0:
272,208,194967,1,0,0:0:0:0:
304,272,195058,2,0,L|432:272,1,128,0|0,0:0|0:0,0:0:0:0:
448,208,195331,1,0,0:0:0:0:
432,144,195422,2,0,L|352:144,2,64,0|0|0,0:0|0:0|0:0,0:0:0:0:
304,144,195785,2,0,L|160:144,1,128,0|0,0:0|0:0,0:0:0:0:
160,80,196058,1,0,0:0:0:0:
176,32,196149,6,0,L|320:32,1,128,0|0,0:0|0:0,0:0:0:0:
176,128,196513,2,0,L|160:192,2,64,0|0|0,0:0|0:0|0:0,0:0:0:0:
304,160,196876,2,0,L|160:160,1,128,0|0,0:0|0:0,0:0:0:0:
304,256,197240,2,0,L|320:320,2,64,0|0|0,0:0|0:0|0:0,0:0:0:0:
160,256,197603,6,0,L|160:112,1,128,0|0,0:0|0:0,0:0:0:0:
224,112,197876,1,0,0:0:0:0:
288,208,197967,2,0,L|288:64,1,128,0|0,0:0|0:0,0:0:0:0:
128,64,198331,2,0,L|256:64,1,128,0|0,0:0|0:0,0:0:0:0:
288,112,198603,1,0,0:0:0:0:
256,64,198694,2,0,L|128:64,1,128,0|0,0:0|0:0,0:0:0:0:
288,288,199058,6,0,L|288:224,1,64,0|0,0:0|0:0,0:0:0:0:
304,208,199240,2,0,L|304:128,1,64,0|0,0:0|0:0,0:0:0:0:
208,224,199422,2,0,L|208:160,1,64,0|0,0:0|0:0,0:0:0:0:
224,144,199604,2,0,L|224:64,1,64,0|0,0:0|0:0,0:0:0:0:
128,288,199785,6,0,L|128:224,1,64,4|0,0:0|0:0,0:0:0:0:
320,224,199967,2,0,L|320:144,1,64,4|8,0:0|0:0,0:0:0:0:
128,128,200149,2,0,L|288:128,1,128,4|8,0:0|0:0,0:0:0:0:
320,128,200422,1,8,0:0:0:0:
96,272,200512,6,0,L|96:144,1,128,4|0,0:0|0:0,0:0:0:0:
256,128,200875,1,8,0:0:0:0:
96,64,201057,2,0,L|160:64,1,64,0|0,0:0|0:0,0:0:0:0:
256,64,201239,1,0,0:0:0:0:
192,64,201329,1,0,0:0:0:0:
128,64,201420,1,4,0:0:0:0:
256,192,201603,2,0,L|384:192,1,128,8|0,0:0|0:0,0:0:0:0:
112,288,201966,6,0,L|256:288,1,128,4|0,0:0|0:0,0:0:0:0:
400,272,202330,1,8,0:0:0:0:
240,208,202512,2,0,L|240:128,1,64,4|4,0:0|0:0,0:0:0:0:
336,128,202694,2,0,L|400:128,2,64,8|0|4,0:0|0:0|0:0,0:0:0:0:
192,96,203057,2,0,L|320:96,1,128,8|0,0:0|0:0,0:0:0:0:
48,192,203421,6,0,L|48:272,1,64,4|0,0:0|0:0,0:0:0:0:
96,304,203603,2,0,L|192:304,1,64,0|0,0:0|0:0,0:0:0:0:
256,256,203784,2,0,L|176:256,1,64,8|0,0:0|0:0,0:0:0:0:
112,208,203966,2,0,L|192:208,1,64,0|0,0:0|0:0,0:0:0:0:
272,176,204148,6,0,L|272:112,1,64,4|0,0:0|0:0,0:0:0:0:
224,64,204330,2,0,L|128:64,1,64,4|0,0:0|0:0,0:0:0:0:
256,32,204512,2,0,L|320:32,1,64,8|0,0:0|0:0,0:0:0:0:
240,80,204694,2,0,L|176:80,1,64,0|0,0:0|0:0,0:0:0:0:
384,128,204875,6,0,L|400:208,2,64,4|0|0,0:0|0:0|0:0,0:0:0:0:
304,112,205148,1,0,0:0:0:0:
208,128,205239,2,0,L|192:208,2,64,8|0|0,0:0|0:0|0:0,0:0:0:0:
288,112,205512,1,0,0:0:0:0:
192,80,205603,6,0,L|48:80,1,128,0|4,0:0|0:0,0:0:0:0:
128,80,205875,1,0,0:0:0:0:
288,80,205966,2,0,L|160:80,1,128,8|8,0:0|0:0,0:0:0:0:
416,272,206330,6,0,L|416:144,1,128,4|0,0:0|0:0,0:0:0:0:
256,128,206693,1,8,0:0:0:0:
416,64,206875,2,0,L|480:64,1,64,0|0,0:0|0:0,0:0:0:0:
384,64,207057,1,0,0:0:0:0:
320,64,207148,1,0,0:0:0:0:
256,64,207238,1,4,0:0:0:0:
416,192,207421,2,0,L|288:192,1,128,8|0,0:0|0:0,0:0:0:0:
16,288,207784,6,0,L|160:288,1,128,4|0,0:0|0:0,0:0:0:0:
288,288,208148,1,8,0:0:0:0:
144,224,208330,2,0,L|144:144,1,64,4|4,0:0|0:0,0:0:0:0:
224,112,208512,2,0,L|160:112,2,64,8|0|4,0:0|0:0|0:0,0:0:0:0:
368,96,208875,2,0,L|240:96,1,128,8|0,0:0|0:0,0:0:0:0:
496,192,209239,6,0,L|496:272,1,64,4|0,0:0|0:0,0:0:0:0:
416,288,209421,2,0,L|320:288,1,64,0|0,0:0|0:0,0:0:0:0:
256,240,209603,1,8,0:0:0:0:
316,221,209693,1,0,0:0:0:0:
362,177,209784,1,0,0:0:0:0:
383,117,209875,1,0,0:0:0:0:
304,80,209966,6,0,L|224:80,1,64,0|0,0:0|0:0,0:0:0:0:
320,112,210148,2,0,L|416:112,1,64,4|0,0:0|0:0,0:0:0:0:
288,160,210330,1,8,0:0:0:0:
226,174,210420,1,0,0:0:0:0:
176,214,210511,1,0,0:0:0:0:
147,270,210602,1,0,0:0:0:0:
352,320,210694,6,0,L|352:240,1,64,4|0,0:0|0:0,0:0:0:0:
272,240,210875,1,0,0:0:0:0:
448,240,210966,2,0,L|448:160,1,64,4|0,0:0|0:0,0:0:0:0:
368,160,211147,1,0,0:0:0:0:
192,224,211239,6,0,L|192:144,1,64,4|0,0:0|0:0,0:0:0:0:
272,144,211420,1,0,0:0:0:0:
96,144,211512,2,0,L|96:64,1,64,4|4,0:0|0:0,0:0:0:0:
176,64,211694,1,0,0:0:0:0:
352,48,211784,2,0,L|288:48,1,64,4|0,0:0|0:0,0:0:0:0:
208,48,211966,2,0,L|112:48,1,64,4|4,0:0|0:0,0:0:0:0:
352,320,212148,6,0,P|417:260|336:216,4,192,10|0|0|0|0,0:0|0:0|0:0|0:0|0:0,0:0:0:0:
240,320,213421,1,0,0:0:0:0:
80,320,213603,6,0,P|96:224|240:144,1,256,8|0,0:0|0:0,0:0:0:0:
96,96,214148,1,0,0:0:0:0:
256,304,214330,2,0,P|240:208|96:128,1,256,0|0,0:0|0:0,0:0:0:0:
240,80,214875,1,0,0:0:0:0:
496,16,215057,6,0,B|496:352|496:352|496:80|496:80|496:304|496:304|496:112|496:112|496:160|496:160|480:16|346:-14|192:16|176:160,1,1536,8|0,0:0|0:0,0:0:0:0:
304,144,217421,2,0,L|320:304,1,128,0|0,0:0|0:0,0:0:0:0:
192,304,217784,1,0,0:0:0:0:
48,288,217966,6,0,P|105:224|32:144,4,192,8|0|0|0|0,0:0|0:0|0:0|0:0|0:0,0:0:0:0:
144,288,219239,1,0,0:0:0:0:
288,288,219421,6,0,P|352:240|272:96,1,256,8|0,0:0|0:0,0:0:0:0:
176,96,219966,1,0,0:0:0:0:
294,99,220148,2,0,P|364:196|288:288,1,256,0|0,0:0|0:0,0:0:0:0:
160,288,220694,1,0,0:0:0:0:
368,288,220875,6,0,B|382:161|382:161|253:166|253:166|236:41|236:41|368:41|368:41|358:167|358:167|229:171|229:171|354:179,1,896,8|0,0:0|0:0,0:0:0:0:
208,272,222330,2,0,B|80:272|80:272|224:272,1,256,0|0,0:0|0:0,0:0:0:0:
64,224,222875,1,0,0:0:0:0:
224,224,223057,2,0,L|368:224,2,128,0|0|0,0:0|0:0|0:0,0:0:0:0:
213,164,223784,5,4,0:0:0:0:
372,207,223966,1,0,0:0:0:0:
411,205,224057,1,4,0:0:0:0:
450,204,224148,1,0,0:0:0:0:
286,289,224330,2,0,L|193:195,1,128,4|0,0:0|0:0,0:0:0:0:
283,175,224603,2,0,L|385:37,1,128,4|0,0:0|0:0,0:0:0:0:
284,63,224875,1,4,0:0:0:0:
217,67,224966,1,0,0:0:0:0:
175,99,225057,1,8,0:0:0:0:
159,151,225148,1,0,0:0:0:0:
332,162,225239,6,0,L|422:252,1,128,4|0,0:0|0:0,0:0:0:0:
324,251,225512,2,0,L|247:353,1,128,0|0,0:0|0:0,0:0:0:0:
339,357,225784,1,8,0:0:0:0:
166,287,225966,1,0,0:0:0:0:
105,280,226056,1,0,0:0:0:0:
78,225,226147,1,0,0:0:0:0:
110,174,226238,1,0,0:0:0:0:
207,320,226330,2,0,L|302:319,1,64,4|0,0:0|0:0,0:0:0:0:
189,288,226512,2,0,L|180:210,1,64,8|0,0:0|0:0,0:0:0:0:
398,245,226694,5,4,0:0:0:0:
467,241,226784,1,0,0:0:0:0:
469,123,226875,1,0,0:0:0:0:
469,182,226966,1,0,0:0:0:0:
365,161,227057,2,0,L|255:159,1,80,0|0,0:0|0:0,0:0:0:0:
381,129,227239,2,0,L|382:50,1,80,0|0,0:0|0:0,0:0:0:0:
134,64,227421,6,0,L|49:129,1,80,0|0,0:0|0:0,0:0:0:0:
44,61,227603,1,0,0:0:0:0:
70,112,227694,1,0,0:0:0:0:
176,132,227784,1,0,0:0:0:0:
246,159,227875,1,0,0:0:0:0:
288,197,227966,1,0,0:0:0:0:
296,243,228057,1,0,0:0:0:0:
181,277,228148,6,0,L|141:332,3,64,4|0|0|0,0:0|0:0|0:0|0:0,0:0:0:0:
213,266,228512,1,0,0:0:0:0:
263,244,228603,1,0,0:0:0:0:
227,207,228694,1,0,0:0:0:0:
167,214,228784,1,0,0:0:0:0:
384,135,228875,1,4,0:0:0:0:
271,136,229057,1,0,0:0:0:0:
384,135,229239,1,4,0:0:0:0:
207,136,229421,1,0,0:0:0:0:
494,131,229603,5,4,0:0:0:0:
472,193,229694,1,0,0:0:0:0:
451,245,229784,1,0,0:0:0:0:
184,288,229966,2,0,L|53:286,1,128,4|4,0:0|0:0,0:0:0:0:
110,286,230239,1,4,0:0:0:0:
361,280,230330,1,8,0:0:0:0:
452,277,230512,1,0,0:0:0:0:
265,222,230694,1,0,0:0:0:0:
365,221,230875,1,4,0:0:0:0:
65,165,231057,6,0,L|29:93,1,64,0|0,0:0|0:0,0:0:0:0:
65,165,231239,1,0,0:0:0:0:
137,162,231330,1,0,0:0:0:0:
309,133,231421,1,4,0:0:0:0:
372,156,231512,1,0,0:0:0:0:
370,214,231603,1,4,0:0:0:0:
310,243,231694,1,0,0:0:0:0:
223,248,231784,6,0,L|154:248,3,64,8|0|0|0,0:0|0:0|0:0|0:0,0:0:0:0:
337,208,232148,1,4,0:0:0:0:
389,191,232239,1,0,0:0:0:0:
370,152,232330,1,0,0:0:0:0:
311,137,232421,1,0,0:0:0:0:
150,176,232512,6,0,L|277:171,1,128,4|0,0:0|0:0,0:0:0:0:
145,124,232875,2,0,L|2:121,1,128,8|0,0:0|0:0,0:0:0:0:
25,74,233148,1,0,0:0:0:0:
242,92,233239,2,0,L|310:93,1,64,0|0,0:0|0:0,0:0:0:0:
269,122,233421,1,4,0:0:0:0:
231,144,233512,1,0,0:0:0:0:
412,264,233603,2,0,L|487:280,3,64,8|0|0|0,0:0|0:0|0:0|0:0,0:0:0:0:
263,252,233966,5,4,0:0:0:0:
203,276,234057,1,0,0:0:0:0:
201,329,234148,1,0,0:0:0:0:
262,349,234239,1,0,0:0:0:0:
340,351,234330,2,0,L|469:347,1,128,0|0,0:0|0:0,0:0:0:0:
405,351,234603,1,0,0:0:0:0:
171,287,234694,2,0,L|171:206,1,64,0|0,0:0|0:0,0:0:0:0:
246,183,234875,1,0,0:0:0:0:
84,216,234966,2,0,L|18:217,1,64,0|4,0:0|0:0,0:0:0:0:
84,231,235148,1,0,0:0:0:0:
165,248,235239,2,0,L|228:251,1,64,0|0,0:0|0:0,0:0:0:0:
393,251,235421,6,0,P|462:203|468:148,1,128,4|0,0:0|0:0,0:0:0:0:
232,154,235694,2,0,L|206:25,1,128,0|0,0:0|0:0,0:0:0:0:
287,25,235966,1,0,0:0:0:0:
207,29,236057,1,0,0:0:0:0:
43,34,236148,2,0,L|65:180,1,128,0|4,0:0|0:0,0:0:0:0:
233,302,236512,2,0,L|101:300,1,128,8|0,0:0|0:0,0:0:0:0:
410,83,236875,5,4,0:0:0:0:
427,138,236966,1,0,0:0:0:0:
442,191,237057,1,8,0:0:0:0:
350,219,237148,2,0,P|302:271|317:341,1,128,0|0,0:0|0:0,0:0:0:0:
389,342,237421,1,4,0:0:0:0:
464,340,237512,1,0,0:0:0:0:
237,274,237603,2,0,L|86:272,1,128,8|0,0:0|0:0,0:0:0:0:
240,180,237966,2,0,L|210:102,1,64,4|0,0:0|0:0,0:0:0:0:
111,83,238148,2,0,L|39:95,1,64,8|0,0:0|0:0,0:0:0:0:
281,240,238330,6,0,L|388:168,1,128,4|0,0:0|0:0,0:0:0:0:
209,172,238694,2,0,L|139:173,1,64,0|0,0:0|0:0,0:0:0:0:
39,235,238876,2,0,L|102:224,1,64,4|4,0:0|0:0,0:0:0:0:
281,240,239057,2,0,L|408:162,1,128,8|0,0:0|0:0,0:0:0:0:
209,172,239421,2,0,L|142:179,1,64,4|0,0:0|0:0,0:0:0:0:
39,235,239603,2,0,L|102:224,1,64,0|0,0:0|0:0,0:0:0:0:
280,240,239784,5,8,0:0:0:0:
335,247,239875,1,0,0:0:0:0:
392,256,239966,1,0,0:0:0:0:
195,177,240148,2,0,L|122:176,1,64,4|0,0:0|0:0,0:0:0:0:
46,157,240330,2,0,L|38:92,1,64,0|0,0:0|0:0,0:0:0:0:
247,151,240512,1,4,0:0:0:0:
354,198,240694,1,0,0:0:0:0:
248,243,240875,1,0,0:0:0:0:
414,276,241057,1,0,0:0:0:0:
133,317,241239,6,0,P|88:272|151:248,1,128,4|0,0:0|0:0,0:0:0:0:
242,210,241512,2,0,L|257:62,1,128
372,53,241784,1,4,0:0:0:0:
395,91,241875,1,4,0:0:0:0:
196,162,241966,2,0,L|108:268,1,128,8|0,0:0|0:0,0:0:0:0:
286,299,242330,2,0,L|351:149,1,128,8|0,0:0|0:0,0:0:0:0:
38,106,242694,5,4,0:0:0:0:
21,170,242784,1,0,0:0:0:0:
41,231,242875,1,8,0:0:0:0:
122,297,242966,2,0,L|271:297,1,128,0|0,0:0|0:0,0:0:0:0:
156,223,243239,1,4,0:0:0:0:
87,224,243330,1,0,0:0:0:0:
269,189,243421,2,0,L|456:189,1,128,8|0,0:0|0:0,0:0:0:0:
233,139,243784,1,8,0:0:0:0:
232,76,243875,1,0,0:0:0:0:
328,59,243966,1,0,0:0:0:0:
396,59,244057,1,0,0:0:0:0:
219,97,244148,6,0,L|127:212,1,128,4|0,0:0|0:0,0:0:0:0:
481,227,244512,2,0,L|337:227,1,128,0|0,0:0|0:0,0:0:0:0:
314,258,244784,1,0,0:0:0:0:
351,293,244875,2,0,L|475:369,1,128,0|0,0:0|0:0,0:0:0:0:
181,345,245239,2,0,L|317:343,1,128,0|0,0:0|0:0,0:0:0:0:
140,278,245603,6,0,L|97:219,2,64,4|0|8,0:0|0:0|0:0,0:0:0:0:
215,282,245875,1,0,0:0:0:0:
314,232,245966,2,0,L|371:159,2,64,4|0|4,0:0|0:0|0:0,0:0:0:0:
234,231,246239,1,4,0:0:0:0:
66,204,246330,1,8,0:0:0:0:
72,146,246421,1,0,0:0:0:0:
135,123,246512,1,0,0:0:0:0:
349,122,246603,2,0,L|342:30,1,64,0|8,0:0|0:0,0:0:0:0:
265,43,246784,1,0,0:0:0:0:
160,63,246875,2,0,L|150:178,1,64,0|0,0:0|0:0,0:0:0:0:
362,213,247057,5,4,0:0:0:0:
363,272,247148,1,0,0:0:0:0:
362,319,247239,1,0,0:0:0:0:
186,280,247421,1,4,0:0:0:0:
158,224,247512,1,0,0:0:0:0:
190,162,247603,1,4,0:0:0:0:
280,149,247694,1,0,0:0:0:0:
368,136,247784,2,0,L|228:133,1,128,8|0,0:0|0:0,0:0:0:0:
246,88,248057,1,0,0:0:0:0:
350,118,248148,1,4,0:0:0:0:
345,61,248239,1,0,0:0:0:0:
243,38,248330,1,8,0:0:0:0:
170,41,248421,1,0,0:0:0:0:
350,222,248512,6,0,L|517:232,1,128,4|0,0:0|0:0,0:0:0:0:
377,288,248784,2,0,L|249:230,1,128,0|0,0:0|0:0,0:0:0:0:
366,334,249057,2,0,L|472:346,1,64,8|0,0:0|0:0,0:0:0:0:
224,255,249239,2,0,L|107:180,1,128,4|0,0:0|0:0,0:0:0:0:
275,187,249603,1,4,0:0:0:0:
278,131,249694,1,0,0:0:0:0:
183,90,249784,1,8,0:0:0:0:
119,90,249875,1,0,0:0:0:0:
314,265,249966,6,0,L|437:185,1,128,4|0,0:0|0:0,0:0:0:0:
262,204,250330,2,0,L|171:214,1,64,8|0,0:0|0:0,0:0:0:0:
95,265,250512,2,0,L|189:265,1,64,8|0,0:0|0:0,0:0:0:0:
371,325,250694,2,0,L|448:328,2,64,4|0|0,0:0|0:0|0:0,0:0:0:0:
295,322,250966,1,0,0:0:0:0:
181,321,251057,2,0,L|79:313,1,64,8|0,0:0|0:0,0:0:0:0:
104,255,251239,2,0,L|203:253,1,64,8|0,0:0|0:0,0:0:0:0:
390,227,251421,5,4,0:0:0:0:
362,299,251512,1,0,0:0:0:0:
297,271,251603,1,0,0:0:0:0:
280,242,251694,1,0,0:0:0:0:
297,271,251784,1,8,0:0:0:0:
362,299,251875,1,0,0:0:0:0:
362,299,251966,1,4,0:0:0:0:
330,279,252057,1,4,0:0:0:0:
260,261,252148,1,8,0:0:0:0:
162,265,252239,1,0,0:0:0:0:
68,257,252330,2,0,L|38:154,1,64,0|0,0:0|0:0,0:0:0:0:
143,150,252512,2,0,L|245:150,1,64,8|0,0:0|0:0,0:0:0:0:
9,118,252694,2,0,L|79:114,1,64,8|8,0:0|0:0,0:0:0:0:
291,232,252875,6,0,L|367:238,3,64,4|0|8|8,0:0|0:0|0:0|0:0,0:0:0:0:
474,253,253239,1,4,0:0:0:0:
403,198,253330,1,0,0:0:0:0:
378,161,253421,1,8,0:0:0:0:
403,198,253512,1,4,0:0:0:0:
474,253,253603,1,8,0:0:0:0:
450,310,253694,1,0,0:0:0:0:
373,341,253784,1,4,0:0:0:0:
266,348,253875,1,4,0:0:0:0:
360,343,253966,1,8,0:0:0:0:
434,303,254057,1,0,0:0:0:0:
458,259,254148,1,4,0:0:0:0:
424,204,254239,1,8,0:0:0:0:
165,199,254330,5,4,0:0:0:0:
92,144,254421,1,0,0:0:0:0:
83,102,254512,1,8,0:0:0:0:
183,134,254603,1,8,0:0:0:0:
247,163,254694,1,4,0:0:0:0:
310,174,254784,1,0,0:0:0:0:
207,247,254875,1,8,0:0:0:0:
135,262,254966,1,4,0:0:0:0:
313,311,255057,1,8,0:0:0:0:
305,257,255148,1,0,0:0:0:0:
271,233,255239,1,4,0:0:0:0:
195,223,255330,1,4,0:0:0:0:
293,64,255421,1,8,0:0:0:0:
256,57,255512,1,0,0:0:0:0:
187,56,255603,1,4,0:0:0:0:
104,65,255694,1,8,0:0:0:0:
346,205,255784,5,4,0:0:0:0:
338,151,255875,1,0,0:0:0:0:
304,127,255966,1,8,0:0:0:0:
228,117,256057,1,8,0:0:0:0:
444,101,256148,1,4,0:0:0:0:
370,112,256239,1,0,0:0:0:0:
324,142,256330,1,4,0:0:0:0:
315,189,256421,1,8,0:0:0:0:
52,308,256512,1,4,0:0:0:0:
74,296,256603,1,0,0:0:0:0:
130,288,256694,1,4,0:0:0:0:
222,284,256785,1,4,0:0:0:0:
39,123,256875,1,8,0:0:0:0:
100,129,256966,1,0,0:0:0:0:
153,156,257057,1,8,0:0:0:0:
165,186,257148,1,8,0:0:0:0:
458,144,257239,6,0,B|457:232|449:226|449:226|315:228,3,179.19999453125,6|0|0|0,0:0|0:0|0:0|0:0,0:0:0:0:
192,219,257966,2,0,B|102:218|102:218|99:112,3,179.19999453125,4|0|0|0,0:0|0:0|0:0|0:0,0:0:0:0:
168,115,258603,1,4,0:0:0:0:
324,197,260148,6,0,L|276:198,1,32,0|0,0:0|0:0,0:0:0:0:
292,197,260512,2,0,L|251:200,1,32,0|0,0:0|0:0,0:0:0:0:
260,199,260875,2,0,L|207:207,1,32,0|0,0:0|0:0,0:0:0:0:
228,203,261239,2,0,L|189:208,1,32,0|0,0:0|0:0,0:0:0:0:
198,208,261603,6,0,L|200:281,2,64,0|0|0,0:0|0:0|0:0,0:0:0:0:
268,201,261875,1,0,0:0:0:0:
337,191,261966,2,0,L|334:98,2,64,0|0|0,0:0|0:0|0:0,0:0:0:0:
268,201,262239,1,0,0:0:0:0:
196,209,262330,2,0,L|199:281,2,64,0|0|0,0:0|0:0|0:0,0:0:0:0:
268,201,262603,1,0,0:0:0:0:
335,189,262694,2,0,L|332:125,2,64,0|0|0,0:0|0:0|0:0,0:0:0:0:
268,201,262966,1,0,0:0:0:0:
194,209,263057,6,0,L|245:210,1,32,0|0,0:0|0:0,0:0:0:0:
227,213,263421,2,0,L|275:213,1,32,0|0,0:0|0:0,0:0:0:0:
287,216,263784,2,0,L|347:221,1,32,0|0,0:0|0:0,0:0:0:0:
353,226,264148,2,0,L|399:225,1,32,0|0,0:0|0:0,0:0:0:0:
429,233,264512,6,0,L|456:297,2,64,0|0|0,0:0|0:0|0:0,0:0:0:0:
365,237,264784,1,0,0:0:0:0:
301,239,264875,2,0,L|274:303,2,64,0|0|0,0:0|0:0|0:0,0:0:0:0:
365,237,265148,1,0,0:0:0:0:
429,237,265239,2,0,L|462:162,2,64,0|0|0,0:0|0:0|0:0,0:0:0:0:
365,237,265512,1,0,0:0:0:0:
296,238,265603,2,0,L|254:156,2,64,0|0|0,0:0|0:0|0:0,0:0:0:0:
365,237,265875,1,0,0:0:0:0:
430,240,265966,6,0,L|372:240,1,32,0|0,0:0|0:0,0:0:0:0:
369,242,266330,2,0,L|316:246,1,32,0|0,0:0|0:0,0:0:0:0:
306,244,266694,2,0,L|254:244,1,32,0|0,0:0|0:0,0:0:0:0:
253,243,267057,2,0,L|209:249,1,32,0|0,0:0|0:0,0:0:0:0:
172,248,267421,5,0,0:0:0:0:
174,204,267512,1,0,0:0:0:0:
177,157,267603,1,0,0:0:0:0:
239,144,267694,1,0,0:0:0:0:
297,139,267784,1,0,0:0:0:0:
297,98,267875,1,0,0:0:0:0:
297,98,267966,1,0,0:0:0:0:
238,87,268057,1,0,0:0:0:0:
175,68,268148,1,0,0:0:0:0:
175,68,268239,1,0,0:0:0:0:
175,68,268330,1,0,0:0:0:0:
240,43,268421,1,0,0:0:0:0:
299,37,268512,1,0,0:0:0:0:
301,81,268603,1,0,0:0:0:0:
303,133,268694,1,0,0:0:0:0:
305,199,268875,6,0,L|270:204,1,32,0|0,0:0|0:0,0:0:0:0:
158,224,269239,2,0,L|114:239,2,32,0|0|0,0:0|0:0|0:0,0:0:0:0:
232,282,269603,2,0,L|279:293,2,32,0|0|0,0:0|0:0|0:0,0:0:0:0:
152,316,269966,2,0,L|117:328,2,32,0|0|0,0:0|0:0|0:0,0:0:0:0:
254,302,270330,5,0,0:0:0:0:
302,287,270421,1,0,0:0:0:0:
354,269,270512,1,0,0:0:0:0:
297,234,270603,1,0,0:0:0:0:
241,216,270694,1,0,0:0:0:0:
304,176,270784,1,0,0:0:0:0:
368,142,270875,1,0,0:0:0:0:
301,104,270966,1,0,0:0:0:0:
233,72,271057,1,0,0:0:0:0:
306,42,271148,1,0,0:0:0:0:
379,21,271239,1,0,0:0:0:0:
302,28,271330,1,0,0:0:0:0:
199,66,271421,1,0,0:0:0:0:
308,109,271512,1,0,0:0:0:0:
417,158,271603,1,0,0:0:0:0:
308,109,271694,1,0,0:0:0:0:
95,90,271784,5,4,0:0:0:0:
256,192,273239,12,0,274330,0:0:0:0:
237,201,274694,6,0,L|76:195,1,128,6|0,0:0|0:0,0:0:0:0:
158,167,274966,1,0,0:0:0:0:
181,124,275057,1,8,0:0:0:0:
151,85,275148,1,0,0:0:0:0:
101,86,275239,1,0,0:0:0:0:
62,69,275330,1,0,0:0:0:0:
59,27,275421,1,0,0:0:0:0:
147,31,275512,2,0,L|305:30,1,128,0|0,0:0|0:0,0:0:0:0:
326,42,275784,1,8,0:0:0:0:
346,81,275875,1,0,0:0:0:0:
327,120,275966,1,0,0:0:0:0:
255,128,276057,1,0,0:0:0:0:
411,182,276148,6,0,P|479:147|404:141,1,192,0|0,0:0|0:0,0:0:0:0:
319,137,276512,1,8,0:0:0:0:
235,157,276875,2,0,P|303:122|228:116,1,192,0|0,0:0|0:0,0:0:0:0:
137,109,277239,1,8,0:0:0:0:
106,169,277603,6,0,P|38:134|113:128,1,192,0|0,0:0|0:0,0:0:0:0:
209,122,277966,1,8,0:0:0:0:
238,144,278330,2,0,P|170:109|245:103,1,192,0|0,0:0|0:0,0:0:0:0:
335,107,278694,1,8,0:0:0:0:
376,119,279057,6,0,P|444:84|369:78,1,192,0|0,0:0|0:0,0:0:0:0:
274,126,279421,1,8,0:0:0:0:
130,268,279784,2,0,L|43:266,1,64,4|0,0:0|0:0,0:0:0:0:
55,337,279966,2,0,L|123:341,1,64,0|0,0:0|0:0,0:0:0:0:
224,356,280148,2,0,L|287:348,1,64,8|0,0:0|0:0,0:0:0:0:
389,283,280330,2,0,L|452:276,1,64,0|0,0:0|0:0,0:0:0:0:
237,224,280512,6,0,L|121:141,1,128,6|0,0:0|0:0,0:0:0:0:
229,122,280784,2,0,L|347:45,1,128,8|0,0:0|0:0,0:0:0:0:
146,74,281057,2,0,L|-8:48,1,128,8|0,0:0|0:0,0:0:0:0:
191,178,281421,2,0,L|274:159,1,64,0|0,0:0|0:0,0:0:0:0:
200,171,281603,1,8,0:0:0:0:
41,177,281784,1,0,0:0:0:0:
302,218,281966,6,0,L|505:217,1,192
426,200,282330,1,8,0:0:0:0:
205,171,282694,2,0,L|442:170,1,192,0|0,0:0|0:0,0:0:0:0:
300,132,283057,1,8,0:0:0:0:
438,100,283421,6,0,L|214:98,1,192,4|0,0:0|0:0,0:0:0:0:
408,70,283784,2,0,P|476:101|393:116,1,192,8|0,0:0|0:0,0:0:0:0:
233,184,284148,2,0,L|91:201,1,128,0|4,0:0|0:0,0:0:0:0:
163,232,284421,1,0,0:0:0:0:
357,288,284512,2,0,L|527:318,1,128,8|0,0:0|0:0,0:0:0:0:
213,266,284875,5,4,0:0:0:0:
147,267,284966,1,0,0:0:0:0:
112,219,285057,1,0,0:0:0:0:
147,267,285148,1,0,0:0:0:0:
220,200,285239,1,8,0:0:0:0:
277,185,285330,1,0,0:0:0:0:
332,148,285421,1,0,0:0:0:0:
346,84,285512,1,0,0:0:0:0:
250,76,285603,1,4,0:0:0:0:
202,81,285694,1,0,0:0:0:0:
290,45,285784,1,4,0:0:0:0:
343,48,285875,1,0,0:0:0:0:
150,40,285966,1,8,0:0:0:0:
120,52,286011,1,0,0:0:0:0:
99,75,286056,1,0,0:0:0:0:
91,106,286102,1,0,0:0:0:0:
98,137,286147,1,8,0:0:0:0:
117,162,286193,1,0,0:0:0:0:
146,176,286238,1,8,0:0:0:0:
369,260,286330,6,0,L|508:254,1,128,4|0,0:0|0:0,0:0:0:0:
264,180,286603,2,0,L|101:209,1,128,0|0,0:0|0:0,0:0:0:0:
64,239,286875,2,0,L|236:276,1,128,0|0,0:0|0:0,0:0:0:0:
285,328,287148,2,0,L|372:327,2,64,0|0|0,0:0|0:0|0:0,0:0:0:0:
186,315,287421,2,0,L|58:327,1,128,8|0,0:0|0:0,0:0:0:0:
112,333,287694,1,0,0:0:0:0:
350,305,287784,6,0,L|420:302,2,64,0|0|0,0:0|0:0|0:0,0:0:0:0:
196,236,288148,2,0,L|216:170,1,64,8|0,0:0|0:0,0:0:0:0:
305,139,288330,2,0,L|397:139,1,64,0|0,0:0|0:0,0:0:0:0:
149,95,288512,2,0,L|46:98,2,64,0|0|0,0:0|0:0|0:0,0:0:0:0:
321,233,288875,2,0,L|298:174,1,64,8|0,0:0|0:0,0:0:0:0:
214,136,289057,2,0,L|150:136,1,64,0|0,0:0|0:0,0:0:0:0:
361,92,289239,6,0,L|445:91,2,64,0|0|0,0:0|0:0|0:0,0:0:0:0:
201,207,289603,2,0,L|217:129,1,64,8|0,0:0|0:0,0:0:0:0:
306,108,289784,2,0,L|370:108,1,64,0|0,0:0|0:0,0:0:0:0:
157,73,289966,2,0,L|78:72,2,64,0|0|0,0:0|0:0|0:0,0:0:0:0:
312,181,290330,2,0,L|291:118,1,64,8|0,0:0|0:0,0:0:0:0:
204,58,290512,2,0,L|130:60,1,64,0|0,0:0|0:0,0:0:0:0:
362,270,290694,6,0,L|436:272,2,64,0|0|0,0:0|0:0|0:0,0:0:0:0:
203,229,291057,2,0,L|223:152,1,64,8|0,0:0|0:0,0:0:0:0:
311,130,291239,2,0,L|410:121,1,64
66,122,291421,1,4,0:0:0:0:
89,114,291512,1,0,0:0:0:0:
151,105,291603,1,0,0:0:0:0:
238,98,291694,1,0,0:0:0:0:
399,107,291784,1,8,0:0:0:0:
368,123,291875,1,0,0:0:0:0:
305,143,291966,1,8,0:0:0:0:
219,162,292057,1,8,0:0:0:0:
382,288,292148,6,0,L|456:300,2,64,4|0|0,0:0|0:0|0:0,0:0:0:0:
298,277,292421,2,0,L|224:290,2,64,0|8|0,0:0|0:0|0:0,0:0:0:0:
480,318,292694,2,0,P|458:219|369:192,1,192,0|0,0:0|0:0,0:0:0:0:
298,178,293057,2,0,L|265:251,1,64,0|0,0:0|0:0,0:0:0:0:
337,150,293239,2,0,L|421:148,1,64,8|0,0:0|0:0,0:0:0:0:
334,131,293421,1,0,0:0:0:0:
44,250,293603,5,0,0:0:0:0:
74,243,293694,1,0,0:0:0:0:
138,243,293784,1,0,0:0:0:0:
220,255,293875,1,0,0:0:0:0:
56,168,293966,2,0,L|-20:169,2,64,8|0|0,0:0|0:0|0:0,0:0:0:0:
387,182,294330,1,0,0:0:0:0:
351,185,294421,1,0,0:0:0:0:
286,188,294512,1,0,0:0:0:0:
205,205,294603,1,0,0:0:0:0:
377,284,294694,2,0,L|472:288,2,64,8|0|0,0:0|0:0|0:0,0:0:0:0:
210,279,295057,6,0,L|109:288,2,64,4|0|0,0:0|0:0|0:0,0:0:0:0:
492,193,295421,2,0,L|489:116,1,64,8|0,0:0|0:0,0:0:0:0:
106,182,295784,2,0,L|18:181,1,64,4|0,0:0|0:0,0:0:0:0:
423,91,296148,2,0,L|490:90,1,64,8|0,0:0|0:0,0:0:0:0:
267,139,296512,5,4,0:0:0:0:
204,147,296603,1,0,0:0:0:0:
141,157,296694,1,0,0:0:0:0:
319,235,296875,1,8,0:0:0:0:
141,302,297057,1,8,0:0:0:0:
91,304,297148,1,8,0:0:0:0:
190,260,297239,1,4,0:0:0:0:
251,258,297330,1,0,0:0:0:0:
25,202,297421,1,4,0:0:0:0:
102,197,297512,1,4,0:0:0:0:
25,202,297603,1,8,0:0:0:0:
342,252,297784,1,8,0:0:0:0:
36,169,297966,6,0,L|19:38,1,128,4|0,0:0|0:0,0:0:0:0:
251,96,298239,2,0,L|423:64,1,128,4|0,0:0|0:0,0:0:0:0:
269,66,298512,2,0,L|86:58,1,128,4|8,0:0|0:0,0:0:0:0:
91,77,298784,2,0,L|266:92,1,128,0|4,0:0|0:0,0:0:0:0:
411,179,299057,2,0,L|497:189,3,64,8|0|8|8,0:0|0:0|0:0|0:0,0:0:0:0:
225,226,299421,6,0,L|20:252,1,192,4|4,0:0|0:0,0:0:0:0:
196,318,299784,2,0,L|268:329,1,64,8|0,0:0|0:0,0:0:0:0:
429,346,299966,2,0,L|442:283,1,64,8|8,0:0|0:0,0:0:0:0:
225,226,300148,6,0,L|20:252,1,192,4|4,0:0|0:0,0:0:0:0:
196,318,300512,2,0,L|268:329,1,64,8|0,0:0|0:0,0:0:0:0:
429,346,300693,2,0,L|442:283,1,64,8|8,0:0|0:0,0:0:0:0:
225,226,300875,6,0,L|20:252,1,192,4|4,0:0|0:0,0:0:0:0:
196,318,301239,2,0,L|268:329,1,64,8|0,0:0|0:0,0:0:0:0:
429,346,301421,2,0,L|442:283,1,64,8|8,0:0|0:0,0:0:0:0:
225,226,301603,6,0,L|20:252,1,192,4|4,0:0|0:0,0:0:0:0:
196,318,301966,2,0,L|268:329,1,64,8|0,0:0|0:0,0:0:0:0:
429,346,302148,2,0,L|442:283,1,64,8|8,0:0|0:0,0:0:0:0:
225,226,302330,6,0,L|20:252,1,192,4|4,0:0|0:0,0:0:0:0:
196,318,302693,2,0,L|268:329,1,64,8|0,0:0|0:0,0:0:0:0:
429,346,302875,2,0,L|442:283,1,64,8|8,0:0|0:0,0:0:0:0:
214,204,303057,1,4,0:0:0:0:
235,199,303148,1,0,0:0:0:0:
302,196,303239,1,4,0:0:0:0:
387,185,303330,1,0,0:0:0:0:
213,132,303421,1,8,0:0:0:0:
142,135,303512,1,0,0:0:0:0:
357,75,303603,1,8,0:0:0:0:
426,73,303694,1,8,0:0:0:0:
140,175,303784,5,4,0:0:0:0:
75,180,303875,1,0,0:0:0:0:
140,175,303966,1,0,0:0:0:0:
309,279,304057,1,4,0:0:0:0:
250,299,304148,1,8,0:0:0:0:
189,301,304239,1,0,0:0:0:0:
391,308,304330,1,4,0:0:0:0:
324,311,304421,1,4,0:0:0:0:
253,314,304512,1,8,0:0:0:0:
327,287,304603,1,0,0:0:0:0:
354,242,304694,1,4,0:0:0:0:
333,194,304784,1,4,0:0:0:0:
151,180,304875,2,0,L|-2:182,1,128,8|8,0:0|0:0,0:0:0:0:
288,102,305239,6,0,L|512:96,1,192,4|4,0:0|0:0,0:0:0:0:
304,176,305603,2,0,L|240:181,1,64,8|0,0:0|0:0,0:0:0:0:
68,182,305784,2,0,L|164:176,1,64,8|8,0:0|0:0,0:0:0:0:
288,102,305966,6,0,L|512:96,1,192,4|4,0:0|0:0,0:0:0:0:
304,176,306330,2,0,L|240:181,1,64,8|0,0:0|0:0,0:0:0:0:
68,182,306512,2,0,L|164:176,1,64,8|8,0:0|0:0,0:0:0:0:
298,101,306694,6,0,B|425:91|425:91|479:36,1,192,4|4,0:0|0:0,0:0:0:0:
267,185,307057,2,0,L|257:259,1,64,8|0,0:0|0:0,0:0:0:0:
464,224,307239,2,0,L|479:312,1,64,8|8,0:0|0:0,0:0:0:0:
288,224,307421,2,0,B|207:123|207:123|216:57,1,192,4|4,0:0|0:0,0:0:0:0:
411,69,307784,2,0,L|493:101,1,64,8|0,0:0|0:0,0:0:0:0:
284,107,307966,2,0,L|213:148,1,64,8|8,0:0|0:0,0:0:0:0:
397,321,308148,5,4,0:0:0:0:
368,252,308239,1,0,0:0:0:0:
316,231,308330,1,4,0:0:0:0:
224,221,308421,1,0,0:0:0:0:
321,324,308512,1,8,0:0:0:0:
337,260,308603,1,0,0:0:0:0:
120,197,308694,1,8,0:0:0:0:
68,195,308785,1,8,0:0:0:0:
248,108,308875,1,8,0:0:0:0:
310,109,308966,1,0,0:0:0:0:
490,138,309057,1,8,0:0:0:0:
424,141,309148,1,0,0:0:0:0:
134,260,309239,2,0,L|75:263,4,32,4|0|0|0|8,0:0|0:0|0:0|0:0|0:0,0:0:0:0:
234,245,309512,1,8,0:0:0:0:
399,336,309603,6,0,L|284:249,1,128,4|0,0:0|0:0,0:0:0:0:
65,260,309875,2,0,L|172:175,1,128,4|0,0:0|0:0,0:0:0:0:
278,167,310148,2,0,L|165:87,1,128,4|8,0:0|0:0,0:0:0:0:
141,107,310421,2,0,L|285:50,1,128,0|4,0:0|0:0,0:0:0:0:
71,64,310694,2,0,L|-21:77,3,64,8|0|8|8,0:0|0:0|0:0|0:0,0:0:0:0:
262,151,311057,6,0,P|297:234|228:313,1,192,4|4,0:0|0:0,0:0:0:0:
420,321,311421,2,0,L|350:327,1,64,8|0,0:0|0:0,0:0:0:0:
168,325,311603,2,0,L|278:340,1,64,8|8,0:0|0:0,0:0:0:0:
448,227,311784,2,0,P|456:121|365:54,1,192,4|4,0:0|0:0,0:0:0:0:
176,53,312148,2,0,L|256:60,1,64,8|0,0:0|0:0,0:0:0:0:
411,81,312330,2,0,L|504:93,1,64,8|8,0:0|0:0,0:0:0:0:
225,84,312512,6,0,P|186:144|231:256,1,192,4|4,0:0|0:0,0:0:0:0:
449,303,312875,2,0,L|366:305,1,64,8|0,0:0|0:0,0:0:0:0:
219,337,313057,2,0,L|138:344,1,64,8|8,0:0|0:0,0:0:0:0:
423,258,313239,2,0,P|475:192|405:127,1,192,4|4,0:0|0:0,0:0:0:0:
200,94,313603,2,0,L|293:85,1,64,8|0,0:0|0:0,0:0:0:0:
425,76,313784,2,0,L|502:67,1,64,8|8,0:0|0:0,0:0:0:0:
235,129,313966,6,0,P|182:210|242:267,1,192,4|4,0:0|0:0,0:0:0:0:
412,313,314330,2,0,L|315:327,1,64,8|0,0:0|0:0,0:0:0:0:
177,332,314512,2,0,L|95:335,1,64,8|8,0:0|0:0,0:0:0:0:
350,247,314694,1,4,0:0:0:0:
411,251,314784,1,0,0:0:0:0:
446,195,314875,1,4,0:0:0:0:
411,251,314966,1,0,0:0:0:0:
240,204,315057,2,0,L|183:262,1,64,8|0,0:0|0:0,0:0:0:0:
406,106,315239,2,0,L|464:69,1,64,8|8,0:0|0:0,0:0:0:0:
208,68,315421,6,0,L|61:133,1,128,4|0,0:0|0:0,0:0:0:0:
330,192,315694,2,0,L|396:317,1,128,4|0,0:0|0:0,0:0:0:0:
198,328,315966,2,0,L|36:339,1,128,4|8,0:0|0:0,0:0:0:0:
23,313,316239,2,0,L|161:312,1,128,0|4,0:0|0:0,0:0:0:0:
370,251,316512,2,0,L|447:251,3,64,8|0|8|0,0:0|0:0|0:0|0:0,0:0:0:0:
279,221,316875,6,0,P|224:146|281:68,1,192,4|4,0:0|0:0,0:0:0:0:
103,46,317239,2,0,L|224:42,1,64,8|0,0:0|0:0,0:0:0:0:
384,167,317421,2,0,L|284:167,1,64,8|8,0:0|0:0,0:0:0:0:
141,191,317603,2,0,P|146:115|239:50,1,192,4|4,0:0|0:0,0:0:0:0:
57,39,317966,2,0,L|148:39,1,64,8|0,0:0|0:0,0:0:0:0:
302,179,318148,2,0,L|397:180,1,64,8|8,0:0|0:0,0:0:0:0:
174,331,318330,6,0,P|80:299|68:185,1,192,4|4,0:0|0:0,0:0:0:0:
266,168,318694,2,0,L|275:101,1,64,8|0,0:0|0:0,0:0:0:0:
37,162,318875,2,0,L|117:159,1,64,8|8,0:0|0:0,0:0:0:0:
285,256,319057,2,0,P|274:176|134:130,1,192,4|4,0:0|0:0,0:0:0:0:
364,97,319421,2,0,L|428:97,1,64,8|0,0:0|0:0,0:0:0:0:
223,171,319603,2,0,L|121:175,1,64,8|8,0:0|0:0,0:0:0:0:
328,317,319784,6,0,L|422:317,1,64,4|0,0:0|0:0,0:0:0:0:
290,275,319966,2,0,L|264:196,1,64,4|0,0:0|0:0,0:0:0:0:
436,158,320148,2,0,L|458:71,1,64,8|0,0:0|0:0,0:0:0:0:
353,63,320330,2,0,L|261:61,1,64,8|4,0:0|0:0,0:0:0:0:
79,169,320512,2,0,L|249:165,1,128,8|8,0:0|0:0,0:0:0:0:
144,145,320784,1,0,0:0:0:0:
79,134,320875,1,4,0:0:0:0:
356,229,321057,1,8,0:0:0:0:
67,293,321239,6,0,L|53:139,1,128,10|0,0:0|0:0,0:0:0:0:
153,163,321512,2,0,L|174:13,1,128,0|0,0:0|0:0,0:0:0:0:
84,27,321784,2,0,L|-38:25,1,64,8|0,0:0|0:0,0:0:0:0:
183,129,321966,2,0,L|187:203,1,64,8|8,0:0|0:0,0:0:0:0:
335,244,322239,1,8,0:0:0:0:
161,326,322330,2,0,L|155:218,1,64,8|0,0:0|0:0,0:0:0:0:
370,248,322512,2,0,L|369:315,1,64,8|0,0:0|0:0,0:0:0:0:
140,228,322694,6,0,L|315:218,1,128,8|8,0:0|0:0,0:0:0:0:
354,171,322966,2,0,L|169:177,1,128,0|8,0:0|0:0,0:0:0:0:
169,123,323239,2,0,L|263:117,1,64,0|8,0:0|0:0,0:0:0:0:
441,118,323421,2,0,L|442:36,1,64,8|8,0:0|0:0,0:0:0:0:
292,41,323694,1,8,0:0:0:0:
464,114,323784,2,0,L|388:119,1,64,8|0,0:0|0:0,0:0:0:0:
238,194,323966,2,0,L|226:268,1,64,8|0,0:0|0:0,0:0:0:0:
66,293,324148,6,0,P|45:240|96:192,1,128,8|8,0:0|0:0,0:0:0:0:
162,143,324421,2,0,L|331:119,1,128,0|8,0:0|0:0,0:0:0:0:
205,120,324694,2,0,L|193:13,1,64,0|8,0:0|0:0,0:0:0:0:
368,55,324875,2,0,L|447:44,1,64,8|0,0:0|0:0,0:0:0:0:
285,149,325148,1,8,0:0:0:0:
124,282,325239,2,0,L|69:318,1,64,8|0,0:0|0:0,0:0:0:0:
249,330,325421,2,0,L|312:336,1,64,8|0,0:0|0:0,0:0:0:0:
130,277,325603,6,0,P|92:204|167:196,1,128,4|8,0:0|0:0,0:0:0:0:
417,87,325966,2,0,L|250:106,1,128,4|4,0:0|0:0,0:0:0:0:
14,164,326330,2,0,L|197:158,1,128,8|4,0:0|0:0,0:0:0:0:
401,221,326694,2,0,P|406:276|358:339,1,128,8|4,0:0|0:0,0:0:0:0:
97,339,327057,6,0,L|-9:242,1,128,0|0,0:0|0:0,0:0:0:0:
102,218,327330,2,0,L|220:144,1,128,0|0,0:0|0:0,0:0:0:0:
127,122,327603,2,0,L|120:33,1,64,8|0,0:0|0:0,0:0:0:0:
364,48,327784,2,0,L|470:48,1,64,8|8,0:0|0:0,0:0:0:0:
277,124,328057,1,0,0:0:0:0:
468,214,328148,2,0,L|471:278,1,64,8|0,0:0|0:0,0:0:0:0:
254,316,328330,2,0,L|183:337,1,64,8|0,0:0|0:0,0:0:0:0:
380,335,328512,6,0,L|524:352,1,128,8|8,0:0|0:0,0:0:0:0:
411,280,328784,2,0,L|264:276,1,128,8|0,0:0|0:0,0:0:0:0:
315,215,329057,2,0,L|401:210,1,64,8|0,0:0|0:0,0:0:0:0:
145,152,329239,2,0,L|142:40,1,64,8|0,0:0|0:0,0:0:0:0:
368,62,329421,2,0,L|432:62,1,64,8|0,0:0|0:0,0:0:0:0:
232,69,329603,2,0,L|148:70,1,64,8|0,0:0|0:0,0:0:0:0:
4,162,329784,2,0,L|7:257,1,64,8|0,0:0|0:0,0:0:0:0:
238,307,329966,6,0,L|410:286,1,128,8|8,0:0|0:0,0:0:0:0:
276,213,330239,2,0,L|122:193,1,128,8|0,0:0|0:0,0:0:0:0:
101,169,330512,2,0,L|215:155,1,64,8|0,0:0|0:0,0:0:0:0:
398,134,330694,2,0,L|388:217,1,64,8|0,0:0|0:0,0:0:0:0:
219,225,330966,1,8,0:0:0:0:
425,308,331057,2,0,L|494:312,1,64,8|0,0:0|0:0,0:0:0:0:
269,356,331239,2,0,L|177:358,1,64,8|0,0:0|0:0,0:0:0:0:
459,252,331421,6,0,L|461:163,1,64,8|0,0:0|0:0,0:0:0:0:
387,158,331603,1,8,0:0:0:0:
169,110,331694,2,0,L|73:107,2,64,8|0|8,0:0|0:0|0:0,0:0:0:0:
387,158,331966,2,0,L|393:235,1,64,8|0,0:0|0:0,0:0:0:0:
303,257,332148,1,8,0:0:0:0:
101,312,332239,2,0,L|-3:313,1,64,8|0,0:0|0:0,0:0:0:0:
101,258,332421,1,8,0:0:0:0:
372,240,332512,2,0,L|440:169,1,64,12|0,0:0|0:0,0:0:0:0:
163,181,332694,2,0,L|102:115,1,64,4|0,0:0|0:0,0:0:0:0:
374,67,332875,5,6,0:0:0:0:
441,148,333057,1,0,0:0:0:0:
370,212,333239,1,0,0:0:0:0:
288,260,333421,1,8,0:0:0:0:
371,338,333603,1,0,0:0:0:0:
288,260,333784,1,0,0:0:0:0:
370,212,333966,1,0,0:0:0:0:
448,143,334148,1,8,0:0:0:0:
364,60,334330,5,0,0:0:0:0:
448,143,334512,1,0,0:0:0:0:
370,212,334694,1,0,0:0:0:0:
168,282,334875,1,8,0:0:0:0:
260,335,335057,1,0,0:0:0:0:
168,282,335239,1,0,0:0:0:0:
76,211,335421,1,0,0:0:0:0:
171,136,335603,1,8,0:0:0:0:
361,141,335694,1,0,0:0:0:0:
464,147,335784,6,0,L|495:4,1,128,4|0,0:0|0:0,0:0:0:0:
327,151,336148,2,0,L|301:2,1,128,4|0,0:0|0:0,0:0:0:0:
151,163,336512,2,0,L|183:18,1,128,4|0,0:0|0:0,0:0:0:0:
25,167,336875,2,0,L|-2:10,1,128,4|0,0:0|0:0,0:0:0:0:
340,283,337239,6,0,L|413:281,1,64,4|0,0:0|0:0,0:0:0:0:
457,280,337421,1,0,0:0:0:0:
116,297,337603,2,0,L|14:313,3,64,4|0|4|4,0:0|0:0|0:0|0:0,0:0:0:0:
256,239,337966,1,8,0:0:0:0:
285,201,338057,1,0,0:0:0:0:
256,239,338148,1,0,0:0:0:0:
185,263,338239,1,0,0:0:0:0:
390,295,338330,2,0,B|517:277|517:277|343:299,1,255.359989479493,8|0,0:0|0:0,0:0:0:0:
74,329,338694,5,0,0:0:0:0:
256,192,338875,12,0,350239,0:0:0:0:
