osu file format v14

[General]
AudioFilename: 33366.mp3
AudioLeadIn: 0
PreviewTime: 52881
Countdown: 0
SampleSet: Soft
StackLeniency: 0.7
Mode: 3
LetterboxInBreaks: 0
SpecialStyle: 0
WidescreenStoryboard: 1

[Editor]
Bookmarks: 52154,93972,146700,188518,235427,273245,321245
DistanceSpacing: 0.8
BeatDivisor: 4
GridSize: 8
TimelineZoom: 1

[Metadata]
Title:Hoshi ga Furanai Machi
TitleUnicode:星が降らない街
Artist:Chroma
ArtistUnicode:黒魔
Creator:LeiN-
Version:StarFalLing
Source:
Tags:HAPPYNATION #2 Electronic Chiptune Fullerene- NotEvenDoomMusic NEDM CLSW Spectator Ascendance
BeatmapID:570789
BeatmapSetID:248074

[Difficulty]
HPDrainRate:8
CircleSize:4
OverallDifficulty:8
ApproachRate:5
SliderMultiplier:1.4
SliderTickRate:1

[Events]
//Background and Video events
0,0,"C mna.jpg",0,0
//Break Periods
2,258809,268772
//Storyboard Layer 0 (Background)
//Storyboard Layer 1 (Fail)
//Storyboard Layer 2 (Pass)
//Storyboard Layer 3 (Foreground)
//Storyboard Sound Samples

[TimingPoints]
2700,363.636363636364,4,2,0,30,1,0
53609,-100,4,2,0,30,0,1
76881,-100,4,2,0,30,0,0
148154,-100,4,2,0,30,0,1
171427,-100,4,2,0,30,0,0
258700,-10000,4,2,0,30,0,0
258809.09,-5025.1256281407,4,2,0,30,0,0
258918.18,-3355.70469798658,4,2,0,30,0,0
259027.27,-2518.89168765743,4,2,0,30,0,0
259136.36,-2016.12903225806,4,2,0,30,0,0
259245.45,-1680.67226890756,4,2,0,30,0,0
259354.54,-1440.92219020173,4,2,0,30,0,0
259463.63,-1261.03404791929,4,2,0,30,0,0
259572.72,-1121.07623318386,4,2,0,30,0,0
259681.81,-1009.08173562059,4,2,0,30,0,0
259790.9,-917.43119266055,4,2,0,30,0,0
259899.99,-841.042893187553,4,2,0,30,0,0
260009.08,-776.39751552795,4,2,0,30,0,0
260118.17,-720.980533525595,4,2,0,30,0,0
260227.26,-672.947510094213,4,2,0,30,0,0
260336.35,-630.914826498423,4,2,0,30,0,0
260445.44,-593.824228028504,4,2,0,30,0,0
260554.53,-560.852495793606,4,2,0,30,0,0
260663.62,-531.34962805526,4,2,0,30,0,0
260772.71,-504.795557799091,4,2,0,30,0,0
260881.8,-480.769230769231,4,2,0,30,0,0
260990.89,-458.926112895824,4,2,0,30,0,0
261099.98,-438.981562774363,4,2,0,30,0,0
261209.07,-420.698359276399,4,2,0,30,0,0
261318.16,-403.877221324717,4,2,0,30,0,0
261427.25,-388.349514563107,4,2,0,30,0,0
261536.34,-373.97157816006,4,2,0,30,0,0
261645.43,-360.620266858997,4,2,0,30,0,0
261754.52,-348.189415041783,4,2,0,30,0,0
261863.61,-336.587007741501,4,2,0,30,0,0
261972.7,-325.732899022801,4,2,0,30,0,0
262081.79,-315.556958030925,4,2,0,30,0,0
262190.88,-305.997552019584,4,2,0,30,0,0
262299.97,-297.000297000297,4,2,0,30,0,0
262409.06,-288.517022504328,4,2,0,30,0,0
262518.15,-280.504908835905,4,2,0,30,0,0
262627.24,-272.92576419214,4,2,0,30,0,0
262736.33,-265.745415891576,4,2,0,30,0,0
262845.42,-258.933195235629,4,2,0,30,0,0
262954.51,-252.461499621308,4,2,0,30,0,0
263063.6,-246.305418719212,4,2,0,30,0,0
263172.69,-240.442414041837,4,2,0,30,0,0
263281.78,-234.852043212776,4,2,0,30,0,0
263390.87,-229.515721826945,4,2,0,30,0,0
263499.96,-224.416517055655,4,2,0,30,0,0
263609.05,-219.53896816685,4,2,0,30,0,0
263718.14,-214.868929952729,4,2,0,30,0,0
263827.23,-210.393435724805,4,2,0,30,0,0
263936.32,-206.100577081616,4,2,0,30,0,0
264045.41,-201.979398101394,4,2,0,30,0,0
264154.5,-198.019801980198,4,2,0,30,0,0
264263.59,-194.212468440474,4,2,0,30,0,0
264372.68,-190.548780487805,4,2,0,30,0,0
264481.77,-187.020759304283,4,2,0,30,0,0
264590.86,-183.621006243114,4,2,0,30,0,0
264699.95,-180.34265103697,4,2,0,30,0,0
264809.04,-177.179305457123,4,2,0,30,0,0
264918.13,-174.125021765628,4,2,0,30,0,0
265027.22,-171.174255391989,4,2,0,30,0,0
265136.31,-168.321831341525,4,2,0,30,0,0
265245.4,-165.562913907285,4,2,0,30,0,0
265354.49,-162.892979312592,4,2,0,30,0,0
265463.58,-160.307790958641,4,2,0,30,0,0
265572.67,-157.803376992268,4,2,0,30,0,0
265681.76,-155.376009944065,4,2,0,30,0,0
265790.85,-153.022188217292,4,2,0,30,0,0
265899.94,-150.738619234248,4,2,0,30,0,0
266009.03,-148.522204069508,4,2,0,30,0,0
266118.12,-146.370023419204,4,2,0,30,0,0
266227.21,-144.27932477276,4,2,0,30,0,0
266336.3,-142.247510668563,4,2,0,30,0,0
266445.39,-140.272127928181,4,2,0,30,0,0
266554.48,-138.350857775318,4,2,0,30,0,0
266663.57,-136.481506755835,4,2,0,30,0,0
266772.66,-134.661998384056,4,2,0,30,0,0
266881.75,-132.890365448505,4,2,0,30,0,0
266990.84,-131.164742917104,4,2,0,30,0,0
267099.93,-129.483361388062,4,2,0,30,0,0
267209.02,-127.844541038098,4,2,0,30,0,0
267318.11,-126.246686024492,4,2,0,30,0,0
267427.2,-124.688279301746,4,2,0,30,0,0
267536.29,-123.167877817465,4,2,0,30,0,0
267645.38,-121.684108055488,4,2,0,30,0,0
267754.47,-120.235661897319,4,2,0,30,0,0
267863.56,-118.821292775665,4,2,0,30,0,0
267972.65,-117.439812096301,4,2,0,30,0,0
268081.74,-116.090085906664,4,2,0,30,0,0
268190.83,-114.771031791576,4,2,0,30,0,0
268299.92,-113.481615978212,4,2,0,30,0,0
268409.01,-112.220850634048,4,2,0,30,0,0
268518.1,-110.987791342952,4,2,0,30,0,0
268627.19,-109.781534745856,4,2,0,30,0,0
268736.28,-108.601216333623,4,2,0,30,0,0
268845.37,-107.446008380789,4,2,0,30,0,0
268954.46,-106.315118009781,4,2,0,30,0,0
269063.55,-105.207785376118,4,2,0,30,0,0
269172.64,-104.123281965848,4,2,0,30,0,0
269281.73,-103.060908997217,4,2,0,30,0,0
269390.82,-102.0199959192,4,2,0,30,0,0
269499.91,-100.999899000101,4,2,0,30,0,0
269609,-100,4,2,0,30,0,0
274700,-100,4,2,0,30,0,1
274790,-100,4,2,0,30,0,0
297972,-100,4,2,0,30,0,1
321245,-100,4,2,0,30,0,0

[HitObjects]
320,192,2700,5,0,0:0:0:50:clapL.wav
64,192,2700,1,0,0:0:0:50:kick.wav
448,192,2700,1,0,0:0:0:50:crash.wav
192,192,2881,1,0,0:0:0:0:
320,192,3063,1,0,0:0:0:0:
448,192,3245,1,0,0:0:0:0:
64,192,3427,1,0,0:0:0:0:
192,192,3609,1,0,0:0:0:0:
320,192,3790,1,0,0:0:0:0:
448,192,3972,1,0,0:0:0:0:
64,192,4154,1,0,0:0:0:0:
192,192,4336,1,0,0:0:0:12:clap.wav
448,192,4336,1,0,0:0:0:50:kick.wav
320,192,4518,1,0,0:0:0:0:
448,192,4700,1,0,0:0:0:0:
192,192,4745,1,0,0:0:0:0:
64,192,4881,1,0,0:0:0:0:
448,192,5018,1,0,0:0:0:0:
192,192,5063,1,0,0:0:0:0:
320,192,5245,1,0,0:0:0:0:
192,192,5427,1,0,0:0:0:12:clap.wav
448,192,5427,1,0,0:0:0:50:kick.wav
64,192,5609,1,0,0:0:0:0:
448,192,5790,1,0,0:0:0:40:kick.wav
192,192,5790,1,0,0:0:0:0:
320,192,5972,1,0,0:0:0:0:
448,192,6154,1,0,0:0:0:0:
64,192,6336,1,0,0:0:0:0:
448,192,6518,1,0,0:0:0:30:kick.wav
192,192,6518,1,0,0:0:0:0:
320,192,6700,1,0,0:0:0:0:
448,192,6881,1,0,0:0:0:0:
64,192,7063,1,0,0:0:0:0:
448,192,7245,1,0,0:0:0:20:kick.wav
192,192,7245,1,0,0:0:0:0:
320,192,7427,1,0,0:0:0:0:
448,192,7609,1,0,0:0:0:0:
320,192,7700,1,0,0:0:0:0:
64,192,7790,1,0,0:0:0:0:
448,192,7972,1,0,0:0:0:10:kick.wav
192,192,7972,1,0,0:0:0:0:
320,192,8154,1,0,0:0:0:0:
448,192,8336,1,0,0:0:0:0:
64,192,8518,1,0,0:0:0:0:
192,192,8700,1,0,0:0:0:0:
320,192,8881,1,0,0:0:0:0:
448,192,9063,1,0,0:0:0:0:
192,192,9200,1,0,0:0:0:0:
64,192,9245,1,0,0:0:0:0:
192,192,9427,1,0,0:0:0:0:
448,192,9563,1,0,0:0:0:0:
320,192,9609,1,0,0:0:0:0:
448,192,9790,1,0,0:0:0:0:
192,192,9972,1,0,0:0:0:0:
64,192,9972,1,0,0:0:0:0:
320,192,9995,1,0,0:0:0:0:
192,192,10154,1,0,0:0:0:0:
448,192,10290,1,0,0:0:0:0:
320,192,10336,1,0,0:0:0:0:
448,192,10518,1,0,0:0:0:0:
64,192,10700,1,0,0:0:0:0:
192,192,10881,1,0,0:0:0:0:
320,192,11063,1,0,0:0:0:0:
64,192,11109,1,0,0:0:0:0:
448,192,11245,1,0,0:0:0:0:
64,192,11427,1,0,0:0:0:0:
192,192,11472,1,0,0:0:0:0:
192,192,11609,1,0,0:0:0:0:
320,192,11790,1,0,0:0:0:0:
448,192,11836,1,0,0:0:0:0:
448,192,11972,1,0,0:0:0:0:
64,192,12154,1,0,0:0:0:0:
448,192,12245,1,0,0:0:0:0:
192,192,12336,1,0,0:0:0:0:
320,192,12518,1,0,0:0:0:0:
64,192,12609,1,0,0:0:0:0:
448,192,12700,1,0,0:0:0:0:
64,192,12881,1,0,0:0:0:0:
448,192,12972,1,0,0:0:0:0:
192,192,13063,1,0,0:0:0:0:
320,192,13245,1,0,0:0:0:0:
448,192,13427,1,0,0:0:0:0:
64,192,13609,1,0,0:0:0:0:
192,192,13790,1,0,0:0:0:0:
320,192,13972,1,0,0:0:0:0:
448,192,14154,1,0,0:0:0:0:
64,192,14336,1,0,0:0:0:0:
320,192,14518,128,0,14609:0:0:0:100:hat.wav
192,192,14700,1,0,0:0:0:0:
320,192,14881,128,0,14972:0:0:0:100:hat.wav
64,192,15063,1,0,0:0:0:0:
320,192,15245,128,0,15336:0:0:0:100:hat.wav
192,192,15427,1,0,0:0:0:0:
320,192,15609,128,0,15700:0:0:0:100:hat.wav
64,192,15790,1,0,0:0:0:0:
448,192,15972,128,0,16063:0:0:0:100:hat.wav
192,192,16154,1,0,0:0:0:0:
320,192,16336,128,0,16427:0:0:0:100:hat.wav
64,192,16518,1,0,0:0:0:0:
448,192,16700,128,0,16790:0:0:0:100:hat.wav
192,192,16881,1,0,0:0:0:0:
320,192,17063,128,0,17154:0:0:0:100:hat.wav
64,192,17245,1,0,0:0:0:0:
320,192,17427,128,0,17518:0:0:0:100:hat.wav
192,192,17609,1,0,0:0:0:0:
448,192,17790,128,0,17881:0:0:0:100:hat.wav
64,192,17972,1,0,0:0:0:0:
320,192,18154,128,0,18245:0:0:0:100:hat.wav
192,192,18336,1,0,0:0:0:0:
448,192,18518,128,0,18609:0:0:0:100:hat.wav
64,192,18700,1,0,0:0:0:0:
448,192,18881,128,0,18972:0:0:0:100:hat.wav
320,192,19063,1,0,0:0:0:0:
448,192,19245,128,0,19336:0:0:0:100:hat.wav
64,192,19427,1,0,0:0:0:0:
448,192,19609,128,0,19700:0:0:0:100:hat.wav
320,192,19790,1,0,0:0:0:0:
448,192,19972,128,0,20063:0:0:0:100:hat.wav
64,192,20154,1,0,0:0:0:0:
192,192,20336,128,0,20427:0:0:0:100:hat.wav
64,192,20518,1,0,0:0:0:0:
320,192,20700,128,0,20790:0:0:0:100:hat.wav
64,192,20881,1,0,0:0:0:0:
192,192,21063,128,0,21154:0:0:0:100:hat.wav
64,192,21245,1,0,0:0:0:0:
320,192,21427,128,0,21518:0:0:0:100:hat.wav
64,192,21609,1,0,0:0:0:0:
192,192,21790,128,0,21881:0:0:0:100:hat.wav
64,192,21972,1,0,0:0:0:0:
448,192,22154,128,0,22245:0:0:0:100:hat.wav
64,192,22336,1,0,0:0:0:0:
192,192,22518,128,0,22609:0:0:0:100:hat.wav
64,192,22700,1,0,0:0:0:0:
448,192,22881,128,0,22972:0:0:0:100:hat.wav
64,192,23063,1,0,0:0:0:0:
320,192,23245,128,0,23336:0:0:0:100:hat.wav
192,192,23427,1,0,0:0:0:0:
320,192,23609,128,0,23700:0:0:0:100:hat.wav
64,192,23790,1,0,0:0:0:0:
320,192,23972,128,0,24063:0:0:0:100:hat.wav
192,192,24154,1,0,0:0:0:0:
320,192,24336,128,0,24427:0:0:0:100:hat.wav
64,192,24518,1,0,0:0:0:0:
320,192,24700,128,0,24790:0:0:0:100:hat.wav
192,192,24881,1,0,0:0:0:0:
448,192,25063,128,0,25154:0:0:0:100:hat.wav
64,192,25245,1,0,0:0:0:0:
320,192,25427,128,0,25518:0:0:0:100:hat.wav
192,192,25609,1,0,0:0:0:0:
448,192,25790,128,0,25881:0:0:0:100:hat.wav
64,192,25972,1,0,0:0:0:0:
320,192,26154,128,0,26336:0:0:0:100:hat.wav
192,192,26336,1,0,0:0:0:0:
320,192,26518,128,0,26700:0:0:0:100:hat.wav
64,192,26700,1,0,0:0:0:0:
320,192,26881,128,0,27063:0:0:0:100:hat.wav
192,192,27063,1,0,0:0:0:0:
320,192,27245,128,0,27427:0:0:0:100:hat.wav
64,192,27427,1,0,0:0:0:0:
448,192,27609,128,0,27790:0:0:0:100:hat.wav
192,192,27790,1,0,0:0:0:0:
448,192,27972,128,0,28154:0:0:0:100:hat.wav
64,192,28154,1,0,0:0:0:0:
448,192,28336,128,0,28518:0:0:0:100:hat.wav
192,192,28518,1,0,0:0:0:0:
448,192,28700,128,0,28881:0:0:0:100:hat.wav
64,192,28881,1,0,0:0:0:0:
192,192,29063,128,0,29245:0:0:0:100:hat.wav
320,192,29245,1,0,0:0:0:0:
192,192,29427,128,0,29609:0:0:0:100:hat.wav
64,192,29609,1,0,0:0:0:0:
192,192,29790,128,0,29972:0:0:0:100:hat.wav
320,192,29972,1,0,0:0:0:0:
192,192,30154,128,0,30336:0:0:0:100:hat.wav
64,192,30336,1,0,0:0:0:0:
448,192,30518,128,0,30700:0:0:0:100:hat.wav
192,192,30700,1,0,0:0:0:0:
448,192,30881,128,0,31063:0:0:0:100:hat.wav
64,192,31063,1,0,0:0:0:0:
448,192,31245,128,0,31427:0:0:0:100:hat.wav
192,192,31427,1,0,0:0:0:0:
448,192,31609,128,0,31790:0:0:0:100:hat.wav
64,192,31790,1,0,0:0:0:0:
192,192,31972,128,0,32154:0:0:0:100:hat.wav
448,192,32154,1,0,0:0:0:0:
192,192,32336,128,0,32518:0:0:0:100:hat.wav
64,192,32518,1,0,0:0:0:0:
192,192,32700,128,0,32881:0:0:0:100:hat.wav
448,192,32881,1,0,0:0:0:0:
192,192,33063,128,0,33245:0:0:0:100:hat.wav
64,192,33245,1,0,0:0:0:0:
320,192,33427,128,0,33609:0:0:0:100:hat.wav
448,192,33609,1,0,0:0:0:0:
320,192,33790,128,0,33972:0:0:0:100:hat.wav
64,192,33972,1,0,0:0:0:0:
320,192,34154,128,0,34336:0:0:0:100:hat.wav
448,192,34336,1,0,0:0:0:0:
320,192,34518,128,0,34700:0:0:0:100:hat.wav
64,192,34700,1,0,0:0:0:0:
448,192,34881,128,0,35063:0:0:0:100:hat.wav
192,192,35063,1,0,0:0:0:0:
448,192,35245,128,0,35427:0:0:0:100:hat.wav
64,192,35427,1,0,0:0:0:0:
448,192,35609,128,0,35790:0:0:0:100:hat.wav
192,192,35790,1,0,0:0:0:0:
448,192,35972,128,0,36154:0:0:0:100:hat.wav
320,192,36154,1,0,0:0:0:0:
64,192,36336,128,0,36518:0:0:0:100:hat.wav
448,192,36518,1,0,0:0:0:0:
64,192,36700,128,0,36881:0:0:0:100:hat.wav
320,192,36881,1,0,0:0:0:0:
64,192,37063,1,0,0:0:0:50:kick.wav
192,192,37109,1,0,0:0:0:50:kick.wav
320,192,37154,1,0,0:0:0:50:kick.wav
448,192,37200,1,0,0:0:0:50:kick.wav
64,192,37245,1,0,0:0:0:50:kick.wav
192,192,37245,1,0,0:0:0:0:
448,192,37427,1,0,0:0:0:50:kick.wav
320,192,37518,1,0,0:0:0:50:kick.wav
64,192,37609,1,0,0:0:0:50:crash.wav
192,192,37609,1,0,0:0:0:50:kick.wav
448,192,37609,1,0,0:0:0:50:clapL.wav
320,192,37790,1,0,0:0:0:100:hat.wav
64,192,37972,1,0,0:0:0:50:kick.wav
448,192,38154,1,0,0:0:0:100:hat.wav
64,192,38336,1,0,0:0:0:50:kick.wav
192,192,38336,1,0,0:0:0:0:
320,192,38518,1,0,0:0:0:100:hat.wav
64,192,38700,1,0,0:0:0:50:kick.wav
448,192,38881,1,0,0:0:0:100:hat.wav
64,192,39063,1,0,0:0:0:50:kick.wav
192,192,39063,1,0,0:0:0:0:
320,192,39245,1,0,0:0:0:100:hat.wav
64,192,39427,1,0,0:0:0:50:kick.wav
448,192,39609,1,0,0:0:0:100:hat.wav
64,192,39790,1,0,0:0:0:50:kick.wav
192,192,39790,1,0,0:0:0:0:
320,192,39972,1,0,0:0:0:100:hat.wav
64,192,40154,1,0,0:0:0:50:kick.wav
448,192,40336,1,0,0:0:0:100:hat.wav
64,192,40518,1,0,0:0:0:50:kick.wav
192,192,40518,1,0,0:0:0:0:
448,192,40700,1,0,0:0:0:100:hat.wav
64,192,40881,1,0,0:0:0:50:kick.wav
320,192,41063,1,0,0:0:0:100:hat.wav
64,192,41245,1,0,0:0:0:50:kick.wav
192,192,41245,1,0,0:0:0:0:
448,192,41427,1,0,0:0:0:100:hat.wav
64,192,41609,1,0,0:0:0:50:kick.wav
320,192,41790,1,0,0:0:0:100:hat.wav
64,192,41972,1,0,0:0:0:50:kick.wav
192,192,41972,1,0,0:0:0:0:
448,192,42154,1,0,0:0:0:100:hat.wav
64,192,42336,1,0,0:0:0:50:kick.wav
448,192,42518,1,0,0:0:0:100:hat.wav
64,192,42700,1,0,0:0:0:50:kick.wav
192,192,42700,1,0,0:0:0:0:
448,192,42881,1,0,0:0:0:100:hat.wav
64,192,43063,1,0,0:0:0:50:kick.wav
448,192,43245,1,0,0:0:0:100:hat.wav
64,192,43427,1,0,0:0:0:50:kick.wav
192,192,43427,1,0,0:0:0:0:
320,192,43609,1,0,0:0:0:100:hat.wav
192,192,43790,1,0,0:0:0:50:kick.wav
448,192,43972,1,0,0:0:0:100:hat.wav
64,192,44154,1,0,0:0:0:50:kick.wav
192,192,44154,1,0,0:0:0:0:
320,192,44336,1,0,0:0:0:100:hat.wav
192,192,44518,1,0,0:0:0:50:kick.wav
448,192,44700,1,0,0:0:0:100:hat.wav
64,192,44881,1,0,0:0:0:50:kick.wav
192,192,44881,1,0,0:0:0:0:
448,192,45063,1,0,0:0:0:100:hat.wav
192,192,45245,1,0,0:0:0:50:kick.wav
320,192,45427,1,0,0:0:0:100:hat.wav
64,192,45609,1,0,0:0:0:50:kick.wav
192,192,45609,1,0,0:0:0:0:
448,192,45790,1,0,0:0:0:100:hat.wav
192,192,45972,1,0,0:0:0:50:kick.wav
320,192,46154,1,0,0:0:0:100:hat.wav
192,192,46336,1,0,0:0:0:0:
64,192,46336,1,0,0:0:0:50:kick.wav
320,192,46518,1,0,0:0:0:100:hat.wav
448,192,46700,1,0,0:0:0:50:kick.wav
320,192,46881,1,0,0:0:0:100:hat.wav
192,192,47063,1,0,0:0:0:0:
64,192,47063,1,0,0:0:0:50:kick.wav
320,192,47245,1,0,0:0:0:100:hat.wav
448,192,47427,1,0,0:0:0:50:kick.wav
320,192,47609,1,0,0:0:0:100:hat.wav
64,192,47790,1,0,0:0:0:50:kick.wav
192,192,47790,1,0,0:0:0:0:
320,192,47972,1,0,0:0:0:100:hat.wav
448,192,48154,1,0,0:0:0:50:kick.wav
448,192,48336,1,0,0:0:0:100:hat.wav
64,192,48518,1,0,0:0:0:50:kick.wav
192,192,48518,1,0,0:0:0:0:
320,192,48700,1,0,0:0:0:100:hat.wav
448,192,48881,1,0,0:0:0:50:kick.wav
448,192,49063,1,0,0:0:0:100:hat.wav
64,192,49245,128,0,52154:0:0:0:50:clapL.wav
320,192,49245,1,0,0:0:0:50:kick.wav
192,192,49245,1,0,0:0:0:50:crash.wav
448,192,49427,1,0,0:0:0:100:hat.wav
192,192,49609,1,0,0:0:0:0:
320,192,49790,1,0,0:0:0:100:hat.wav
192,192,49972,1,0,0:0:0:0:
448,192,50154,1,0,0:0:0:100:hat.wav
192,192,50336,1,0,0:0:0:0:
320,192,50518,1,0,0:0:0:100:hat.wav
192,192,50700,1,0,0:0:0:0:
448,192,50881,1,0,0:0:0:100:hat.wav
320,192,51063,1,0,0:0:0:0:
448,192,51245,1,0,0:0:0:100:hat.wav
192,192,51427,1,0,0:0:0:0:
448,192,51609,1,0,0:0:0:100:hat.wav
320,192,51790,1,0,0:0:0:0:
448,192,51972,1,0,0:0:0:100:hat.wav
192,192,52881,1,0,0:0:0:0:
64,192,52972,1,0,0:0:0:0:
320,192,53063,1,0,0:0:0:0:
192,192,53154,1,0,0:0:0:0:
448,192,53245,1,0,0:0:0:0:
320,192,53336,1,0,0:0:0:0:
448,192,53427,1,0,0:0:0:0:
64,192,53518,1,0,0:0:0:0:
192,192,53609,1,0,0:0:0:50:kick.wav
320,0,53609,1,0,0:0:0:50:clapL.wav
448,0,53609,1,0,0:0:0:50:crash.wav
64,192,53700,1,0,0:0:0:0:
320,192,53790,1,0,0:0:0:0:
192,192,53881,1,0,0:0:0:0:
448,192,53881,1,0,0:0:0:0:
64,192,53972,1,0,0:0:0:50:kick.wav
320,192,53972,1,0,0:0:0:50:clap.wav
192,192,54063,1,0,0:0:0:0:
64,192,54154,1,0,0:0:0:0:
448,192,54154,1,0,0:0:0:0:
320,192,54245,1,0,0:0:0:0:
64,192,54336,1,0,0:0:0:50:kick.wav
192,192,54336,1,0,0:0:0:0:
320,192,54427,1,0,0:0:0:0:
448,192,54427,1,0,0:0:0:0:
192,192,54518,1,0,0:0:0:0:
64,192,54609,1,0,0:0:0:0:
192,192,54700,1,0,0:0:0:50:kick.wav
448,192,54700,1,0,0:0:0:50:clap.wav
64,192,54790,1,0,0:0:0:0:
320,192,54881,1,0,0:0:0:0:
448,192,54881,1,0,0:0:0:0:
192,192,54972,1,0,0:0:0:0:
320,192,55063,1,0,0:0:0:50:kick.wav
448,192,55063,1,0,0:0:0:0:
64,192,55154,1,0,0:0:0:0:
192,192,55245,1,0,0:0:0:0:
320,192,55336,1,0,0:0:0:0:
64,192,55336,1,0,0:0:0:0:
192,192,55427,1,0,0:0:0:50:kick.wav
448,192,55427,1,0,0:0:0:50:clap.wav
320,192,55518,1,0,0:0:0:0:
448,192,55609,1,0,0:0:0:0:
64,192,55609,1,0,0:0:0:0:
192,192,55700,1,0,0:0:0:0:
64,192,55790,1,0,0:0:0:50:kick.wav
320,192,55790,1,0,0:0:0:0:
448,192,55881,1,0,0:0:0:0:
64,192,55972,1,0,0:0:0:0:
320,192,56063,1,0,0:0:0:0:
192,192,56154,1,0,0:0:0:50:kick.wav
448,192,56154,1,0,0:0:0:50:clap.wav
64,192,56245,1,0,0:0:0:0:
192,192,56336,1,0,0:0:0:0:
448,192,56336,1,0,0:0:0:0:
320,192,56427,1,0,0:0:0:0:
64,192,56518,1,0,0:0:0:50:kick.wav
192,192,56518,1,0,0:0:0:0:
448,192,56609,1,0,0:0:0:0:
64,192,56700,1,0,0:0:0:0:
320,192,56790,1,0,0:0:0:0:
192,192,56881,1,0,0:0:0:50:kick.wav
448,192,56881,1,0,0:0:0:50:clap.wav
64,192,56972,1,0,0:0:0:0:
192,192,57063,1,0,0:0:0:0:
448,192,57063,1,0,0:0:0:0:
320,192,57154,1,0,0:0:0:0:
64,192,57245,1,0,0:0:0:50:kick.wav
192,192,57245,1,0,0:0:0:0:
448,192,57336,1,0,0:0:0:0:
64,192,57427,1,0,0:0:0:0:
320,192,57518,1,0,0:0:0:0:
192,192,57609,1,0,0:0:0:50:kick.wav
448,192,57609,1,0,0:0:0:50:clap.wav
64,192,57700,1,0,0:0:0:0:
192,192,57790,1,0,0:0:0:0:
448,192,57790,1,0,0:0:0:0:
320,192,57881,1,0,0:0:0:0:
64,192,57972,1,0,0:0:0:50:kick.wav
192,192,57972,1,0,0:0:0:0:
448,192,58063,1,0,0:0:0:0:
64,192,58154,1,0,0:0:0:0:
320,192,58245,1,0,0:0:0:0:
192,192,58336,1,0,0:0:0:50:kick.wav
448,192,58336,1,0,0:0:0:50:clap.wav
64,192,58427,1,0,0:0:0:0:
192,192,58518,1,0,0:0:0:0:
448,192,58518,1,0,0:0:0:0:
320,192,58609,1,0,0:0:0:0:
64,192,58700,1,0,0:0:0:50:kick.wav
448,192,58700,1,0,0:0:0:0:
192,192,58790,1,0,0:0:0:0:
64,192,58881,1,0,0:0:0:0:
448,192,58881,1,0,0:0:0:0:
320,192,58972,1,0,0:0:0:0:
64,192,59063,1,0,0:0:0:50:kick.wav
192,192,59063,1,0,0:0:0:50:clap.wav
448,192,59154,1,0,0:0:0:0:
64,192,59245,1,0,0:0:0:0:
320,192,59245,1,0,0:0:0:0:
448,192,59336,1,0,0:0:0:0:
192,192,59427,1,0,0:0:0:50:kick.wav
320,192,59427,1,0,0:0:0:0:
64,192,59518,1,0,0:0:0:0:
192,192,59609,1,0,0:0:0:0:
320,192,59700,1,0,0:0:0:0:
448,192,59700,1,0,0:0:0:0:
64,192,59790,1,0,0:0:0:50:kick.wav
192,192,59790,1,0,0:0:0:50:clap.wav
320,192,59881,1,0,0:0:0:0:
64,192,59972,1,0,0:0:0:0:
448,192,59972,1,0,0:0:0:0:
192,192,60063,1,0,0:0:0:0:
64,192,60154,1,0,0:0:0:50:kick.wav
320,192,60154,1,0,0:0:0:0:
192,192,60245,1,0,0:0:0:0:
448,192,60245,1,0,0:0:0:0:
320,192,60336,1,0,0:0:0:0:
64,192,60427,1,0,0:0:0:0:
320,192,60518,1,0,0:0:0:50:kick.wav
448,192,60518,1,0,0:0:0:50:clap.wav
64,192,60609,1,0,0:0:0:0:
192,192,60609,1,0,0:0:0:0:
448,192,60700,1,0,0:0:0:0:
64,192,60790,1,0,0:0:0:0:
320,192,60790,1,0,0:0:0:0:
192,192,60881,1,0,0:0:0:50:kick.wav
448,192,60881,1,0,0:0:0:0:
64,192,60972,1,0,0:0:0:0:
320,192,60972,1,0,0:0:0:0:
192,192,61063,1,0,0:0:0:0:
320,192,61154,1,0,0:0:0:0:
64,192,61245,1,0,0:0:0:50:kick.wav
448,192,61245,1,0,0:0:0:50:clap.wav
192,192,61336,1,0,0:0:0:0:
320,192,61336,1,0,0:0:0:0:
64,192,61427,1,0,0:0:0:0:
448,192,61427,1,0,0:0:0:0:
320,192,61518,1,0,0:0:0:0:
64,192,61609,1,0,0:0:0:50:kick.wav
192,192,61609,1,0,0:0:0:0:
448,192,61700,1,0,0:0:0:0:
64,192,61790,1,0,0:0:0:0:
320,192,61881,1,0,0:0:0:0:
192,192,61972,1,0,0:0:0:50:kick.wav
448,192,61972,1,0,0:0:0:50:clap.wav
320,192,62063,1,0,0:0:0:0:
64,192,62154,1,0,0:0:0:0:
448,192,62154,1,0,0:0:0:0:
192,192,62245,1,0,0:0:0:0:
64,192,62336,1,0,0:0:0:50:kick.wav
320,192,62336,1,0,0:0:0:0:
448,192,62427,1,0,0:0:0:0:
64,192,62518,1,0,0:0:0:0:
192,192,62609,1,0,0:0:0:0:
320,192,62700,1,0,0:0:0:50:kick.wav
448,192,62700,1,0,0:0:0:50:clap.wav
64,192,62790,1,0,0:0:0:0:
192,192,62790,1,0,0:0:0:0:
320,192,62881,1,0,0:0:0:0:
448,192,62881,1,0,0:0:0:0:
192,192,62972,1,0,0:0:0:0:
64,192,63063,1,0,0:0:0:50:kick.wav
320,192,63063,1,0,0:0:0:0:
448,192,63154,1,0,0:0:0:0:
64,192,63245,1,0,0:0:0:0:
192,192,63336,1,0,0:0:0:0:
320,192,63427,1,0,0:0:0:50:kick.wav
448,192,63427,1,0,0:0:0:50:clap.wav
64,192,63518,1,0,0:0:0:0:
192,192,63518,1,0,0:0:0:0:
320,192,63609,1,0,0:0:0:0:
448,192,63609,1,0,0:0:0:0:
192,192,63700,1,0,0:0:0:0:
64,192,63790,1,0,0:0:0:50:kick.wav
320,192,63790,1,0,0:0:0:0:
448,192,63881,1,0,0:0:0:0:
64,192,63972,1,0,0:0:0:0:
192,192,63972,1,0,0:0:0:0:
320,192,64063,1,0,0:0:0:0:
192,192,64154,1,0,0:0:0:50:kick.wav
448,192,64154,1,0,0:0:0:50:clap.wav
64,192,64245,1,0,0:0:0:0:
320,192,64336,1,0,0:0:0:0:
448,192,64336,1,0,0:0:0:0:
192,192,64427,1,0,0:0:0:0:
64,192,64518,1,0,0:0:0:50:kick.wav
320,192,64518,1,0,0:0:0:0:
448,192,64518,1,0,0:0:0:0:
192,192,64609,1,0,0:0:0:0:
64,192,64700,1,0,0:0:0:0:
448,192,64700,1,0,0:0:0:0:
320,192,64790,1,0,0:0:0:0:
64,192,64881,1,0,0:0:0:50:kick.wav
448,192,64881,1,0,0:0:0:50:clapL.wav
192,192,64881,1,0,0:0:0:0:
320,192,64972,1,0,0:0:0:0:
64,192,65063,1,0,0:0:0:0:
192,192,65063,1,0,0:0:0:0:
448,192,65154,1,0,0:0:0:0:
320,192,65245,1,0,0:0:0:50:kick.wav
192,0,65245,1,0,0:0:0:50:crash.wav
64,0,65245,1,0,0:0:0:50:clapL.wav
448,192,65336,1,0,0:0:0:0:
320,192,65427,1,0,0:0:0:0:
64,192,65518,1,0,0:0:0:0:
192,192,65518,1,0,0:0:0:0:
320,192,65609,1,0,0:0:0:50:kick.wav
448,192,65609,1,0,0:0:0:50:clap.wav
192,192,65700,1,0,0:0:0:0:
64,192,65790,1,0,0:0:0:0:
448,192,65790,1,0,0:0:0:0:
192,192,65881,1,0,0:0:0:0:
320,192,65972,1,0,0:0:0:50:kick.wav
448,192,65972,1,0,0:0:0:0:
64,192,66063,1,0,0:0:0:0:
192,192,66063,1,0,0:0:0:0:
320,192,66154,1,0,0:0:0:0:
448,192,66245,1,0,0:0:0:0:
64,192,66336,1,0,0:0:0:50:kick.wav
320,192,66336,1,0,0:0:0:50:clap.wav
448,192,66427,1,0,0:0:0:0:
64,192,66518,1,0,0:0:0:0:
192,192,66518,1,0,0:0:0:0:
320,192,66609,1,0,0:0:0:0:
64,192,66700,1,0,0:0:0:50:kick.wav
192,192,66700,1,0,0:0:0:0:
448,192,66790,1,0,0:0:0:0:
320,192,66881,1,0,0:0:0:0:
192,192,66972,1,0,0:0:0:0:
448,192,66972,1,0,0:0:0:0:
64,192,67063,1,0,0:0:0:50:kick.wav
320,192,67063,1,0,0:0:0:50:clap.wav
192,192,67154,1,0,0:0:0:0:
64,192,67245,1,0,0:0:0:0:
448,192,67245,1,0,0:0:0:0:
320,192,67336,1,0,0:0:0:0:
192,192,67427,1,0,0:0:0:50:kick.wav
448,192,67427,1,0,0:0:0:0:
64,192,67518,1,0,0:0:0:0:
448,192,67609,1,0,0:0:0:0:
192,192,67700,1,0,0:0:0:0:
64,192,67790,1,0,0:0:0:50:kick.wav
320,192,67790,1,0,0:0:0:50:clap.wav
448,192,67881,1,0,0:0:0:0:
64,192,67972,1,0,0:0:0:0:
320,192,67972,1,0,0:0:0:0:
192,192,68063,1,0,0:0:0:0:
320,192,68154,1,0,0:0:0:50:kick.wav
448,192,68154,1,0,0:0:0:0:
64,192,68245,1,0,0:0:0:0:
448,192,68336,1,0,0:0:0:0:
192,192,68427,1,0,0:0:0:0:
64,192,68518,1,0,0:0:0:50:kick.wav
320,192,68518,1,0,0:0:0:50:clap.wav
448,192,68609,1,0,0:0:0:0:
64,192,68700,1,0,0:0:0:0:
320,192,68700,1,0,0:0:0:0:
192,192,68790,1,0,0:0:0:0:
320,192,68881,1,0,0:0:0:50:kick.wav
448,192,68881,1,0,0:0:0:0:
64,192,68972,1,0,0:0:0:0:
448,192,69063,1,0,0:0:0:0:
192,192,69154,1,0,0:0:0:0:
64,192,69245,1,0,0:0:0:50:kick.wav
320,192,69245,1,0,0:0:0:50:clap.wav
448,192,69336,1,0,0:0:0:0:
64,192,69427,1,0,0:0:0:0:
320,192,69427,1,0,0:0:0:0:
192,192,69518,1,0,0:0:0:0:
320,192,69609,1,0,0:0:0:50:kick.wav
448,192,69609,1,0,0:0:0:0:
64,192,69700,1,0,0:0:0:0:
448,192,69790,1,0,0:0:0:0:
192,192,69881,1,0,0:0:0:0:
64,192,69972,1,0,0:0:0:50:kick.wav
320,192,69972,1,0,0:0:0:50:clap.wav
448,192,70063,1,0,0:0:0:0:
64,192,70154,1,0,0:0:0:0:
320,192,70154,1,0,0:0:0:0:
192,192,70245,1,0,0:0:0:0:
64,192,70336,1,0,0:0:0:50:kick.wav
448,192,70336,1,0,0:0:0:0:
320,192,70427,1,0,0:0:0:0:
64,192,70518,1,0,0:0:0:0:
192,192,70518,1,0,0:0:0:0:
320,192,70609,1,0,0:0:0:0:
192,192,70700,1,0,0:0:0:50:kick.wav
448,192,70700,1,0,0:0:0:50:clap.wav
64,192,70790,1,0,0:0:0:0:
320,192,70881,1,0,0:0:0:0:
448,192,70881,1,0,0:0:0:0:
64,192,70972,1,0,0:0:0:0:
192,192,71063,1,0,0:0:0:50:kick.wav
320,192,71063,1,0,0:0:0:0:
448,192,71154,1,0,0:0:0:0:
320,192,71245,1,0,0:0:0:0:
64,192,71336,1,0,0:0:0:0:
192,192,71336,1,0,0:0:0:0:
320,192,71427,1,0,0:0:0:50:kick.wav
448,192,71427,1,0,0:0:0:50:clap.wav
192,192,71518,1,0,0:0:0:0:
64,192,71609,1,0,0:0:0:0:
448,192,71609,1,0,0:0:0:0:
320,192,71700,1,0,0:0:0:0:
192,192,71790,1,0,0:0:0:50:kick.wav
448,192,71790,1,0,0:0:0:0:
64,192,71881,1,0,0:0:0:0:
320,192,71881,1,0,0:0:0:0:
192,192,71972,1,0,0:0:0:0:
448,192,72063,1,0,0:0:0:0:
64,192,72154,1,0,0:0:0:50:kick.wav
192,192,72154,1,0,0:0:0:50:clap.wav
448,192,72245,1,0,0:0:0:0:
64,192,72336,1,0,0:0:0:0:
320,192,72336,1,0,0:0:0:0:
192,192,72427,1,0,0:0:0:0:
320,192,72518,1,0,0:0:0:50:kick.wav
448,192,72518,1,0,0:0:0:0:
64,192,72609,1,0,0:0:0:0:
192,192,72700,1,0,0:0:0:0:
320,192,72790,1,0,0:0:0:0:
448,192,72790,1,0,0:0:0:0:
64,192,72881,1,0,0:0:0:50:kick.wav
192,192,72881,1,0,0:0:0:50:clap.wav
320,192,72972,1,0,0:0:0:0:
64,192,73063,1,0,0:0:0:0:
448,192,73063,1,0,0:0:0:0:
192,192,73154,1,0,0:0:0:0:
320,192,73245,1,0,0:0:0:50:kick.wav
448,192,73245,1,0,0:0:0:0:
64,192,73336,1,0,0:0:0:0:
448,192,73427,1,0,0:0:0:0:
320,192,73518,1,0,0:0:0:0:
64,192,73609,1,0,0:0:0:50:kick.wav
192,192,73609,1,0,0:0:0:50:clap.wav
320,192,73700,1,0,0:0:0:0:
64,192,73790,1,0,0:0:0:0:
448,192,73790,1,0,0:0:0:0:
192,192,73881,1,0,0:0:0:0:
320,192,73972,1,0,0:0:0:50:kick.wav
448,192,73972,1,0,0:0:0:0:
64,192,74063,1,0,0:0:0:0:
192,192,74154,1,0,0:0:0:0:
320,192,74245,1,0,0:0:0:0:
64,192,74336,1,0,0:0:0:50:kick.wav
192,192,74336,1,0,0:0:0:50:clap.wav
448,192,74427,1,0,0:0:0:0:
320,192,74518,1,0,0:0:0:0:
192,192,74609,1,0,0:0:0:0:
320,192,74700,1,0,0:0:0:50:kick.wav
448,192,74700,1,0,0:0:0:0:
64,192,74790,1,0,0:0:0:0:
192,192,74881,1,0,0:0:0:0:
320,192,74972,1,0,0:0:0:0:
64,192,75063,1,0,0:0:0:50:kick.wav
192,192,75063,1,0,0:0:0:50:clap.wav
448,192,75154,1,0,0:0:0:0:
320,192,75245,1,0,0:0:0:0:
192,192,75336,1,0,0:0:0:0:
320,192,75427,1,0,0:0:0:50:kick.wav
448,192,75427,1,0,0:0:0:0:
64,192,75518,1,0,0:0:0:0:
192,192,75609,1,0,0:0:0:0:
448,192,75609,1,0,0:0:0:0:
320,192,75700,1,0,0:0:0:0:
64,192,75790,1,0,0:0:0:50:kick.wav
192,192,75790,1,0,0:0:0:50:clap.wav
448,192,75881,1,0,0:0:0:0:
64,192,75972,1,0,0:0:0:0:
320,192,75972,1,0,0:0:0:0:
192,192,76063,1,0,0:0:0:0:
64,192,76154,1,0,0:0:0:50:kick.wav
448,192,76154,1,0,0:0:0:0:
192,192,76245,1,0,0:0:0:0:
320,192,76336,1,0,0:0:0:0:
448,192,76336,1,0,0:0:0:50:clap.wav
64,192,76427,1,0,0:0:0:0:
192,192,76427,1,0,0:0:0:50:clap.wav
320,192,76518,1,0,0:0:0:50:kick.wav
448,192,76518,1,0,0:0:0:50:clap.wav
192,192,76609,1,0,0:0:0:0:
64,192,76700,1,0,0:0:0:0:
448,192,76700,1,0,0:0:0:50:clap.wav
320,192,76790,1,0,0:0:0:0:
448,192,76881,1,0,0:0:0:50:kick.wav
192,0,76881,1,0,0:0:0:50:crash.wav
64,0,76881,1,0,0:0:0:50:clapL.wav
320,192,76972,1,0,0:0:0:0:
64,192,77063,1,0,0:0:0:0:
192,192,77063,1,0,0:0:0:0:
320,192,77154,1,0,0:0:0:0:
448,192,77154,1,0,0:0:0:0:
192,192,77245,1,0,0:0:0:50:clap.wav
64,192,77336,1,0,0:0:0:0:
448,192,77336,1,0,0:0:0:0:
192,192,77427,1,0,0:0:0:0:
320,192,77427,1,0,0:0:0:0:
448,192,77518,1,0,0:0:0:0:
64,192,77609,1,0,0:0:0:50:kick.wav
320,192,77609,1,0,0:0:0:0:
192,192,77700,1,0,0:0:0:0:
448,192,77700,1,0,0:0:0:0:
64,192,77790,1,0,0:0:0:0:
192,192,77881,1,0,0:0:0:0:
320,192,77881,1,0,0:0:0:0:
64,192,77972,1,0,0:0:0:0:
448,192,77972,1,0,0:0:0:50:clap.wav
320,192,78063,1,0,0:0:0:0:
64,192,78154,1,0,0:0:0:0:
192,192,78154,1,0,0:0:0:0:
320,192,78245,1,0,0:0:0:0:
192,192,78336,1,0,0:0:0:50:kick.wav
448,192,78336,1,0,0:0:0:0:
64,192,78427,1,0,0:0:0:0:
320,192,78518,1,0,0:0:0:0:
448,192,78518,1,0,0:0:0:0:
64,192,78609,1,0,0:0:0:0:
192,192,78609,1,0,0:0:0:0:
448,192,78700,1,0,0:0:0:50:clap.wav
192,192,78790,1,0,0:0:0:0:
320,192,78790,1,0,0:0:0:0:
64,192,78881,1,0,0:0:0:0:
448,192,78881,1,0,0:0:0:0:
320,192,78972,1,0,0:0:0:0:
64,192,79063,1,0,0:0:0:50:kick.wav
192,192,79063,1,0,0:0:0:0:
320,192,79154,1,0,0:0:0:0:
448,192,79154,1,0,0:0:0:0:
192,192,79245,1,0,0:0:0:0:
64,192,79336,1,0,0:0:0:0:
448,192,79336,1,0,0:0:0:0:
192,192,79427,1,0,0:0:0:0:
320,192,79427,1,0,0:0:0:50:clap.wav
448,192,79518,1,0,0:0:0:0:
64,192,79609,1,0,0:0:0:0:
192,192,79609,1,0,0:0:0:0:
320,192,79700,1,0,0:0:0:0:
64,192,79790,1,0,0:0:0:50:kick.wav
448,192,79790,1,0,0:0:0:0:
192,192,79881,1,0,0:0:0:0:
320,192,79972,1,0,0:0:0:0:
448,192,79972,1,0,0:0:0:0:
64,192,80063,1,0,0:0:0:0:
192,192,80063,1,0,0:0:0:0:
320,192,80154,1,0,0:0:0:50:clap.wav
192,192,80245,1,0,0:0:0:0:
448,192,80245,1,0,0:0:0:0:
64,192,80336,1,0,0:0:0:0:
320,192,80336,1,0,0:0:0:0:
192,192,80427,1,0,0:0:0:0:
64,192,80518,1,0,0:0:0:50:kick.wav
448,192,80518,1,0,0:0:0:0:
192,192,80609,1,0,0:0:0:0:
320,192,80609,1,0,0:0:0:0:
448,192,80700,1,0,0:0:0:0:
64,192,80790,1,0,0:0:0:0:
320,192,80790,1,0,0:0:0:0:
192,192,80881,1,0,0:0:0:0:
448,192,80881,1,0,0:0:0:50:clap.wav
320,192,80972,1,0,0:0:0:0:
192,192,81063,1,0,0:0:0:0:
448,192,81063,1,0,0:0:0:0:
64,192,81154,1,0,0:0:0:0:
192,192,81245,1,0,0:0:0:50:kick.wav
320,192,81245,1,0,0:0:0:50:kick.wav
448,192,81245,1,0,0:0:0:0:
448,192,81427,1,0,0:0:0:0:
448,192,81518,1,0,0:0:0:0:
64,192,81609,1,0,0:0:0:50:clap.wav
192,192,81609,1,0,0:0:0:0:
320,192,81609,1,0,0:0:0:50:clap.wav
192,192,81790,1,0,0:0:0:0:
192,192,81881,1,0,0:0:0:0:
64,192,81972,1,0,0:0:0:50:kick.wav
320,192,81972,1,0,0:0:0:0:
448,192,81972,1,0,0:0:0:50:kick.wav
320,192,82154,1,0,0:0:0:0:
320,192,82245,1,0,0:0:0:0:
192,192,82336,1,0,0:0:0:0:
64,192,82336,1,0,0:0:0:50:clap.wav
448,192,82336,1,0,0:0:0:50:clap.wav
64,192,82518,1,0,0:0:0:0:
64,192,82609,1,0,0:0:0:0:
192,192,82700,1,0,0:0:0:50:kick.wav
320,0,82700,1,0,0:0:0:50:clapL.wav
448,0,82700,1,0,0:0:0:50:crash.wav
64,192,82790,1,0,0:0:0:0:
320,192,82881,1,0,0:0:0:0:
448,192,82881,1,0,0:0:0:0:
64,192,82972,1,0,0:0:0:0:
192,192,82972,1,0,0:0:0:0:
320,192,83063,1,0,0:0:0:50:clap.wav
448,192,83154,1,0,0:0:0:0:
64,192,83154,1,0,0:0:0:0:
192,192,83245,1,0,0:0:0:0:
320,192,83245,1,0,0:0:0:0:
64,192,83336,1,0,0:0:0:0:
192,192,83427,1,0,0:0:0:50:kick.wav
448,192,83427,1,0,0:0:0:0:
64,192,83518,1,0,0:0:0:0:
320,192,83518,1,0,0:0:0:0:
448,192,83609,1,0,0:0:0:0:
192,192,83700,1,0,0:0:0:0:
320,192,83700,1,0,0:0:0:0:
64,192,83790,1,0,0:0:0:0:
448,192,83790,1,0,0:0:0:50:clap.wav
192,192,83881,1,0,0:0:0:0:
320,192,83972,1,0,0:0:0:0:
448,192,83972,1,0,0:0:0:0:
192,192,84063,1,0,0:0:0:0:
64,192,84154,1,0,0:0:0:50:kick.wav
320,192,84154,1,0,0:0:0:0:
448,192,84245,1,0,0:0:0:0:
64,192,84336,1,0,0:0:0:0:
192,192,84336,1,0,0:0:0:0:
320,192,84427,1,0,0:0:0:0:
448,192,84427,1,0,0:0:0:0:
64,192,84518,1,0,0:0:0:50:clap.wav
192,192,84609,1,0,0:0:0:0:
320,192,84609,1,0,0:0:0:0:
64,192,84700,1,0,0:0:0:0:
448,192,84700,1,0,0:0:0:0:
192,192,84790,1,0,0:0:0:0:
320,192,84881,1,0,0:0:0:50:kick.wav
448,192,84881,1,0,0:0:0:0:
192,192,84972,1,0,0:0:0:0:
64,192,85063,1,0,0:0:0:0:
448,192,85063,1,0,0:0:0:0:
192,192,85154,1,0,0:0:0:0:
320,192,85245,1,0,0:0:0:0:
448,192,85245,1,0,0:0:0:50:clap.wav
64,192,85336,1,0,0:0:0:0:
192,192,85427,1,0,0:0:0:0:
320,192,85427,1,0,0:0:0:0:
64,192,85518,1,0,0:0:0:0:
192,192,85609,1,0,0:0:0:50:kick.wav
448,192,85609,1,0,0:0:0:0:
320,192,85700,1,0,0:0:0:0:
64,192,85790,1,0,0:0:0:0:
192,192,85790,1,0,0:0:0:0:
320,192,85881,1,0,0:0:0:0:
448,192,85881,1,0,0:0:0:0:
192,192,85972,1,0,0:0:0:50:clap.wav
64,192,86063,1,0,0:0:0:0:
320,192,86063,1,0,0:0:0:0:
192,192,86154,1,0,0:0:0:0:
448,192,86154,1,0,0:0:0:0:
320,192,86245,1,0,0:0:0:0:
64,192,86336,1,0,0:0:0:50:kick.wav
448,192,86336,1,0,0:0:0:0:
192,192,86427,1,0,0:0:0:0:
320,192,86427,1,0,0:0:0:0:
64,192,86518,1,0,0:0:0:0:
320,192,86609,1,0,0:0:0:0:
448,192,86609,1,0,0:0:0:0:
64,192,86700,1,0,0:0:0:50:kick.wav
192,192,86700,1,0,0:0:0:50:clap.wav
320,192,86790,1,0,0:0:0:50:clap.wav
448,192,86790,1,0,0:0:0:0:
64,192,86881,1,0,0:0:0:0:
192,192,86881,1,0,0:0:0:50:clap.wav
320,192,86972,1,0,0:0:0:50:clap.wav
64,192,87063,1,0,0:0:0:50:kick.wav
192,192,87063,1,0,0:0:0:50:clap.wav
448,192,87063,1,0,0:0:0:0:
192,192,87154,1,0,0:0:0:0:
320,192,87245,1,0,0:0:0:0:
64,192,87336,1,0,0:0:0:50:kick.wav
448,192,87336,1,0,0:0:0:0:
192,192,87336,1,0,0:0:0:50:clap.wav
192,192,87427,1,0,0:0:0:0:
320,192,87518,1,0,0:0:0:0:
64,192,87609,1,0,0:0:0:50:kick.wav
448,192,87609,1,0,0:0:0:0:
192,192,87609,1,0,0:0:0:50:clap.wav
192,192,87700,1,0,0:0:0:0:
320,192,87790,1,0,0:0:0:0:
64,192,87881,1,0,0:0:0:50:kick.wav
192,192,87881,1,0,0:0:0:50:clap.wav
448,192,87881,1,0,0:0:0:0:
192,192,87972,1,0,0:0:0:0:
320,192,88063,1,0,0:0:0:0:
64,192,88154,1,0,0:0:0:50:kick.wav
192,192,88154,1,0,0:0:0:50:clap.wav
448,192,88154,1,0,0:0:0:0:
192,192,88245,1,0,0:0:0:0:
320,192,88336,1,0,0:0:0:0:
192,192,88518,1,0,0:0:0:50:kick.wav
320,192,88518,1,0,0:0:0:50:clapL.wav
64,0,88518,128,0,91427:0:0:0:0:
448,0,88518,1,0,0:0:0:50:crash.wav
320,192,88700,1,0,0:0:0:100:hat.wav
192,192,88881,1,0,0:0:0:0:
448,192,89063,1,0,0:0:0:100:hat.wav
192,192,89245,1,0,0:0:0:0:
320,192,89427,1,0,0:0:0:100:hat.wav
192,192,89609,1,0,0:0:0:0:
448,192,89790,1,0,0:0:0:100:hat.wav
192,192,89972,1,0,0:0:0:0:
448,192,90154,1,0,0:0:0:100:hat.wav
320,192,90336,1,0,0:0:0:0:
448,192,90518,1,0,0:0:0:100:hat.wav
192,192,90700,1,0,0:0:0:0:
320,192,90881,1,0,0:0:0:100:hat.wav
192,192,91063,1,0,0:0:0:0:
320,192,91245,1,0,0:0:0:100:hat.wav
448,192,91245,1,0,0:0:0:50:clap.wav
448,192,91336,1,0,0:0:0:50:clap.wav
192,192,91427,1,0,0:0:0:50:kick.wav
320,192,91427,1,0,0:0:0:0:
64,192,91609,1,0,0:0:0:0:
192,192,91609,1,0,0:0:0:50:kick.wav
192,192,91790,1,0,0:0:0:50:kick.wav
320,192,91790,1,0,0:0:0:0:
192,192,91972,1,0,0:0:0:50:kick.wav
448,192,91972,1,0,0:0:0:0:
320,192,92154,1,0,0:0:0:0:
192,192,92154,1,0,0:0:0:50:kick.wav
192,192,92336,1,0,0:0:0:50:kick.wav
64,192,92336,1,0,0:0:0:0:
192,192,92518,1,0,0:0:0:50:kick.wav
320,192,92518,1,0,0:0:0:0:
192,192,92700,1,0,0:0:0:50:kick.wav
448,192,92700,1,0,0:0:0:0:
64,192,92881,1,0,0:0:0:0:
192,192,92881,1,0,0:0:0:50:kick.wav
320,192,92972,5,0,0:0:0:50:kick.wav
448,192,92972,1,0,0:0:0:0:
64,192,93063,1,0,0:0:0:0:
192,192,93063,1,0,0:0:0:50:kick.wav
320,192,93154,1,0,0:0:0:50:kick.wav
448,192,93154,1,0,0:0:0:0:
64,192,93245,1,0,0:0:0:0:
192,192,93245,1,0,0:0:0:50:kick.wav
320,192,93336,1,0,0:0:0:50:kick.wav
448,192,93336,1,0,0:0:0:0:
64,192,93427,1,0,0:0:0:50:kick.wav
192,192,93472,1,0,0:0:0:50:kick.wav
320,192,93518,1,0,0:0:0:50:kick.wav
448,192,93563,1,0,0:0:0:50:kick.wav
64,192,93609,1,0,0:0:0:50:kick.wav
192,192,93654,1,0,0:0:0:50:kick.wav
320,192,93700,1,0,0:0:0:50:kick.wav
448,192,93745,1,0,0:0:0:50:kick.wav
64,192,93790,1,0,0:0:0:50:kick.wav
192,192,93790,1,0,0:0:0:0:
64,0,93972,1,0,0:0:0:50:kick.wav
192,0,93972,1,0,0:0:0:30:clapL.wav
320,0,93972,1,0,0:0:0:30:clapL.wav
448,0,93972,1,0,0:0:0:50:kick.wav
192,192,94154,5,0,0:0:0:0:
320,192,94245,1,0,0:0:0:0:
448,192,94336,128,0,94881:0:0:0:0:
64,192,94336,1,0,0:0:0:50:kick.wav
192,192,94518,1,0,0:0:0:0:
320,192,94700,1,0,0:0:0:50:kick.wav
192,192,94881,1,0,0:0:0:0:
320,192,94927,1,0,0:0:0:0:
64,192,94972,1,0,0:0:0:0:
448,192,95018,1,0,0:0:0:0:
192,192,95063,1,0,0:0:0:50:kick.wav
320,192,95109,1,0,0:0:0:0:
64,192,95154,1,0,0:0:0:0:
448,192,95200,1,0,0:0:0:0:
192,192,95245,1,0,0:0:0:0:
320,192,95290,1,0,0:0:0:0:
64,192,95336,1,0,0:0:0:0:
448,192,95381,1,0,0:0:0:0:
192,192,95427,1,0,0:0:0:50:kick.wav
320,192,95472,1,0,0:0:0:0:
64,192,95518,1,0,0:0:0:0:
448,192,95563,1,0,0:0:0:0:
192,192,95609,1,0,0:0:0:0:
320,192,95700,1,0,0:0:0:0:
64,192,95790,1,0,0:0:0:50:kick.wav
448,192,95790,1,0,0:0:0:0:
320,192,95972,1,0,0:0:0:0:
64,192,96018,1,0,0:0:0:0:
448,192,96063,128,0,96245:0:0:0:0:
192,192,96245,1,0,0:0:0:0:
64,192,96290,1,0,0:0:0:0:
320,192,96336,128,0,96518:0:0:0:0:
64,192,96518,128,0,96700:0:0:0:0:
448,192,96518,1,0,0:0:0:50:kick.wav
192,192,96700,128,0,96881:0:0:0:0:
320,192,96881,128,0,97063:0:0:0:0:
64,192,96881,1,0,0:0:0:50:kick.wav
448,192,97063,128,0,97245:0:0:0:0:
64,192,97245,1,0,0:0:0:50:kick.wav
320,192,97245,128,0,97609:0:0:0:0:
192,192,97427,1,0,0:0:0:0:
64,192,97609,1,0,0:0:0:50:kick.wav
448,192,97654,1,0,0:0:0:0:
192,192,97700,1,0,0:0:0:0:
320,192,97745,1,0,0:0:0:0:
64,192,97790,128,0,98154:0:0:0:0:
320,192,97972,1,0,0:0:0:50:kick.wav
448,192,98154,1,0,0:0:0:0:
192,192,98200,1,0,0:0:0:0:
320,192,98245,1,0,0:0:0:0:
64,192,98290,1,0,0:0:0:0:
448,192,98336,128,0,99063:0:0:0:50:kick.wav
192,192,98518,1,0,0:0:0:0:
64,192,98700,1,0,0:0:0:50:kick.wav
320,192,98881,1,0,0:0:0:0:
192,192,99063,1,0,0:0:0:50:kick.wav
320,192,99109,1,0,0:0:0:0:
64,192,99154,1,0,0:0:0:0:
448,192,99200,1,0,0:0:0:0:
192,192,99245,1,0,0:0:0:0:
320,192,99290,1,0,0:0:0:0:
64,192,99336,1,0,0:0:0:0:
448,192,99381,1,0,0:0:0:0:
192,192,99427,1,0,0:0:0:50:kick.wav
320,192,99472,1,0,0:0:0:0:
64,192,99518,1,0,0:0:0:0:
448,192,99563,1,0,0:0:0:0:
192,192,99609,128,0,99790:0:0:0:0:
320,192,99790,128,0,99972:0:0:0:0:
64,192,99790,1,0,0:0:0:50:kick.wav
448,192,99972,128,0,100154:0:0:0:0:
64,192,100154,128,0,100700:0:0:0:0:
320,192,100154,1,0,0:0:0:50:kick.wav
192,192,100336,1,0,0:0:0:0:
448,192,100518,1,0,0:0:0:50:kick.wav
320,192,100700,1,0,0:0:0:0:
192,192,100745,1,0,0:0:0:0:
448,192,100790,1,0,0:0:0:0:
64,192,100836,1,0,0:0:0:0:
320,192,100881,1,0,0:0:0:50:kick.wav
192,192,100927,1,0,0:0:0:0:
448,192,100972,1,0,0:0:0:0:
64,192,101018,1,0,0:0:0:0:
320,192,101063,1,0,0:0:0:0:
192,192,101109,1,0,0:0:0:0:
448,192,101154,1,0,0:0:0:0:
64,192,101200,1,0,0:0:0:0:
320,192,101245,1,0,0:0:0:50:kick.wav
192,192,101290,1,0,0:0:0:0:
448,192,101336,1,0,0:0:0:0:
64,192,101381,1,0,0:0:0:0:
320,192,101427,1,0,0:0:0:0:
192,192,101518,1,0,0:0:0:0:
448,192,101609,1,0,0:0:0:50:kick.wav
64,192,101609,128,0,101790:0:0:0:0:
320,192,101790,1,0,0:0:0:0:
448,192,101881,1,0,0:0:0:0:
64,192,101972,1,0,0:0:0:50:kick.wav
192,192,101972,128,0,102154:0:0:0:0:
448,192,102154,128,0,102336:0:0:0:0:
64,192,102336,128,0,102518:0:0:0:0:
320,192,102336,1,0,0:0:0:50:kick.wav
192,192,102518,128,0,102700:0:0:0:0:
64,192,102700,1,0,0:0:0:50:kick.wav
448,192,102700,128,0,102881:0:0:0:0:
320,192,102881,128,0,103063:0:0:0:0:
64,192,103063,128,0,103427:0:0:0:0:
448,192,103063,1,0,0:0:0:50:kick.wav
192,192,103245,1,0,0:0:0:0:
320,192,103427,1,0,0:0:0:50:kick.wav
192,192,103472,1,0,0:0:0:0:
448,192,103518,1,0,0:0:0:0:
64,192,103563,1,0,0:0:0:0:
320,192,103609,128,0,103972:0:0:0:0:
192,192,103790,1,0,0:0:0:50:kick.wav
64,192,103972,1,0,0:0:0:0:
448,192,104018,1,0,0:0:0:0:
192,192,104063,1,0,0:0:0:0:
320,192,104109,1,0,0:0:0:0:
64,192,104154,128,0,104700:0:0:0:50:kick.wav
448,192,104336,1,0,0:0:0:0:
192,192,104518,1,0,0:0:0:50:kick.wav
320,192,104700,1,0,0:0:0:0:
192,192,104745,1,0,0:0:0:0:
448,192,104790,1,0,0:0:0:0:
64,192,104836,1,0,0:0:0:0:
320,192,104881,1,0,0:0:0:50:kick.wav
192,192,104927,1,0,0:0:0:0:
448,192,104972,1,0,0:0:0:0:
64,192,105018,1,0,0:0:0:0:
320,192,105063,1,0,0:0:0:0:
192,192,105109,1,0,0:0:0:0:
448,192,105154,1,0,0:0:0:0:
64,192,105200,1,0,0:0:0:0:
320,192,105245,128,0,105609:0:0:0:50:kick.wav
448,192,105427,1,0,0:0:0:0:
64,192,105518,1,0,0:0:0:50:clap.wav
192,192,105563,1,0,0:0:0:50:clap.wav
448,192,105609,1,0,0:0:0:50:clap.wav
64,192,105700,1,0,0:0:0:0:
192,192,105700,1,0,0:0:0:50:clap.wav
320,192,105790,1,0,0:0:0:50:clap.wav
448,192,105790,1,0,0:0:0:0:
192,192,105881,1,0,0:0:0:50:clap.wav
320,192,105972,1,0,0:0:0:50:clap.wav
64,192,105972,1,0,0:0:0:50:kick.wav
448,192,105972,128,0,106518:0:0:0:50:crash.wav
192,192,106154,1,0,0:0:0:0:
192,192,106336,1,0,0:0:0:50:clap.wav
64,192,106336,1,0,0:0:0:50:kick.wav
64,192,106518,1,0,0:0:0:0:
192,192,106563,1,0,0:0:0:0:
320,192,106609,1,0,0:0:0:0:
448,192,106654,1,0,0:0:0:0:
64,192,106700,1,0,0:0:0:50:kick.wav
192,192,106745,1,0,0:0:0:0:
320,192,106790,1,0,0:0:0:0:
448,192,106836,1,0,0:0:0:0:
64,192,106881,1,0,0:0:0:0:
192,192,106927,1,0,0:0:0:0:
320,192,106972,1,0,0:0:0:0:
448,192,107018,1,0,0:0:0:0:
64,192,107063,1,0,0:0:0:50:kick.wav
192,192,107063,1,0,0:0:0:50:clap.wav
320,192,107109,1,0,0:0:0:0:
448,192,107154,1,0,0:0:0:0:
64,192,107200,1,0,0:0:0:0:
192,192,107245,1,0,0:0:0:0:
320,192,107336,1,0,0:0:0:0:
64,192,107427,1,0,0:0:0:50:kick.wav
448,192,107427,1,0,0:0:0:0:
192,192,107609,1,0,0:0:0:0:
320,192,107654,1,0,0:0:0:0:
64,192,107700,128,0,107881:0:0:0:0:
448,192,107790,1,0,0:0:0:50:clap.wav
320,192,107881,1,0,0:0:0:0:
192,192,107927,1,0,0:0:0:0:
448,192,107972,128,0,108154:0:0:0:0:
320,192,108154,1,0,0:0:0:50:kick.wav
192,192,108154,128,0,108336:0:0:0:0:
64,192,108336,128,0,108518:0:0:0:0:
192,192,108518,1,0,0:0:0:50:kick.wav
320,192,108518,128,0,108700:0:0:0:50:clap.wav
448,192,108700,128,0,108881:0:0:0:0:
64,192,108881,128,0,109245:0:0:0:0:
192,192,108881,1,0,0:0:0:50:kick.wav
320,192,109063,1,0,0:0:0:0:
320,192,109245,1,0,0:0:0:50:kick.wav
448,192,109245,1,0,0:0:0:50:clap.wav
192,192,109290,1,0,0:0:0:0:
64,192,109336,1,0,0:0:0:0:
448,192,109381,1,0,0:0:0:0:
320,192,109427,128,0,109790:0:0:0:0:
64,192,109609,1,0,0:0:0:50:kick.wav
192,192,109790,1,0,0:0:0:0:
448,192,109836,1,0,0:0:0:0:
64,192,109881,1,0,0:0:0:0:
192,192,109927,1,0,0:0:0:0:
320,192,109972,1,0,0:0:0:50:kick.wav
448,192,109972,128,0,110700:0:0:0:50:clap.wav
192,192,110154,1,0,0:0:0:0:
64,192,110336,1,0,0:0:0:50:kick.wav
192,192,110518,1,0,0:0:0:0:
192,192,110700,1,0,0:0:0:50:clap.wav
64,192,110700,1,0,0:0:0:50:kick.wav
320,192,110745,1,0,0:0:0:0:
448,192,110790,1,0,0:0:0:0:
64,192,110836,1,0,0:0:0:0:
192,192,110881,1,0,0:0:0:0:
320,192,110927,1,0,0:0:0:0:
448,192,110972,1,0,0:0:0:0:
64,192,111018,1,0,0:0:0:0:
192,192,111063,1,0,0:0:0:50:kick.wav
320,192,111109,1,0,0:0:0:0:
448,192,111154,1,0,0:0:0:0:
64,192,111200,1,0,0:0:0:0:
192,192,111245,128,0,111427:0:0:0:0:
448,192,111427,1,0,0:0:0:50:kick.wav
320,192,111427,128,0,111609:0:0:0:50:clap.wav
64,192,111609,128,0,112336:0:0:0:0:
192,192,111609,1,0,0:0:0:0:
320,192,111790,1,0,0:0:0:50:kick.wav
448,192,111972,1,0,0:0:0:0:
192,192,112154,1,0,0:0:0:50:kick.wav
320,192,112154,1,0,0:0:0:50:clap.wav
448,192,112336,1,0,0:0:0:0:
320,192,112381,1,0,0:0:0:0:
192,192,112427,1,0,0:0:0:0:
64,192,112472,1,0,0:0:0:0:
448,192,112518,1,0,0:0:0:50:kick.wav
320,192,112563,1,0,0:0:0:0:
192,192,112609,1,0,0:0:0:0:
64,192,112654,1,0,0:0:0:0:
448,192,112700,1,0,0:0:0:0:
320,192,112745,1,0,0:0:0:0:
192,192,112790,1,0,0:0:0:0:
64,192,112836,1,0,0:0:0:0:
320,192,112881,1,0,0:0:0:50:kick.wav
448,192,112881,1,0,0:0:0:50:clap.wav
192,192,112927,1,0,0:0:0:0:
64,192,112972,1,0,0:0:0:0:
448,192,113018,1,0,0:0:0:0:
320,192,113063,1,0,0:0:0:0:
192,192,113154,1,0,0:0:0:0:
64,192,113245,128,0,113427:0:0:0:0:
448,192,113245,1,0,0:0:0:50:kick.wav
320,192,113427,1,0,0:0:0:0:
448,192,113518,1,0,0:0:0:0:
64,192,113609,1,0,0:0:0:50:kick.wav
192,192,113609,128,0,113790:0:0:0:50:clap.wav
448,192,113790,128,0,113972:0:0:0:0:
64,192,113972,128,0,114154:0:0:0:0:
320,192,113972,1,0,0:0:0:50:kick.wav
192,192,114154,128,0,114336:0:0:0:0:
64,192,114336,1,0,0:0:0:50:kick.wav
448,192,114336,128,0,114518:0:0:0:50:clap.wav
320,192,114518,128,0,114700:0:0:0:0:
448,192,114700,1,0,0:0:0:50:kick.wav
64,192,114700,128,0,115063:0:0:0:0:
192,192,114881,1,0,0:0:0:0:
448,192,115063,1,0,0:0:0:50:clap.wav
320,192,115063,1,0,0:0:0:50:kick.wav
192,192,115109,1,0,0:0:0:0:
64,192,115154,1,0,0:0:0:0:
448,192,115200,1,0,0:0:0:0:
320,192,115245,128,0,115609:0:0:0:0:
192,192,115427,1,0,0:0:0:50:kick.wav
64,192,115609,1,0,0:0:0:0:
192,192,115654,1,0,0:0:0:0:
320,192,115700,1,0,0:0:0:0:
448,192,115745,1,0,0:0:0:0:
64,192,115790,128,0,116336:0:0:0:50:clap.wav
192,192,115790,1,0,0:0:0:50:kick.wav
320,192,115972,1,0,0:0:0:0:
448,192,116154,1,0,0:0:0:0:
320,192,116154,1,0,0:0:0:50:kick.wav
192,192,116336,1,0,0:0:0:0:
320,192,116381,1,0,0:0:0:0:
448,192,116427,1,0,0:0:0:0:
64,192,116472,1,0,0:0:0:0:
192,192,116518,1,0,0:0:0:50:kick.wav
320,192,116518,1,0,0:0:0:50:clap.wav
448,192,116563,1,0,0:0:0:0:
64,192,116609,1,0,0:0:0:0:
192,192,116654,1,0,0:0:0:0:
320,192,116700,1,0,0:0:0:0:
448,192,116745,1,0,0:0:0:0:
64,192,116790,1,0,0:0:0:0:
192,192,116836,1,0,0:0:0:0:
320,192,116881,1,0,0:0:0:50:kick.wav
448,192,116927,1,0,0:0:0:0:
64,192,116972,1,0,0:0:0:0:
192,192,117018,1,0,0:0:0:0:
448,192,117063,1,0,0:0:0:0:
320,192,117063,128,0,117245:0:0:0:50:clap.wav
64,192,117154,1,0,0:0:0:50:clap.wav
192,192,117245,128,0,117427:0:0:0:50:clap.wav
448,192,117245,1,0,0:0:0:50:kick.wav
320,192,117427,1,0,0:0:0:50:clap.wav
64,192,117427,128,0,119790:0:0:0:0:
192,192,117609,1,0,0:0:0:50:kick.wav
320,192,117609,1,0,0:0:0:50:clapL.wav
448,192,117609,1,0,0:0:0:50:crash.wav
320,192,117790,1,0,0:0:0:100:hat.wav
192,192,117972,1,0,0:0:0:0:
448,192,118154,1,0,0:0:0:100:hat.wav
192,192,118336,1,0,0:0:0:0:
320,192,118518,1,0,0:0:0:100:hat.wav
192,192,118700,1,0,0:0:0:0:
448,192,118881,1,0,0:0:0:100:hat.wav
192,192,119063,1,0,0:0:0:0:
320,192,119245,1,0,0:0:0:100:hat.wav
192,192,119427,1,0,0:0:0:0:
448,192,119609,1,0,0:0:0:100:hat.wav
320,192,119790,1,0,0:0:0:0:
448,192,119836,1,0,0:0:0:0:
192,192,119881,1,0,0:0:0:0:
64,192,119927,1,0,0:0:0:0:
320,192,119972,1,0,0:0:0:0:
448,192,120018,1,0,0:0:0:0:
192,192,120063,1,0,0:0:0:0:
64,192,120109,1,0,0:0:0:0:
320,192,120154,1,0,0:0:0:0:
448,192,120200,1,0,0:0:0:0:
192,192,120245,1,0,0:0:0:0:
64,192,120290,1,0,0:0:0:0:
320,192,120336,1,0,0:0:0:0:
448,192,120381,1,0,0:0:0:0:
192,192,120427,1,0,0:0:0:0:
64,192,120472,1,0,0:0:0:0:
448,192,120518,1,0,0:0:0:0:
320,192,120563,1,0,0:0:0:0:
64,192,120609,1,0,0:0:0:0:
192,192,120654,1,0,0:0:0:0:
448,192,120700,1,0,0:0:0:0:
320,192,120745,1,0,0:0:0:0:
64,192,120790,1,0,0:0:0:0:
192,192,120836,1,0,0:0:0:0:
448,192,120881,1,0,0:0:0:0:
320,192,120927,1,0,0:0:0:0:
64,192,120972,1,0,0:0:0:0:
192,192,121018,1,0,0:0:0:0:
448,192,121063,1,0,0:0:0:0:
320,192,121109,1,0,0:0:0:0:
64,192,121154,1,0,0:0:0:0:
192,192,121200,1,0,0:0:0:0:
320,192,121245,1,0,0:0:0:0:
448,192,121290,1,0,0:0:0:0:
64,192,121336,1,0,0:0:0:0:
192,192,121381,1,0,0:0:0:0:
320,192,121427,1,0,0:0:0:0:
448,192,121472,1,0,0:0:0:0:
64,192,121518,1,0,0:0:0:0:
192,192,121563,1,0,0:0:0:0:
320,192,121609,1,0,0:0:0:0:
448,192,121654,1,0,0:0:0:0:
64,192,121700,1,0,0:0:0:0:
192,192,121745,1,0,0:0:0:0:
320,192,121790,1,0,0:0:0:0:
448,192,121836,1,0,0:0:0:0:
64,192,121881,1,0,0:0:0:0:
192,192,121927,1,0,0:0:0:0:
320,192,121972,1,0,0:0:0:0:
448,192,122154,1,0,0:0:0:100:hat.wav
64,192,122336,1,0,0:0:0:0:
448,192,122518,1,0,0:0:0:100:hat.wav
192,192,122700,1,0,0:0:0:0:
64,192,122881,128,0,123063:0:0:0:0:
192,192,123063,128,0,123245:0:0:0:0:
320,192,123245,128,0,125245:0:0:0:0:
64,192,123427,1,0,0:0:0:0:
192,192,123609,1,0,0:0:0:100:hat.wav
64,192,123790,1,0,0:0:0:0:
448,192,123972,1,0,0:0:0:100:hat.wav
64,192,124154,1,0,0:0:0:0:
192,192,124336,1,0,0:0:0:100:hat.wav
64,192,124518,1,0,0:0:0:0:
448,192,124700,1,0,0:0:0:100:hat.wav
64,192,124881,1,0,0:0:0:0:
192,192,125063,1,0,0:0:0:100:hat.wav
64,192,125245,1,0,0:0:0:0:
448,192,125290,1,0,0:0:0:0:
192,192,125336,1,0,0:0:0:0:
320,192,125381,1,0,0:0:0:0:
64,192,125427,1,0,0:0:0:0:
448,192,125472,1,0,0:0:0:0:
192,192,125518,1,0,0:0:0:0:
320,192,125563,1,0,0:0:0:0:
64,192,125609,1,0,0:0:0:0:
448,192,125654,1,0,0:0:0:0:
192,192,125700,1,0,0:0:0:0:
320,192,125745,1,0,0:0:0:0:
64,192,125790,128,0,125972:0:0:0:0:
320,192,125972,128,0,126154:0:0:0:0:
448,192,126154,128,0,128154:0:0:0:0:
64,192,126336,1,0,0:0:0:0:
192,192,126518,1,0,0:0:0:100:hat.wav
64,192,126700,1,0,0:0:0:0:
320,192,126881,1,0,0:0:0:100:hat.wav
64,192,127063,1,0,0:0:0:0:
192,192,127245,1,0,0:0:0:100:hat.wav
64,192,127427,1,0,0:0:0:0:
320,192,127609,1,0,0:0:0:100:hat.wav
64,192,127790,1,0,0:0:0:0:
192,192,127972,1,0,0:0:0:100:hat.wav
64,192,128154,1,0,0:0:0:0:
320,192,128200,1,0,0:0:0:0:
192,192,128245,1,0,0:0:0:0:
448,192,128290,1,0,0:0:0:0:
64,192,128336,1,0,0:0:0:0:
320,192,128381,1,0,0:0:0:0:
192,192,128427,1,0,0:0:0:0:
448,192,128472,1,0,0:0:0:0:
64,192,128518,1,0,0:0:0:0:
320,192,128563,1,0,0:0:0:0:
192,192,128609,1,0,0:0:0:0:
448,192,128654,1,0,0:0:0:0:
64,192,128700,1,0,0:0:0:0:
320,192,128700,1,0,0:0:0:50:clap.wav
192,192,128790,1,0,0:0:0:50:clap.wav
64,192,128881,1,0,0:0:0:50:kick.wav
320,192,128881,1,0,0:0:0:0:
448,192,128881,1,0,0:0:0:0:
64,192,129063,1,0,0:0:0:50:kick.wav
192,192,129063,1,0,0:0:0:0:
320,192,129154,1,0,0:0:0:0:
64,192,129245,1,0,0:0:0:50:kick.wav
192,192,129245,1,0,0:0:0:0:
448,192,129245,1,0,0:0:0:50:crash.wav
320,192,129336,1,0,0:0:0:0:
448,192,129427,1,0,0:0:0:0:
64,192,129427,1,0,0:0:0:0:
192,192,129518,1,0,0:0:0:0:
320,192,129609,1,0,0:0:0:0:
448,192,129700,1,0,0:0:0:0:
64,192,129790,1,0,0:0:0:0:
192,192,129790,1,0,0:0:0:50:kick.wav
320,192,129881,1,0,0:0:0:50:kick.wav
448,192,129881,1,0,0:0:0:0:
64,192,129972,1,0,0:0:0:0:
192,192,129972,1,0,0:0:0:50:clap.wav
320,192,130063,1,0,0:0:0:0:
64,192,130154,1,0,0:0:0:50:kick.wav
448,192,130154,1,0,0:0:0:0:
192,192,130245,1,0,0:0:0:0:
320,192,130336,1,0,0:0:0:0:
448,192,130427,1,0,0:0:0:0:
64,192,130518,1,0,0:0:0:50:kick.wav
192,192,130518,1,0,0:0:0:0:
320,192,130609,1,0,0:0:0:0:
448,192,130700,1,0,0:0:0:0:
64,192,130790,1,0,0:0:0:0:
320,192,130881,1,0,0:0:0:0:
192,192,130881,1,0,0:0:0:50:clap.wav
448,192,130972,1,0,0:0:0:0:
320,192,131063,1,0,0:0:0:0:
64,192,131063,1,0,0:0:0:50:kick.wav
192,192,131154,1,0,0:0:0:0:
320,192,131245,1,0,0:0:0:0:
448,192,131336,1,0,0:0:0:0:
64,192,131427,1,0,0:0:0:0:
192,192,131427,1,0,0:0:0:50:clap.wav
320,192,131518,1,0,0:0:0:0:
448,192,131609,1,0,0:0:0:0:
192,192,131700,1,0,0:0:0:0:
64,192,131790,1,0,0:0:0:50:kick.wav
320,192,131790,1,0,0:0:0:0:
448,192,131881,1,0,0:0:0:0:
192,192,131972,1,0,0:0:0:0:
320,192,132063,1,0,0:0:0:0:
448,192,132154,1,0,0:0:0:0:
64,192,132154,1,0,0:0:0:50:kick.wav
192,192,132245,1,0,0:0:0:0:
320,192,132336,1,0,0:0:0:0:
64,192,132427,1,0,0:0:0:0:
192,192,132518,1,0,0:0:0:0:
320,192,132609,1,0,0:0:0:0:
192,192,132700,1,0,0:0:0:50:kick.wav
64,192,132700,1,0,0:0:0:0:
320,192,132790,1,0,0:0:0:50:kick.wav
448,192,132790,1,0,0:0:0:0:
192,192,132881,1,0,0:0:0:50:clap.wav
64,192,132881,1,0,0:0:0:0:
320,192,132972,1,0,0:0:0:0:
448,192,133063,1,0,0:0:0:0:
64,192,133063,1,0,0:0:0:50:kick.wav
192,192,133154,1,0,0:0:0:0:
320,192,133245,1,0,0:0:0:0:
448,192,133336,1,0,0:0:0:0:
64,192,133427,1,0,0:0:0:50:kick.wav
192,192,133427,1,0,0:0:0:0:
320,192,133518,1,0,0:0:0:0:
448,192,133609,1,0,0:0:0:0:
192,192,133700,1,0,0:0:0:0:
448,192,133790,1,0,0:0:0:0:
320,192,133790,1,0,0:0:0:50:clap.wav
64,192,133881,1,0,0:0:0:0:
192,192,133972,1,0,0:0:0:50:kick.wav
320,192,133972,1,0,0:0:0:0:
448,192,134063,1,0,0:0:0:0:
192,192,134154,1,0,0:0:0:50:kick.wav
64,192,134154,1,0,0:0:0:0:
320,192,134245,1,0,0:0:0:50:kick.wav
448,192,134245,1,0,0:0:0:0:
192,192,134336,1,0,0:0:0:50:clap.wav
64,192,134336,1,0,0:0:0:0:
320,192,134427,1,0,0:0:0:0:
64,192,134518,1,0,0:0:0:0:
192,192,134518,1,0,0:0:0:50:kick.wav
320,192,134609,1,0,0:0:0:0:
192,192,134700,1,0,0:0:0:50:clap.wav
448,192,134700,1,0,0:0:0:0:
64,192,134700,1,0,0:0:0:0:
320,192,134790,1,0,0:0:0:50:clap.wav
192,192,134881,1,0,0:0:0:0:
448,192,134881,1,0,0:0:0:50:kick.wav
64,192,134972,1,0,0:0:0:0:
320,192,134972,1,0,0:0:0:50:kick.wav
448,192,135063,1,0,0:0:0:50:crash.wav
192,192,135063,1,0,0:0:0:50:kick.wav
320,192,135154,1,0,0:0:0:0:
64,192,135245,1,0,0:0:0:0:
192,192,135336,1,0,0:0:0:0:
320,192,135427,1,0,0:0:0:50:kick.wav
448,192,135427,1,0,0:0:0:50:clap.wav
192,192,135518,1,0,0:0:0:0:
64,192,135609,1,0,0:0:0:0:
448,192,135700,1,0,0:0:0:0:
192,192,135790,1,0,0:0:0:50:kick.wav
320,192,135790,1,0,0:0:0:50:clap.wav
448,192,135881,1,0,0:0:0:0:
64,192,135972,1,0,0:0:0:0:
192,192,136063,1,0,0:0:0:0:
320,192,136154,1,0,0:0:0:50:kick.wav
448,192,136154,1,0,0:0:0:50:clap.wav
192,192,136245,1,0,0:0:0:0:
64,192,136336,1,0,0:0:0:0:
448,192,136427,1,0,0:0:0:0:
192,192,136518,1,0,0:0:0:50:kick.wav
320,192,136518,1,0,0:0:0:50:clap.wav
64,192,136609,1,0,0:0:0:0:
448,192,136700,1,0,0:0:0:0:
320,192,136790,1,0,0:0:0:0:
64,192,136881,1,0,0:0:0:50:kick.wav
192,192,136881,1,0,0:0:0:50:clap.wav
320,192,136972,1,0,0:0:0:0:
448,192,137063,1,0,0:0:0:0:
64,192,137154,1,0,0:0:0:0:
192,192,137245,1,0,0:0:0:50:kick.wav
320,192,137245,1,0,0:0:0:50:clap.wav
64,192,137336,1,0,0:0:0:0:
448,192,137427,1,0,0:0:0:0:
320,192,137518,1,0,0:0:0:0:
64,192,137609,1,0,0:0:0:50:kick.wav
192,192,137609,1,0,0:0:0:50:clap.wav
320,192,137700,1,0,0:0:0:50:kick.wav
448,192,137700,1,0,0:0:0:50:clap.wav
64,192,137790,1,0,0:0:0:50:kick.wav
192,192,137790,1,0,0:0:0:50:clap.wav
320,192,137881,1,0,0:0:0:50:kick.wav
448,192,137881,1,0,0:0:0:50:clap.wav
192,192,137972,1,0,0:0:0:50:clap.wav
64,192,137972,1,0,0:0:0:50:kick.wav
448,192,138063,1,0,0:0:0:0:
192,192,138154,1,0,0:0:0:50:kick.wav
320,192,138154,1,0,0:0:0:50:clap.wav
64,192,138245,1,0,0:0:0:0:
320,192,138336,1,0,0:0:0:50:kick.wav
448,192,138336,1,0,0:0:0:50:clap.wav
64,192,138427,1,0,0:0:0:0:
192,192,138518,1,0,0:0:0:50:kick.wav
320,192,138518,1,0,0:0:0:50:clap.wav
448,192,138609,1,0,0:0:0:0:
64,192,138700,1,0,0:0:0:50:kick.wav
192,192,138700,1,0,0:0:0:50:clap.wav
448,192,138790,1,0,0:0:0:0:
192,192,138881,1,0,0:0:0:50:kick.wav
320,192,138881,1,0,0:0:0:50:clap.wav
64,192,138972,1,0,0:0:0:0:
320,192,139063,1,0,0:0:0:50:kick.wav
448,192,139063,1,0,0:0:0:50:clap.wav
64,192,139154,1,0,0:0:0:0:
192,192,139245,1,0,0:0:0:50:kick.wav
320,192,139245,1,0,0:0:0:50:clap.wav
448,192,139336,1,0,0:0:0:0:
192,192,139427,1,0,0:0:0:50:clap.wav
64,192,139427,1,0,0:0:0:50:kick.wav
448,192,139518,1,0,0:0:0:0:
192,192,139609,1,0,0:0:0:50:kick.wav
320,192,139609,1,0,0:0:0:50:clap.wav
64,192,139700,1,0,0:0:0:0:
320,192,139790,1,0,0:0:0:50:kick.wav
448,192,139790,1,0,0:0:0:50:clap.wav
64,192,139881,1,0,0:0:0:0:
192,192,139972,1,0,0:0:0:50:kick.wav
320,192,139972,1,0,0:0:0:50:clap.wav
448,192,140063,1,0,0:0:0:0:
64,192,140154,1,0,0:0:0:50:kick.wav
192,192,140154,1,0,0:0:0:50:clap.wav
448,192,140245,1,0,0:0:0:0:
192,192,140336,1,0,0:0:0:50:kick.wav
320,192,140336,1,0,0:0:0:50:clap.wav
64,192,140427,1,0,0:0:0:0:
320,192,140518,1,0,0:0:0:50:kick.wav
448,192,140518,1,0,0:0:0:50:clap.wav
64,192,140609,1,0,0:0:0:0:
192,192,140700,1,0,0:0:0:50:kick.wav
320,192,140700,1,0,0:0:0:50:clap.wav
448,192,140790,1,0,0:0:0:0:
320,192,140881,1,0,0:0:0:50:kick.wav
192,192,140881,1,0,0:0:0:50:crash.wav
64,192,140881,1,0,0:0:0:50:clapL.wav
448,192,141063,1,0,0:0:0:100:hat.wav
192,192,141245,1,0,0:0:0:0:
320,192,141427,1,0,0:0:0:100:hat.wav
64,192,141609,1,0,0:0:0:0:
448,192,141790,1,0,0:0:0:100:hat.wav
192,192,141972,1,0,0:0:0:0:
320,192,142154,1,0,0:0:0:100:hat.wav
64,192,142336,1,0,0:0:0:0:
448,192,142518,1,0,0:0:0:100:hat.wav
192,192,142700,1,0,0:0:0:0:
448,192,142881,1,0,0:0:0:100:hat.wav
64,192,143063,1,0,0:0:0:0:
448,192,143245,1,0,0:0:0:100:hat.wav
192,192,143427,1,0,0:0:0:0:
448,192,143609,1,0,0:0:0:100:hat.wav
64,192,143790,1,0,0:0:0:10:clap.wav
320,192,143881,1,0,0:0:0:10:clap.wav
448,192,143972,1,0,0:0:0:10:clap.wav
64,192,144063,1,0,0:0:0:10:clap.wav
192,192,144154,1,0,0:0:0:15:clap.wav
448,192,144245,1,0,0:0:0:15:clap.wav
320,192,144336,1,0,0:0:0:15:clap.wav
192,192,144427,1,0,0:0:0:15:clap.wav
64,192,144518,1,0,0:0:0:20:clap.wav
320,192,144609,1,0,0:0:0:20:clap.wav
448,192,144700,1,0,0:0:0:20:clap.wav
64,192,144790,1,0,0:0:0:20:clap.wav
192,192,144881,1,0,0:0:0:25:clap.wav
448,192,144972,1,0,0:0:0:25:clap.wav
320,192,145063,1,0,0:0:0:25:clap.wav
192,192,145154,1,0,0:0:0:25:clap.wav
64,192,145245,1,0,0:0:0:30:clap.wav
320,192,145336,1,0,0:0:0:30:clap.wav
448,192,145427,1,0,0:0:0:30:clap.wav
64,192,145518,1,0,0:0:0:30:clap.wav
192,192,145609,1,0,0:0:0:35:clap.wav
320,192,145700,1,0,0:0:0:35:clap.wav
448,192,145790,1,0,0:0:0:35:clap.wav
192,192,145881,1,0,0:0:0:35:clap.wav
64,192,145972,1,0,0:0:0:40:clap.wav
320,192,146063,1,0,0:0:0:40:clap.wav
448,192,146154,1,0,0:0:0:40:clap.wav
64,192,146245,1,0,0:0:0:40:clap.wav
192,192,146336,1,0,0:0:0:45:clap.wav
320,192,146427,1,0,0:0:0:45:clap.wav
448,192,146518,1,0,0:0:0:45:clap.wav
192,192,146609,1,0,0:0:0:45:clap.wav
64,192,146700,1,0,0:0:0:50:kick.wav
320,192,146700,1,0,0:0:0:0:
448,192,146700,1,0,0:0:0:50:finish.wav
192,0,147427,128,0,147518:0:0:0:0:
64,192,147518,1,0,0:0:0:0:
320,0,147609,128,0,147700:0:0:0:0:
192,192,147700,1,0,0:0:0:0:
448,0,147790,128,0,147881:0:0:0:0:
320,192,147881,1,0,0:0:0:0:
448,192,147972,1,0,0:0:0:0:
192,192,148063,1,0,0:0:0:0:
64,192,148154,1,0,0:0:0:50:kick.wav
320,0,148154,1,0,0:0:0:50:clapL.wav
448,0,148154,1,0,0:0:0:50:crash.wav
192,192,148245,1,0,0:0:0:0:
320,192,148336,1,0,0:0:0:0:
64,192,148427,1,0,0:0:0:0:
192,192,148427,1,0,0:0:0:0:
320,192,148518,1,0,0:0:0:50:kick.wav
448,192,148518,1,0,0:0:0:50:clap.wav
64,192,148609,1,0,0:0:0:0:
192,192,148700,1,0,0:0:0:0:
320,192,148700,1,0,0:0:0:0:
448,192,148790,1,0,0:0:0:0:
64,192,148881,1,0,0:0:0:50:kick.wav
192,192,148881,1,0,0:0:0:0:
320,192,148972,1,0,0:0:0:0:
448,192,148972,1,0,0:0:0:0:
64,192,149063,1,0,0:0:0:0:
192,192,149154,1,0,0:0:0:0:
64,192,149245,1,0,0:0:0:50:kick.wav
320,192,149245,1,0,0:0:0:50:clap.wav
192,192,149336,1,0,0:0:0:0:
320,192,149427,1,0,0:0:0:0:
448,192,149427,1,0,0:0:0:0:
64,192,149518,1,0,0:0:0:0:
320,192,149609,1,0,0:0:0:50:kick.wav
448,192,149609,1,0,0:0:0:0:
192,192,149700,1,0,0:0:0:0:
64,192,149790,1,0,0:0:0:0:
192,192,149881,1,0,0:0:0:0:
448,192,149881,1,0,0:0:0:0:
64,192,149972,1,0,0:0:0:50:kick.wav
320,192,149972,1,0,0:0:0:50:clap.wav
448,192,150063,1,0,0:0:0:0:
192,192,150154,1,0,0:0:0:0:
320,192,150154,1,0,0:0:0:0:
64,192,150245,1,0,0:0:0:0:
320,192,150336,1,0,0:0:0:50:kick.wav
448,192,150336,1,0,0:0:0:0:
192,192,150427,1,0,0:0:0:0:
64,192,150518,1,0,0:0:0:0:
448,192,150609,1,0,0:0:0:0:
64,192,150700,1,0,0:0:0:50:kick.wav
320,192,150700,1,0,0:0:0:50:clap.wav
192,192,150790,1,0,0:0:0:0:
64,192,150881,1,0,0:0:0:0:
320,192,150881,1,0,0:0:0:0:
448,192,150972,1,0,0:0:0:0:
64,192,151063,1,0,0:0:0:50:kick.wav
192,192,151063,1,0,0:0:0:0:
320,192,151154,1,0,0:0:0:0:
192,192,151245,1,0,0:0:0:0:
448,192,151336,1,0,0:0:0:0:
64,192,151427,1,0,0:0:0:50:kick.wav
320,192,151427,1,0,0:0:0:50:clap.wav
192,192,151518,1,0,0:0:0:0:
64,192,151609,1,0,0:0:0:0:
320,192,151609,1,0,0:0:0:0:
448,192,151700,1,0,0:0:0:0:
64,192,151790,1,0,0:0:0:50:kick.wav
192,192,151790,1,0,0:0:0:0:
320,192,151881,1,0,0:0:0:0:
192,192,151972,1,0,0:0:0:0:
448,192,152063,1,0,0:0:0:0:
64,192,152154,1,0,0:0:0:50:kick.wav
320,192,152154,1,0,0:0:0:50:clap.wav
192,192,152245,1,0,0:0:0:0:
64,192,152336,1,0,0:0:0:0:
320,192,152336,1,0,0:0:0:0:
448,192,152427,1,0,0:0:0:0:
64,192,152518,1,0,0:0:0:50:kick.wav
192,192,152518,1,0,0:0:0:0:
320,192,152609,1,0,0:0:0:0:
192,192,152700,1,0,0:0:0:0:
448,192,152790,1,0,0:0:0:0:
64,192,152881,1,0,0:0:0:50:kick.wav
320,192,152881,1,0,0:0:0:50:clap.wav
192,192,152972,1,0,0:0:0:0:
64,192,153063,1,0,0:0:0:0:
320,192,153063,1,0,0:0:0:0:
448,192,153154,1,0,0:0:0:0:
192,192,153245,1,0,0:0:0:50:kick.wav
320,192,153245,1,0,0:0:0:0:
64,192,153336,1,0,0:0:0:0:
192,192,153427,1,0,0:0:0:0:
320,192,153427,1,0,0:0:0:0:
448,192,153518,1,0,0:0:0:0:
64,192,153609,1,0,0:0:0:50:kick.wav
192,192,153609,1,0,0:0:0:50:clap.wav
320,192,153700,1,0,0:0:0:0:
192,192,153790,1,0,0:0:0:0:
448,192,153790,1,0,0:0:0:0:
320,192,153881,1,0,0:0:0:0:
64,192,153972,1,0,0:0:0:50:kick.wav
448,192,153972,1,0,0:0:0:0:
192,192,154063,1,0,0:0:0:0:
64,192,154154,1,0,0:0:0:0:
320,192,154245,1,0,0:0:0:0:
448,192,154245,1,0,0:0:0:0:
64,192,154336,1,0,0:0:0:50:kick.wav
192,192,154336,1,0,0:0:0:50:clap.wav
448,192,154427,1,0,0:0:0:0:
192,192,154518,1,0,0:0:0:0:
320,192,154518,1,0,0:0:0:0:
64,192,154609,1,0,0:0:0:0:
192,192,154700,1,0,0:0:0:50:kick.wav
448,192,154700,1,0,0:0:0:0:
64,192,154790,1,0,0:0:0:0:
320,192,154790,1,0,0:0:0:0:
448,192,154881,1,0,0:0:0:0:
192,192,154972,1,0,0:0:0:0:
320,192,155063,1,0,0:0:0:50:kick.wav
448,192,155063,1,0,0:0:0:50:clap.wav
64,192,155154,1,0,0:0:0:0:
192,192,155154,1,0,0:0:0:0:
320,192,155245,1,0,0:0:0:0:
192,192,155336,1,0,0:0:0:0:
448,192,155336,1,0,0:0:0:0:
64,192,155427,1,0,0:0:0:50:kick.wav
320,192,155427,1,0,0:0:0:0:
192,192,155518,1,0,0:0:0:0:
448,192,155518,1,0,0:0:0:0:
64,192,155609,1,0,0:0:0:0:
448,192,155700,1,0,0:0:0:0:
320,192,155700,1,0,0:0:0:0:
64,192,155790,1,0,0:0:0:50:kick.wav
192,192,155790,1,0,0:0:0:50:clap.wav
448,192,155881,1,0,0:0:0:0:
192,192,155972,1,0,0:0:0:0:
320,192,155972,1,0,0:0:0:0:
448,192,156063,1,0,0:0:0:0:
64,192,156154,1,0,0:0:0:50:kick.wav
192,192,156154,1,0,0:0:0:0:
320,192,156245,1,0,0:0:0:0:
192,192,156336,1,0,0:0:0:0:
448,192,156427,1,0,0:0:0:0:
64,192,156518,1,0,0:0:0:50:kick.wav
320,192,156518,1,0,0:0:0:50:clap.wav
448,192,156609,1,0,0:0:0:0:
192,192,156700,1,0,0:0:0:0:
320,192,156700,1,0,0:0:0:0:
64,192,156790,1,0,0:0:0:0:
192,192,156881,1,0,0:0:0:50:kick.wav
448,192,156881,1,0,0:0:0:0:
320,192,156972,1,0,0:0:0:0:
192,192,157063,1,0,0:0:0:0:
64,192,157154,1,0,0:0:0:0:
320,192,157245,1,0,0:0:0:50:kick.wav
448,192,157245,1,0,0:0:0:50:clap.wav
64,192,157336,1,0,0:0:0:0:
192,192,157336,1,0,0:0:0:0:
320,192,157427,1,0,0:0:0:0:
448,192,157427,1,0,0:0:0:0:
64,192,157518,1,0,0:0:0:0:
192,192,157609,1,0,0:0:0:50:kick.wav
448,192,157609,1,0,0:0:0:0:
320,192,157700,1,0,0:0:0:0:
192,192,157790,1,0,0:0:0:0:
64,192,157881,1,0,0:0:0:0:
320,192,157972,1,0,0:0:0:50:kick.wav
448,192,157972,1,0,0:0:0:50:clap.wav
64,192,158063,1,0,0:0:0:0:
192,192,158063,1,0,0:0:0:0:
320,192,158154,1,0,0:0:0:0:
448,192,158154,1,0,0:0:0:0:
64,192,158245,1,0,0:0:0:0:
192,192,158336,1,0,0:0:0:50:kick.wav
448,192,158336,1,0,0:0:0:0:
320,192,158427,1,0,0:0:0:0:
64,192,158518,1,0,0:0:0:0:
192,192,158518,1,0,0:0:0:0:
448,192,158609,1,0,0:0:0:0:
64,192,158700,1,0,0:0:0:50:kick.wav
320,192,158700,1,0,0:0:0:50:clap.wav
192,192,158790,1,0,0:0:0:0:
320,192,158881,1,0,0:0:0:0:
448,192,158881,1,0,0:0:0:0:
64,192,158972,1,0,0:0:0:0:
192,192,159063,1,0,0:0:0:50:kick.wav
320,192,159063,1,0,0:0:0:0:
448,192,159063,1,0,0:0:0:0:
64,192,159154,1,0,0:0:0:0:
192,192,159245,1,0,0:0:0:0:
320,192,159245,1,0,0:0:0:0:
448,192,159336,1,0,0:0:0:0:
320,192,159427,1,0,0:0:0:0:
64,192,159427,1,0,0:0:0:50:kick.wav
192,192,159427,1,0,0:0:0:50:clapL.wav
448,192,159518,1,0,0:0:0:0:
64,192,159609,1,0,0:0:0:0:
192,192,159609,1,0,0:0:0:0:
320,192,159700,1,0,0:0:0:0:
448,192,159790,1,0,0:0:0:50:kick.wav
192,0,159790,1,0,0:0:0:50:clapL.wav
64,0,159790,1,0,0:0:0:50:crash.wav
320,192,159881,1,0,0:0:0:0:
448,192,159972,1,0,0:0:0:0:
64,192,160063,1,0,0:0:0:0:
192,192,160063,1,0,0:0:0:0:
320,192,160154,1,0,0:0:0:50:kick.wav
448,192,160154,1,0,0:0:0:50:clap.wav
64,192,160245,1,0,0:0:0:0:
192,192,160336,1,0,0:0:0:0:
320,192,160336,1,0,0:0:0:0:
64,192,160427,1,0,0:0:0:0:
320,192,160518,1,0,0:0:0:50:kick.wav
448,192,160518,1,0,0:0:0:0:
64,192,160609,1,0,0:0:0:0:
192,192,160609,1,0,0:0:0:0:
448,192,160700,1,0,0:0:0:0:
320,192,160790,1,0,0:0:0:0:
192,192,160881,1,0,0:0:0:50:kick.wav
448,192,160881,1,0,0:0:0:50:clap.wav
320,192,160972,1,0,0:0:0:0:
64,192,161063,1,0,0:0:0:0:
192,192,161063,1,0,0:0:0:0:
448,192,161154,1,0,0:0:0:0:
64,192,161245,1,0,0:0:0:50:kick.wav
192,192,161245,1,0,0:0:0:0:
320,192,161336,1,0,0:0:0:0:
448,192,161427,1,0,0:0:0:0:
64,192,161518,1,0,0:0:0:0:
320,192,161518,1,0,0:0:0:0:
192,192,161609,1,0,0:0:0:50:kick.wav
448,192,161609,1,0,0:0:0:50:clap.wav
64,192,161700,1,0,0:0:0:0:
192,192,161790,1,0,0:0:0:0:
320,192,161790,1,0,0:0:0:0:
448,192,161881,1,0,0:0:0:0:
64,192,161972,1,0,0:0:0:50:kick.wav
320,192,161972,1,0,0:0:0:0:
192,192,162063,1,0,0:0:0:0:
320,192,162154,1,0,0:0:0:0:
64,192,162245,1,0,0:0:0:0:
192,192,162336,1,0,0:0:0:50:kick.wav
448,192,162336,1,0,0:0:0:50:clap.wav
320,192,162427,1,0,0:0:0:0:
192,192,162518,1,0,0:0:0:0:
448,192,162518,1,0,0:0:0:0:
64,192,162609,1,0,0:0:0:0:
320,192,162700,1,0,0:0:0:50:kick.wav
448,192,162700,1,0,0:0:0:0:
192,192,162790,1,0,0:0:0:0:
320,192,162881,1,0,0:0:0:0:
64,192,162972,1,0,0:0:0:0:
192,192,163063,1,0,0:0:0:50:kick.wav
448,192,163063,1,0,0:0:0:50:clap.wav
320,192,163154,1,0,0:0:0:0:
192,192,163245,1,0,0:0:0:0:
448,192,163245,1,0,0:0:0:0:
64,192,163336,1,0,0:0:0:0:
320,192,163427,1,0,0:0:0:50:kick.wav
448,192,163427,1,0,0:0:0:0:
192,192,163518,1,0,0:0:0:0:
320,192,163609,1,0,0:0:0:0:
64,192,163700,1,0,0:0:0:0:
192,192,163790,1,0,0:0:0:50:kick.wav
448,192,163790,1,0,0:0:0:50:clap.wav
320,192,163881,1,0,0:0:0:0:
192,192,163972,1,0,0:0:0:0:
448,192,163972,1,0,0:0:0:0:
64,192,164063,1,0,0:0:0:0:
320,192,164154,1,0,0:0:0:50:kick.wav
448,192,164154,1,0,0:0:0:0:
192,192,164245,1,0,0:0:0:0:
320,192,164336,1,0,0:0:0:0:
64,192,164427,1,0,0:0:0:0:
192,192,164518,1,0,0:0:0:50:kick.wav
448,192,164518,1,0,0:0:0:50:clap.wav
320,192,164609,1,0,0:0:0:0:
192,192,164700,1,0,0:0:0:0:
448,192,164700,1,0,0:0:0:0:
64,192,164790,1,0,0:0:0:0:
192,192,164881,1,0,0:0:0:50:kick.wav
320,192,164881,1,0,0:0:0:0:
448,192,164972,1,0,0:0:0:0:
64,192,165063,1,0,0:0:0:0:
192,192,165063,1,0,0:0:0:0:
448,192,165154,1,0,0:0:0:0:
64,192,165245,1,0,0:0:0:50:kick.wav
320,192,165245,1,0,0:0:0:50:clap.wav
192,192,165336,1,0,0:0:0:0:
320,192,165427,1,0,0:0:0:0:
448,192,165427,1,0,0:0:0:0:
192,192,165518,1,0,0:0:0:0:
64,192,165609,1,0,0:0:0:50:kick.wav
448,192,165609,1,0,0:0:0:0:
320,192,165700,1,0,0:0:0:0:
448,192,165790,1,0,0:0:0:0:
64,192,165881,1,0,0:0:0:0:
192,192,165881,1,0,0:0:0:0:
320,192,165972,1,0,0:0:0:50:kick.wav
448,192,165972,1,0,0:0:0:50:clap.wav
64,192,166063,1,0,0:0:0:0:
192,192,166154,1,0,0:0:0:0:
320,192,166154,1,0,0:0:0:0:
448,192,166245,1,0,0:0:0:0:
64,192,166336,1,0,0:0:0:50:kick.wav
320,192,166336,1,0,0:0:0:0:
192,192,166427,1,0,0:0:0:0:
448,192,166427,1,0,0:0:0:0:
64,192,166518,1,0,0:0:0:0:
320,192,166609,1,0,0:0:0:0:
64,192,166700,1,0,0:0:0:50:kick.wav
192,192,166700,1,0,0:0:0:50:clap.wav
320,192,166790,1,0,0:0:0:0:
192,192,166881,1,0,0:0:0:0:
448,192,166881,1,0,0:0:0:0:
64,192,166972,1,0,0:0:0:0:
320,192,167063,1,0,0:0:0:50:kick.wav
448,192,167063,1,0,0:0:0:0:
192,192,167154,1,0,0:0:0:0:
64,192,167245,1,0,0:0:0:0:
320,192,167336,1,0,0:0:0:0:
448,192,167336,1,0,0:0:0:0:
64,192,167427,1,0,0:0:0:50:kick.wav
192,192,167427,1,0,0:0:0:50:clap.wav
448,192,167518,1,0,0:0:0:0:
192,192,167609,1,0,0:0:0:0:
320,192,167609,1,0,0:0:0:0:
64,192,167700,1,0,0:0:0:0:
320,192,167790,1,0,0:0:0:50:kick.wav
448,192,167790,1,0,0:0:0:0:
192,192,167881,1,0,0:0:0:0:
320,192,167972,1,0,0:0:0:0:
448,192,168063,1,0,0:0:0:0:
64,192,168154,1,0,0:0:0:50:kick.wav
192,192,168154,1,0,0:0:0:50:clap.wav
448,192,168245,1,0,0:0:0:0:
192,192,168336,1,0,0:0:0:0:
320,192,168336,1,0,0:0:0:0:
64,192,168427,1,0,0:0:0:0:
320,192,168518,1,0,0:0:0:50:kick.wav
448,192,168518,1,0,0:0:0:0:
192,192,168609,1,0,0:0:0:0:
64,192,168700,1,0,0:0:0:0:
448,192,168790,1,0,0:0:0:0:
64,192,168881,1,0,0:0:0:50:kick.wav
192,192,168881,1,0,0:0:0:50:clap.wav
320,192,168972,1,0,0:0:0:0:
448,192,169063,1,0,0:0:0:0:
64,192,169154,1,0,0:0:0:0:
320,192,169245,1,0,0:0:0:50:kick.wav
448,192,169245,1,0,0:0:0:0:
192,192,169336,1,0,0:0:0:0:
64,192,169427,1,0,0:0:0:0:
448,192,169518,1,0,0:0:0:0:
64,192,169609,1,0,0:0:0:50:kick.wav
192,192,169609,1,0,0:0:0:50:clap.wav
320,192,169700,1,0,0:0:0:0:
448,192,169790,1,0,0:0:0:0:
64,192,169881,1,0,0:0:0:0:
320,192,169972,1,0,0:0:0:50:kick.wav
448,192,169972,1,0,0:0:0:0:
192,192,170063,1,0,0:0:0:0:
64,192,170154,1,0,0:0:0:0:
320,192,170154,1,0,0:0:0:0:
448,192,170245,1,0,0:0:0:0:
64,192,170336,1,0,0:0:0:50:kick.wav
192,192,170336,1,0,0:0:0:50:clap.wav
320,192,170427,1,0,0:0:0:0:
192,192,170518,1,0,0:0:0:0:
448,192,170518,1,0,0:0:0:0:
64,192,170609,1,0,0:0:0:0:
192,192,170700,1,0,0:0:0:50:kick.wav
320,192,170700,1,0,0:0:0:0:
448,192,170790,1,0,0:0:0:0:
64,192,170881,1,0,0:0:0:50:kick.wav
192,192,170881,1,0,0:0:0:50:clap.wav
320,192,170972,1,0,0:0:0:50:clap.wav
448,192,170972,1,0,0:0:0:50:kick.wav
64,192,171063,1,0,0:0:0:50:kick.wav
192,192,171063,1,0,0:0:0:50:clap.wav
448,192,171154,1,0,0:0:0:0:
192,192,171245,1,0,0:0:0:50:clap.wav
320,192,171245,1,0,0:0:0:50:kick.wav
448,192,171336,1,0,0:0:0:0:
320,192,171427,1,0,0:0:0:50:kick.wav
192,0,171427,1,0,0:0:0:50:crash.wav
64,0,171427,1,0,0:0:0:50:clapL.wav
448,192,171518,1,0,0:0:0:0:
64,192,171609,1,0,0:0:0:0:
192,192,171609,1,0,0:0:0:0:
320,192,171700,1,0,0:0:0:0:
448,192,171700,1,0,0:0:0:0:
64,192,171790,1,0,0:0:0:50:clap.wav
192,192,171881,1,0,0:0:0:0:
320,192,171881,1,0,0:0:0:0:
64,192,171972,1,0,0:0:0:0:
448,192,171972,1,0,0:0:0:0:
320,192,172063,1,0,0:0:0:0:
192,192,172154,1,0,0:0:0:50:kick.wav
448,192,172154,1,0,0:0:0:0:
64,192,172245,1,0,0:0:0:0:
320,192,172245,1,0,0:0:0:0:
192,192,172336,1,0,0:0:0:0:
64,192,172427,1,0,0:0:0:0:
448,192,172427,1,0,0:0:0:0:
192,192,172518,1,0,0:0:0:0:
320,192,172518,1,0,0:0:0:50:clap.wav
448,192,172609,1,0,0:0:0:0:
64,192,172700,1,0,0:0:0:0:
192,192,172700,1,0,0:0:0:0:
448,192,172790,1,0,0:0:0:0:
64,192,172881,1,0,0:0:0:50:kick.wav
320,192,172881,1,0,0:0:0:0:
192,192,172972,1,0,0:0:0:0:
320,192,173063,1,0,0:0:0:0:
448,192,173063,1,0,0:0:0:0:
64,192,173154,1,0,0:0:0:0:
192,192,173154,1,0,0:0:0:0:
320,192,173245,1,0,0:0:0:50:clap.wav
64,192,173336,1,0,0:0:0:0:
448,192,173336,1,0,0:0:0:0:
192,192,173427,1,0,0:0:0:0:
320,192,173427,1,0,0:0:0:0:
448,192,173518,1,0,0:0:0:0:
64,192,173609,1,0,0:0:0:50:kick.wav
192,192,173609,1,0,0:0:0:0:
320,192,173700,1,0,0:0:0:0:
448,192,173700,1,0,0:0:0:0:
64,192,173790,1,0,0:0:0:0:
192,192,173881,1,0,0:0:0:0:
320,192,173881,1,0,0:0:0:0:
64,192,173972,1,0,0:0:0:0:
448,192,173972,1,0,0:0:0:50:clap.wav
320,192,174063,1,0,0:0:0:0:
64,192,174154,1,0,0:0:0:0:
192,192,174154,1,0,0:0:0:0:
448,192,174245,1,0,0:0:0:0:
192,192,174336,1,0,0:0:0:50:kick.wav
320,192,174336,1,0,0:0:0:0:
64,192,174427,1,0,0:0:0:0:
320,192,174518,1,0,0:0:0:0:
448,192,174518,1,0,0:0:0:0:
64,192,174609,1,0,0:0:0:0:
192,192,174609,1,0,0:0:0:0:
448,192,174700,1,0,0:0:0:50:clap.wav
64,192,174790,1,0,0:0:0:0:
320,192,174790,1,0,0:0:0:0:
192,192,174881,1,0,0:0:0:0:
448,192,174881,1,0,0:0:0:0:
64,192,174972,1,0,0:0:0:0:
192,192,175063,1,0,0:0:0:50:kick.wav
320,192,175063,1,0,0:0:0:0:
64,192,175154,1,0,0:0:0:0:
448,192,175154,1,0,0:0:0:0:
320,192,175245,1,0,0:0:0:0:
192,192,175336,1,0,0:0:0:0:
448,192,175336,1,0,0:0:0:0:
64,192,175427,1,0,0:0:0:0:
320,192,175427,1,0,0:0:0:50:clap.wav
448,192,175518,1,0,0:0:0:0:
192,192,175609,1,0,0:0:0:0:
320,192,175609,1,0,0:0:0:0:
64,192,175700,1,0,0:0:0:0:
192,192,175790,1,0,0:0:0:50:kick.wav
320,192,175790,1,0,0:0:0:50:kick.wav
448,192,175790,1,0,0:0:0:0:
448,192,175972,1,0,0:0:0:0:
448,192,176063,1,0,0:0:0:0:
64,192,176154,1,0,0:0:0:50:clap.wav
192,192,176154,1,0,0:0:0:0:
320,192,176154,1,0,0:0:0:50:clap.wav
192,192,176336,1,0,0:0:0:0:
192,192,176427,1,0,0:0:0:0:
64,192,176518,1,0,0:0:0:50:kick.wav
320,192,176518,1,0,0:0:0:0:
448,192,176518,1,0,0:0:0:50:kick.wav
320,192,176700,1,0,0:0:0:0:
320,192,176790,1,0,0:0:0:0:
64,192,176881,1,0,0:0:0:0:
192,192,176881,1,0,0:0:0:50:clap.wav
448,192,176881,1,0,0:0:0:50:clap.wav
64,192,177063,1,0,0:0:0:0:
64,192,177154,1,0,0:0:0:0:
192,192,177245,1,0,0:0:0:50:kick.wav
320,0,177245,1,0,0:0:0:50:clapL.wav
448,0,177245,1,0,0:0:0:50:crash.wav
64,192,177336,1,0,0:0:0:0:
320,192,177427,1,0,0:0:0:0:
448,192,177427,1,0,0:0:0:0:
64,192,177518,1,0,0:0:0:0:
192,192,177518,1,0,0:0:0:0:
320,192,177609,1,0,0:0:0:50:clap.wav
64,192,177700,1,0,0:0:0:0:
448,192,177700,1,0,0:0:0:0:
192,192,177790,1,0,0:0:0:0:
320,192,177790,1,0,0:0:0:0:
64,192,177881,1,0,0:0:0:0:
320,192,177972,1,0,0:0:0:50:kick.wav
448,192,177972,1,0,0:0:0:0:
64,192,178063,1,0,0:0:0:0:
192,192,178063,1,0,0:0:0:0:
448,192,178154,1,0,0:0:0:0:
192,192,178245,1,0,0:0:0:0:
320,192,178245,1,0,0:0:0:0:
64,192,178336,1,0,0:0:0:0:
448,192,178336,1,0,0:0:0:50:clap.wav
320,192,178427,1,0,0:0:0:0:
192,192,178518,1,0,0:0:0:0:
448,192,178518,1,0,0:0:0:0:
320,192,178609,1,0,0:0:0:0:
64,192,178700,1,0,0:0:0:50:kick.wav
192,192,178700,1,0,0:0:0:0:
448,192,178790,1,0,0:0:0:0:
64,192,178881,1,0,0:0:0:0:
320,192,178881,1,0,0:0:0:0:
192,192,178972,1,0,0:0:0:0:
448,192,178972,1,0,0:0:0:0:
64,192,179063,1,0,0:0:0:50:clap.wav
192,192,179154,1,0,0:0:0:0:
320,192,179154,1,0,0:0:0:0:
64,192,179245,1,0,0:0:0:0:
448,192,179245,1,0,0:0:0:0:
320,192,179336,1,0,0:0:0:0:
192,192,179427,1,0,0:0:0:50:kick.wav
448,192,179427,1,0,0:0:0:0:
320,192,179518,1,0,0:0:0:0:
64,192,179609,1,0,0:0:0:0:
448,192,179609,1,0,0:0:0:0:
320,192,179700,1,0,0:0:0:0:
192,192,179790,1,0,0:0:0:0:
448,192,179790,1,0,0:0:0:50:clap.wav
64,192,179881,1,0,0:0:0:0:
192,192,179972,1,0,0:0:0:0:
320,192,179972,1,0,0:0:0:0:
64,192,180063,1,0,0:0:0:0:
320,192,180154,1,0,0:0:0:50:kick.wav
448,192,180154,1,0,0:0:0:0:
192,192,180245,1,0,0:0:0:0:
64,192,180336,1,0,0:0:0:0:
320,192,180336,1,0,0:0:0:0:
192,192,180427,1,0,0:0:0:0:
448,192,180427,1,0,0:0:0:0:
320,192,180518,1,0,0:0:0:50:clap.wav
64,192,180609,1,0,0:0:0:0:
192,192,180609,1,0,0:0:0:0:
320,192,180700,1,0,0:0:0:0:
448,192,180700,1,0,0:0:0:0:
192,192,180790,1,0,0:0:0:0:
64,192,180881,1,0,0:0:0:50:kick.wav
448,192,180881,1,0,0:0:0:0:
192,192,180972,1,0,0:0:0:0:
320,192,180972,1,0,0:0:0:0:
448,192,181063,1,0,0:0:0:0:
64,192,181154,1,0,0:0:0:0:
192,192,181154,1,0,0:0:0:0:
320,192,181245,1,0,0:0:0:50:clap.wav
448,192,181245,1,0,0:0:0:0:
64,192,181336,1,0,0:0:0:0:
192,192,181336,1,0,0:0:0:50:clap.wav
320,192,181427,1,0,0:0:0:50:clap.wav
448,192,181427,1,0,0:0:0:0:
192,192,181518,1,0,0:0:0:50:clap.wav
64,192,181609,1,0,0:0:0:0:
320,192,181609,1,0,0:0:0:50:clap.wav
448,192,181609,1,0,0:0:0:50:kick.wav
320,192,181700,1,0,0:0:0:0:
192,192,181790,1,0,0:0:0:0:
64,192,181881,1,0,0:0:0:0:
320,192,181881,1,0,0:0:0:50:clap.wav
448,192,181881,1,0,0:0:0:50:kick.wav
320,192,181972,1,0,0:0:0:0:
192,192,182063,1,0,0:0:0:0:
64,192,182154,1,0,0:0:0:0:
320,192,182154,1,0,0:0:0:50:clap.wav
448,192,182154,1,0,0:0:0:50:kick.wav
320,192,182245,1,0,0:0:0:0:
192,192,182336,1,0,0:0:0:0:
64,192,182427,1,0,0:0:0:0:
320,192,182427,1,0,0:0:0:50:clap.wav
448,192,182427,1,0,0:0:0:50:kick.wav
320,192,182518,1,0,0:0:0:0:
192,192,182609,1,0,0:0:0:0:
64,192,182700,1,0,0:0:0:0:
320,192,182700,1,0,0:0:0:50:clap.wav
448,192,182700,1,0,0:0:0:50:kick.wav
320,192,182790,1,0,0:0:0:0:
192,192,182881,1,0,0:0:0:0:
192,192,183063,1,0,0:0:0:50:kick.wav
320,192,183063,1,0,0:0:0:50:clapL.wav
64,0,183063,128,0,185972:0:0:0:0:
448,0,183063,1,0,0:0:0:50:crash.wav
320,192,183245,1,0,0:0:0:100:hat.wav
192,192,183427,1,0,0:0:0:0:
448,192,183609,1,0,0:0:0:100:hat.wav
192,192,183790,1,0,0:0:0:0:
320,192,183972,1,0,0:0:0:100:hat.wav
192,192,184154,1,0,0:0:0:0:
448,192,184336,1,0,0:0:0:100:hat.wav
192,192,184518,1,0,0:0:0:0:
448,192,184700,1,0,0:0:0:100:hat.wav
320,192,184881,1,0,0:0:0:0:
448,192,185063,1,0,0:0:0:100:hat.wav
192,192,185245,1,0,0:0:0:0:
320,192,185427,1,0,0:0:0:100:hat.wav
192,192,185609,1,0,0:0:0:0:
320,192,185790,1,0,0:0:0:100:hat.wav
448,192,185790,1,0,0:0:0:50:clap.wav
448,192,185881,1,0,0:0:0:50:clap.wav
192,192,185972,1,0,0:0:0:50:kick.wav
320,192,185972,1,0,0:0:0:0:
192,192,186154,1,0,0:0:0:50:kick.wav
64,192,186154,1,0,0:0:0:0:
192,192,186336,1,0,0:0:0:50:kick.wav
320,192,186336,1,0,0:0:0:0:
448,192,186518,1,0,0:0:0:0:
192,192,186518,1,0,0:0:0:50:kick.wav
192,192,186700,1,0,0:0:0:50:kick.wav
320,192,186700,1,0,0:0:0:0:
192,192,186881,1,0,0:0:0:50:kick.wav
64,192,186881,1,0,0:0:0:0:
192,192,187063,1,0,0:0:0:50:kick.wav
320,192,187063,1,0,0:0:0:0:
192,192,187245,1,0,0:0:0:50:kick.wav
448,192,187245,1,0,0:0:0:0:
64,192,187427,1,0,0:0:0:0:
192,192,187427,1,0,0:0:0:50:kick.wav
320,192,187518,1,0,0:0:0:50:kick.wav
448,192,187518,1,0,0:0:0:0:
64,192,187609,1,0,0:0:0:0:
192,192,187609,1,0,0:0:0:50:kick.wav
320,192,187700,5,0,0:0:0:50:kick.wav
448,192,187700,1,0,0:0:0:0:
64,192,187790,1,0,0:0:0:0:
192,192,187790,1,0,0:0:0:50:kick.wav
320,192,187881,1,0,0:0:0:50:kick.wav
448,192,187881,1,0,0:0:0:0:
64,192,187972,1,0,0:0:0:50:kick.wav
192,192,188018,1,0,0:0:0:50:kick.wav
320,192,188063,1,0,0:0:0:50:kick.wav
448,192,188109,1,0,0:0:0:50:kick.wav
64,192,188154,1,0,0:0:0:50:kick.wav
192,192,188200,1,0,0:0:0:50:kick.wav
320,192,188245,1,0,0:0:0:50:kick.wav
448,192,188290,1,0,0:0:0:50:kick.wav
64,192,188336,1,0,0:0:0:50:kick.wav
192,192,188336,1,0,0:0:0:0:
64,0,188518,1,0,0:0:0:50:kick.wav
192,0,188518,1,0,0:0:0:30:clapL.wav
320,0,188518,1,0,0:0:0:30:clapL.wav
448,0,188518,1,0,0:0:0:50:kick.wav
64,192,188881,1,0,0:0:0:50:kick.wav
192,192,188881,1,0,0:0:0:0:
448,192,188972,1,0,0:0:0:0:
192,192,189063,128,0,189154:0:0:0:0:
320,192,189154,1,0,0:0:0:0:
64,192,189245,1,0,0:0:0:50:kick.wav
448,192,189245,1,0,0:0:0:0:
192,192,189336,1,0,0:0:0:0:
448,192,189427,128,0,189518:0:0:0:0:
320,192,189518,1,0,0:0:0:0:
64,192,189609,1,0,0:0:0:50:kick.wav
192,192,189609,1,0,0:0:0:0:
448,192,189700,1,0,0:0:0:0:
64,192,189790,128,0,189881:0:0:0:0:
320,192,189881,1,0,0:0:0:0:
192,192,189972,1,0,0:0:0:50:kick.wav
448,192,189972,1,0,0:0:0:0:
64,192,190063,1,0,0:0:0:0:
320,192,190154,128,0,190245:0:0:0:0:
448,192,190245,1,0,0:0:0:0:
64,192,190336,1,0,0:0:0:50:kick.wav
192,192,190336,1,0,0:0:0:0:
448,192,190427,1,0,0:0:0:0:
192,192,190518,128,0,190609:0:0:0:0:
320,192,190609,1,0,0:0:0:0:
64,192,190700,1,0,0:0:0:50:kick.wav
448,192,190700,1,0,0:0:0:0:
192,192,190790,1,0,0:0:0:0:
448,192,190881,128,0,190972:0:0:0:0:
320,192,190972,1,0,0:0:0:0:
64,192,191063,1,0,0:0:0:50:kick.wav
192,192,191063,1,0,0:0:0:0:
448,192,191154,1,0,0:0:0:0:
64,192,191245,128,0,191336:0:0:0:0:
320,192,191336,1,0,0:0:0:0:
192,192,191427,1,0,0:0:0:50:kick.wav
448,192,191427,1,0,0:0:0:0:
64,192,191518,1,0,0:0:0:0:
320,192,191609,128,0,191700:0:0:0:0:
192,192,191700,1,0,0:0:0:0:
64,192,191790,1,0,0:0:0:50:kick.wav
448,192,191790,1,0,0:0:0:0:
320,192,191881,1,0,0:0:0:0:
448,192,191972,128,0,192063:0:0:0:0:
192,192,192063,1,0,0:0:0:0:
448,192,192154,1,0,0:0:0:0:
320,192,192154,1,0,0:0:0:50:kick.wav
192,192,192200,1,0,0:0:0:0:
64,192,192245,1,0,0:0:0:0:
320,192,192336,128,0,192427:0:0:0:0:
192,192,192427,1,0,0:0:0:0:
64,192,192518,1,0,0:0:0:50:kick.wav
448,192,192518,1,0,0:0:0:0:
320,192,192609,1,0,0:0:0:0:
192,192,192700,128,0,192790:0:0:0:0:
320,192,192790,1,0,0:0:0:0:
192,192,192881,1,0,0:0:0:0:
64,192,192881,1,0,0:0:0:50:kick.wav
320,192,192927,1,0,0:0:0:0:
448,192,192972,1,0,0:0:0:0:
64,192,193063,128,0,193154:0:0:0:0:
192,192,193154,1,0,0:0:0:0:
320,192,193245,1,0,0:0:0:0:
64,192,193245,1,0,0:0:0:50:kick.wav
448,192,193336,1,0,0:0:0:0:
192,192,193427,1,0,0:0:0:0:
320,192,193518,1,0,0:0:0:0:
64,192,193609,1,0,0:0:0:50:kick.wav
448,192,193609,1,0,0:0:0:0:
192,192,193700,1,0,0:0:0:0:
320,192,193790,1,0,0:0:0:0:
448,192,193881,1,0,0:0:0:0:
64,192,193972,1,0,0:0:0:50:kick.wav
192,192,193972,1,0,0:0:0:0:
320,192,194063,1,0,0:0:0:0:
448,192,194063,1,0,0:0:0:0:
64,192,194154,1,0,0:0:0:0:
192,192,194245,1,0,0:0:0:0:
448,192,194336,1,0,0:0:0:50:kick.wav
320,192,194336,1,0,0:0:0:0:
64,192,194427,1,0,0:0:0:0:
192,192,194427,1,0,0:0:0:0:
320,192,194518,1,0,0:0:0:0:
448,192,194609,1,0,0:0:0:0:
64,192,194700,1,0,0:0:0:50:kick.wav
320,192,194700,1,0,0:0:0:0:
192,192,194790,1,0,0:0:0:0:
320,192,194881,128,0,194972:0:0:0:0:
192,192,194972,1,0,0:0:0:0:
64,192,195063,1,0,0:0:0:50:kick.wav
448,192,195063,1,0,0:0:0:0:
320,192,195154,1,0,0:0:0:0:
64,192,195245,128,0,195336:0:0:0:0:
192,192,195336,1,0,0:0:0:0:
448,192,195427,1,0,0:0:0:0:
320,192,195427,1,0,0:0:0:50:kick.wav
64,192,195518,1,0,0:0:0:0:
448,192,195609,128,0,195700:0:0:0:0:
192,192,195700,1,0,0:0:0:0:
64,192,195790,1,0,0:0:0:50:kick.wav
320,192,195790,1,0,0:0:0:0:
448,192,195881,1,0,0:0:0:0:
192,192,195972,128,0,196063:0:0:0:0:
64,192,196063,1,0,0:0:0:0:
448,192,196154,1,0,0:0:0:0:
320,192,196154,1,0,0:0:0:50:kick.wav
64,192,196245,1,0,0:0:0:0:
320,192,196336,128,0,196427:0:0:0:0:
192,192,196427,1,0,0:0:0:0:
448,192,196518,1,0,0:0:0:0:
64,192,196518,1,0,0:0:0:50:kick.wav
320,192,196609,1,0,0:0:0:0:
64,192,196700,128,0,196790:0:0:0:0:
192,192,196790,1,0,0:0:0:0:
320,192,196881,1,0,0:0:0:50:kick.wav
448,192,196881,1,0,0:0:0:0:
64,192,196972,1,0,0:0:0:0:
448,192,197063,128,0,197154:0:0:0:0:
192,192,197154,1,0,0:0:0:0:
320,192,197245,1,0,0:0:0:0:
64,192,197245,1,0,0:0:0:50:kick.wav
448,192,197336,1,0,0:0:0:0:
192,192,197427,128,0,197518:0:0:0:0:
320,192,197518,1,0,0:0:0:0:
64,192,197609,1,0,0:0:0:50:kick.wav
448,192,197609,1,0,0:0:0:0:
192,192,197700,1,0,0:0:0:0:
64,192,197790,128,0,197881:0:0:0:0:
320,192,197881,1,0,0:0:0:0:
64,192,197972,1,0,0:0:0:50:kick.wav
192,192,197972,1,0,0:0:0:0:
320,192,198018,1,0,0:0:0:0:
448,192,198063,1,0,0:0:0:0:
192,192,198154,128,0,198245:0:0:0:0:
320,192,198245,1,0,0:0:0:0:
64,192,198336,1,0,0:0:0:50:kick.wav
448,192,198336,1,0,0:0:0:0:
192,192,198427,1,0,0:0:0:0:
320,192,198518,128,0,198609:0:0:0:0:
192,192,198609,1,0,0:0:0:0:
320,192,198700,1,0,0:0:0:50:kick.wav
448,192,198700,1,0,0:0:0:0:
192,192,198745,1,0,0:0:0:0:
64,192,198790,1,0,0:0:0:0:
448,192,198881,128,0,198972:0:0:0:0:
192,192,198972,1,0,0:0:0:0:
320,192,199063,1,0,0:0:0:0:
64,192,199063,1,0,0:0:0:50:kick.wav
448,192,199154,1,0,0:0:0:0:
192,192,199245,1,0,0:0:0:0:
320,192,199336,1,0,0:0:0:0:
448,192,199427,1,0,0:0:0:0:
64,192,199427,1,0,0:0:0:50:kick.wav
192,192,199518,1,0,0:0:0:0:
320,192,199609,1,0,0:0:0:0:
448,192,199700,1,0,0:0:0:0:
64,192,199790,1,0,0:0:0:50:kick.wav
192,192,199790,1,0,0:0:0:0:
320,192,199881,1,0,0:0:0:0:
448,192,199881,1,0,0:0:0:0:
64,192,199972,1,0,0:0:0:0:
192,192,199972,1,0,0:0:0:50:clap.wav
192,192,200063,1,0,0:0:0:50:clap.wav
320,192,200063,1,0,0:0:0:0:
448,192,200154,1,0,0:0:0:50:kick.wav
64,192,200154,1,0,0:0:0:0:
192,192,200245,1,0,0:0:0:0:
448,192,200336,1,0,0:0:0:0:
320,192,200336,1,0,0:0:0:50:clap.wav
192,192,200427,1,0,0:0:0:0:
320,192,200427,1,0,0:0:0:50:clap.wav
448,192,200518,1,0,0:0:0:50:crash.wav
192,192,200518,1,0,0:0:0:50:clapL.wav
64,192,200518,1,0,0:0:0:50:kick.wav
320,192,200609,1,0,0:0:0:0:
64,192,200700,128,0,200790:0:0:0:0:
192,192,200790,1,0,0:0:0:0:
320,192,200881,1,0,0:0:0:0:
448,192,200881,1,0,0:0:0:50:clap.wav
64,192,200881,1,0,0:0:0:50:kick.wav
192,192,200972,1,0,0:0:0:0:
320,192,201063,128,0,201154:0:0:0:0:
192,192,201154,1,0,0:0:0:0:
64,192,201245,1,0,0:0:0:50:kick.wav
448,192,201245,1,0,0:0:0:0:
320,192,201336,1,0,0:0:0:0:
192,192,201427,128,0,201518:0:0:0:0:
320,192,201518,1,0,0:0:0:0:
64,192,201609,1,0,0:0:0:50:kick.wav
192,192,201609,1,0,0:0:0:0:
448,192,201609,1,0,0:0:0:50:clap.wav
320,192,201700,1,0,0:0:0:0:
448,192,201790,128,0,201881:0:0:0:0:
192,192,201881,1,0,0:0:0:0:
64,192,201972,1,0,0:0:0:50:kick.wav
448,192,201972,1,0,0:0:0:0:
320,192,202063,1,0,0:0:0:0:
64,192,202154,128,0,202245:0:0:0:0:
192,192,202245,1,0,0:0:0:0:
64,192,202336,1,0,0:0:0:50:kick.wav
448,192,202336,1,0,0:0:0:50:clap.wav
320,192,202336,1,0,0:0:0:0:
192,192,202427,1,0,0:0:0:0:
320,192,202518,128,0,202609:0:0:0:0:
192,192,202609,1,0,0:0:0:0:
64,192,202700,1,0,0:0:0:50:kick.wav
448,192,202700,1,0,0:0:0:0:
320,192,202790,1,0,0:0:0:0:
192,192,202881,128,0,202972:0:0:0:0:
320,192,202972,1,0,0:0:0:0:
64,192,203063,1,0,0:0:0:50:kick.wav
192,192,203063,1,0,0:0:0:0:
448,192,203063,1,0,0:0:0:50:clap.wav
320,192,203154,1,0,0:0:0:0:
448,192,203245,128,0,203336:0:0:0:0:
192,192,203336,1,0,0:0:0:0:
448,192,203427,1,0,0:0:0:0:
64,192,203427,1,0,0:0:0:50:kick.wav
320,192,203518,1,0,0:0:0:0:
64,192,203609,128,0,203700:0:0:0:0:
192,192,203700,1,0,0:0:0:0:
64,192,203790,1,0,0:0:0:50:kick.wav
320,192,203790,1,0,0:0:0:0:
448,192,203790,1,0,0:0:0:50:clap.wav
192,192,203836,1,0,0:0:0:0:
320,192,203881,1,0,0:0:0:0:
192,192,203972,128,0,204063:0:0:0:0:
320,192,204063,1,0,0:0:0:0:
64,192,204154,1,0,0:0:0:50:kick.wav
448,192,204154,1,0,0:0:0:0:
192,192,204245,1,0,0:0:0:0:
448,192,204336,128,0,204427:0:0:0:0:
320,192,204427,1,0,0:0:0:0:
64,192,204518,1,0,0:0:0:50:kick.wav
192,192,204518,1,0,0:0:0:0:
448,192,204518,1,0,0:0:0:50:clap.wav
320,192,204563,1,0,0:0:0:0:
192,192,204609,1,0,0:0:0:0:
320,192,204700,128,0,204790:0:0:0:0:
192,192,204790,1,0,0:0:0:0:
64,192,204881,1,0,0:0:0:50:kick.wav
448,192,204881,1,0,0:0:0:0:
320,192,204972,1,0,0:0:0:0:
64,192,205063,1,0,0:0:0:0:
192,192,205154,1,0,0:0:0:0:
448,192,205245,1,0,0:0:0:50:clap.wav
64,192,205245,1,0,0:0:0:50:kick.wav
320,192,205245,1,0,0:0:0:0:
192,192,205336,1,0,0:0:0:0:
320,192,205427,1,0,0:0:0:0:
448,192,205518,1,0,0:0:0:0:
64,192,205609,1,0,0:0:0:50:kick.wav
192,192,205609,1,0,0:0:0:0:
320,192,205700,1,0,0:0:0:0:
448,192,205700,1,0,0:0:0:0:
64,192,205790,1,0,0:0:0:0:
192,192,205790,1,0,0:0:0:50:clap.wav
192,192,205881,1,0,0:0:0:50:clap.wav
320,192,205881,1,0,0:0:0:0:
448,192,205972,1,0,0:0:0:50:kick.wav
64,192,205972,1,0,0:0:0:0:
192,192,206063,1,0,0:0:0:0:
320,192,206154,1,0,0:0:0:0:
448,192,206154,1,0,0:0:0:50:clap.wav
64,192,206154,1,0,0:0:0:0:
192,192,206245,1,0,0:0:0:0:
64,192,206336,1,0,0:0:0:50:kick.wav
448,192,206336,1,0,0:0:0:0:
192,192,206427,1,0,0:0:0:0:
448,192,206518,128,0,206609:0:0:0:0:
320,192,206609,1,0,0:0:0:0:
64,192,206700,1,0,0:0:0:50:kick.wav
448,192,206700,1,0,0:0:0:50:clap.wav
192,192,206700,1,0,0:0:0:0:
320,192,206790,1,0,0:0:0:0:
192,192,206881,128,0,206972:0:0:0:0:
320,192,206972,1,0,0:0:0:0:
448,192,207063,1,0,0:0:0:0:
64,192,207063,1,0,0:0:0:50:kick.wav
192,192,207154,1,0,0:0:0:0:
320,192,207245,128,0,207336:0:0:0:0:
192,192,207336,1,0,0:0:0:0:
448,192,207427,1,0,0:0:0:50:clap.wav
64,192,207427,1,0,0:0:0:50:kick.wav
320,192,207427,1,0,0:0:0:0:
192,192,207518,1,0,0:0:0:0:
64,192,207609,128,0,207700:0:0:0:0:
320,192,207700,1,0,0:0:0:0:
448,192,207790,1,0,0:0:0:0:
64,192,207790,1,0,0:0:0:50:kick.wav
192,192,207881,1,0,0:0:0:0:
448,192,207972,128,0,208063:0:0:0:0:
320,192,208063,1,0,0:0:0:0:
192,192,208154,1,0,0:0:0:0:
64,192,208154,1,0,0:0:0:50:kick.wav
448,192,208154,1,0,0:0:0:50:clap.wav
320,192,208245,1,0,0:0:0:0:
192,192,208336,128,0,208427:0:0:0:0:
320,192,208427,1,0,0:0:0:0:
448,192,208518,1,0,0:0:0:0:
64,192,208518,1,0,0:0:0:50:kick.wav
192,192,208609,1,0,0:0:0:0:
320,192,208700,128,0,208790:0:0:0:0:
192,192,208790,1,0,0:0:0:0:
64,192,208881,1,0,0:0:0:50:kick.wav
448,192,208881,1,0,0:0:0:50:clap.wav
320,192,208881,1,0,0:0:0:0:
192,192,208972,1,0,0:0:0:0:
64,192,209063,128,0,209154:0:0:0:0:
320,192,209154,1,0,0:0:0:0:
64,192,209245,1,0,0:0:0:50:kick.wav
448,192,209245,128,0,210609:0:0:0:0:
192,192,209336,1,0,0:0:0:0:
320,192,209427,128,0,209518:0:0:0:0:
64,192,209518,1,0,0:0:0:0:
192,192,209609,1,0,0:0:0:50:clap.wav
320,192,209609,1,0,0:0:0:50:kick.wav
192,192,209700,1,0,0:0:0:0:
64,192,209790,128,0,209881:0:0:0:0:
320,192,209881,1,0,0:0:0:0:
64,192,209972,1,0,0:0:0:50:kick.wav
192,192,210063,1,0,0:0:0:0:
320,192,210154,128,0,210245:0:0:0:0:
64,192,210245,1,0,0:0:0:0:
192,192,210336,1,0,0:0:0:50:clap.wav
320,192,210336,1,0,0:0:0:50:kick.wav
192,192,210427,1,0,0:0:0:0:
64,192,210518,128,0,210609:0:0:0:0:
192,192,210609,1,0,0:0:0:0:
64,192,210700,1,0,0:0:0:50:kick.wav
320,192,210700,1,0,0:0:0:0:
448,192,210700,1,0,0:0:0:0:
192,192,210790,1,0,0:0:0:0:
64,192,210881,1,0,0:0:0:0:
320,192,210881,1,0,0:0:0:50:kick.wav
192,192,210972,1,0,0:0:0:50:clap.wav
448,192,210972,1,0,0:0:0:50:crash.wav
64,192,211063,1,0,0:0:0:0:
320,192,211154,1,0,0:0:0:50:kick.wav
448,192,211154,1,0,0:0:0:0:
64,192,211245,1,0,0:0:0:50:clap.wav
192,192,211245,1,0,0:0:0:50:crash.wav
448,192,211336,1,0,0:0:0:0:
64,192,211427,1,0,0:0:0:0:
320,192,211427,1,0,0:0:0:50:kick.wav
192,192,211518,1,0,0:0:0:0:
448,192,211518,1,0,0:0:0:0:
320,192,211609,1,0,0:0:0:0:
448,192,211700,1,0,0:0:0:0:
64,192,211700,1,0,0:0:0:0:
192,192,211745,1,0,0:0:0:0:
320,192,211790,1,0,0:0:0:0:
448,192,211836,1,0,0:0:0:0:
64,192,211881,1,0,0:0:0:0:
192,192,211972,1,0,0:0:0:0:
320,192,212063,1,0,0:0:0:0:
448,192,212154,1,0,0:0:0:0:
64,192,212154,1,0,0:0:0:0:
192,192,212245,1,0,0:0:0:0:
320,192,212336,1,0,0:0:0:0:
192,192,212381,1,0,0:0:0:0:
448,192,212427,1,0,0:0:0:0:
64,192,212518,1,0,0:0:0:0:
192,192,212609,1,0,0:0:0:0:
448,192,212654,1,0,0:0:0:0:
320,192,212700,1,0,0:0:0:0:
64,192,212790,1,0,0:0:0:0:
448,192,212881,1,0,0:0:0:0:
320,192,212927,1,0,0:0:0:0:
192,192,212972,1,0,0:0:0:0:
64,192,213063,1,0,0:0:0:0:
448,192,213154,1,0,0:0:0:0:
192,192,213245,1,0,0:0:0:0:
64,192,213336,1,0,0:0:0:0:
320,192,213427,1,0,0:0:0:0:
64,192,213518,1,0,0:0:0:0:
448,192,213609,1,0,0:0:0:0:
192,192,213609,1,0,0:0:0:0:
320,192,213700,1,0,0:0:0:0:
192,192,213790,1,0,0:0:0:0:
448,192,213836,1,0,0:0:0:0:
64,192,213881,1,0,0:0:0:0:
320,192,213972,1,0,0:0:0:0:
192,192,214063,1,0,0:0:0:0:
64,192,214154,1,0,0:0:0:0:
448,192,214200,1,0,0:0:0:0:
320,192,214245,1,0,0:0:0:0:
64,192,214336,1,0,0:0:0:0:
192,192,214427,1,0,0:0:0:0:
320,192,214518,1,0,0:0:0:0:
64,192,214609,1,0,0:0:0:0:
192,192,214700,1,0,0:0:0:0:
64,192,214790,1,0,0:0:0:0:
320,192,214881,1,0,0:0:0:0:
192,192,214972,1,0,0:0:0:0:
448,192,215063,1,0,0:0:0:0:
64,192,215063,1,0,0:0:0:0:
192,192,215154,1,0,0:0:0:0:
448,192,215245,1,0,0:0:0:0:
64,192,215336,1,0,0:0:0:0:
320,192,215381,1,0,0:0:0:0:
192,192,215427,1,0,0:0:0:0:
320,192,215518,1,0,0:0:0:0:
448,192,215609,1,0,0:0:0:0:
64,192,215700,1,0,0:0:0:0:
192,192,215790,1,0,0:0:0:0:
320,192,215881,1,0,0:0:0:0:
64,192,215972,1,0,0:0:0:0:
192,192,216063,1,0,0:0:0:0:
448,192,216109,1,0,0:0:0:0:
320,192,216154,1,0,0:0:0:0:
448,192,216245,1,0,0:0:0:0:
192,192,216336,1,0,0:0:0:0:
320,192,216427,1,0,0:0:0:0:
448,192,216518,1,0,0:0:0:0:
64,192,216518,1,0,0:0:0:0:
192,192,216609,1,0,0:0:0:0:
320,192,216700,1,0,0:0:0:0:
64,192,216790,1,0,0:0:0:0:
192,192,216881,1,0,0:0:0:0:
320,192,216972,1,0,0:0:0:0:
448,192,217063,1,0,0:0:0:0:
64,192,217154,1,0,0:0:0:0:
320,192,217245,1,0,0:0:0:0:
64,192,217336,1,0,0:0:0:0:
192,192,217427,1,0,0:0:0:0:
64,192,217518,1,0,0:0:0:0:
320,192,217609,1,0,0:0:0:0:
64,192,217700,1,0,0:0:0:0:
448,192,217790,1,0,0:0:0:0:
192,192,217881,1,0,0:0:0:0:
448,192,217972,1,0,0:0:0:0:
320,192,217972,1,0,0:0:0:0:
64,192,218063,1,0,0:0:0:0:
192,192,218154,1,0,0:0:0:0:
320,192,218245,1,0,0:0:0:0:
64,192,218336,1,0,0:0:0:0:
320,192,218427,1,0,0:0:0:0:
448,192,218518,1,0,0:0:0:0:
64,192,218609,1,0,0:0:0:0:
320,192,218700,1,0,0:0:0:0:
192,192,218790,1,0,0:0:0:0:
448,192,218881,1,0,0:0:0:0:
64,192,218972,1,0,0:0:0:0:
192,192,219063,1,0,0:0:0:0:
64,192,219154,1,0,0:0:0:0:
320,192,219245,1,0,0:0:0:0:
64,192,219336,1,0,0:0:0:0:
448,192,219427,1,0,0:0:0:0:
320,192,219427,1,0,0:0:0:0:
64,192,219518,1,0,0:0:0:0:
320,192,219609,1,0,0:0:0:0:
192,192,219700,1,0,0:0:0:0:
320,192,219790,1,0,0:0:0:0:
64,192,219881,1,0,0:0:0:0:
448,192,219972,1,0,0:0:0:0:
64,192,220063,1,0,0:0:0:0:
320,192,220154,1,0,0:0:0:0:
192,192,220245,1,0,0:0:0:0:
64,192,220336,1,0,0:0:0:0:
448,192,220427,1,0,0:0:0:0:
64,192,220518,1,0,0:0:0:0:
320,192,220609,1,0,0:0:0:0:
192,192,220700,1,0,0:0:0:0:
448,192,220790,1,0,0:0:0:0:
64,192,220881,1,0,0:0:0:0:
320,192,220881,1,0,0:0:0:0:
192,192,220972,1,0,0:0:0:0:
448,192,221063,1,0,0:0:0:0:
64,192,221154,1,0,0:0:0:0:
192,192,221245,1,0,0:0:0:0:
320,192,221290,1,0,0:0:0:0:
448,192,221336,1,0,0:0:0:0:
64,192,221427,1,0,0:0:0:0:
320,192,221518,1,0,0:0:0:0:
448,192,221609,1,0,0:0:0:0:
192,192,221700,1,0,0:0:0:0:
64,192,221790,1,0,0:0:0:0:
448,192,221881,1,0,0:0:0:0:
320,192,221972,1,0,0:0:0:0:
192,192,222018,1,0,0:0:0:0:
64,192,222063,1,0,0:0:0:0:
448,192,222154,1,0,0:0:0:0:
320,192,222245,1,0,0:0:0:0:
64,192,222336,1,0,0:0:0:0:
192,192,222336,1,0,0:0:0:0:
448,192,222427,1,0,0:0:0:0:
192,192,222518,1,0,0:0:0:0:
320,192,222518,1,0,0:0:0:0:
64,192,222609,1,0,0:0:0:0:
320,192,222700,1,0,0:0:0:0:
448,192,222700,1,0,0:0:0:0:
64,192,222790,1,0,0:0:0:0:
192,192,222881,1,0,0:0:0:0:
320,192,222881,1,0,0:0:0:0:
448,192,222972,1,0,0:0:0:0:
64,192,223063,1,0,0:0:0:0:
192,192,223063,1,0,0:0:0:0:
448,192,223154,1,0,0:0:0:0:
192,192,223245,1,0,0:0:0:0:
320,192,223245,1,0,0:0:0:0:
64,192,223336,1,0,0:0:0:0:
320,192,223427,1,0,0:0:0:0:
448,192,223427,1,0,0:0:0:0:
192,192,223518,1,0,0:0:0:0:
448,192,223609,1,0,0:0:0:0:
320,192,223700,1,0,0:0:0:0:
64,192,223790,1,0,0:0:0:50:kickS.wav
192,192,223790,1,0,0:0:0:30:clapL.wav
448,192,223790,1,0,0:0:0:0:
320,192,223881,1,0,0:0:0:0:
64,192,223972,1,0,0:0:0:0:
448,192,224063,1,0,0:0:0:0:
192,192,224154,1,0,0:0:0:30:clapS.wav
320,192,224154,1,0,0:0:0:0:
448,192,224245,1,0,0:0:0:0:
64,192,224336,1,0,0:0:0:50:kickS.wav
192,192,224336,1,0,0:0:0:0:
320,192,224427,1,0,0:0:0:0:
64,192,224518,1,0,0:0:0:50:kickS.wav
192,192,224518,1,0,0:0:0:0:
320,192,224609,1,0,0:0:0:0:
64,192,224700,1,0,0:0:0:50:kickS.wav
192,192,224700,1,0,0:0:0:0:
448,192,224790,1,0,0:0:0:0:
192,192,224881,1,0,0:0:0:0:
320,192,224881,1,0,0:0:0:30:clapS.wav
64,192,224972,1,0,0:0:0:0:
448,192,225063,1,0,0:0:0:0:
192,192,225154,1,0,0:0:0:0:
448,192,225245,1,0,0:0:0:50:kickS.wav
320,192,225245,1,0,0:0:0:0:
192,192,225336,1,0,0:0:0:50:kickS.wav
64,192,225336,1,0,0:0:0:0:
320,192,225427,1,0,0:0:0:0:
448,192,225427,1,0,0:0:0:50:kickS.wav
64,192,225518,1,0,0:0:0:0:
192,192,225609,1,0,0:0:0:30:clapS.wav
320,192,225609,1,0,0:0:0:0:
64,192,225700,1,0,0:0:0:0:
448,192,225790,1,0,0:0:0:50:kickS.wav
320,192,225790,1,0,0:0:0:0:
192,192,225881,1,0,0:0:0:0:
448,192,225972,1,0,0:0:0:50:kickS.wav
320,192,225972,1,0,0:0:0:0:
192,192,226063,1,0,0:0:0:0:
448,192,226154,1,0,0:0:0:50:kickS.wav
320,192,226154,1,0,0:0:0:0:
64,192,226245,1,0,0:0:0:0:
320,192,226336,1,0,0:0:0:0:
192,192,226336,1,0,0:0:0:30:clapS.wav
448,192,226427,1,0,0:0:0:0:
64,192,226518,1,0,0:0:0:0:
320,192,226609,1,0,0:0:0:0:
64,192,226700,1,0,0:0:0:50:kickS.wav
192,192,226700,1,0,0:0:0:0:
320,192,226790,1,0,0:0:0:0:
448,192,226881,1,0,0:0:0:0:
64,192,226972,1,0,0:0:0:0:
192,192,227063,1,0,0:0:0:0:
320,192,227063,1,0,0:0:0:30:clapS.wav
448,192,227154,1,0,0:0:0:0:
64,192,227245,1,0,0:0:0:50:kickS.wav
192,192,227245,1,0,0:0:0:0:
320,192,227336,1,0,0:0:0:0:
64,192,227427,1,0,0:0:0:50:kickS.wav
192,192,227427,1,0,0:0:0:0:
320,192,227518,1,0,0:0:0:0:
64,192,227609,1,0,0:0:0:50:kickS.wav
192,192,227609,1,0,0:0:0:0:
448,192,227700,1,0,0:0:0:0:
192,192,227790,1,0,0:0:0:0:
320,192,227790,1,0,0:0:0:30:clapS.wav
64,192,227881,1,0,0:0:0:0:
448,192,227972,1,0,0:0:0:0:
320,192,228063,1,0,0:0:0:0:
64,192,228154,1,0,0:0:0:50:kickS.wav
192,192,228154,1,0,0:0:0:0:
320,192,228245,1,0,0:0:0:50:kickS.wav
448,192,228245,1,0,0:0:0:0:
192,192,228336,1,0,0:0:0:0:
64,192,228336,1,0,0:0:0:50:kickS.wav
448,192,228427,1,0,0:0:0:0:
320,192,228518,1,0,0:0:0:30:clapS.wav
192,192,228518,1,0,0:0:0:0:
64,192,228609,1,0,0:0:0:0:
448,192,228700,1,0,0:0:0:50:kickS.wav
320,192,228700,1,0,0:0:0:0:
192,192,228790,1,0,0:0:0:0:
448,192,228881,1,0,0:0:0:50:kickS.wav
320,192,228881,1,0,0:0:0:0:
192,192,228972,1,0,0:0:0:0:
448,192,229063,1,0,0:0:0:50:kickS.wav
320,192,229063,1,0,0:0:0:0:
64,192,229154,1,0,0:0:0:0:
320,192,229245,1,0,0:0:0:0:
192,192,229245,1,0,0:0:0:30:clapS.wav
448,192,229336,1,0,0:0:0:0:
64,192,229427,1,0,0:0:0:0:
192,192,229427,1,0,0:0:0:50:kickS.wav
320,192,229518,1,0,0:0:0:0:
64,192,229609,1,0,0:0:0:50:kick.wav
192,192,229609,1,0,0:0:0:0:
448,192,229609,1,0,0:0:0:0:
320,192,229700,1,0,0:0:0:0:
448,192,229790,1,0,0:0:0:0:
64,192,229881,1,0,0:0:0:0:
192,192,229972,1,0,0:0:0:0:
320,192,229972,1,0,0:0:0:0:
448,192,230063,1,0,0:0:0:0:
64,192,230154,1,0,0:0:0:50:kick.wav
192,192,230154,1,0,0:0:0:0:
320,192,230245,1,0,0:0:0:50:kick.wav
448,192,230245,1,0,0:0:0:0:
64,192,230336,1,0,0:0:0:0:
192,192,230336,1,0,0:0:0:50:clap.wav
320,192,230427,1,0,0:0:0:0:
64,192,230518,1,0,0:0:0:50:kick.wav
192,192,230518,1,0,0:0:0:0:
448,192,230609,1,0,0:0:0:0:
192,192,230700,1,0,0:0:0:0:
320,192,230700,1,0,0:0:0:0:
64,192,230790,1,0,0:0:0:0:
448,192,230881,1,0,0:0:0:50:kick.wav
320,192,230972,1,0,0:0:0:0:
64,192,231063,1,0,0:0:0:50:kick.wav
192,192,231063,1,0,0:0:0:0:
448,192,231154,1,0,0:0:0:0:
320,192,231154,1,0,0:0:0:50:kick.wav
64,192,231245,1,0,0:0:0:0:
192,192,231245,1,0,0:0:0:50:clap.wav
448,192,231336,1,0,0:0:0:0:
64,192,231427,1,0,0:0:0:50:kick.wav
192,192,231427,1,0,0:0:0:0:
320,192,231518,1,0,0:0:0:0:
64,192,231609,1,0,0:0:0:50:kick.wav
192,192,231609,1,0,0:0:0:0:
320,192,231700,1,0,0:0:0:50:kick.wav
448,192,231700,1,0,0:0:0:0:
64,192,231790,1,0,0:0:0:0:
192,192,231790,1,0,0:0:0:50:clap.wav
320,192,231881,1,0,0:0:0:0:
448,192,231972,1,0,0:0:0:0:
64,192,231972,1,0,0:0:0:50:kick.wav
192,192,232063,1,0,0:0:0:0:
64,192,232154,1,0,0:0:0:50:kick.wav
320,192,232154,1,0,0:0:0:0:
448,192,232245,1,0,0:0:0:0:
192,192,232336,1,0,0:0:0:0:
320,192,232427,1,0,0:0:0:0:
64,192,232518,1,0,0:0:0:50:kick.wav
448,192,232518,1,0,0:0:0:0:
192,192,232609,1,0,0:0:0:0:
320,192,232700,1,0,0:0:0:0:
448,192,232790,1,0,0:0:0:0:
64,192,232881,1,0,0:0:0:0:
192,192,232881,1,0,0:0:0:0:
320,192,232927,1,0,0:0:0:0:
448,192,232972,1,0,0:0:0:0:
192,192,233063,1,0,0:0:0:0:
64,192,233063,1,0,0:0:0:50:kick.wav
320,192,233154,1,0,0:0:0:50:kick.wav
448,192,233154,1,0,0:0:0:0:
64,192,233245,1,0,0:0:0:0:
192,192,233245,1,0,0:0:0:50:clap.wav
448,192,233336,1,0,0:0:0:0:
192,192,233427,1,0,0:0:0:50:kick.wav
320,192,233427,1,0,0:0:0:0:
448,192,233518,1,0,0:0:0:0:
64,192,233609,1,0,0:0:0:0:
192,192,233609,1,0,0:0:0:0:
320,192,233654,1,0,0:0:0:0:
448,192,233700,1,0,0:0:0:0:
192,192,233790,1,0,0:0:0:0:
64,192,233790,1,0,0:0:0:50:kick.wav
320,192,233881,1,0,0:0:0:0:
64,192,233972,1,0,0:0:0:50:kick.wav
448,192,233972,1,0,0:0:0:0:
192,192,234063,1,0,0:0:0:0:
320,192,234063,1,0,0:0:0:50:kick.wav
64,192,234154,1,0,0:0:0:0:
448,192,234154,1,0,0:0:0:50:clap.wav
192,192,234245,1,0,0:0:0:0:
320,192,234336,1,0,0:0:0:50:kick.wav
448,192,234336,1,0,0:0:0:0:
64,192,234427,1,0,0:0:0:0:
192,192,234518,1,0,0:0:0:50:kick.wav
320,192,234518,1,0,0:0:0:0:
64,192,234609,1,0,0:0:0:50:kick.wav
448,192,234609,1,0,0:0:0:0:
192,192,234700,1,0,0:0:0:0:
320,192,234700,1,0,0:0:0:50:clap.wav
448,192,234790,1,0,0:0:0:0:
64,192,234881,1,0,0:0:0:0:
192,192,234881,1,0,0:0:0:0:
448,192,234972,1,0,0:0:0:0:
192,192,235063,1,0,0:0:0:50:kick.wav
320,192,235063,1,0,0:0:0:0:
64,192,235154,1,0,0:0:0:0:
320,192,235245,1,0,0:0:0:0:
448,192,235245,1,0,0:0:0:0:
192,192,235336,1,0,0:0:0:0:
64,192,235427,1,0,0:0:0:50:kick.wav
320,192,235427,1,0,0:0:0:50:clapL.wav
448,192,235427,1,0,0:0:0:50:crash.wav
192,192,235518,1,0,0:0:0:0:
320,192,235609,1,0,0:0:0:0:
448,192,235700,1,0,0:0:0:0:
320,192,235790,1,0,0:0:0:0:
448,192,235881,1,0,0:0:0:0:
64,192,235972,1,0,0:0:0:50:kick.wav
192,192,235972,1,0,0:0:0:0:
320,192,236063,1,0,0:0:0:50:kick.wav
448,192,236063,1,0,0:0:0:0:
64,192,236154,1,0,0:0:0:0:
192,192,236154,1,0,0:0:0:50:clap.wav
320,192,236245,1,0,0:0:0:0:
64,192,236336,1,0,0:0:0:50:kick.wav
448,192,236336,1,0,0:0:0:0:
192,192,236427,1,0,0:0:0:0:
320,192,236518,1,0,0:0:0:0:
448,192,236518,1,0,0:0:0:0:
192,192,236609,1,0,0:0:0:0:
448,192,236700,1,0,0:0:0:0:
320,192,236790,1,0,0:0:0:0:
64,192,236881,1,0,0:0:0:50:kick.wav
192,192,236881,1,0,0:0:0:0:
320,192,236972,1,0,0:0:0:50:kick.wav
448,192,236972,1,0,0:0:0:0:
64,192,237063,1,0,0:0:0:0:
192,192,237063,1,0,0:0:0:50:clap.wav
320,192,237154,1,0,0:0:0:0:
64,192,237245,1,0,0:0:0:50:kick.wav
448,192,237245,1,0,0:0:0:0:
192,192,237336,1,0,0:0:0:0:
320,192,237427,1,0,0:0:0:50:kick.wav
448,192,237427,1,0,0:0:0:0:
64,192,237518,1,0,0:0:0:50:kick.wav
192,192,237518,1,0,0:0:0:0:
320,192,237609,1,0,0:0:0:0:
448,192,237609,1,0,0:0:0:50:clap.wav
192,192,237700,1,0,0:0:0:0:
64,192,237790,1,0,0:0:0:50:kick.wav
448,192,237790,1,0,0:0:0:0:
320,192,237881,1,0,0:0:0:0:
64,192,237972,1,0,0:0:0:50:kick.wav
192,192,237972,1,0,0:0:0:0:
320,192,238063,1,0,0:0:0:0:
192,192,238154,1,0,0:0:0:0:
64,192,238245,1,0,0:0:0:0:
320,192,238336,1,0,0:0:0:50:kick.wav
448,192,238336,1,0,0:0:0:0:
64,192,238427,1,0,0:0:0:0:
192,192,238518,1,0,0:0:0:0:
320,192,238609,1,0,0:0:0:0:
64,192,238700,1,0,0:0:0:0:
192,192,238790,1,0,0:0:0:0:
64,192,238881,1,0,0:0:0:50:kick.wav
320,192,238881,1,0,0:0:0:0:
192,192,238972,1,0,0:0:0:0:
448,192,238972,1,0,0:0:0:50:kick.wav
64,192,239063,1,0,0:0:0:0:
320,192,239063,1,0,0:0:0:50:clap.wav
448,192,239154,1,0,0:0:0:0:
64,192,239245,1,0,0:0:0:50:kick.wav
192,192,239245,1,0,0:0:0:0:
448,192,239336,1,0,0:0:0:0:
64,192,239427,1,0,0:0:0:0:
320,192,239427,1,0,0:0:0:0:
192,192,239518,1,0,0:0:0:0:
320,192,239609,1,0,0:0:0:50:kick.wav
192,192,239700,1,0,0:0:0:0:
64,192,239790,1,0,0:0:0:50:kick.wav
448,192,239790,1,0,0:0:0:0:
192,192,239881,1,0,0:0:0:0:
320,192,239881,1,0,0:0:0:50:kick.wav
64,192,239972,1,0,0:0:0:0:
448,192,239972,1,0,0:0:0:50:clap.wav
320,192,240063,1,0,0:0:0:0:
64,192,240154,1,0,0:0:0:50:kick.wav
192,192,240154,1,0,0:0:0:0:
320,192,240245,1,0,0:0:0:0:
64,192,240336,1,0,0:0:0:50:kick.wav
192,192,240336,1,0,0:0:0:0:
320,192,240427,1,0,0:0:0:50:kick.wav
448,192,240427,1,0,0:0:0:0:
64,192,240518,1,0,0:0:0:0:
192,192,240518,1,0,0:0:0:50:clap.wav
320,192,240609,1,0,0:0:0:0:
64,192,240700,1,0,0:0:0:50:kick.wav
448,192,240700,1,0,0:0:0:0:
192,192,240790,1,0,0:0:0:0:
320,192,240881,1,0,0:0:0:50:kick.wav
448,192,240881,1,0,0:0:0:0:
64,192,240972,1,0,0:0:0:0:
192,192,241063,1,0,0:0:0:50:kick.wav
320,192,241063,1,0,0:0:0:0:
64,192,241154,1,0,0:0:0:0:
320,192,241245,1,0,0:0:0:50:kick.wav
448,192,241245,1,0,0:0:0:0:
192,192,241336,1,0,0:0:0:0:
64,192,241427,1,0,0:0:0:0:
448,192,241518,1,0,0:0:0:0:
320,192,241609,1,0,0:0:0:0:
448,192,241700,1,0,0:0:0:0:
64,192,241790,1,0,0:0:0:50:kick.wav
192,192,241790,1,0,0:0:0:0:
320,192,241881,1,0,0:0:0:50:kick.wav
448,192,241881,1,0,0:0:0:0:
64,192,241972,1,0,0:0:0:0:
192,192,241972,1,0,0:0:0:50:clap.wav
448,192,242063,1,0,0:0:0:0:
192,192,242154,1,0,0:0:0:50:kick.wav
320,192,242154,1,0,0:0:0:0:
64,192,242245,1,0,0:0:0:0:
320,192,242336,1,0,0:0:0:0:
448,192,242336,1,0,0:0:0:0:
64,192,242427,1,0,0:0:0:0:
192,192,242518,1,0,0:0:0:0:
448,192,242609,1,0,0:0:0:0:
64,192,242700,1,0,0:0:0:50:kick.wav
192,192,242700,1,0,0:0:0:0:
320,192,242790,1,0,0:0:0:50:kick.wav
448,192,242790,1,0,0:0:0:0:
64,192,242881,1,0,0:0:0:0:
192,192,242881,1,0,0:0:0:50:clap.wav
448,192,242972,1,0,0:0:0:0:
192,192,243063,1,0,0:0:0:50:kick.wav
320,192,243063,1,0,0:0:0:0:
64,192,243154,1,0,0:0:0:0:
320,192,243245,1,0,0:0:0:50:kick.wav
448,192,243245,1,0,0:0:0:0:
64,192,243336,1,0,0:0:0:50:kick.wav
192,192,243336,1,0,0:0:0:0:
320,192,243427,1,0,0:0:0:50:clap.wav
448,192,243427,1,0,0:0:0:0:
64,192,243518,1,0,0:0:0:0:
192,192,243609,1,0,0:0:0:50:kick.wav
320,192,243609,1,0,0:0:0:0:
448,192,243700,1,0,0:0:0:0:
64,192,243790,1,0,0:0:0:50:kick.wav
192,192,243790,1,0,0:0:0:0:
448,192,243881,1,0,0:0:0:0:
64,192,243972,1,0,0:0:0:0:
192,192,244063,1,0,0:0:0:0:
320,192,244154,1,0,0:0:0:50:kick.wav
448,192,244154,1,0,0:0:0:0:
192,192,244245,1,0,0:0:0:0:
64,192,244336,1,0,0:0:0:0:
448,192,244427,1,0,0:0:0:0:
320,192,244518,1,0,0:0:0:0:
192,192,244563,1,0,0:0:0:0:
64,192,244609,1,0,0:0:0:0:
192,192,244700,1,0,0:0:0:50:kick.wav
448,192,244700,1,0,0:0:0:0:
64,192,244790,1,0,0:0:0:0:
320,192,244790,1,0,0:0:0:50:kick.wav
192,192,244881,1,0,0:0:0:50:clap.wav
448,192,244881,1,0,0:0:0:0:
320,192,244972,1,0,0:0:0:0:
64,192,245063,1,0,0:0:0:50:kick.wav
192,192,245063,1,0,0:0:0:0:
320,192,245154,1,0,0:0:0:0:
64,192,245245,1,0,0:0:0:0:
448,192,245245,1,0,0:0:0:0:
320,192,245290,1,0,0:0:0:0:
192,192,245336,1,0,0:0:0:0:
448,192,245427,1,0,0:0:0:50:kick.wav
64,192,245518,1,0,0:0:0:0:
192,192,245609,1,0,0:0:0:50:kick.wav
320,192,245609,1,0,0:0:0:0:
64,192,245700,1,0,0:0:0:0:
448,192,245700,1,0,0:0:0:50:kick.wav
192,192,245790,1,0,0:0:0:0:
320,192,245790,1,0,0:0:0:50:clap.wav
448,192,245881,1,0,0:0:0:0:
64,192,245972,1,0,0:0:0:50:kick.wav
192,192,245972,1,0,0:0:0:0:
448,192,246063,1,0,0:0:0:0:
64,192,246154,1,0,0:0:0:50:kick.wav
192,192,246154,1,0,0:0:0:0:
320,192,246245,1,0,0:0:0:50:kick.wav
448,192,246245,1,0,0:0:0:0:
64,192,246336,1,0,0:0:0:0:
192,192,246336,1,0,0:0:0:50:clap.wav
448,192,246427,1,0,0:0:0:0:
192,192,246518,1,0,0:0:0:50:kick.wav
320,192,246518,1,0,0:0:0:0:
64,192,246609,1,0,0:0:0:0:
320,192,246700,1,0,0:0:0:50:kick.wav
448,192,246700,1,0,0:0:0:0:
192,192,246790,1,0,0:0:0:0:
64,192,246881,1,0,0:0:0:50:kick.wav
320,192,246881,1,0,0:0:0:0:
192,192,246972,1,0,0:0:0:0:
64,192,247063,1,0,0:0:0:50:kick.wav
320,192,247063,1,0,0:0:0:30:clapL.wav
448,192,247063,1,0,0:0:0:50:crash.wav
64,192,247154,1,0,0:0:0:0:
448,192,247245,1,0,0:0:0:0:
320,192,247336,1,0,0:0:0:0:
192,192,247427,1,0,0:0:0:0:
192,192,247518,1,0,0:0:0:0:
320,192,247609,1,0,0:0:0:50:kick.wav
448,192,247609,1,0,0:0:0:0:
64,192,247700,1,0,0:0:0:50:kick.wav
192,192,247700,1,0,0:0:0:0:
320,192,247790,1,0,0:0:0:50:clap.wav
448,192,247790,1,0,0:0:0:0:
320,192,247881,1,0,0:0:0:0:
64,192,247972,1,0,0:0:0:50:kick.wav
192,192,247972,1,0,0:0:0:0:
320,192,248063,1,0,0:0:0:0:
64,192,248154,1,0,0:0:0:0:
64,192,248245,1,0,0:0:0:0:
320,192,248336,1,0,0:0:0:50:kick.wav
448,192,248336,1,0,0:0:0:0:
192,192,248427,1,0,0:0:0:0:
320,192,248518,1,0,0:0:0:50:kick.wav
448,192,248518,1,0,0:0:0:0:
192,192,248609,1,0,0:0:0:50:kick.wav
320,192,248609,1,0,0:0:0:0:
64,192,248700,1,0,0:0:0:0:
448,192,248700,1,0,0:0:0:50:clap.wav
320,192,248790,1,0,0:0:0:0:
64,192,248881,1,0,0:0:0:50:kick.wav
192,192,248881,1,0,0:0:0:0:
192,192,248972,1,0,0:0:0:0:
64,192,249063,1,0,0:0:0:50:kick.wav
448,192,249063,1,0,0:0:0:0:
192,192,249154,1,0,0:0:0:0:
320,192,249154,1,0,0:0:0:50:kick.wav
64,192,249245,1,0,0:0:0:0:
448,192,249245,1,0,0:0:0:50:clap.wav
448,192,249336,1,0,0:0:0:0:
64,192,249427,1,0,0:0:0:50:kick.wav
192,192,249518,1,0,0:0:0:0:
320,192,249609,1,0,0:0:0:50:kick.wav
448,192,249609,1,0,0:0:0:0:
320,192,249700,1,0,0:0:0:0:
192,192,249790,1,0,0:0:0:0:
64,192,249881,1,0,0:0:0:0:
320,192,249972,1,0,0:0:0:50:kick.wav
448,192,249972,1,0,0:0:0:0:
320,192,250063,1,0,0:0:0:0:
64,192,250154,1,0,0:0:0:0:
192,192,250245,1,0,0:0:0:0:
320,192,250336,1,0,0:0:0:0:
320,192,250427,1,0,0:0:0:0:
192,192,250518,1,0,0:0:0:50:kick.wav
448,192,250518,1,0,0:0:0:0:
64,192,250609,1,0,0:0:0:0:
320,192,250609,1,0,0:0:0:50:kick.wav
192,192,250700,1,0,0:0:0:0:
448,192,250700,1,0,0:0:0:50:clap.wav
192,192,250790,1,0,0:0:0:0:
320,192,250881,1,0,0:0:0:50:kick.wav
448,192,250881,1,0,0:0:0:0:
64,192,250972,1,0,0:0:0:0:
192,192,251063,1,0,0:0:0:0:
320,192,251063,1,0,0:0:0:0:
192,192,251154,1,0,0:0:0:0:
448,192,251245,1,0,0:0:0:0:
320,192,251336,1,0,0:0:0:0:
64,192,251427,1,0,0:0:0:50:kick.wav
448,192,251427,1,0,0:0:0:0:
64,192,251518,1,0,0:0:0:50:kick.wav
192,192,251518,1,0,0:0:0:0:
320,192,251609,1,0,0:0:0:0:
448,192,251609,1,0,0:0:0:50:clap.wav
192,192,251700,1,0,0:0:0:0:
320,192,251790,1,0,0:0:0:50:kick.wav
448,192,251790,1,0,0:0:0:0:
320,192,251881,1,0,0:0:0:0:
64,192,251972,1,0,0:0:0:50:kick.wav
448,192,251972,1,0,0:0:0:0:
192,192,252063,1,0,0:0:0:0:
320,192,252063,1,0,0:0:0:50:kick.wav
64,192,252154,1,0,0:0:0:0:
448,192,252154,1,0,0:0:0:50:clap.wav
64,192,252245,1,0,0:0:0:0:
320,192,252336,1,0,0:0:0:50:kick.wav
448,192,252336,1,0,0:0:0:0:
192,192,252427,1,0,0:0:0:0:
448,192,252518,1,0,0:0:0:0:
320,192,252518,1,0,0:0:0:50:clap.wav
192,192,252609,1,0,0:0:0:50:clap.wav
64,192,252609,1,0,0:0:0:0:
448,192,252700,1,0,0:0:0:0:
320,192,252700,1,0,0:0:0:50:clap.wav
64,192,252790,1,0,0:0:0:0:
192,192,252790,1,0,0:0:0:50:clap.wav
320,192,252881,1,0,0:0:0:50:kick.wav
448,192,252881,1,0,0:0:0:30:clapL.wav
448,192,252972,1,0,0:0:0:0:
320,192,253063,1,0,0:0:0:0:
192,192,253154,1,0,0:0:0:0:
64,192,253245,1,0,0:0:0:50:kick.wav
320,192,253245,1,0,0:0:0:0:
64,192,253336,1,0,0:0:0:0:
192,192,253427,1,0,0:0:0:0:
320,192,253518,1,0,0:0:0:0:
64,192,253609,1,0,0:0:0:50:kick.wav
448,192,253609,1,0,0:0:0:8:clap.wav
448,192,253700,1,0,0:0:0:8:clap.wav
320,192,253790,1,0,0:0:0:8:clap.wav
192,192,253881,1,0,0:0:0:8:clap.wav
64,192,253972,1,0,0:0:0:50:kick.wav
320,192,253972,1,0,0:0:0:8:clap.wav
64,192,254063,1,0,0:0:0:8:clap.wav
192,192,254154,1,0,0:0:0:8:clap.wav
320,192,254245,1,0,0:0:0:8:clap.wav
64,192,254336,1,0,0:0:0:50:kick.wav
448,192,254336,1,0,0:0:0:10:clap.wav
448,192,254427,1,0,0:0:0:10:clap.wav
192,192,254518,1,0,0:0:0:10:clap.wav
320,192,254609,1,0,0:0:0:10:clap.wav
64,192,254700,1,0,0:0:0:50:kick.wav
192,192,254700,1,0,0:0:0:15:clap.wav
192,192,254790,1,0,0:0:0:15:clap.wav
320,192,254881,1,0,0:0:0:15:clap.wav
448,192,254972,1,0,0:0:0:15:clap.wav
64,192,255063,1,0,0:0:0:50:kick.wav
320,192,255063,1,0,0:0:0:20:clap.wav
320,192,255154,1,0,0:0:0:20:clap.wav
192,192,255245,1,0,0:0:0:20:clap.wav
64,192,255336,1,0,0:0:0:20:clap.wav
320,192,255427,1,0,0:0:0:50:kick.wav
448,192,255427,1,0,0:0:0:25:clap.wav
448,192,255518,1,0,0:0:0:25:clap.wav
192,192,255609,1,0,0:0:0:25:clap.wav
320,192,255700,1,0,0:0:0:25:clap.wav
64,192,255790,1,0,0:0:0:50:kick.wav
192,192,255790,1,0,0:0:0:30:clap.wav
192,192,255881,1,0,0:0:0:30:clap.wav
64,192,255972,1,0,0:0:0:0:
320,192,255972,1,0,0:0:0:30:clap.wav
192,192,256063,1,0,0:0:0:30:clap.wav
320,192,256154,1,0,0:0:0:50:kick.wav
448,192,256154,1,0,0:0:0:35:clap.wav
320,192,256245,1,0,0:0:0:35:clap.wav
192,192,256336,1,0,0:0:0:35:clap.wav
448,192,256336,1,0,0:0:0:35:clap.wav
320,192,256427,1,0,0:0:0:35:clap.wav
64,192,256518,1,0,0:0:0:50:kick.wav
192,192,256518,1,0,0:0:0:40:clap.wav
192,192,256609,1,0,0:0:0:40:clap.wav
64,192,256700,1,0,0:0:0:40:clap.wav
320,192,256700,1,0,0:0:0:40:clap.wav
192,192,256790,1,0,0:0:0:40:clap.wav
320,192,256881,1,0,0:0:0:50:kick.wav
448,192,256881,1,0,0:0:0:45:clap.wav
320,192,256972,1,0,0:0:0:45:clap.wav
192,192,257063,1,0,0:0:0:45:clap.wav
448,192,257063,1,0,0:0:0:45:clap.wav
320,192,257154,1,0,0:0:0:45:clap.wav
192,192,257245,1,0,0:0:0:0:
64,192,257336,1,0,0:0:0:0:
192,0,257427,128,0,257518:0:0:0:0:
64,192,257518,1,0,0:0:0:0:
320,192,257609,1,0,0:0:0:0:
192,192,257700,1,0,0:0:0:0:
320,0,257790,128,0,257881:0:0:0:0:
192,192,257881,1,0,0:0:0:0:
448,192,257972,1,0,0:0:0:0:
320,192,258063,1,0,0:0:0:0:
448,0,258154,128,0,258245:0:0:0:0:
320,192,258245,1,0,0:0:0:0:
192,192,258336,1,0,0:0:0:0:
64,192,258427,1,0,0:0:0:0:
192,0,258518,128,0,258609:0:0:0:0:
64,192,258609,1,0,0:0:0:0:
192,192,269972,5,0,0:0:0:8:clap.wav
64,192,270063,1,0,0:0:0:8:clap.wav
192,192,270154,1,0,0:0:0:8:clap.wav
64,192,270245,1,0,0:0:0:8:clap.wav
320,192,270336,1,0,0:0:0:10:clap.wav
64,192,270427,1,0,0:0:0:10:clap.wav
320,192,270518,1,0,0:0:0:10:clap.wav
64,192,270609,1,0,0:0:0:10:clap.wav
448,192,270700,1,0,0:0:0:15:clap.wav
64,192,270790,1,0,0:0:0:15:clap.wav
448,192,270881,1,0,0:0:0:15:clap.wav
64,192,270972,1,0,0:0:0:15:clap.wav
448,192,271063,1,0,0:0:0:20:clap.wav
192,192,271154,1,0,0:0:0:20:clap.wav
448,192,271245,1,0,0:0:0:20:clap.wav
192,192,271336,1,0,0:0:0:20:clap.wav
448,192,271427,1,0,0:0:0:25:clap.wav
320,192,271518,1,0,0:0:0:25:clap.wav
448,192,271609,1,0,0:0:0:25:clap.wav
320,0,271700,128,0,271790:0:0:0:25:clap.wav
64,192,271790,1,0,0:0:0:30:clap.wav
192,192,271790,1,0,0:0:0:0:
448,192,271790,1,0,0:0:0:50:finish.wav
192,192,273972,1,0,0:0:0:0:
64,192,274063,1,0,0:0:0:0:
320,192,274154,1,0,0:0:0:0:
192,192,274245,1,0,0:0:0:0:
448,192,274336,1,0,0:0:0:0:
320,192,274427,1,0,0:0:0:0:
448,192,274518,1,0,0:0:0:0:
320,192,274609,1,0,0:0:0:0:
448,192,274700,1,0,0:0:0:0:
192,192,274700,1,0,0:0:0:50:crash.wav
64,192,274700,1,0,0:0:0:50:clapL.wav
320,192,274790,1,0,0:0:0:0:
192,192,274881,1,0,0:0:0:0:
448,192,274972,1,0,0:0:0:0:
320,192,275063,1,0,0:0:0:30:clapS.wav
64,192,275154,1,0,0:0:0:0:
320,192,275245,1,0,0:0:0:50:kickS.wav
192,192,275336,1,0,0:0:0:0:
448,192,275427,1,0,0:0:0:50:kickS.wav
192,192,275518,1,0,0:0:0:0:
64,192,275609,1,0,0:0:0:50:kickS.wav
320,192,275700,1,0,0:0:0:0:
64,192,275790,1,0,0:0:0:30:clapS.wav
192,192,275881,1,0,0:0:0:0:
320,192,275972,1,0,0:0:0:0:
448,192,276063,1,0,0:0:0:0:
64,192,276154,1,0,0:0:0:50:kickS.wav
192,192,276245,1,0,0:0:0:0:
448,192,276336,1,0,0:0:0:0:
192,192,276427,1,0,0:0:0:0:
320,192,276518,1,0,0:0:0:30:clapS.wav
64,192,276609,1,0,0:0:0:0:
320,192,276700,1,0,0:0:0:50:kickS.wav
448,192,276790,1,0,0:0:0:0:
64,192,276881,1,0,0:0:0:50:kickS.wav
192,192,276972,1,0,0:0:0:0:
320,192,277063,1,0,0:0:0:50:kickS.wav
64,192,277154,1,0,0:0:0:0:
448,192,277245,1,0,0:0:0:30:clapS.wav
64,192,277336,1,0,0:0:0:0:
320,192,277427,1,0,0:0:0:0:
64,192,277518,1,0,0:0:0:0:
192,192,277609,1,0,0:0:0:50:kickS.wav
320,192,277700,1,0,0:0:0:0:
448,192,277790,1,0,0:0:0:0:
64,192,277881,1,0,0:0:0:0:
448,192,277972,1,0,0:0:0:30:clapS.wav
64,192,278063,1,0,0:0:0:0:
320,192,278154,1,0,0:0:0:50:kickS.wav
64,192,278245,1,0,0:0:0:0:
192,192,278336,1,0,0:0:0:50:kickS.wav
320,192,278427,1,0,0:0:0:0:
448,192,278518,1,0,0:0:0:50:kickS.wav
64,192,278609,1,0,0:0:0:0:
448,192,278700,1,0,0:0:0:30:clapS.wav
64,192,278790,1,0,0:0:0:0:
320,192,278881,1,0,0:0:0:0:
64,192,278972,1,0,0:0:0:0:
192,192,279063,1,0,0:0:0:50:kickS.wav
320,192,279154,1,0,0:0:0:0:
448,192,279245,1,0,0:0:0:50:kickS.wav
64,192,279336,1,0,0:0:0:0:
448,192,279427,1,0,0:0:0:30:clapS.wav
64,192,279518,1,0,0:0:0:0:
320,192,279609,1,0,0:0:0:50:kickS.wav
64,192,279700,1,0,0:0:0:0:
192,192,279790,1,0,0:0:0:50:kickS.wav
64,192,279881,1,0,0:0:0:0:
320,192,279972,1,0,0:0:0:50:kickS.wav
64,192,280063,1,0,0:0:0:0:
448,192,280154,1,0,0:0:0:30:clapS.wav
192,192,280245,1,0,0:0:0:0:
448,192,280336,1,0,0:0:0:50:kickS.wav
320,192,280427,1,0,0:0:0:0:
64,192,280518,1,0,0:0:0:50:kickS.wav
448,192,280518,1,0,0:0:0:0:
192,192,280609,1,0,0:0:0:0:
448,192,280700,1,0,0:0:0:0:
192,192,280790,1,0,0:0:0:0:
320,192,280881,1,0,0:0:0:30:clapS.wav
64,192,280972,1,0,0:0:0:0:
448,192,281063,1,0,0:0:0:50:kickS.wav
320,192,281154,1,0,0:0:0:0:
64,192,281245,1,0,0:0:0:50:kickS.wav
320,192,281336,1,0,0:0:0:0:
192,192,281427,1,0,0:0:0:50:kickS.wav
448,192,281518,1,0,0:0:0:0:
64,192,281609,1,0,0:0:0:30:clapS.wav
192,192,281700,1,0,0:0:0:0:
320,192,281790,1,0,0:0:0:0:
448,192,281881,1,0,0:0:0:0:
64,192,281972,1,0,0:0:0:50:kickS.wav
192,192,282063,1,0,0:0:0:0:
448,192,282154,1,0,0:0:0:0:
192,192,282245,1,0,0:0:0:0:
320,192,282336,1,0,0:0:0:30:clapS.wav
64,192,282427,1,0,0:0:0:0:
320,192,282518,1,0,0:0:0:50:kickS.wav
448,192,282609,1,0,0:0:0:0:
64,192,282700,1,0,0:0:0:50:kickS.wav
192,192,282790,1,0,0:0:0:0:
320,192,282881,1,0,0:0:0:50:kickS.wav
64,192,282972,1,0,0:0:0:0:
448,192,283063,1,0,0:0:0:30:clapS.wav
64,192,283154,1,0,0:0:0:0:
320,192,283245,1,0,0:0:0:0:
64,192,283336,1,0,0:0:0:0:
192,192,283427,1,0,0:0:0:50:kickS.wav
320,192,283518,1,0,0:0:0:0:
448,192,283609,1,0,0:0:0:0:
192,192,283700,1,0,0:0:0:0:
320,192,283790,1,0,0:0:0:30:clapS.wav
448,192,283836,1,0,0:0:0:0:
64,192,283881,1,0,0:0:0:0:
320,192,283972,1,0,0:0:0:50:kickS.wav
64,192,284063,1,0,0:0:0:0:
192,192,284154,1,0,0:0:0:50:kickS.wav
320,192,284245,1,0,0:0:0:0:
448,192,284336,1,0,0:0:0:50:kickS.wav
192,192,284427,1,0,0:0:0:0:
320,192,284518,1,0,0:0:0:30:clapS.wav
448,192,284563,1,0,0:0:0:0:
64,192,284609,1,0,0:0:0:0:
320,192,284700,1,0,0:0:0:0:
64,192,284790,1,0,0:0:0:0:
192,192,284881,1,0,0:0:0:50:kickS.wav
64,192,284972,1,0,0:0:0:0:
320,192,285063,1,0,0:0:0:50:kickS.wav
64,192,285154,1,0,0:0:0:0:
448,192,285245,1,0,0:0:0:30:clapS.wav
192,192,285336,1,0,0:0:0:0:
448,192,285427,1,0,0:0:0:50:kickS.wav
320,192,285518,1,0,0:0:0:0:
448,192,285609,1,0,0:0:0:50:kickS.wav
64,192,285700,1,0,0:0:0:0:
192,192,285790,1,0,0:0:0:50:kickS.wav
64,192,285881,1,0,0:0:0:0:
320,192,285972,1,0,0:0:0:30:clapL.wav
64,192,286063,1,0,0:0:0:0:
448,192,286154,1,0,0:0:0:50:kickS.wav
192,192,286245,1,0,0:0:0:0:
64,192,286336,1,0,0:0:0:50:kick.wav
320,192,286336,1,0,0:0:0:50:clapL.wav
448,192,286336,1,0,0:0:0:50:crash.wav
192,192,286427,1,0,0:0:0:0:
320,192,286518,128,0,286700:0:0:0:100:hat.wav
448,192,286609,1,0,0:0:0:0:
192,192,286700,1,0,0:0:0:50:clap.wav
64,192,286790,1,0,0:0:0:0:
320,192,286881,128,0,287063:0:0:0:100:hat.wav
192,192,286972,1,0,0:0:0:0:
64,192,287063,1,0,0:0:0:50:kick.wav
448,192,287154,1,0,0:0:0:0:
320,192,287245,128,0,287427:0:0:0:100:hat.wav
192,192,287336,1,0,0:0:0:0:
64,192,287427,1,0,0:0:0:50:clap.wav
192,192,287518,1,0,0:0:0:0:
320,192,287609,128,0,287790:0:0:0:100:hat.wav
448,192,287700,1,0,0:0:0:0:
64,192,287790,1,0,0:0:0:50:kick.wav
320,192,287881,1,0,0:0:0:0:
192,192,287972,128,0,288154:0:0:0:100:hat.wav
64,192,288063,1,0,0:0:0:0:
448,192,288154,1,0,0:0:0:50:clap.wav
320,192,288245,1,0,0:0:0:0:
192,192,288336,128,0,288518:0:0:0:100:hat.wav
448,192,288427,1,0,0:0:0:0:
320,192,288518,1,0,0:0:0:50:kick.wav
64,192,288609,1,0,0:0:0:0:
192,192,288700,128,0,288881:0:0:0:100:hat.wav
320,192,288790,1,0,0:0:0:0:
448,192,288881,1,0,0:0:0:50:clap.wav
64,192,288972,1,0,0:0:0:0:
192,192,289063,128,0,289245:0:0:0:100:hat.wav
320,192,289154,1,0,0:0:0:0:
448,192,289245,1,0,0:0:0:50:kick.wav
192,192,289336,1,0,0:0:0:0:
320,192,289427,128,0,289609:0:0:0:100:hat.wav
64,192,289518,1,0,0:0:0:0:
448,192,289609,1,0,0:0:0:50:clap.wav
192,192,289700,1,0,0:0:0:0:
320,192,289790,128,0,289972:0:0:0:100:hat.wav
64,192,289881,1,0,0:0:0:0:
448,192,289972,1,0,0:0:0:50:kick.wav
192,192,290063,1,0,0:0:0:0:
320,192,290154,128,0,290336:0:0:0:100:hat.wav
64,192,290245,1,0,0:0:0:0:
448,192,290336,1,0,0:0:0:50:clap.wav
192,192,290427,1,0,0:0:0:0:
320,192,290518,128,0,290700:0:0:0:100:hat.wav
64,192,290609,1,0,0:0:0:0:
448,192,290700,1,0,0:0:0:50:kick.wav
192,192,290790,1,0,0:0:0:0:
320,192,290881,128,0,291063:0:0:0:100:hat.wav
64,192,290972,1,0,0:0:0:0:
448,192,291063,1,0,0:0:0:50:clap.wav
192,192,291154,1,0,0:0:0:0:
320,192,291245,128,0,291427:0:0:0:100:hat.wav
64,192,291336,1,0,0:0:0:0:
448,192,291427,1,0,0:0:0:50:kick.wav
192,192,291518,1,0,0:0:0:0:
448,192,291609,128,0,291790:0:0:0:100:hat.wav
64,192,291700,1,0,0:0:0:0:
192,192,291790,1,0,0:0:0:50:clap.wav
320,192,291881,1,0,0:0:0:0:
448,192,291972,128,0,292154:0:0:0:100:hat.wav
192,192,292063,1,0,0:0:0:0:
64,192,292154,1,0,0:0:0:50:kick.wav
192,192,292245,1,0,0:0:0:0:
320,192,292336,128,0,292518:0:0:0:100:hat.wav
448,192,292427,1,0,0:0:0:0:
192,192,292518,1,0,0:0:0:50:clap.wav
64,192,292609,1,0,0:0:0:0:
320,192,292700,128,0,292881:0:0:0:100:hat.wav
192,192,292790,1,0,0:0:0:0:
64,192,292881,1,0,0:0:0:50:kick.wav
448,192,292972,1,0,0:0:0:0:
320,192,293063,128,0,293245:0:0:0:100:hat.wav
192,192,293154,1,0,0:0:0:0:
64,192,293245,1,0,0:0:0:50:clap.wav
192,192,293336,1,0,0:0:0:0:
320,192,293427,128,0,293609:0:0:0:100:hat.wav
448,192,293518,1,0,0:0:0:0:
64,192,293609,1,0,0:0:0:50:kick.wav
320,192,293700,1,0,0:0:0:0:
192,192,293790,128,0,293972:0:0:0:100:hat.wav
64,192,293881,1,0,0:0:0:0:
448,192,293972,1,0,0:0:0:50:clap.wav
320,192,294063,1,0,0:0:0:0:
192,192,294154,128,0,294336:0:0:0:100:hat.wav
448,192,294245,1,0,0:0:0:0:
320,192,294336,1,0,0:0:0:50:kick.wav
64,192,294427,1,0,0:0:0:0:
192,192,294518,128,0,294700:0:0:0:100:hat.wav
320,192,294609,1,0,0:0:0:0:
448,192,294700,1,0,0:0:0:50:clap.wav
64,192,294790,1,0,0:0:0:0:
192,192,294881,128,0,295063:0:0:0:100:hat.wav
320,192,294972,1,0,0:0:0:0:
448,192,295063,1,0,0:0:0:50:kick.wav
320,192,295154,1,0,0:0:0:0:
64,192,295245,128,0,295427:0:0:0:100:hat.wav
192,192,295336,1,0,0:0:0:0:
448,192,295427,1,0,0:0:0:50:clap.wav
320,192,295472,1,0,0:0:0:0:
192,192,295518,1,0,0:0:0:0:
64,192,295609,128,0,295790:0:0:0:100:hat.wav
192,192,295700,1,0,0:0:0:0:
448,192,295790,1,0,0:0:0:50:kick.wav
320,192,295881,1,0,0:0:0:0:
64,192,295972,128,0,296154:0:0:0:100:hat.wav
192,192,296063,1,0,0:0:0:0:
448,192,296154,1,0,0:0:0:50:clap.wav
320,192,296200,1,0,0:0:0:0:
192,192,296245,1,0,0:0:0:0:
64,192,296336,128,0,296518:0:0:0:100:hat.wav
192,192,296427,1,0,0:0:0:0:
448,192,296518,1,0,0:0:0:0:
64,192,296609,1,0,0:0:0:0:
320,192,296700,1,0,0:0:0:0:
192,192,296790,1,0,0:0:0:0:
448,192,296881,1,0,0:0:0:0:
64,192,296972,1,0,0:0:0:0:
448,192,297063,1,0,0:0:0:0:
192,192,297154,1,0,0:0:0:0:
320,192,297245,1,0,0:0:0:0:
64,192,297336,1,0,0:0:0:0:
448,192,297427,1,0,0:0:0:50:clap.wav
320,192,297427,1,0,0:0:0:50:kick.wav
192,192,297518,1,0,0:0:0:50:clap.wav
64,192,297518,1,0,0:0:0:50:kick.wav
448,192,297609,1,0,0:0:0:50:clap.wav
320,192,297609,1,0,0:0:0:50:kick.wav
64,192,297700,1,0,0:0:0:0:
320,192,297790,1,0,0:0:0:50:kick.wav
448,192,297790,1,0,0:0:0:50:clap.wav
192,192,297881,1,0,0:0:0:0:
64,192,297972,5,0,0:0:0:50:kick.wav
320,192,297972,1,0,0:0:0:50:clapL.wav
448,192,297972,1,0,0:0:0:50:crash.wav
192,192,298063,1,0,0:0:0:0:
448,192,298154,1,0,0:0:0:0:
320,192,298154,1,0,0:0:0:0:
64,192,298245,1,0,0:0:0:0:
192,192,298245,1,0,0:0:0:0:
448,192,298336,1,0,0:0:0:50:clap.wav
192,192,298427,1,0,0:0:0:0:
320,192,298427,1,0,0:0:0:0:
448,192,298518,1,0,0:0:0:0:
64,192,298518,1,0,0:0:0:0:
320,192,298609,1,0,0:0:0:0:
64,192,298700,1,0,0:0:0:0:
192,192,298700,1,0,0:0:0:50:kick.wav
320,192,298790,1,0,0:0:0:0:
448,192,298790,1,0,0:0:0:0:
192,192,298881,1,0,0:0:0:0:
320,192,298972,1,0,0:0:0:0:
64,192,298972,1,0,0:0:0:0:
192,192,299063,1,0,0:0:0:50:kick.wav
448,192,299063,1,0,0:0:0:50:clap.wav
320,192,299154,1,0,0:0:0:0:
64,192,299245,1,0,0:0:0:0:
192,192,299245,1,0,0:0:0:0:
320,192,299336,1,0,0:0:0:0:
64,192,299427,1,0,0:0:0:50:kick.wav
448,192,299427,1,0,0:0:0:0:
192,192,299518,1,0,0:0:0:0:
448,192,299609,1,0,0:0:0:0:
320,192,299609,1,0,0:0:0:0:
64,192,299700,1,0,0:0:0:0:
192,192,299700,1,0,0:0:0:0:
448,192,299790,1,0,0:0:0:50:clap.wav
192,192,299881,1,0,0:0:0:0:
320,192,299972,1,0,0:0:0:0:
448,192,299972,1,0,0:0:0:0:
64,192,300063,1,0,0:0:0:0:
320,192,300154,1,0,0:0:0:0:
192,192,300154,1,0,0:0:0:50:kick.wav
448,192,300245,1,0,0:0:0:0:
192,192,300336,1,0,0:0:0:0:
320,192,300427,1,0,0:0:0:0:
64,192,300518,1,0,0:0:0:50:kick.wav
448,192,300518,1,0,0:0:0:50:clap.wav
192,192,300609,1,0,0:0:0:0:
448,192,300700,1,0,0:0:0:0:
64,192,300700,1,0,0:0:0:0:
320,192,300790,1,0,0:0:0:0:
192,192,300881,1,0,0:0:0:0:
64,192,300881,1,0,0:0:0:50:kick.wav
448,192,300972,1,0,0:0:0:0:
192,192,301063,1,0,0:0:0:0:
320,192,301154,1,0,0:0:0:0:
448,192,301245,1,0,0:0:0:50:clap.wav
64,192,301245,1,0,0:0:0:50:kick.wav
192,192,301336,1,0,0:0:0:0:
448,192,301427,1,0,0:0:0:0:
64,192,301427,1,0,0:0:0:0:
320,192,301518,1,0,0:0:0:0:
192,192,301609,1,0,0:0:0:0:
64,192,301609,1,0,0:0:0:50:kick.wav
448,192,301700,1,0,0:0:0:0:
192,192,301790,1,0,0:0:0:0:
320,192,301881,1,0,0:0:0:0:
448,192,301972,1,0,0:0:0:50:clap.wav
64,192,301972,1,0,0:0:0:50:kick.wav
192,192,302063,1,0,0:0:0:0:
448,192,302154,1,0,0:0:0:0:
64,192,302154,1,0,0:0:0:0:
320,192,302245,1,0,0:0:0:0:
64,192,302336,1,0,0:0:0:50:kick.wav
192,192,302336,1,0,0:0:0:0:
448,192,302427,1,0,0:0:0:0:
192,192,302518,1,0,0:0:0:0:
320,192,302609,1,0,0:0:0:0:
448,192,302700,1,0,0:0:0:50:clap.wav
64,192,302700,1,0,0:0:0:50:kick.wav
192,192,302790,1,0,0:0:0:0:
64,192,302881,1,0,0:0:0:0:
448,192,302881,1,0,0:0:0:0:
320,192,302972,1,0,0:0:0:0:
64,192,303063,1,0,0:0:0:50:kick.wav
192,192,303063,1,0,0:0:0:0:
448,192,303154,1,0,0:0:0:0:
320,192,303245,1,0,0:0:0:0:
192,192,303245,1,0,0:0:0:0:
64,192,303336,1,0,0:0:0:0:
320,192,303427,1,0,0:0:0:50:clap.wav
448,192,303427,1,0,0:0:0:50:kick.wav
192,192,303518,1,0,0:0:0:0:
448,192,303609,1,0,0:0:0:0:
64,192,303609,1,0,0:0:0:0:
320,192,303700,1,0,0:0:0:0:
64,192,303790,1,0,0:0:0:50:kick.wav
448,192,303790,1,0,0:0:0:0:
192,192,303881,1,0,0:0:0:0:
320,192,303972,1,0,0:0:0:0:
448,192,303972,1,0,0:0:0:0:
64,192,304063,1,0,0:0:0:0:
192,192,304063,1,0,0:0:0:0:
448,192,304154,1,0,0:0:0:50:clap.wav
192,192,304245,1,0,0:0:0:0:
320,192,304245,1,0,0:0:0:0:
448,192,304336,1,0,0:0:0:0:
64,192,304336,1,0,0:0:0:0:
320,192,304427,1,0,0:0:0:0:
64,192,304518,1,0,0:0:0:50:kick.wav
192,192,304518,1,0,0:0:0:0:
448,192,304609,1,0,0:0:0:0:
320,192,304609,1,0,0:0:0:0:
192,192,304700,1,0,0:0:0:0:
448,192,304790,1,0,0:0:0:0:
64,192,304790,1,0,0:0:0:0:
192,192,304881,1,0,0:0:0:50:kick.wav
320,192,304881,1,0,0:0:0:50:clap.wav
64,192,304972,1,0,0:0:0:0:
320,192,305063,1,0,0:0:0:0:
448,192,305063,1,0,0:0:0:0:
192,192,305154,1,0,0:0:0:0:
448,192,305245,1,0,0:0:0:0:
64,192,305245,1,0,0:0:0:50:kick.wav
320,192,305336,1,0,0:0:0:0:
192,192,305427,1,0,0:0:0:0:
64,192,305427,1,0,0:0:0:0:
448,192,305518,1,0,0:0:0:0:
320,192,305518,1,0,0:0:0:0:
64,192,305609,1,0,0:0:0:50:clap.wav
320,192,305700,1,0,0:0:0:0:
192,192,305790,1,0,0:0:0:0:
448,192,305790,1,0,0:0:0:0:
64,192,305881,1,0,0:0:0:0:
448,192,305972,1,0,0:0:0:0:
320,192,305972,1,0,0:0:0:50:kick.wav
64,192,306063,1,0,0:0:0:0:
320,192,306154,1,0,0:0:0:0:
192,192,306245,1,0,0:0:0:0:
64,192,306336,1,0,0:0:0:50:kick.wav
448,192,306336,1,0,0:0:0:50:clap.wav
192,192,306427,1,0,0:0:0:0:
320,192,306518,1,0,0:0:0:0:
64,192,306518,1,0,0:0:0:0:
448,192,306609,1,0,0:0:0:0:
64,192,306700,1,0,0:0:0:50:kick.wav
192,192,306700,1,0,0:0:0:0:
320,192,306790,1,0,0:0:0:0:
448,192,306881,1,0,0:0:0:0:
192,192,306972,1,0,0:0:0:0:
64,192,307063,1,0,0:0:0:50:kick.wav
320,192,307063,1,0,0:0:0:50:clap.wav
448,192,307109,1,0,0:0:0:0:
192,192,307154,1,0,0:0:0:0:
320,192,307245,1,0,0:0:0:0:
64,192,307336,1,0,0:0:0:0:
320,192,307427,1,0,0:0:0:0:
448,192,307427,1,0,0:0:0:50:kick.wav
192,192,307518,1,0,0:0:0:0:
64,192,307609,1,0,0:0:0:0:
320,192,307700,1,0,0:0:0:0:
192,192,307790,1,0,0:0:0:50:clap.wav
448,192,307790,1,0,0:0:0:50:kick.wav
64,192,307836,1,0,0:0:0:0:
320,192,307881,1,0,0:0:0:0:
192,192,307972,1,0,0:0:0:0:
448,192,308063,1,0,0:0:0:0:
192,192,308154,1,0,0:0:0:0:
64,192,308154,1,0,0:0:0:50:kick.wav
320,192,308245,1,0,0:0:0:0:
192,192,308336,1,0,0:0:0:0:
448,192,308336,1,0,0:0:0:0:
64,192,308427,1,0,0:0:0:0:
448,192,308518,1,0,0:0:0:50:clap.wav
320,192,308518,1,0,0:0:0:50:kick.wav
192,192,308609,1,0,0:0:0:0:
64,192,308700,1,0,0:0:0:0:
448,192,308700,1,0,0:0:0:0:
320,192,308790,1,0,0:0:0:0:
192,192,308881,1,0,0:0:0:0:
64,192,308881,1,0,0:0:0:50:kick.wav
448,192,308881,1,0,0:0:0:0:
320,192,308972,1,0,0:0:0:0:
448,192,309063,1,0,0:0:0:0:
64,192,309063,1,0,0:0:0:0:
192,192,309154,1,0,0:0:0:0:
320,192,309245,1,0,0:0:0:50:clapL.wav
448,192,309245,1,0,0:0:0:0:
64,192,309245,1,0,0:0:0:50:kick.wav
192,192,309336,1,0,0:0:0:0:
448,192,309427,1,0,0:0:0:0:
320,192,309427,1,0,0:0:0:0:
192,192,309518,1,0,0:0:0:0:
64,192,309609,1,0,0:0:0:50:kick.wav
320,192,309609,1,0,0:0:0:50:crash.wav
448,192,309609,1,0,0:0:0:50:clapL.wav
192,192,309700,1,0,0:0:0:0:
320,192,309790,1,0,0:0:0:0:
448,192,309790,1,0,0:0:0:0:
192,192,309881,1,0,0:0:0:0:
64,192,309881,1,0,0:0:0:0:
448,192,309972,1,0,0:0:0:50:clap.wav
320,192,310063,1,0,0:0:0:0:
64,192,310063,1,0,0:0:0:0:
192,192,310154,1,0,0:0:0:0:
448,192,310154,1,0,0:0:0:0:
320,192,310245,1,0,0:0:0:0:
64,192,310336,1,0,0:0:0:0:
192,192,310336,1,0,0:0:0:50:kick.wav
448,192,310427,1,0,0:0:0:0:
320,192,310427,1,0,0:0:0:0:
64,192,310518,1,0,0:0:0:0:
192,192,310609,1,0,0:0:0:0:
448,192,310609,1,0,0:0:0:0:
320,192,310700,1,0,0:0:0:50:clap.wav
64,192,310700,1,0,0:0:0:50:kick.wav
448,192,310790,1,0,0:0:0:0:
64,192,310881,1,0,0:0:0:0:
192,192,310881,1,0,0:0:0:0:
320,192,310972,1,0,0:0:0:0:
448,192,311063,1,0,0:0:0:0:
64,192,311063,1,0,0:0:0:50:kick.wav
192,192,311154,1,0,0:0:0:0:
64,192,311245,1,0,0:0:0:0:
320,192,311245,1,0,0:0:0:0:
192,192,311336,1,0,0:0:0:0:
448,192,311336,1,0,0:0:0:0:
320,192,311427,1,0,0:0:0:50:clap.wav
192,192,311518,1,0,0:0:0:0:
448,192,311609,1,0,0:0:0:0:
320,192,311609,1,0,0:0:0:0:
64,192,311700,1,0,0:0:0:0:
320,192,311790,1,0,0:0:0:0:
192,192,311790,1,0,0:0:0:50:kick.wav
448,192,311881,1,0,0:0:0:0:
192,192,311972,1,0,0:0:0:0:
320,192,312063,1,0,0:0:0:0:
448,192,312154,1,0,0:0:0:50:clap.wav
64,192,312154,1,0,0:0:0:50:kick.wav
320,192,312245,1,0,0:0:0:0:
64,192,312336,1,0,0:0:0:0:
448,192,312336,1,0,0:0:0:0:
192,192,312427,1,0,0:0:0:0:
448,192,312518,1,0,0:0:0:0:
320,192,312518,1,0,0:0:0:50:kick.wav
64,192,312609,1,0,0:0:0:0:
320,192,312700,1,0,0:0:0:0:
192,192,312790,1,0,0:0:0:0:
64,192,312881,1,0,0:0:0:50:clap.wav
448,192,312881,1,0,0:0:0:50:kick.wav
320,192,312972,1,0,0:0:0:0:
64,192,313063,1,0,0:0:0:0:
448,192,313063,1,0,0:0:0:0:
192,192,313154,1,0,0:0:0:0:
448,192,313245,1,0,0:0:0:50:kick.wav
320,192,313245,1,0,0:0:0:0:
64,192,313336,1,0,0:0:0:0:
320,192,313427,1,0,0:0:0:0:
192,192,313518,1,0,0:0:0:0:
64,192,313609,1,0,0:0:0:50:clap.wav
448,192,313609,1,0,0:0:0:50:kick.wav
320,192,313700,1,0,0:0:0:0:
64,192,313790,1,0,0:0:0:0:
448,192,313790,1,0,0:0:0:0:
192,192,313881,1,0,0:0:0:0:
320,192,313972,1,0,0:0:0:0:
448,192,313972,1,0,0:0:0:50:kick.wav
64,192,314063,1,0,0:0:0:0:
320,192,314154,1,0,0:0:0:0:
192,192,314245,1,0,0:0:0:0:
448,192,314336,1,0,0:0:0:50:kick.wav
64,192,314336,1,0,0:0:0:50:clap.wav
320,192,314427,1,0,0:0:0:0:
64,192,314518,1,0,0:0:0:0:
448,192,314518,1,0,0:0:0:0:
192,192,314609,1,0,0:0:0:0:
448,192,314700,1,0,0:0:0:0:
320,192,314700,1,0,0:0:0:50:kick.wav
64,192,314790,1,0,0:0:0:0:
320,192,314881,1,0,0:0:0:0:
192,192,314881,1,0,0:0:0:0:
448,192,314972,1,0,0:0:0:0:
64,192,315063,1,0,0:0:0:50:kick.wav
192,192,315063,1,0,0:0:0:50:clap.wav
320,192,315154,1,0,0:0:0:0:
64,192,315245,1,0,0:0:0:0:
448,192,315245,1,0,0:0:0:0:
192,192,315336,1,0,0:0:0:0:
448,192,315427,1,0,0:0:0:0:
320,192,315427,1,0,0:0:0:50:kick.wav
64,192,315518,1,0,0:0:0:0:
320,192,315609,1,0,0:0:0:0:
448,192,315609,1,0,0:0:0:0:
64,192,315700,1,0,0:0:0:0:
192,192,315700,1,0,0:0:0:0:
320,192,315790,1,0,0:0:0:50:clap.wav
448,192,315881,1,0,0:0:0:0:
192,192,315881,1,0,0:0:0:0:
320,192,315972,1,0,0:0:0:0:
64,192,315972,1,0,0:0:0:0:
192,192,316063,1,0,0:0:0:0:
448,192,316154,1,0,0:0:0:50:kick.wav
320,192,316154,1,0,0:0:0:0:
64,192,316245,1,0,0:0:0:0:
192,192,316245,1,0,0:0:0:0:
448,192,316336,1,0,0:0:0:0:
320,192,316427,1,0,0:0:0:0:
64,192,316427,1,0,0:0:0:0:
448,192,316518,1,0,0:0:0:50:kick.wav
192,192,316518,1,0,0:0:0:50:clap.wav
64,192,316609,1,0,0:0:0:0:
320,192,316700,1,0,0:0:0:0:
448,192,316700,1,0,0:0:0:0:
192,192,316790,1,0,0:0:0:0:
448,192,316881,1,0,0:0:0:0:
64,192,316881,1,0,0:0:0:50:kick.wav
320,192,316972,1,0,0:0:0:0:
192,192,317063,1,0,0:0:0:0:
448,192,317063,1,0,0:0:0:0:
64,192,317154,1,0,0:0:0:0:
320,192,317154,1,0,0:0:0:0:
192,192,317245,1,0,0:0:0:50:clap.wav
320,192,317336,1,0,0:0:0:0:
192,192,317427,1,0,0:0:0:0:
64,192,317427,1,0,0:0:0:0:
448,192,317518,1,0,0:0:0:0:
320,192,317609,1,0,0:0:0:0:
192,192,317609,1,0,0:0:0:50:kick.wav
64,192,317700,1,0,0:0:0:0:
448,192,317790,1,0,0:0:0:0:
192,192,317881,1,0,0:0:0:0:
448,192,317972,1,0,0:0:0:50:kick.wav
320,192,317972,1,0,0:0:0:50:clap.wav
64,192,318063,1,0,0:0:0:0:
320,192,318154,1,0,0:0:0:0:
192,192,318154,1,0,0:0:0:0:
448,192,318245,1,0,0:0:0:0:
64,192,318336,1,0,0:0:0:50:kick.wav
192,192,318336,1,0,0:0:0:0:
320,192,318427,1,0,0:0:0:0:
448,192,318518,1,0,0:0:0:0:
192,192,318609,1,0,0:0:0:0:
320,192,318700,1,0,0:0:0:50:clap.wav
64,192,318700,1,0,0:0:0:50:kick.wav
448,192,318745,1,0,0:0:0:0:
192,192,318790,1,0,0:0:0:0:
320,192,318881,1,0,0:0:0:0:
64,192,318972,1,0,0:0:0:0:
448,192,319063,1,0,0:0:0:50:kick.wav
320,192,319063,1,0,0:0:0:0:
192,192,319154,1,0,0:0:0:0:
64,192,319245,1,0,0:0:0:0:
320,192,319336,1,0,0:0:0:0:
448,192,319427,1,0,0:0:0:50:kick.wav
192,192,319427,1,0,0:0:0:50:clap.wav
64,192,319472,1,0,0:0:0:0:
320,192,319518,1,0,0:0:0:0:
192,192,319609,1,0,0:0:0:0:
448,192,319700,1,0,0:0:0:0:
64,192,319790,1,0,0:0:0:50:kick.wav
192,192,319790,1,0,0:0:0:0:
320,192,319881,1,0,0:0:0:0:
192,192,319972,1,0,0:0:0:0:
448,192,319972,1,0,0:0:0:0:
64,192,320063,1,0,0:0:0:0:
448,192,320154,1,0,0:0:0:50:clap.wav
320,192,320154,1,0,0:0:0:50:kick.wav
192,192,320245,1,0,0:0:0:0:
64,192,320336,1,0,0:0:0:0:
320,192,320336,1,0,0:0:0:0:
448,192,320427,1,0,0:0:0:0:
192,192,320518,1,0,0:0:0:0:
64,192,320518,1,0,0:0:0:50:kick.wav
448,192,320609,1,0,0:0:0:0:
320,192,320700,1,0,0:0:0:50:clap.wav
64,192,320700,1,0,0:0:0:0:
448,192,320790,1,0,0:0:0:0:
192,192,320790,1,0,0:0:0:50:clap.wav
64,192,320881,1,0,0:0:0:50:kick.wav
320,192,320881,1,0,0:0:0:50:clap.wav
448,192,320972,1,0,0:0:0:0:
64,192,321063,1,0,0:0:0:0:
192,192,321063,1,0,0:0:0:50:clap.wav
320,192,321154,1,0,0:0:0:0:
448,192,321245,1,0,0:0:0:50:kick.wav
192,0,321245,1,0,0:0:0:50:crash.wav
64,0,321245,1,0,0:0:0:50:clapL.wav
320,192,321336,1,0,0:0:0:0:
64,192,321427,1,0,0:0:0:0:
192,192,321427,1,0,0:0:0:0:
320,192,321518,1,0,0:0:0:0:
448,192,321518,1,0,0:0:0:0:
192,192,321609,1,0,0:0:0:50:clap.wav
64,192,321700,1,0,0:0:0:0:
448,192,321700,1,0,0:0:0:0:
192,192,321790,1,0,0:0:0:0:
320,192,321790,1,0,0:0:0:0:
448,192,321881,1,0,0:0:0:0:
320,192,321972,1,0,0:0:0:0:
64,192,321972,1,0,0:0:0:50:kick.wav
448,192,322063,1,0,0:0:0:0:
192,192,322063,1,0,0:0:0:0:
64,192,322154,1,0,0:0:0:0:
192,192,322245,1,0,0:0:0:0:
320,192,322245,1,0,0:0:0:0:
448,192,322336,1,0,0:0:0:50:clap.wav
64,192,322336,1,0,0:0:0:0:
320,192,322427,1,0,0:0:0:0:
192,192,322518,1,0,0:0:0:0:
64,192,322518,1,0,0:0:0:0:
320,192,322609,1,0,0:0:0:0:
448,192,322700,1,0,0:0:0:0:
192,192,322700,1,0,0:0:0:50:kick.wav
64,192,322790,1,0,0:0:0:0:
320,192,322881,1,0,0:0:0:0:
448,192,322881,1,0,0:0:0:0:
64,192,322972,1,0,0:0:0:0:
192,192,322972,1,0,0:0:0:0:
448,192,323063,1,0,0:0:0:50:clap.wav
192,192,323154,1,0,0:0:0:0:
320,192,323154,1,0,0:0:0:0:
64,192,323245,1,0,0:0:0:0:
448,192,323245,1,0,0:0:0:0:
320,192,323336,1,0,0:0:0:0:
192,192,323427,1,0,0:0:0:0:
64,192,323427,1,0,0:0:0:50:kick.wav
448,192,323518,1,0,0:0:0:0:
320,192,323518,1,0,0:0:0:0:
192,192,323609,1,0,0:0:0:0:
64,192,323700,1,0,0:0:0:0:
448,192,323700,1,0,0:0:0:0:
192,192,323790,1,0,0:0:0:0:
320,192,323790,1,0,0:0:0:50:clap.wav
448,192,323881,1,0,0:0:0:0:
64,192,323972,1,0,0:0:0:0:
192,192,323972,1,0,0:0:0:0:
320,192,324063,1,0,0:0:0:0:
64,192,324154,1,0,0:0:0:50:kick.wav
448,192,324154,1,0,0:0:0:0:
192,192,324245,1,0,0:0:0:0:
320,192,324336,1,0,0:0:0:0:
448,192,324336,1,0,0:0:0:0:
192,192,324427,1,0,0:0:0:0:
64,192,324427,1,0,0:0:0:0:
320,192,324518,1,0,0:0:0:50:clap.wav
192,192,324609,1,0,0:0:0:0:
448,192,324609,1,0,0:0:0:0:
320,192,324700,1,0,0:0:0:0:
64,192,324700,1,0,0:0:0:0:
192,192,324790,1,0,0:0:0:0:
64,192,324881,1,0,0:0:0:50:kick.wav
448,192,324881,1,0,0:0:0:0:
320,192,324972,1,0,0:0:0:0:
192,192,324972,1,0,0:0:0:0:
448,192,325063,1,0,0:0:0:0:
320,192,325154,1,0,0:0:0:0:
64,192,325154,1,0,0:0:0:0:
448,192,325245,1,0,0:0:0:50:clap.wav
192,192,325245,1,0,0:0:0:0:
320,192,325336,1,0,0:0:0:0:
192,192,325427,1,0,0:0:0:0:
448,192,325427,1,0,0:0:0:0:
64,192,325518,1,0,0:0:0:0:
192,192,325609,1,0,0:0:0:50:kick.wav
448,192,325609,1,0,0:0:0:0:
320,192,325609,1,0,0:0:0:50:kick.wav
448,192,325790,1,0,0:0:0:0:
448,192,325881,1,0,0:0:0:0:
64,192,325972,1,0,0:0:0:50:clap.wav
320,192,325972,1,0,0:0:0:50:clap.wav
192,192,325972,1,0,0:0:0:0:
192,192,326154,1,0,0:0:0:0:
192,192,326245,1,0,0:0:0:0:
448,192,326336,1,0,0:0:0:50:kick.wav
320,192,326336,1,0,0:0:0:0:
64,192,326336,1,0,0:0:0:50:kick.wav
320,192,326518,1,0,0:0:0:0:
320,192,326609,1,0,0:0:0:0:
448,192,326700,1,0,0:0:0:50:clap.wav
64,192,326700,1,0,0:0:0:0:
192,192,326700,1,0,0:0:0:50:clap.wav
64,192,326881,1,0,0:0:0:0:
64,192,326972,1,0,0:0:0:0:
192,192,327063,1,0,0:0:0:50:kick.wav
320,0,327063,1,0,0:0:0:50:clapL.wav
448,0,327063,1,0,0:0:0:50:crash.wav
64,192,327154,1,0,0:0:0:0:
320,192,327245,1,0,0:0:0:0:
448,192,327245,1,0,0:0:0:0:
64,192,327336,1,0,0:0:0:0:
192,192,327336,1,0,0:0:0:0:
320,192,327427,1,0,0:0:0:50:clap.wav
448,192,327518,1,0,0:0:0:0:
64,192,327518,1,0,0:0:0:0:
192,192,327609,1,0,0:0:0:0:
320,192,327609,1,0,0:0:0:0:
64,192,327700,1,0,0:0:0:0:
192,192,327790,1,0,0:0:0:50:kick.wav
448,192,327790,1,0,0:0:0:0:
64,192,327881,1,0,0:0:0:0:
320,192,327881,1,0,0:0:0:0:
448,192,327972,1,0,0:0:0:0:
320,192,328063,1,0,0:0:0:0:
192,192,328063,1,0,0:0:0:0:
448,192,328154,1,0,0:0:0:50:clap.wav
64,192,328154,1,0,0:0:0:0:
192,192,328245,1,0,0:0:0:0:
320,192,328336,1,0,0:0:0:0:
448,192,328336,1,0,0:0:0:0:
192,192,328427,1,0,0:0:0:0:
320,192,328518,1,0,0:0:0:0:
64,192,328518,1,0,0:0:0:50:kick.wav
448,192,328609,1,0,0:0:0:0:
64,192,328700,1,0,0:0:0:0:
192,192,328700,1,0,0:0:0:0:
320,192,328790,1,0,0:0:0:0:
448,192,328790,1,0,0:0:0:0:
64,192,328881,1,0,0:0:0:50:clap.wav
192,192,328972,1,0,0:0:0:0:
320,192,328972,1,0,0:0:0:0:
448,192,329063,1,0,0:0:0:0:
64,192,329063,1,0,0:0:0:0:
192,192,329154,1,0,0:0:0:0:
448,192,329245,1,0,0:0:0:0:
320,192,329245,1,0,0:0:0:50:kick.wav
192,192,329336,1,0,0:0:0:0:
64,192,329427,1,0,0:0:0:0:
448,192,329427,1,0,0:0:0:0:
192,192,329518,1,0,0:0:0:0:
448,192,329609,1,0,0:0:0:50:clap.wav
320,192,329609,1,0,0:0:0:0:
64,192,329700,1,0,0:0:0:0:
192,192,329790,1,0,0:0:0:0:
320,192,329790,1,0,0:0:0:0:
64,192,329881,1,0,0:0:0:0:
448,192,329972,1,0,0:0:0:0:
192,192,329972,1,0,0:0:0:50:kick.wav
320,192,330063,1,0,0:0:0:0:
192,192,330154,1,0,0:0:0:0:
64,192,330154,1,0,0:0:0:0:
320,192,330245,1,0,0:0:0:0:
448,192,330245,1,0,0:0:0:0:
192,192,330336,1,0,0:0:0:50:clap.wav
320,192,330427,1,0,0:0:0:0:
64,192,330427,1,0,0:0:0:0:
192,192,330518,1,0,0:0:0:0:
448,192,330518,1,0,0:0:0:0:
320,192,330609,1,0,0:0:0:0:
64,192,330700,1,0,0:0:0:50:kick.wav
448,192,330700,1,0,0:0:0:0:
192,192,330790,1,0,0:0:0:0:
320,192,330790,1,0,0:0:0:0:
64,192,330881,1,0,0:0:0:0:
320,192,330972,1,0,0:0:0:0:
448,192,330972,1,0,0:0:0:0:
64,192,331063,1,0,0:0:0:0:
192,192,331063,1,0,0:0:0:50:clap.wav
320,192,331154,1,0,0:0:0:50:clap.wav
448,192,331154,1,0,0:0:0:0:
192,192,331245,1,0,0:0:0:50:clap.wav
64,192,331245,1,0,0:0:0:0:
320,192,331336,1,0,0:0:0:50:clap.wav
64,192,331427,1,0,0:0:0:50:kick.wav
192,192,331427,1,0,0:0:0:50:clap.wav
448,192,331427,1,0,0:0:0:0:
192,192,331518,1,0,0:0:0:0:
320,192,331609,1,0,0:0:0:0:
192,192,331700,1,0,0:0:0:50:clap.wav
448,192,331700,1,0,0:0:0:0:
64,192,331700,1,0,0:0:0:50:kick.wav
192,192,331790,1,0,0:0:0:0:
320,192,331881,1,0,0:0:0:0:
64,192,331972,1,0,0:0:0:50:kick.wav
448,192,331972,1,0,0:0:0:0:
192,192,331972,1,0,0:0:0:50:clap.wav
192,192,332063,1,0,0:0:0:0:
320,192,332154,1,0,0:0:0:0:
192,192,332245,1,0,0:0:0:50:clap.wav
448,192,332245,1,0,0:0:0:0:
64,192,332245,1,0,0:0:0:50:kick.wav
192,192,332336,1,0,0:0:0:0:
320,192,332427,1,0,0:0:0:0:
64,192,332518,1,0,0:0:0:50:kick.wav
448,192,332518,1,0,0:0:0:0:
192,192,332518,1,0,0:0:0:50:clap.wav
192,192,332609,1,0,0:0:0:0:
320,192,332700,1,0,0:0:0:0:
64,0,332881,128,0,335790:0:0:0:0:
192,192,332881,1,0,0:0:0:50:kick.wav
320,192,332881,1,0,0:0:0:50:clapL.wav
448,0,332881,1,0,0:0:0:50:crash.wav
320,192,333063,1,0,0:0:0:100:hat.wav
192,192,333245,1,0,0:0:0:0:
448,192,333427,1,0,0:0:0:100:hat.wav
192,192,333609,1,0,0:0:0:0:
320,192,333790,1,0,0:0:0:100:hat.wav
192,192,333972,1,0,0:0:0:0:
448,192,334154,1,0,0:0:0:100:hat.wav
192,192,334336,1,0,0:0:0:0:
448,192,334518,1,0,0:0:0:100:hat.wav
320,192,334700,1,0,0:0:0:0:
448,192,334881,1,0,0:0:0:100:hat.wav
192,192,335063,1,0,0:0:0:0:
320,192,335245,1,0,0:0:0:100:hat.wav
192,192,335427,1,0,0:0:0:0:
320,192,335609,1,0,0:0:0:100:hat.wav
448,192,335609,1,0,0:0:0:50:clap.wav
448,192,335700,1,0,0:0:0:50:clap.wav
320,192,335790,1,0,0:0:0:0:
192,192,335790,1,0,0:0:0:50:kick.wav
64,192,335972,1,0,0:0:0:0:
192,192,335972,1,0,0:0:0:50:kick.wav
192,192,336154,1,0,0:0:0:50:kick.wav
320,192,336154,1,0,0:0:0:0:
448,192,336336,1,0,0:0:0:0:
320,192,336336,1,0,0:0:0:50:kick.wav
320,192,336518,1,0,0:0:0:50:kick.wav
192,192,336518,1,0,0:0:0:0:
192,192,336700,1,0,0:0:0:0:
64,192,336700,1,0,0:0:0:50:kick.wav
192,192,336881,1,0,0:0:0:50:kick.wav
320,192,336881,1,0,0:0:0:0:
320,192,337063,1,0,0:0:0:50:kick.wav
448,192,337063,1,0,0:0:0:0:
64,192,337245,1,0,0:0:0:0:
192,192,337245,1,0,0:0:0:50:kick.wav
320,192,337336,1,0,0:0:0:50:kick.wav
448,192,337336,1,0,0:0:0:0:
64,192,337427,1,0,0:0:0:0:
192,192,337427,1,0,0:0:0:50:kick.wav
448,192,337518,1,0,0:0:0:0:
320,192,337518,1,0,0:0:0:50:kick.wav
192,192,337609,1,0,0:0:0:50:kick.wav
64,192,337609,1,0,0:0:0:0:
448,192,337700,1,0,0:0:0:0:
320,192,337700,1,0,0:0:0:50:kick.wav
64,192,337790,1,0,0:0:0:50:kick.wav
192,192,337836,1,0,0:0:0:50:kick.wav
320,192,337881,1,0,0:0:0:50:kick.wav
448,192,337927,1,0,0:0:0:50:kick.wav
64,192,337972,1,0,0:0:0:50:kick.wav
192,192,338018,1,0,0:0:0:50:kick.wav
320,192,338063,1,0,0:0:0:50:kick.wav
448,192,338109,1,0,0:0:0:50:kick.wav
64,192,338154,1,0,0:0:0:50:kick.wav
192,192,338154,1,0,0:0:0:0:
64,0,338336,1,0,0:0:0:50:kick.wav
192,0,338336,1,0,0:0:0:30:clapL.wav
320,0,338336,1,0,0:0:0:30:clapL.wav
448,0,338336,1,0,0:0:0:50:kick.wav
320,0,338700,128,0,339609:0:0:0:0:
448,0,338790,128,0,339427:0:0:0:0:
448,0,339881,128,0,344518:0:0:0:0:
