osu file format v14

[General]
AudioFilename: audio.ogg
AudioLeadIn: 0
PreviewTime: 121962
Countdown: 0
SampleSet: None
StackLeniency: 0.7
Mode: 3
LetterboxInBreaks: 0
SpecialStyle: 0
WidescreenStoryboard: 1

[Editor]
Bookmarks: 5712,27530,43894,49348,60258,71167,73894,84803,95712,106621,117530,122985,133894,147530,172076,180258
DistanceSpacing: 1.5
BeatDivisor: 4
GridSize: 4
TimelineZoom: 1.900001

[Metadata]
Title:First Snow
TitleUnicode:First Snow
Artist:Chroma
ArtistUnicode:黒魔
Creator:technoplanet
Version:Present
Source:Arcaea
Tags:lowiro sound collection memories of myth act i 1 creation divided heart shirahime groove coaster 4ex wai wai party!!!! kuroma chiptune electronic instrumental
BeatmapID:5331939
BeatmapSetID:2443548

[Difficulty]
HPDrainRate:7.2
CircleSize:4
OverallDifficulty:7.2
ApproachRate:5
SliderMultiplier:1.4
SliderTickRate:1

[Events]
//Background and Video events
0,0,"firstsnow.jpg",0,0
//Break Periods
//Storyboard Layer 0 (Background)
//Storyboard Layer 1 (Fail)
//Storyboard Layer 2 (Pass)
//Storyboard Layer 3 (Foreground)
//Storyboard Layer 4 (Overlay)
//Storyboard Sound Samples

[TimingPoints]
258,681.818181818182,4,2,1,45,1,0
49348,-100,4,2,1,45,0,1
71167,-100,4,2,1,45,0,0
122985,-100,4,2,1,45,0,1
147530,-100,4,2,1,45,0,0

[HitObjects]
192,192,258,5,0,0:0:0:0:
448,192,428,1,0,0:0:0:0:
192,192,598,1,0,0:0:0:0:
320,192,769,1,0,0:0:0:0:
64,192,939,1,0,0:0:0:0:
448,192,939,1,0,0:0:0:0:
320,192,1451,1,0,0:0:0:0:
64,192,1621,1,0,0:0:0:0:
192,192,1792,1,0,0:0:0:0:
448,192,1962,1,0,0:0:0:0:
320,192,2133,1,0,0:0:0:0:
192,192,2303,1,0,0:0:0:0:
64,192,2303,1,0,0:0:0:0:
320,192,2985,1,0,0:0:0:0:
64,192,3155,1,0,0:0:0:0:
320,192,3326,1,0,0:0:0:0:
192,192,3496,1,0,0:0:0:0:
448,192,3667,1,0,0:0:0:0:
64,192,3667,1,0,0:0:0:0:
192,192,4178,1,0,0:0:0:0:
448,192,4348,1,0,0:0:0:0:
320,192,4519,1,0,0:0:0:0:
64,192,4689,1,0,0:0:0:0:
192,192,4860,1,0,0:0:0:0:
320,192,5030,1,0,0:0:0:0:
448,192,5030,1,0,0:0:0:0:
192,192,5712,1,0,0:0:0:0:
64,192,5712,1,0,0:0:0:0:
320,192,6223,128,0,6394:0:0:0:0:
448,192,6394,128,0,6735:0:0:0:0:
192,192,6394,1,0,0:0:0:0:
192,192,6735,128,0,6905:0:0:0:0:
320,192,6905,128,0,7246:0:0:0:0:
64,192,7246,1,0,0:0:0:0:
448,192,7417,1,0,0:0:0:0:
192,192,7587,128,0,7758:0:0:0:0:
320,192,7758,1,0,0:0:0:0:
64,192,7758,128,0,8439:0:0:0:0:
448,192,8098,128,0,8780:0:0:0:0:
320,192,8439,128,0,8780:0:0:0:0:
64,192,8780,1,0,0:0:0:0:
192,192,8951,128,0,9121:0:0:0:0:
320,192,9121,1,0,0:0:0:0:
448,192,9121,128,0,9292:0:0:0:0:
64,192,9292,128,0,9462:0:0:0:0:
320,192,9462,128,0,9633:0:0:0:0:
192,192,9633,128,0,9803:0:0:0:0:
64,192,9803,128,0,10144:0:0:0:0:
448,192,9973,1,0,0:0:0:0:
320,192,10144,128,0,10485:0:0:0:0:
192,192,10314,1,0,0:0:0:0:
448,192,10485,1,0,0:0:0:0:
64,192,10485,128,0,11167:0:0:0:0:
320,192,10655,1,0,0:0:0:0:
192,192,10826,1,0,0:0:0:0:
320,192,11167,1,0,0:0:0:0:
448,192,11167,1,0,0:0:0:0:
192,192,11678,128,0,11848:0:0:0:0:
64,192,11848,128,0,12189:0:0:0:0:
320,192,11848,1,0,0:0:0:0:
320,192,12189,128,0,12360:0:0:0:0:
192,192,12360,128,0,12701:0:0:0:0:
448,192,12701,1,0,0:0:0:0:
64,192,12871,1,0,0:0:0:0:
320,192,13042,128,0,13212:0:0:0:0:
192,192,13212,1,0,0:0:0:0:
448,192,13212,128,0,13553:0:0:0:0:
64,192,13553,128,0,14235:0:0:0:0:
320,192,13553,1,0,0:0:0:0:
192,192,13894,128,0,14235:0:0:0:0:
448,192,14064,1,0,0:0:0:0:
320,192,14235,1,0,0:0:0:0:
192,192,14405,128,0,14576:0:0:0:0:
448,192,14576,128,0,14746:0:0:0:0:
64,192,14576,1,0,0:0:0:0:
320,192,14746,1,0,0:0:0:0:
64,192,14917,128,0,15087:0:0:0:0:
192,192,15087,1,0,0:0:0:0:
320,192,15258,128,0,15428:0:0:0:0:
448,192,15428,1,0,0:0:0:0:
192,192,15598,128,0,15769:0:0:0:0:
320,192,15598,1,0,0:0:0:0:
64,192,15769,1,0,0:0:0:0:
320,192,15939,1,0,0:0:0:0:
448,192,15939,128,0,16110:0:0:0:0:
192,192,16110,1,0,0:0:0:0:
64,192,16110,1,0,0:0:0:0:
448,192,16280,1,0,0:0:0:0:
320,192,16280,128,0,16451:0:0:0:0:
192,192,16621,1,0,0:0:0:0:
64,192,16621,1,0,0:0:0:0:
320,192,17133,128,0,17303:0:0:0:0:
448,192,17303,128,0,17644:0:0:0:0:
192,192,17303,1,0,0:0:0:0:
192,192,17644,128,0,17814:0:0:0:0:
320,192,17814,128,0,18155:0:0:0:0:
64,192,18155,1,0,0:0:0:0:
448,192,18326,1,0,0:0:0:0:
192,192,18496,128,0,18667:0:0:0:0:
320,192,18667,1,0,0:0:0:0:
64,192,18667,128,0,19348:0:0:0:0:
448,192,19008,128,0,19689:0:0:0:0:
320,192,19348,128,0,19689:0:0:0:0:
64,192,19689,1,0,0:0:0:0:
192,192,19860,128,0,20030:0:0:0:0:
320,192,20030,1,0,0:0:0:0:
448,192,20030,128,0,20201:0:0:0:0:
64,192,20201,128,0,20371:0:0:0:0:
320,192,20371,128,0,20542:0:0:0:0:
192,192,20542,128,0,20712:0:0:0:0:
64,192,20712,128,0,21053:0:0:0:0:
448,192,20883,1,0,0:0:0:0:
320,192,21053,128,0,21394:0:0:0:0:
192,192,21223,1,0,0:0:0:0:
64,192,21394,128,0,21735:0:0:0:0:
448,192,21394,1,0,0:0:0:0:
320,192,21564,1,0,0:0:0:0:
192,192,21735,128,0,22076:0:0:0:0:
320,192,22076,1,0,0:0:0:0:
448,192,22076,1,0,0:0:0:0:
192,192,22587,128,0,22758:0:0:0:0:
64,192,22758,128,0,23098:0:0:0:0:
320,192,22758,1,0,0:0:0:0:
320,192,23098,128,0,23269:0:0:0:0:
192,192,23269,128,0,23610:0:0:0:0:
448,192,23610,1,0,0:0:0:0:
64,192,23780,128,0,24121:0:0:0:0:
320,192,23951,128,0,24121:0:0:0:0:
192,192,24121,1,0,0:0:0:0:
448,192,24121,128,0,24462:0:0:0:0:
64,192,24462,128,0,25144:0:0:0:0:
320,192,24462,1,0,0:0:0:0:
192,192,24803,128,0,25144:0:0:0:0:
448,192,24973,1,0,0:0:0:0:
320,192,25144,1,0,0:0:0:0:
192,192,25314,128,0,25485:0:0:0:0:
448,192,25485,128,0,25655:0:0:0:0:
64,192,25485,1,0,0:0:0:0:
320,192,25655,1,0,0:0:0:0:
64,192,25826,128,0,25996:0:0:0:0:
192,192,25996,1,0,0:0:0:0:
320,192,26167,128,0,26337:0:0:0:0:
448,192,26337,1,0,0:0:0:0:
64,192,26337,1,0,0:0:0:0:
192,192,26508,128,0,26678:0:0:0:0:
320,192,26508,1,0,0:0:0:0:
64,192,26678,1,0,0:0:0:0:
320,192,26848,1,0,0:0:0:0:
448,192,26848,128,0,27019:0:0:0:0:
192,192,27019,1,0,0:0:0:0:
64,192,27019,1,0,0:0:0:0:
448,192,27189,1,0,0:0:0:0:
320,192,27189,128,0,27360:0:0:0:0:
192,192,27360,1,0,0:0:0:0:
64,192,27530,1,0,0:0:0:0:
448,192,27530,1,0,0:0:0:0:
192,192,28042,128,0,28212:0:0:0:0:
320,192,28212,128,0,28553:0:0:0:0:
192,192,28553,128,0,28723:0:0:0:0:
448,192,28553,1,0,0:0:0:0:
320,192,28723,128,0,29235:0:0:0:0:
64,192,29235,128,0,29576:0:0:0:0:
320,192,29576,128,0,29746:0:0:0:0:
448,192,29746,128,0,29917:0:0:0:0:
192,192,29917,128,0,30258:0:0:0:0:
64,192,30258,128,0,30769:0:0:0:0:
448,192,30258,1,0,0:0:0:0:
320,192,30769,1,0,0:0:0:0:
192,192,30939,1,0,0:0:0:0:
320,192,31110,1,0,0:0:0:0:
192,192,31280,1,0,0:0:0:0:
448,192,31280,1,0,0:0:0:0:
64,192,31451,1,0,0:0:0:0:
448,192,31621,1,0,0:0:0:0:
320,192,31792,1,0,0:0:0:0:
192,192,31962,1,0,0:0:0:0:
64,192,32133,1,0,0:0:0:0:
448,192,32303,1,0,0:0:0:0:
320,192,32473,1,0,0:0:0:0:
192,192,32644,1,0,0:0:0:0:
64,192,32985,1,0,0:0:0:0:
448,192,32985,1,0,0:0:0:0:
320,192,33496,128,0,33667:0:0:0:0:
192,192,33667,128,0,34008:0:0:0:0:
320,192,34008,128,0,34178:0:0:0:0:
64,192,34008,1,0,0:0:0:0:
192,192,34178,128,0,34689:0:0:0:0:
448,192,34689,128,0,35030:0:0:0:0:
192,192,35030,128,0,35201:0:0:0:0:
64,192,35201,128,0,35371:0:0:0:0:
320,192,35371,128,0,35712:0:0:0:0:
448,192,35712,128,0,36223:0:0:0:0:
64,192,35712,1,0,0:0:0:0:
192,192,36223,1,0,0:0:0:0:
320,192,36394,1,0,0:0:0:0:
192,192,36564,1,0,0:0:0:0:
320,192,36735,1,0,0:0:0:0:
64,192,36735,1,0,0:0:0:0:
448,192,36905,1,0,0:0:0:0:
64,192,37076,1,0,0:0:0:0:
192,192,37246,1,0,0:0:0:0:
320,192,37417,1,0,0:0:0:0:
448,192,37587,1,0,0:0:0:0:
64,192,37758,1,0,0:0:0:0:
192,192,37928,1,0,0:0:0:0:
320,192,38098,1,0,0:0:0:0:
448,192,38439,1,0,0:0:0:0:
64,192,38439,1,0,0:0:0:0:
192,192,38951,128,0,39121:0:0:0:0:
320,192,39121,128,0,39462:0:0:0:0:
448,192,39462,1,0,0:0:0:0:
192,192,39462,128,0,39633:0:0:0:0:
320,192,39633,128,0,40144:0:0:0:0:
64,192,40144,128,0,40485:0:0:0:0:
320,192,40485,128,0,40655:0:0:0:0:
448,192,40655,128,0,40826:0:0:0:0:
192,192,40826,128,0,41167:0:0:0:0:
448,192,41167,1,0,0:0:0:0:
64,192,41167,128,0,41678:0:0:0:0:
320,192,41678,128,0,41848:0:0:0:0:
192,192,41848,128,0,42019:0:0:0:0:
320,192,42019,128,0,42189:0:0:0:0:
64,192,42189,128,0,42530:0:0:0:0:
192,192,42189,1,0,0:0:0:0:
448,192,42530,128,0,42871:0:0:0:0:
192,192,42871,128,0,43212:0:0:0:0:
64,192,43212,128,0,43383:0:0:0:0:
320,192,43383,128,0,43553:0:0:0:0:
448,192,43553,128,0,43894:0:0:0:0:
320,192,43723,1,0,0:0:0:0:
64,192,43894,128,0,44576:0:0:0:0:
192,192,43894,1,0,0:0:0:0:
448,192,44576,1,0,0:0:0:0:
320,192,44689,1,0,0:0:0:0:
192,192,44803,1,0,0:0:0:0:
448,192,44917,1,0,0:0:0:0:
320,192,45030,1,0,0:0:0:0:
192,192,45144,1,0,0:0:0:0:
64,192,45258,1,0,0:0:0:0:
192,192,45371,1,0,0:0:0:0:
320,192,45485,1,0,0:0:0:0:
64,192,45598,1,0,0:0:0:0:
192,192,45712,1,0,0:0:0:0:
320,192,45826,1,0,0:0:0:0:
448,192,45939,128,0,47985:0:0:0:0:
64,192,46621,128,0,47985:0:0:0:0:
192,192,47985,1,0,0:0:0:0:
320,192,47985,1,0,0:0:0:0:
320,192,49235,1,0,0:0:0:0:
64,192,49348,128,0,50030:0:0:0:0:
192,192,49348,128,0,49689:0:0:0:0:
448,192,49689,1,0,0:0:0:0:
320,192,50030,1,0,0:0:0:0:
448,192,50030,1,0,0:0:0:0:
320,192,50201,1,0,0:0:0:0:
320,192,50371,128,0,50542:0:0:0:0:
64,192,50542,128,0,50712:0:0:0:0:
448,192,50712,1,0,0:0:0:0:
192,192,50712,128,0,50883:0:0:0:0:
192,192,51053,128,0,51394:0:0:0:0:
320,192,51053,1,0,0:0:0:0:
64,192,51394,1,0,0:0:0:0:
448,192,51394,128,0,51735:0:0:0:0:
320,192,51564,128,0,51735:0:0:0:0:
64,192,51735,128,0,52076:0:0:0:0:
192,192,51905,1,0,0:0:0:0:
320,192,52076,128,0,52758:0:0:0:0:
64,192,52417,1,0,0:0:0:0:
448,192,52417,128,0,52758:0:0:0:0:
192,192,52758,1,0,0:0:0:0:
64,192,52758,128,0,52928:0:0:0:0:
320,192,52928,128,0,53098:0:0:0:0:
192,192,53098,128,0,53269:0:0:0:0:
448,192,53269,128,0,53439:0:0:0:0:
64,192,53439,1,0,0:0:0:0:
320,192,53439,128,0,53780:0:0:0:0:
192,192,53695,1,0,0:0:0:0:
64,192,53780,128,0,54121:0:0:0:0:
448,192,53780,1,0,0:0:0:0:
320,192,53951,1,0,0:0:0:0:
448,192,54121,128,0,54803:0:0:0:0:
192,192,54121,1,0,0:0:0:0:
320,192,54462,128,0,54803:0:0:0:0:
64,192,54803,128,0,55485:0:0:0:0:
192,192,54803,128,0,55144:0:0:0:0:
448,192,55144,1,0,0:0:0:0:
320,192,55485,1,0,0:0:0:0:
448,192,55485,1,0,0:0:0:0:
320,192,55655,1,0,0:0:0:0:
320,192,55826,128,0,55996:0:0:0:0:
192,192,55826,1,0,0:0:0:0:
64,192,55996,128,0,56167:0:0:0:0:
448,192,56167,128,0,56508:0:0:0:0:
320,192,56337,1,0,0:0:0:0:
192,192,56508,128,0,56848:0:0:0:0:
64,192,56508,1,0,0:0:0:0:
64,192,56848,128,0,57189:0:0:0:0:
448,192,56848,1,0,0:0:0:0:
320,192,57189,128,0,57530:0:0:0:0:
448,192,57530,128,0,57701:0:0:0:0:
64,192,57530,1,0,0:0:0:0:
192,192,57701,128,0,57871:0:0:0:0:
64,192,57871,128,0,58212:0:0:0:0:
448,192,57871,1,0,0:0:0:0:
320,192,58212,1,0,0:0:0:0:
448,192,58212,1,0,0:0:0:0:
192,192,58326,1,0,0:0:0:0:
64,192,58439,1,0,0:0:0:0:
320,192,58553,1,0,0:0:0:0:
192,192,58667,1,0,0:0:0:0:
64,192,58780,1,0,0:0:0:0:
448,192,58894,1,0,0:0:0:0:
320,192,59008,1,0,0:0:0:0:
192,192,59121,1,0,0:0:0:0:
448,192,59235,1,0,0:0:0:0:
320,192,59348,1,0,0:0:0:0:
192,192,59462,1,0,0:0:0:0:
448,192,59576,128,0,59917:0:0:0:0:
64,192,59576,128,0,60258:0:0:0:0:
448,192,60258,128,0,60939:0:0:0:0:
320,192,60258,128,0,60598:0:0:0:0:
64,192,60598,1,0,0:0:0:0:
192,192,60939,1,0,0:0:0:0:
64,192,60939,1,0,0:0:0:0:
192,192,61110,1,0,0:0:0:0:
192,192,61280,128,0,61451:0:0:0:0:
448,192,61451,128,0,61621:0:0:0:0:
64,192,61621,1,0,0:0:0:0:
320,192,61621,128,0,61792:0:0:0:0:
320,192,61962,128,0,62303:0:0:0:0:
192,192,61962,1,0,0:0:0:0:
448,192,62303,1,0,0:0:0:0:
64,192,62303,128,0,62644:0:0:0:0:
192,192,62473,128,0,62644:0:0:0:0:
448,192,62644,128,0,62985:0:0:0:0:
320,192,62814,1,0,0:0:0:0:
192,192,62985,128,0,63667:0:0:0:0:
448,192,63326,1,0,0:0:0:0:
64,192,63326,128,0,63667:0:0:0:0:
448,192,63667,128,0,63837:0:0:0:0:
320,192,63667,1,0,0:0:0:0:
192,192,63837,128,0,64008:0:0:0:0:
320,192,64008,128,0,64178:0:0:0:0:
64,192,64178,128,0,64348:0:0:0:0:
192,192,64348,128,0,64689:0:0:0:0:
448,192,64348,1,0,0:0:0:0:
320,192,64604,1,0,0:0:0:0:
64,192,64689,1,0,0:0:0:0:
448,192,64689,128,0,65030:0:0:0:0:
192,192,64860,1,0,0:0:0:0:
64,192,65030,128,0,65712:0:0:0:0:
320,192,65030,1,0,0:0:0:0:
192,192,65371,128,0,65712:0:0:0:0:
448,192,65712,128,0,66394:0:0:0:0:
320,192,65712,128,0,66053:0:0:0:0:
64,192,66053,1,0,0:0:0:0:
192,192,66394,1,0,0:0:0:0:
64,192,66394,1,0,0:0:0:0:
192,192,66564,1,0,0:0:0:0:
192,192,66735,128,0,66905:0:0:0:0:
320,192,66735,1,0,0:0:0:0:
448,192,66905,128,0,67076:0:0:0:0:
64,192,67076,128,0,67417:0:0:0:0:
192,192,67246,1,0,0:0:0:0:
320,192,67417,128,0,67758:0:0:0:0:
448,192,67417,1,0,0:0:0:0:
448,192,67758,128,0,68098:0:0:0:0:
64,192,67758,1,0,0:0:0:0:
192,192,68098,128,0,68439:0:0:0:0:
448,192,68439,128,0,68610:0:0:0:0:
64,192,68439,1,0,0:0:0:0:
192,192,68610,128,0,68780:0:0:0:0:
320,192,68780,1,0,0:0:0:0:
64,192,68780,128,0,69803:0:0:0:0:
320,192,69121,1,0,0:0:0:0:
448,192,69121,1,0,0:0:0:0:
320,192,69462,128,0,69803:0:0:0:0:
192,192,69803,1,0,0:0:0:0:
448,192,69803,1,0,0:0:0:0:
320,192,70059,1,0,0:0:0:0:
192,192,70314,1,0,0:0:0:0:
64,192,70485,1,0,0:0:0:0:
448,192,70485,1,0,0:0:0:0:
192,192,70655,128,0,70826:0:0:0:0:
320,192,70826,128,0,70996:0:0:0:0:
448,192,70996,128,0,71167:0:0:0:0:
64,192,71167,128,0,71337:0:0:0:0:
192,192,71167,128,0,71337:0:0:0:0:
448,192,71337,128,0,71508:0:0:0:0:
320,192,71508,128,0,71678:0:0:0:0:
192,192,71678,128,0,71848:0:0:0:0:
320,192,71848,128,0,72019:0:0:0:0:
192,192,72019,128,0,72189:0:0:0:0:
64,192,72189,128,0,72360:0:0:0:0:
448,192,72360,128,0,72530:0:0:0:0:
320,192,72530,128,0,72701:0:0:0:0:
192,192,72701,128,0,72871:0:0:0:0:
64,192,72701,1,0,0:0:0:0:
448,192,72871,1,0,0:0:0:0:
320,192,72871,128,0,73042:0:0:0:0:
64,192,73042,128,0,73212:0:0:0:0:
192,192,73042,1,0,0:0:0:0:
448,192,73212,128,0,73553:0:0:0:0:
320,192,73212,1,0,0:0:0:0:
192,192,73553,128,0,73894:0:0:0:0:
448,192,73894,1,0,0:0:0:0:
64,192,73894,1,0,0:0:0:0:
320,192,74064,1,0,0:0:0:0:
192,192,74235,1,0,0:0:0:0:
320,192,74576,1,0,0:0:0:0:
192,192,74746,1,0,0:0:0:0:
64,192,74917,1,0,0:0:0:0:
448,192,75258,1,0,0:0:0:0:
320,192,75428,1,0,0:0:0:0:
192,192,75598,1,0,0:0:0:0:
320,192,75939,1,0,0:0:0:0:
192,192,76110,1,0,0:0:0:0:
64,192,76280,1,0,0:0:0:0:
192,192,76621,1,0,0:0:0:0:
320,192,76792,1,0,0:0:0:0:
448,192,76962,1,0,0:0:0:0:
64,192,77303,1,0,0:0:0:0:
192,192,77473,1,0,0:0:0:0:
320,192,77644,1,0,0:0:0:0:
192,192,77985,1,0,0:0:0:0:
320,192,78155,1,0,0:0:0:0:
448,192,78326,1,0,0:0:0:0:
64,192,78667,1,0,0:0:0:0:
192,192,78837,1,0,0:0:0:0:
320,192,79008,1,0,0:0:0:0:
448,192,79348,1,0,0:0:0:0:
192,192,79519,1,0,0:0:0:0:
64,192,79689,1,0,0:0:0:0:
320,192,80030,1,0,0:0:0:0:
192,192,80201,1,0,0:0:0:0:
64,192,80371,1,0,0:0:0:0:
448,192,80712,1,0,0:0:0:0:
320,192,80883,1,0,0:0:0:0:
64,192,81053,1,0,0:0:0:0:
448,192,81394,1,0,0:0:0:0:
320,192,81564,1,0,0:0:0:0:
192,192,81735,1,0,0:0:0:0:
64,192,82076,1,0,0:0:0:0:
320,192,82246,1,0,0:0:0:0:
448,192,82417,1,0,0:0:0:0:
192,192,82758,1,0,0:0:0:0:
320,192,82928,1,0,0:0:0:0:
448,192,83098,1,0,0:0:0:0:
64,192,83439,1,0,0:0:0:0:
192,192,83610,1,0,0:0:0:0:
448,192,83780,1,0,0:0:0:0:
64,192,84121,1,0,0:0:0:0:
192,192,84292,1,0,0:0:0:0:
320,192,84462,1,0,0:0:0:0:
192,192,84633,1,0,0:0:0:0:
64,192,84803,1,0,0:0:0:0:
448,192,84803,1,0,0:0:0:0:
320,192,84973,1,0,0:0:0:0:
192,192,85144,1,0,0:0:0:0:
320,192,85485,1,0,0:0:0:0:
192,192,85655,1,0,0:0:0:0:
64,192,85826,1,0,0:0:0:0:
448,192,86167,128,0,86508:0:0:0:0:
320,192,86337,1,0,0:0:0:0:
192,192,86508,128,0,86848:0:0:0:0:
64,192,86848,128,0,87530:0:0:0:0:
320,192,87019,1,0,0:0:0:0:
448,192,87189,1,0,0:0:0:0:
320,192,87530,128,0,88894:0:0:0:0:
192,192,87701,1,0,0:0:0:0:
64,192,87871,1,0,0:0:0:0:
64,192,88212,1,0,0:0:0:0:
192,192,88383,1,0,0:0:0:0:
448,192,88553,1,0,0:0:0:0:
192,192,88894,128,0,89576:0:0:0:0:
64,192,89064,1,0,0:0:0:0:
320,192,89235,1,0,0:0:0:0:
448,192,89576,128,0,90258:0:0:0:0:
320,192,89746,1,0,0:0:0:0:
192,192,89917,1,0,0:0:0:0:
64,192,90258,128,0,91621:0:0:0:0:
192,192,90428,1,0,0:0:0:0:
320,192,90598,1,0,0:0:0:0:
448,192,90939,1,0,0:0:0:0:
320,192,91110,1,0,0:0:0:0:
192,192,91280,1,0,0:0:0:0:
320,192,91621,128,0,92303:0:0:0:0:
192,192,91792,1,0,0:0:0:0:
448,192,91962,1,0,0:0:0:0:
448,192,92303,128,0,92985:0:0:0:0:
64,192,92473,1,0,0:0:0:0:
192,192,92644,1,0,0:0:0:0:
192,192,92985,128,0,94348:0:0:0:0:
320,192,93155,1,0,0:0:0:0:
64,192,93326,1,0,0:0:0:0:
448,192,93667,1,0,0:0:0:0:
320,192,93837,1,0,0:0:0:0:
64,192,94008,1,0,0:0:0:0:
448,192,94348,1,0,0:0:0:0:
320,192,94519,1,0,0:0:0:0:
64,192,94689,1,0,0:0:0:0:
192,192,94860,1,0,0:0:0:0:
448,192,95030,128,0,95712:0:0:0:0:
320,192,95030,128,0,95371:0:0:0:0:
192,192,95712,128,0,95883:0:0:0:0:
64,192,95712,128,0,95883:0:0:0:0:
64,192,96053,128,0,96394:0:0:0:0:
192,192,96053,128,0,96394:0:0:0:0:
320,192,96394,1,0,0:0:0:0:
320,192,96564,1,0,0:0:0:0:
320,192,96735,128,0,96905:0:0:0:0:
64,192,96905,128,0,97076:0:0:0:0:
192,192,97076,128,0,97246:0:0:0:0:
448,192,97246,1,0,0:0:0:0:
192,192,97417,128,0,97758:0:0:0:0:
64,192,97587,1,0,0:0:0:0:
448,192,97758,128,0,98098:0:0:0:0:
320,192,97928,128,0,98098:0:0:0:0:
64,192,98098,128,0,98439:0:0:0:0:
192,192,98269,1,0,0:0:0:0:
320,192,98439,128,0,98610:0:0:0:0:
448,192,98439,128,0,98610:0:0:0:0:
320,192,98780,128,0,99121:0:0:0:0:
448,192,98780,128,0,99121:0:0:0:0:
64,192,99121,128,0,99292:0:0:0:0:
320,192,99292,128,0,99462:0:0:0:0:
192,192,99462,128,0,99633:0:0:0:0:
448,192,99633,128,0,99803:0:0:0:0:
64,192,99803,128,0,100144:0:0:0:0:
192,192,99973,1,0,0:0:0:0:
448,192,100144,128,0,100485:0:0:0:0:
320,192,100314,1,0,0:0:0:0:
192,192,100485,128,0,101167:0:0:0:0:
64,192,100485,1,0,0:0:0:0:
448,192,100826,128,0,101167:0:0:0:0:
64,192,101167,128,0,101337:0:0:0:0:
320,192,101167,128,0,101337:0:0:0:0:
320,192,101508,128,0,101848:0:0:0:0:
64,192,101508,128,0,101848:0:0:0:0:
192,192,101848,1,0,0:0:0:0:
192,192,102019,1,0,0:0:0:0:
192,192,102189,128,0,102360:0:0:0:0:
448,192,102360,128,0,102530:0:0:0:0:
64,192,102530,128,0,102871:0:0:0:0:
320,192,102871,128,0,103212:0:0:0:0:
448,192,103212,128,0,103553:0:0:0:0:
192,192,103553,128,0,103894:0:0:0:0:
448,192,103894,128,0,104064:0:0:0:0:
64,192,103894,1,0,0:0:0:0:
192,192,104064,128,0,104235:0:0:0:0:
64,192,104235,128,0,105258:0:0:0:0:
448,192,104235,1,0,0:0:0:0:
192,192,104576,1,0,0:0:0:0:
448,192,104917,1,0,0:0:0:0:
192,192,105087,1,0,0:0:0:0:
448,192,105258,1,0,0:0:0:0:
320,192,105371,1,0,0:0:0:0:
192,192,105485,1,0,0:0:0:0:
64,192,105598,1,0,0:0:0:0:
192,192,105712,1,0,0:0:0:0:
320,192,105826,1,0,0:0:0:0:
448,192,105939,1,0,0:0:0:0:
64,192,105939,1,0,0:0:0:0:
448,192,106451,1,0,0:0:0:0:
192,192,106621,128,0,107303:0:0:0:0:
64,192,106621,1,0,0:0:0:0:
320,192,107303,1,0,0:0:0:0:
320,192,107473,1,0,0:0:0:0:
320,192,107644,128,0,107814:0:0:0:0:
64,192,107814,128,0,107985:0:0:0:0:
192,192,107985,128,0,108155:0:0:0:0:
192,192,108326,128,0,108667:0:0:0:0:
448,192,108667,128,0,109008:0:0:0:0:
64,192,109008,128,0,109348:0:0:0:0:
448,192,109348,1,0,0:0:0:0:
192,192,109348,1,0,0:0:0:0:
320,192,109689,1,0,0:0:0:0:
64,192,110030,128,0,110201:0:0:0:0:
320,192,110201,128,0,110371:0:0:0:0:
192,192,110371,128,0,110542:0:0:0:0:
448,192,110542,128,0,110712:0:0:0:0:
64,192,110712,128,0,111053:0:0:0:0:
320,192,110712,1,0,0:0:0:0:
448,192,111053,128,0,111394:0:0:0:0:
192,192,111394,128,0,112076:0:0:0:0:
64,192,111394,1,0,0:0:0:0:
448,192,112076,1,0,0:0:0:0:
320,192,112076,1,0,0:0:0:0:
64,192,112417,1,0,0:0:0:0:
192,192,112758,1,0,0:0:0:0:
192,192,112928,1,0,0:0:0:0:
192,192,113098,128,0,113269:0:0:0:0:
448,192,113269,128,0,113439:0:0:0:0:
64,192,113439,128,0,113780:0:0:0:0:
320,192,113439,1,0,0:0:0:0:
320,192,113780,128,0,114121:0:0:0:0:
448,192,113894,1,0,0:0:0:0:
192,192,114008,1,0,0:0:0:0:
64,192,114121,1,0,0:0:0:0:
448,192,114121,128,0,114462:0:0:0:0:
64,192,114462,128,0,114803:0:0:0:0:
320,192,114803,1,0,0:0:0:0:
448,192,114803,1,0,0:0:0:0:
64,192,114973,1,0,0:0:0:0:
320,192,115144,1,0,0:0:0:0:
192,192,115144,1,0,0:0:0:0:
64,192,115485,1,0,0:0:0:0:
192,192,115485,1,0,0:0:0:0:
192,192,115826,1,0,0:0:0:0:
320,192,115826,1,0,0:0:0:0:
320,192,116167,1,0,0:0:0:0:
448,192,116167,1,0,0:0:0:0:
320,192,116508,1,0,0:0:0:0:
192,192,116508,1,0,0:0:0:0:
192,192,116848,1,0,0:0:0:0:
64,192,116848,1,0,0:0:0:0:
192,192,117189,1,0,0:0:0:0:
320,192,117189,1,0,0:0:0:0:
320,192,117530,128,0,117871:0:0:0:0:
448,192,117530,128,0,118042:0:0:0:0:
192,192,120258,128,0,121621:0:0:0:0:
320,192,120939,128,0,121621:0:0:0:0:
64,192,121621,1,0,0:0:0:0:
448,192,121621,1,0,0:0:0:0:
64,192,121962,128,0,122303:0:0:0:0:
192,192,122303,128,0,122644:0:0:0:0:
320,192,122644,128,0,122985:0:0:0:0:
448,192,122985,1,0,0:0:0:0:
64,192,122985,128,0,123155:0:0:0:0:
320,192,123155,128,0,123326:0:0:0:0:
448,192,123326,128,0,123496:0:0:0:0:
192,192,123496,128,0,123667:0:0:0:0:
64,192,123667,128,0,123837:0:0:0:0:
448,192,123667,1,0,0:0:0:0:
320,192,123837,128,0,124008:0:0:0:0:
192,192,124008,128,0,124178:0:0:0:0:
320,192,124178,128,0,124348:0:0:0:0:
64,192,124348,1,0,0:0:0:0:
448,192,124348,128,0,124519:0:0:0:0:
192,192,124519,128,0,124689:0:0:0:0:
64,192,124689,128,0,124860:0:0:0:0:
448,192,124689,1,0,0:0:0:0:
320,192,124860,128,0,125030:0:0:0:0:
192,192,125030,1,0,0:0:0:0:
64,192,125030,128,0,125371:0:0:0:0:
448,192,125371,128,0,125712:0:0:0:0:
192,192,125712,1,0,0:0:0:0:
320,192,125712,128,0,125883:0:0:0:0:
64,192,125883,128,0,126053:0:0:0:0:
320,192,126053,128,0,126394:0:0:0:0:
64,192,126394,1,0,0:0:0:0:
448,192,126394,1,0,0:0:0:0:
320,192,126564,1,0,0:0:0:0:
64,192,126735,1,0,0:0:0:0:
192,192,126905,1,0,0:0:0:0:
448,192,126905,1,0,0:0:0:0:
320,192,127076,128,0,127758:0:0:0:0:
448,192,127246,1,0,0:0:0:0:
64,192,127417,1,0,0:0:0:0:
448,192,127758,1,0,0:0:0:0:
64,192,127758,128,0,128098:0:0:0:0:
448,192,128098,128,0,128439:0:0:0:0:
320,192,128269,128,0,128439:0:0:0:0:
192,192,128439,1,0,0:0:0:0:
64,192,128439,128,0,129121:0:0:0:0:
320,192,128780,1,0,0:0:0:0:
320,192,129121,1,0,0:0:0:0:
448,192,129121,1,0,0:0:0:0:
192,192,129462,1,0,0:0:0:0:
448,192,129633,1,0,0:0:0:0:
64,192,129633,1,0,0:0:0:0:
192,192,129803,1,0,0:0:0:0:
320,192,129803,1,0,0:0:0:0:
448,192,130144,1,0,0:0:0:0:
64,192,130144,1,0,0:0:0:0:
192,192,130485,1,0,0:0:0:0:
320,192,130485,1,0,0:0:0:0:
64,192,130655,1,0,0:0:0:0:
320,192,130826,1,0,0:0:0:0:
448,192,130996,1,0,0:0:0:0:
192,192,131167,1,0,0:0:0:0:
64,192,131167,128,0,131848:0:0:0:0:
448,192,131508,1,0,0:0:0:0:
448,192,131848,128,0,132530:0:0:0:0:
320,192,131848,1,0,0:0:0:0:
64,192,132189,1,0,0:0:0:0:
320,192,132360,1,0,0:0:0:0:
192,192,132530,128,0,133212:0:0:0:0:
64,192,132530,1,0,0:0:0:0:
448,192,132871,1,0,0:0:0:0:
320,192,133042,1,0,0:0:0:0:
448,192,133212,1,0,0:0:0:0:
64,192,133212,1,0,0:0:0:0:
192,192,133383,1,0,0:0:0:0:
320,192,133553,1,0,0:0:0:0:
192,192,133723,1,0,0:0:0:0:
448,192,133894,128,0,134064:0:0:0:0:
64,192,133894,1,0,0:0:0:0:
192,192,134064,128,0,134235:0:0:0:0:
64,192,134235,128,0,134405:0:0:0:0:
320,192,134405,128,0,134576:0:0:0:0:
448,192,134576,128,0,134746:0:0:0:0:
64,192,134576,1,0,0:0:0:0:
192,192,134746,128,0,134917:0:0:0:0:
320,192,134917,128,0,135087:0:0:0:0:
192,192,135087,128,0,135258:0:0:0:0:
448,192,135258,1,0,0:0:0:0:
64,192,135258,128,0,135428:0:0:0:0:
320,192,135428,128,0,135598:0:0:0:0:
448,192,135598,128,0,135769:0:0:0:0:
64,192,135598,1,0,0:0:0:0:
192,192,135769,128,0,135939:0:0:0:0:
320,192,135939,1,0,0:0:0:0:
448,192,136110,128,0,136621:0:0:0:0:
64,192,136110,128,0,136280:0:0:0:0:
64,192,136451,1,0,0:0:0:0:
320,192,136621,1,0,0:0:0:0:
192,192,136621,128,0,136792:0:0:0:0:
448,192,136792,128,0,136962:0:0:0:0:
192,192,136962,128,0,137303:0:0:0:0:
448,192,137303,1,0,0:0:0:0:
64,192,137303,1,0,0:0:0:0:
192,192,137473,1,0,0:0:0:0:
448,192,137644,1,0,0:0:0:0:
192,192,137814,1,0,0:0:0:0:
64,192,137814,1,0,0:0:0:0:
320,192,137985,1,0,0:0:0:0:
64,192,138155,1,0,0:0:0:0:
448,192,138326,1,0,0:0:0:0:
320,192,138326,128,0,138496:0:0:0:0:
192,192,138496,1,0,0:0:0:0:
64,192,138667,1,0,0:0:0:0:
448,192,138667,128,0,138837:0:0:0:0:
320,192,138837,1,0,0:0:0:0:
192,192,139008,1,0,0:0:0:0:
64,192,139008,128,0,139178:0:0:0:0:
448,192,139348,128,0,140030:0:0:0:0:
320,192,139348,128,0,139689:0:0:0:0:
192,192,139689,1,0,0:0:0:0:
320,192,139860,1,0,0:0:0:0:
192,192,140030,1,0,0:0:0:0:
64,192,140030,1,0,0:0:0:0:
320,192,140201,1,0,0:0:0:0:
448,192,140371,1,0,0:0:0:0:
64,192,140542,1,0,0:0:0:0:
192,192,140712,128,0,141053:0:0:0:0:
320,192,140712,128,0,141394:0:0:0:0:
64,192,141053,1,0,0:0:0:0:
64,192,141394,1,0,0:0:0:0:
448,192,141394,1,0,0:0:0:0:
192,192,141564,1,0,0:0:0:0:
320,192,141735,1,0,0:0:0:0:
192,192,141905,1,0,0:0:0:0:
64,192,142076,1,0,0:0:0:0:
448,192,142076,1,0,0:0:0:0:
320,192,142246,1,0,0:0:0:0:
192,192,142417,128,0,142758:0:0:0:0:
448,192,142758,1,0,0:0:0:0:
320,192,142758,1,0,0:0:0:0:
64,192,142871,1,0,0:0:0:0:
192,192,142985,1,0,0:0:0:0:
320,192,143098,1,0,0:0:0:0:
448,192,143212,1,0,0:0:0:0:
64,192,143326,1,0,0:0:0:0:
192,192,143439,1,0,0:0:0:0:
320,192,143553,1,0,0:0:0:0:
448,192,143667,1,0,0:0:0:0:
64,192,143780,1,0,0:0:0:0:
192,192,143894,1,0,0:0:0:0:
320,192,144008,1,0,0:0:0:0:
64,192,144121,1,0,0:0:0:0:
448,192,144121,128,0,144803:0:0:0:0:
320,192,144292,1,0,0:0:0:0:
192,192,144462,1,0,0:0:0:0:
64,192,144803,128,0,145485:0:0:0:0:
192,192,144803,128,0,145144:0:0:0:0:
448,192,144973,1,0,0:0:0:0:
320,192,145144,1,0,0:0:0:0:
192,192,145314,1,0,0:0:0:0:
320,192,145485,1,0,0:0:0:0:
448,192,145485,1,0,0:0:0:0:
64,192,145826,1,0,0:0:0:0:
448,192,145996,1,0,0:0:0:0:
320,192,146167,128,0,146508:0:0:0:0:
192,192,146167,128,0,146848:0:0:0:0:
64,192,146394,1,0,0:0:0:0:
448,192,146508,1,0,0:0:0:0:
320,192,146678,1,0,0:0:0:0:
448,192,146848,1,0,0:0:0:0:
64,192,146848,1,0,0:0:0:0:
320,192,147019,1,0,0:0:0:0:
192,192,147189,1,0,0:0:0:0:
320,192,147360,1,0,0:0:0:0:
192,192,147530,128,0,147701:0:0:0:0:
64,192,147530,128,0,152985:0:0:0:0:
448,192,147701,128,0,147871:0:0:0:0:
320,192,147871,128,0,150258:0:0:0:0:
320,192,152985,128,0,157758:0:0:0:0:
192,192,154348,128,0,155712:0:0:0:0:
448,192,155712,128,0,157758:0:0:0:0:
192,192,157758,1,0,0:0:0:0:
64,192,157758,1,0,0:0:0:0:
