osu file format v14

[General]
AudioFilename: audio.mp3
AudioLeadIn: 0
PreviewTime: 73743
Countdown: 0
SampleSet: Normal
StackLeniency: 0.7
Mode: 1
LetterboxInBreaks: 0
WidescreenStoryboard: 1

[Editor]
Bookmarks: 93560
DistanceSpacing: 1.5
BeatDivisor: 4
GridSize: 32
TimelineZoom: 3.299999

[Metadata]
Title:Destroy, Destroy, Destroy The Happy End
TitleUnicode:Destroy, Destroy, Destroy The Happy End
Artist:Chroma
ArtistUnicode:黒魔
Creator:Finana Ryugu
Version:Oni
Source:
Tags:[Zeth] mappers' guild mg mpg featured artist fa electronic instrumental robot & and human chro-0006 kuroma
BeatmapID:3351284
BeatmapSetID:1631743

[Difficulty]
HPDrainRate:5.5
CircleSize:2
OverallDifficulty:6
ApproachRate:10
SliderMultiplier:1.4
SliderTickRate:1

[Events]
//Background and Video events
0,0,"wallpaperflare.com_wallpaper.jpg",0,0
//Break Periods
2,10167,13195
2,18974,22552
2,269842,274521
//Storyboard Layer 0 (Background)
//Storyboard Layer 1 (Fail)
//Storyboard Layer 2 (Pass)
//Storyboard Layer 3 (Foreground)
//Storyboard Layer 4 (Overlay)
//Storyboard Sound Samples

[TimingPoints]
1085,275.229357798165,4,1,0,100,1,0
1085,-125,4,1,0,100,0,0
2185,-117.647058823529,4,1,0,100,0,0
3286,-111.111111111111,4,1,0,100,0,0
4387,-105.263157894737,4,1,0,100,0,0
5488,-66.666666666667,4,1,0,100,0,0
5626,-25,4,1,0,40,0,0
6589,-105.263157894737,4,1,0,30,0,0
7690,-111.111111111111,4,1,0,20,0,0
8791,-117.647058823529,4,1,0,10,0,0
9892,-125,4,1,0,5,0,0
10993,-133.333333333333,4,1,0,5,0,0
12094,-142.857142857143,4,1,0,5,0,0
13195,-153.846153846154,4,1,0,5,0,0
13676,-100,4,1,0,100,0,0
13814,-105.263157894737,4,1,0,100,0,0
13951,-111.111111111111,4,1,0,100,0,0
14089,-117.647058823529,4,1,0,100,0,0
14294,-66.666666666667,4,1,0,100,0,0
14432,-25,4,1,0,40,0,0
15395,-105.263157894737,4,1,0,30,0,0
16496,-111.111111111111,4,1,0,20,0,0
17597,-117.647058823529,4,1,0,10,0,0
18698,-125,4,1,0,5,0,0
19799,-133.333333333333,4,1,0,5,0,0
20900,-142.857142857143,4,1,0,5,0,0
22001,-153.846153846154,4,1,0,5,0,0
22484,-160,4,1,0,25,0,0
23034,-80,4,1,0,100,0,0
23309,-100,4,1,0,100,0,0
24961,-80,4,1,0,100,0,0
25236,-86.95652173913,4,1,0,100,0,0
25442,-100,4,1,0,100,0,0
27162,-80,4,1,0,100,0,0
27369,-86.95652173913,4,1,0,100,0,0
27644,-100,4,1,0,100,0,0
28263,-80,4,1,0,100,0,0
28470,-86.95652173913,4,1,0,100,0,0
28745,-100,4,1,0,100,0,0
29364,-80,4,1,0,100,0,0
29571,-86.95652173913,4,1,0,100,0,0
29846,-100,4,1,0,100,0,0
30190,-80,4,1,0,100,0,0
30328,-100,4,1,0,100,0,0
30809,275.229357798165,5,1,0,100,1,0
30877,-40,5,1,0,100,0,0
31565,-100,5,1,0,100,0,0
31841,-66.666666666667,5,1,0,100,0,0
32185,275.229357798165,4,1,0,100,1,1
32185,-80,4,1,0,100,0,1
32322,-81.350086228135,4,1,0,100,0,1
32460,-82.756892230576,4,1,0,100,0,1
32597,-84.202473543287,4,1,0,100,0,1
32735,-85.710577547047,4,1,0,100,0,1
32873,-87.273688383772,4,1,0,100,0,1
33010,-88.882907133244,4,1,0,100,0,1
33148,-90.565002742732,4,1,0,100,0,1
33285,-92.299091544375,4,1,0,100,0,1
33423,-94.114293857774,4,1,0,100,0,1
33561,-96.002325919465,4,1,0,100,0,1
33698,-97.953129635123,4,1,0,100,0,1
33836,-80,4,1,0,100,0,1
34111,-66.6666666666667,4,1,0,100,0,1
34369,-80,4,1,0,100,0,1
34506,-81.350086228135,4,1,0,100,0,1
34644,-82.756892230576,4,1,0,100,0,1
34781,-84.202473543287,4,1,0,100,0,1
34919,-85.710577547047,4,1,0,100,0,1
35057,-87.273688383772,4,1,0,100,0,1
35194,-88.882907133244,4,1,0,100,0,1
35332,-90.565002742732,4,1,0,100,0,1
35469,-92.299091544375,4,1,0,100,0,1
35607,-94.114293857774,4,1,0,100,0,1
35745,-96.002325919465,4,1,0,100,0,1
35882,-97.953129635123,4,1,0,100,0,1
36020,-80,4,1,0,100,0,1
36295,-66.6666666666667,4,1,0,100,0,1
36588,-80,4,1,0,100,0,1
36863,-82.351055303233,4,1,0,100,0,1
36932,-82.962803466652,4,1,0,100,0,1
37001,-83.583708444059,4,1,0,100,0,1
37276,-86.153502152161,4,1,0,100,0,1
37345,-86.823277561827,4,1,0,100,0,1
37414,-87.503548515301,4,1,0,100,0,1
37689,-90.32409306687,4,1,0,100,0,1
37758,-91.060561299852,4,1,0,100,0,1
37827,-91.809138023471,4,1,0,100,0,1
38102,-94.919012132783,4,1,0,100,0,1
38171,-95.732654202124,4,1,0,100,0,1
38240,-80,4,1,0,100,0,1
38515,-66.6666666666667,4,1,0,100,0,1
38790,-103.707691272458,4,1,0,100,0,0
38996,-106.664821094885,4,1,0,100,0,0
39065,-107.693382712599,4,1,0,100,0,0
39134,-108.741974176251,4,1,0,100,0,0
39203,-109.811186319914,4,1,0,100,0,0
39340,-111.997674587603,4,1,0,100,0,0
39547,-115.471641567393,4,1,0,100,0,0
39616,-116.678022560375,4,1,0,100,0,0
39684,-117.891838139677,4,1,0,100,0,0
39753,-119.149594124468,4,1,0,100,0,0
39891,-121.747373410222,4,1,0,100,0,0
40029,-124.460954534442,4,1,0,100,0,0
40097,-125.843063607414,4,1,0,100,0,0
40166,-127.27723181105,4,1,0,100,0,0
40235,-128.744465792331,4,1,0,100,0,0
40304,-130.24592242035,4,1,0,100,0,0
40441,-80,4,1,0,100,0,0
40717,-66.6666666666667,4,1,0,100,0,0
40992,-80,4,1,0,100,0,1
41126,-81.350086228135,4,1,0,100,0,1
41264,-82.756892230576,4,1,0,100,0,1
41401,-84.202473543287,4,1,0,100,0,1
41539,-85.710577547047,4,1,0,100,0,1
41677,-87.273688383772,4,1,0,100,0,1
41814,-88.882907133244,4,1,0,100,0,1
41952,-90.565002742732,4,1,0,100,0,1
42089,-92.299091544375,4,1,0,100,0,1
42227,-94.114293857774,4,1,0,100,0,1
42365,-96.002325919465,4,1,0,100,0,1
42502,-97.953129635123,4,1,0,100,0,1
42640,-80,4,1,0,100,0,1
42915,-66.6666666666667,4,1,0,100,0,1
43173,-80,4,1,0,100,0,1
43310,-81.350086228135,4,1,0,100,0,1
43448,-82.756892230576,4,1,0,100,0,1
43585,-84.202473543287,4,1,0,100,0,1
43723,-85.710577547047,4,1,0,100,0,1
43861,-87.273688383772,4,1,0,100,0,1
43998,-88.882907133244,4,1,0,100,0,1
44136,-90.565002742732,4,1,0,100,0,1
44273,-92.299091544375,4,1,0,100,0,1
44411,-94.114293857774,4,1,0,100,0,1
44549,-96.002325919465,4,1,0,100,0,1
44686,-97.953129635123,4,1,0,100,0,1
44824,-80,4,1,0,100,0,1
45099,-66.6666666666667,4,1,0,100,0,1
45393,-80,4,1,0,100,0,1
45667,-82.342255703371,4,1,0,100,0,1
45736,-82.953872651919,4,1,0,100,0,1
45805,-83.574643457513,4,1,0,100,0,1
46080,-86.143871220167,4,1,0,100,0,1
46149,-86.813496310483,4,1,0,100,0,1
46218,-87.493613397672,4,1,0,100,0,1
46493,-90.313507178435,4,1,0,100,0,1
46562,-91.049802091333,4,1,0,100,0,1
46631,-91.798201203169,4,1,0,100,0,1
46906,-94.907321879426,4,1,0,100,0,1
46975,-95.720762685547,4,1,0,100,0,1
47044,-80,4,1,0,100,0,1
47319,-66.6666666666667,4,1,0,100,0,1
47597,-103.693736123259,4,1,0,100,0,0
47800,-106.650058819459,4,1,0,100,0,0
47869,-107.678334381332,4,1,0,100,0,0
47938,-108.726631393298,4,1,0,100,0,0
48007,-109.795540357626,4,1,0,100,0,0
48144,-111.9813994042,4,1,0,100,0,0
48214,-113.132202892168,4,1,0,100,0,0
48351,-115.45434114915,4,1,0,100,0,0
48420,-116.660358791916,4,1,0,100,0,0
48488,-117.873804971319,4,1,0,100,0,0
48557,-119.131174151658,4,1,0,100,0,0
48695,-121.728141537003,4,1,0,100,0,0
48833,-124.440855874041,4,1,0,100,0,0
48901,-125.822516123765,4,1,0,100,0,0
48970,-127.256213359756,4,1,0,100,0,0
49039,-128.722959993318,4,1,0,100,0,0
49108,-130.223912125053,4,1,0,100,0,0
49245,-80,4,1,0,100,0,0
49521,-66.6666666666667,4,1,0,100,0,0
49799,-80,4,1,0,100,0,1
49868,-80.673910389452,4,1,0,100,0,1
49937,-81.359271115489,4,1,0,100,0,1
50074,-82.75516593613,4,1,0,100,0,1
50212,-84.210526315789,4,1,0,100,0,1
50281,-84.957572640782,4,1,0,100,0,1
50350,-85.717991957452,4,1,0,100,0,1
50487,-87.268885367142,4,1,0,100,0,1
50625,-88.888888888889,4,1,0,100,0,1
50694,-89.721656483367,4,1,0,100,0,1
50762,-90.557763464437,4,1,0,100,0,1
50831,-91.42224681793,4,1,0,100,0,1
50900,-92.303394328817,4,1,0,100,0,1
51038,-94.117647058824,4,1,0,100,0,1
51107,-95.051783659379,4,1,0,100,0,1
51175,-95.990703079605,4,1,0,100,0,1
51313,-97.954343314557,4,1,0,100,0,1
51451,-80,4,1,0,100,0,1
51726,-66.6666666666667,4,1,0,100,0,1
51984,-80,4,1,0,100,0,1
52053,-80.673910389452,4,1,0,100,0,1
52122,-81.359271115489,4,1,0,100,0,1
52259,-82.75516593613,4,1,0,100,0,1
52397,-84.210526315789,4,1,0,100,0,1
52466,-84.957572640782,4,1,0,100,0,1
52535,-85.717991957452,4,1,0,100,0,1
52672,-87.268885367142,4,1,0,100,0,1
52810,-88.888888888889,4,1,0,100,0,1
52879,-89.721656483367,4,1,0,100,0,1
52947,-90.557763464437,4,1,0,100,0,1
53016,-91.42224681793,4,1,0,100,0,1
53085,-92.303394328817,4,1,0,100,0,1
53223,-94.117647058824,4,1,0,100,0,1
53292,-95.051783659379,4,1,0,100,0,1
53360,-95.990703079605,4,1,0,100,0,1
53498,-97.954343314557,4,1,0,100,0,1
53636,-80,4,1,0,100,0,1
53911,-66.6666666666667,4,1,0,100,0,1
54203,-80,4,1,0,100,0,1
54478,-82.351055303233,4,1,0,100,0,1
54547,-82.962803466652,4,1,0,100,0,1
54616,-83.583708444059,4,1,0,100,0,1
54891,-86.153502152161,4,1,0,100,0,1
54960,-86.823277561827,4,1,0,100,0,1
55029,-87.503548515301,4,1,0,100,0,1
55304,-90.32409306687,4,1,0,100,0,1
55373,-91.060561299852,4,1,0,100,0,1
55441,-91.798201203169,4,1,0,100,0,1
55717,-94.919012132783,4,1,0,100,0,1
55785,-95.720762685547,4,1,0,100,0,1
55854,-80,4,1,0,100,0,1
56129,-66.6666666666667,4,1,0,100,0,1
56405,-103.707691272458,4,1,0,100,0,0
56473,-103.707691272458,4,1,0,40,0,0
56542,-50,4,1,0,40,0,0
57506,-121.747373410222,4,1,0,40,0,0
57987,-121.747373410222,4,1,0,100,0,0
58056,-80,4,1,0,100,0,0
58331,-66.6666666666667,4,1,0,100,0,0
58607,-80,4,1,0,100,0,1
58673,-80.673910389452,4,1,0,100,0,1
58742,-81.359271115489,4,1,0,100,0,1
58879,-82.75516593613,4,1,0,100,0,1
59017,-84.210526315789,4,1,0,100,0,1
59086,-84.957572640782,4,1,0,100,0,1
59155,-85.717991957452,4,1,0,100,0,1
59292,-87.268885367142,4,1,0,100,0,1
59430,-88.888888888889,4,1,0,100,0,1
59499,-89.721656483367,4,1,0,100,0,1
59567,-90.557763464437,4,1,0,100,0,1
59636,-91.42224681793,4,1,0,100,0,1
59705,-92.303394328817,4,1,0,100,0,1
59843,-94.117647058824,4,1,0,100,0,1
59912,-95.051783659379,4,1,0,100,0,1
59980,-95.990703079605,4,1,0,100,0,1
60118,-97.954343314557,4,1,0,100,0,1
60256,-80,4,1,0,100,0,1
60531,-66.6666666666667,4,1,0,100,0,1
60791,-80,4,1,0,100,0,1
60857,-80.673910389452,4,1,0,100,0,1
60926,-81.359271115489,4,1,0,100,0,1
61063,-82.75516593613,4,1,0,100,0,1
61201,-84.210526315789,4,1,0,100,0,1
61270,-84.957572640782,4,1,0,100,0,1
61339,-85.717991957452,4,1,0,100,0,1
61476,-87.268885367142,4,1,0,100,0,1
61614,-88.888888888889,4,1,0,100,0,1
61683,-89.721656483367,4,1,0,100,0,1
61751,-90.557763464437,4,1,0,100,0,1
61820,-91.42224681793,4,1,0,100,0,1
61889,-92.303394328817,4,1,0,100,0,1
62027,-94.117647058824,4,1,0,100,0,1
62096,-95.051783659379,4,1,0,100,0,1
62164,-95.990703079605,4,1,0,100,0,1
62302,-97.954343314557,4,1,0,100,0,1
62441,-80,4,1,0,100,0,1
62716,-66.6666666666667,4,1,0,100,0,1
63008,-80,4,1,0,100,0,1
63283,-82.351055303233,4,1,0,100,0,1
63352,-82.962803466652,4,1,0,100,0,1
63421,-83.583708444059,4,1,0,100,0,1
63696,-86.153502152161,4,1,0,100,0,1
63765,-86.823277561827,4,1,0,100,0,1
63834,-87.503548515301,4,1,0,100,0,1
64109,-90.32409306687,4,1,0,100,0,1
64178,-91.060561299852,4,1,0,100,0,1
64246,-91.798201203169,4,1,0,100,0,1
64522,-94.919012132783,4,1,0,100,0,1
64590,-95.720762685547,4,1,0,100,0,1
64659,-80,4,1,0,100,0,1
64934,-66.6666666666667,4,1,0,100,0,1
65212,275.229357798165,7,1,0,100,1,0
65212,-103.707691272458,4,1,0,100,0,0
65280,-50,4,1,0,40,0,0
65349,-50,4,1,0,40,0,0
66794,-121.747373410222,4,1,0,100,0,0
66863,-71.4285714285714,4,1,0,100,0,0
67138,275.229357798165,4,1,0,100,1,0
67138,-80,4,1,0,100,0,0
67275,-66.666666666667,4,1,0,25,0,0
68238,-80,4,1,0,25,0,0
69339,-100,4,1,0,25,0,0
69890,-114.285714285714,4,1,0,25,0,0
69982,-113.128050794583,4,1,0,26,0,0
70073,-112.005813953488,4,1,0,27,0,0
70165,-110.893653763131,4,1,0,29,0,0
70257,-109.803362781419,4,1,0,30,0,0
70349,-108.734302243545,4,1,0,31,0,0
70440,-107.69714545264,4,1,0,32,0,0
70532,-106.668512302315,4,1,0,33,0,0
70624,-105.659342542762,4,1,0,35,0,0
70715,-104.679752767778,4,1,0,36,0,0
70807,-103.707691272458,4,1,0,37,0,0
70899,-102.753516901127,4,1,0,38,0,0
70991,-101.816740437339,4,1,0,39,0,0
71082,-100.906799358366,4,1,0,40,0,0
71174,-100.003244330532,4,1,0,42,0,0
71266,-99.1157271938,4,1,0,43,0,0
71358,-98.243824701195,4,1,0,44,0,0
71449,-97.396359959555,4,1,0,45,0,0
71541,-96.554316501692,4,1,0,46,0,0
71610,-95.932277240049,4,1,0,47,0,0
71679,-95.318201496691,4,1,0,48,0,0
71748,-94.71193731756,4,1,0,49,0,0
71816,-94.121957922379,4,1,0,50,0,0
71885,-93.530768297123,4,1,0,51,0,0
71954,-92.946958960287,4,1,0,52,0,0
72023,-92.370392568175,4,1,0,53,0,0
72092,-91.800935163952,4,1,0,54,0,0
72160,-91.246558716438,4,1,0,54,0,0
72229,-90.690832058374,4,1,0,55,0,0
72298,-90.141833601404,4,1,0,56,0,0
72367,-89.599441892913,4,1,0,57,0,0
72436,-89.063538385969,4,1,0,58,0,0
72504,-88.541636744894,4,1,0,59,0,0
72573,-88.018275271274,4,1,0,60,0,0
72642,-87.501064524371,4,1,0,61,0,0
72711,-86.989896709375,4,1,0,62,0,0
72780,-86.484666535731,4,1,0,63,0,0
72849,-85.985271144834,4,1,0,63,0,0
72917,-85.498724065239,4,1,0,64,0,0
72986,-85.010618053449,4,1,0,65,0,0
73055,-84.528053529315,4,1,0,66,0,0
73124,-84.050936656396,4,1,0,67,0,0
73193,-83.579175704989,4,1,0,68,0,0
73261,-83.119404594974,4,1,0,69,0,0
73330,-82.658013998016,4,1,0,70,0,0
73399,-82.201717424929,4,1,0,71,0,0
73468,-81.750430977324,4,1,0,71,0,0
73537,-81.304072589154,4,1,0,72,0,0
73605,-80.868926435093,4,1,0,73,0,0
73674,-80.432116483574,4,1,0,74,0,0
73743,-80,4,1,0,74,0,0
73812,-80,4,1,0,40,0,0
73881,-81.428888395829,4,1,0,40,0,0
74018,-82.898823529412,4,1,0,40,0,0
74087,-83.659435431785,4,1,0,40,0,0
74156,-84.434134089994,4,1,0,40,0,0
74293,-86.015625,4,1,0,40,0,0
74431,-87.669705776964,4,1,0,40,0,0
74569,-89.388649833563,4,1,0,40,0,0
74844,-93.023255813953,4,1,0,40,0,0
74913,-93.982074263764,4,1,0,40,0,0
74982,-94.960864221489,4,1,0,40,0,0
75119,-96.965960632348,4,1,0,40,0,0
75188,-96.965960632348,4,1,0,70,0,0
75257,-99.073157563214,4,1,0,70,0,0
75326,-100.161477404535,4,1,0,70,0,0
75394,-101.257673648633,4,1,0,70,0,0
75532,-103.55773978884,4,1,0,70,0,0
75670,-105.964726546522,4,1,0,70,0,0
75945,-100,4,1,0,70,0,0
76220,-101.189446366782,4,1,0,70,0,0
76358,-101.797058567575,4,1,0,70,0,0
76495,-102.407528999781,4,1,0,70,0,0
76633,-103.029902673184,4,1,0,70,0,0
76771,-103.659887456245,4,1,0,70,0,0
77046,-104.938548488383,4,1,0,70,0,0
77321,-106.249148462691,4,1,0,70,0,0
77459,-106.919245007084,4,1,0,70,0,0
77596,-107.592899190581,4,1,0,70,0,0
77734,-108.28010737758,4,1,0,70,0,0
77871,-108.97107457264,4,1,0,70,0,0
78147,-110.390223186901,4,1,0,70,0,0
78422,-111.841476240558,4,1,0,70,0,0
78560,-112.584215591915,4,1,0,70,0,0
78697,-113.33139563048,4,1,0,70,0,0
78835,-114.09412338454,4,1,0,70,0,0
78972,-114.86154752553,4,1,0,70,0,0
79248,-116.439378857257,4,1,0,70,0,0
79523,-118.055205126911,4,1,0,70,0,0
79660,-118.877032520325,4,1,0,70,0,0
79798,-119.716508033978,4,1,0,70,0,0
79936,-120.567924139353,4,1,0,70,0,0
80004,-120.99193214729,4,1,0,70,0,0
80073,-121.425234857528,4,1,0,70,0,0
80211,-122.301218045899,4,1,0,70,0,0
80349,-123.189932073087,4,1,0,70,0,0
80624,-125,4,1,0,70,0,0
84202,-100,4,1,0,70,0,0
84338,-105.263157894737,4,1,0,70,0,0
84476,-111.111111111111,4,1,0,70,0,0
84614,-117.647058823529,4,1,0,70,0,0
84735,-100,4,1,0,70,0,0
85010,-101.189446366782,4,1,0,70,0,0
85148,-101.797058567575,4,1,0,70,0,0
85285,-102.407528999781,4,1,0,70,0,0
85423,-103.029902673184,4,1,0,70,0,0
85561,-103.659887456245,4,1,0,70,0,0
85836,-104.938548488383,4,1,0,70,0,0
86111,-106.249148462691,4,1,0,70,0,0
86249,-106.919245007084,4,1,0,70,0,0
86386,-107.592899190581,4,1,0,70,0,0
86524,-108.28010737758,4,1,0,70,0,0
86661,-108.97107457264,4,1,0,70,0,0
86937,-110.390223186901,4,1,0,70,0,0
87212,-111.841476240558,4,1,0,70,0,0
87350,-112.584215591915,4,1,0,70,0,0
87487,-113.33139563048,4,1,0,70,0,0
87625,-114.09412338454,4,1,0,70,0,0
87762,-114.86154752553,4,1,0,70,0,0
88038,-116.439378857257,4,1,0,70,0,0
88313,-118.055205126911,4,1,0,70,0,0
88450,-118.877032520325,4,1,0,70,0,0
88588,-119.716508033978,4,1,0,70,0,0
88726,-120.567924139353,4,1,0,70,0,0
88794,-120.99193214729,4,1,0,70,0,0
88863,-121.425234857528,4,1,0,70,0,0
89001,-122.301218045899,4,1,0,70,0,0
89139,-123.189932073087,4,1,0,70,0,0
89567,-122.635042500685,4,1,0,71,0,0
89704,-120.37410846454,4,1,0,72,0,0
89842,-118.179416039107,4,1,0,73,0,0
89980,-116.063319060594,4,1,0,75,0,0
90255,-112.064645452268,4,1,0,77,0,0
90530,-108.332324088652,4,1,0,79,0,0
90668,-106.551518761167,4,1,0,80,0,0
90805,-104.840600093765,4,1,0,82,0,0
90943,-103.171856978085,4,1,0,83,0,0
91080,-101.566935392302,4,1,0,84,0,0
91356,-98.480678190025,4,1,0,86,0,0
91493,-97.017353579176,4,1,0,87,0,0
91631,-95.586663817055,4,1,0,88,0,0
91769,-94.197556866049,4,1,0,90,0,0
91837,-93.527812630698,4,1,0,90,0,0
91906,-92.85788435586,4,1,0,91,0,0
92044,-91.546412854365,4,1,0,92,0,0
92181,-90.280581348405,4,1,0,93,0,0
92319,-89.040414095162,4,1,0,94,0,0
92457,-87.833857030636,4,1,0,95,0,0
92525,-87.251268045259,4,1,0,96,0,0
92594,-86.66795853115,4,1,0,97,0,0
92663,-86.09239653513,4,1,0,97,0,0
92732,-85.524428721675,4,1,0,98,0,0
92801,-84.963905775076,4,1,0,98,0,0
92869,-84.418648546621,4,1,0,99,0,0
93007,-71.4285714285714,4,1,0,99,0,0
93560,-76.923076923077,4,1,0,100,0,1
93832,-90.909090909091,4,1,0,100,0,1
93969,-86.95652173913,4,1,0,100,0,1
94038,-85.106382978723,4,1,0,100,0,1
94107,-66.666666666667,4,1,0,100,0,1
94520,-86.95652173913,4,1,0,100,0,1
94589,-88.888888888889,4,1,0,100,0,1
94657,-76.923076923077,4,1,0,100,0,1
94795,-80,4,1,0,100,0,1
94933,-90.909090909091,4,1,0,100,0,1
95070,-86.95652173913,4,1,0,100,0,1
95139,-85.106382978723,4,1,0,100,0,1
95208,-66.666666666667,4,1,0,100,0,1
95621,-86.95652173913,4,1,0,100,0,1
95690,-88.888888888889,4,1,0,100,0,1
95758,-76.923076923077,4,1,0,100,0,1
95999,-90.909090909091,4,1,0,100,0,1
96136,-86.95652173913,4,1,0,100,0,1
96205,-85.106382978723,4,1,0,100,0,1
96309,-66.666666666667,4,1,0,100,0,1
96687,-86.95652173913,4,1,0,100,0,1
96756,-88.888888888889,4,1,0,100,0,1
96859,-76.923076923077,4,1,0,100,0,1
97066,-83.333333333333,4,1,0,100,0,1
97272,-90.909090909091,4,1,0,100,0,1
97410,-66.666666666667,4,1,0,100,0,1
97547,-90.909090909091,4,1,0,100,0,1
97616,-90.832076201829,4,1,0,100,0,1
97685,-90.296605371366,4,1,0,100,0,1
97754,-88.874507956822,4,1,0,100,0,1
97823,-86.229884470225,4,1,0,100,0,1
97891,-82.265751765276,4,1,0,100,0,1
97960,-76.923076923077,4,1,0,100,0,1
98201,-90.909090909091,4,1,0,100,0,1
98339,-86.95652173913,4,1,0,100,0,1
98407,-85.106382978723,4,1,0,100,0,1
98511,-66.666666666667,4,1,0,100,0,1
98889,-86.95652173913,4,1,0,100,0,1
98958,-88.888888888889,4,1,0,100,0,1
99027,-76.923076923077,4,1,0,100,0,1
99164,-80,4,1,0,100,0,1
99302,-90.909090909091,4,1,0,100,0,1
99440,-86.95652173913,4,1,0,100,0,1
99508,-85.106382978723,4,1,0,100,0,1
99612,-66.666666666667,4,1,0,100,0,1
99990,-86.95652173913,4,1,0,100,0,1
100059,-88.888888888889,4,1,0,100,0,1
100128,-76.923076923077,4,1,0,100,0,1
100403,-90.909090909091,4,1,0,100,0,1
100540,-86.95652173913,4,1,0,100,0,1
100609,-85.106382978723,4,1,0,100,0,1
100712,-66.666666666667,4,1,0,100,0,1
101091,-86.95652173913,4,1,0,100,0,1
101160,-88.888888888889,4,1,0,100,0,1
101229,-76.923076923077,4,1,0,100,0,1
101435,-83.333333333333,4,1,0,100,0,1
101641,-90.909090909091,4,1,0,100,0,1
101813,-66.666666666667,4,1,0,100,0,1
101917,-90.909090909091,4,1,0,100,0,1
101986,-90.832076201829,4,1,0,100,0,1
102055,-90.296605371366,4,1,0,100,0,1
102124,-88.874507956822,4,1,0,100,0,1
102193,-86.229884470225,4,1,0,100,0,1
102261,-82.265751765276,4,1,0,100,0,1
102367,-25,4,1,0,100,0,0
102605,-90.909090909091,4,1,0,100,0,0
102777,-96.385542168675,4,1,0,100,0,0
102917,-66.666666666667,4,1,0,100,0,1
103018,-80,4,1,0,100,0,1
103293,-86.95652173913,4,1,0,100,0,1
103362,-88.888888888889,4,1,0,100,0,1
103430,-76.923076923077,4,1,0,100,0,1
103534,-80,4,1,0,100,0,1
103671,-90.909090909091,4,1,0,100,0,1
103809,-86.95652173913,4,1,0,100,0,1
103912,-85.106382978723,4,1,0,100,0,1
104015,-66.666666666667,4,1,0,100,0,1
104428,-86.95652173913,4,1,0,100,0,1
104497,-88.888888888889,4,1,0,100,0,1
104566,-76.923076923077,4,1,0,100,0,1
104841,-90.909090909091,4,1,0,100,0,1
104979,-86.95652173913,4,1,0,100,0,1
105047,-85.106382978723,4,1,0,100,0,1
105116,-66.666666666667,4,1,0,100,0,1
105529,-86.95652173913,4,1,0,100,0,1
105598,-88.888888888889,4,1,0,100,0,1
105670,-76.923076923077,4,1,0,100,0,1
105873,-83.333333333333,4,1,0,100,0,1
106079,-90.909090909091,4,1,0,100,0,1
106217,-66.666666666667,4,1,0,100,0,1
106355,-90.909090909091,4,1,0,100,0,1
106424,-90.832076201829,4,1,0,100,0,1
106493,-90.296605371366,4,1,0,100,0,1
106562,-88.874507956822,4,1,0,100,0,1
106631,-86.229884470225,4,1,0,100,0,1
106699,-82.265751765276,4,1,0,100,0,1
106768,-76.923076923077,4,1,0,100,0,1
106974,-90.909090909091,4,1,0,100,0,1
107112,-86.95652173913,4,1,0,100,0,1
107249,-85.106382978723,4,1,0,100,0,1
107318,-66.666666666667,4,1,0,100,0,1
107731,-86.95652173913,4,1,0,100,0,1
107800,-88.888888888889,4,1,0,100,0,1
107868,-76.923076923077,4,1,0,100,0,1
108006,-80,4,1,0,100,0,1
108144,-90.909090909091,4,1,0,100,0,1
108281,-86.95652173913,4,1,0,100,0,1
108350,-85.106382978723,4,1,0,100,0,1
108419,-66.666666666667,4,1,0,100,0,1
108832,-86.95652173913,4,1,0,100,0,1
108901,-88.888888888889,4,1,0,100,0,1
108969,-76.923076923077,4,1,0,100,0,1
109245,-90.909090909091,4,1,0,100,0,1
109382,-86.95652173913,4,1,0,100,0,1
109451,-85.106382978723,4,1,0,100,0,1
109520,-66.666666666667,4,1,0,100,0,1
109936,-86.95652173913,4,1,0,100,0,1
110004,-88.865926117282,4,1,0,100,0,1
110073,-90.8910760288,4,1,0,100,0,0
110142,-93.010680005408,4,1,0,100,0,0
110211,-95.231503910305,4,1,0,100,0,0
110280,-97.560975609756,4,1,0,100,0,0
110349,-100.007267970056,4,1,0,100,0,0
110417,-102.541172963708,4,1,0,100,0,0
110486,-105.247055224109,4,1,0,100,0,0
110555,-108.099615052243,4,1,0,100,0,0
110624,-111.111111111111,4,1,0,100,0,0
110899,-83.333333333333,4,1,0,100,0,0
110933,-86.95652173913,4,1,0,100,0,0
111037,-76.923076923077,4,1,0,100,0,0
111071,-80,4,1,0,100,0,0
111174,-66.666666666667,4,1,0,100,0,0
111449,-57.142857142857,4,1,0,100,0,0
111725,-100,4,1,0,100,0,0
111793,-101.010101010101,4,1,0,100,0,0
111862,-102.040816326531,4,1,0,100,0,0
111931,-103.092783505155,4,1,0,100,0,0
112000,-104.166666666667,4,1,0,100,0,0
112069,-105.263157894737,4,1,0,100,0,0
112137,-90.909090909091,4,1,0,100,0,0
112206,-92.592592592593,4,1,0,100,0,0
112275,-94.339622641509,4,1,0,100,0,0
112344,-96.153846153846,4,1,0,100,0,0
112413,-98.039215686275,4,1,0,100,0,0
112482,-100,4,1,0,100,0,0
112550,-83.333333333333,4,1,0,100,0,0
112619,-85.470085470085,4,1,0,100,0,0
112688,-87.719298245614,4,1,0,100,0,0
112757,-90.09009009009,4,1,0,100,0,0
112826,-92.592592592593,4,1,0,100,0,0
112894,-95.238095238095,4,1,0,100,0,0
112963,-76.923076923077,4,1,0,100,0,0
113032,-79.365079365079,4,1,0,100,0,0
113101,-81.967213114754,4,1,0,100,0,0
113170,-84.745762711864,4,1,0,100,0,0
113238,-87.719298245614,4,1,0,100,0,0
113307,-90.909090909091,4,1,0,100,0,0
113376,-66.666666666667,4,1,0,100,0,0
113651,-57.142857142857,4,1,0,100,0,0
113909,-100,4,1,0,100,0,0
113977,-101.010101010101,4,1,0,100,0,0
114046,-102.040816326531,4,1,0,100,0,0
114115,-103.092783505155,4,1,0,100,0,0
114184,-104.166666666667,4,1,0,100,0,0
114253,-105.263157894737,4,1,0,100,0,0
114321,-90.909090909091,4,1,0,100,0,0
114390,-92.592592592593,4,1,0,100,0,0
114459,-94.339622641509,4,1,0,100,0,0
114528,-96.153846153846,4,1,0,100,0,0
114597,-98.039215686275,4,1,0,100,0,0
114666,-100,4,1,0,100,0,0
114734,-83.333333333333,4,1,0,100,0,0
114803,-85.470085470085,4,1,0,100,0,0
114872,-87.719298245614,4,1,0,100,0,0
114941,-90.09009009009,4,1,0,100,0,0
115010,-92.592592592593,4,1,0,100,0,0
115078,-95.238095238095,4,1,0,100,0,0
115147,-76.923076923077,4,1,0,100,0,0
115216,-79.365079365079,4,1,0,100,0,0
115285,-81.967213114754,4,1,0,100,0,0
115354,-84.745762711864,4,1,0,100,0,0
115422,-87.719298245614,4,1,0,100,0,0
115491,-90.909090909091,4,1,0,100,0,0
115560,-66.666666666667,4,1,0,100,0,0
115835,-57.142857142857,4,1,0,100,0,0
116111,-100,4,1,0,100,0,0
116179,-101.010101010101,4,1,0,100,0,0
116248,-102.040816326531,4,1,0,100,0,0
116317,-103.092783505155,4,1,0,100,0,0
116386,-104.166666666667,4,1,0,100,0,0
116455,-105.263157894737,4,1,0,100,0,0
116523,-90.909090909091,4,1,0,100,0,0
116592,-92.592592592593,4,1,0,100,0,0
116661,-94.339622641509,4,1,0,100,0,0
116730,-96.153846153846,4,1,0,100,0,0
116799,-98.039215686275,4,1,0,100,0,0
116868,-100,4,1,0,100,0,0
116936,-83.333333333333,4,1,0,100,0,0
117005,-85.470085470085,4,1,0,100,0,0
117074,-87.719298245614,4,1,0,100,0,0
117143,-90.09009009009,4,1,0,100,0,0
117212,-92.592592592593,4,1,0,100,0,0
117280,-95.238095238095,4,1,0,100,0,0
117349,-76.923076923077,4,1,0,100,0,0
117418,-79.365079365079,4,1,0,100,0,0
117487,-81.967213114754,4,1,0,100,0,0
117556,-84.745762711864,4,1,0,100,0,0
117624,-87.719298245614,4,1,0,100,0,0
117693,-90.909090909091,4,1,0,100,0,0
117762,-66.666666666667,4,1,0,100,0,0
118037,-57.142857142857,4,1,0,100,0,0
118313,-100,4,1,0,100,0,0
118381,-101.010101010101,4,1,0,100,0,0
118450,-102.040816326531,4,1,0,100,0,0
118519,-103.092783505155,4,1,0,100,0,0
118588,-104.166666666667,4,1,0,100,0,0
118657,-105.263157894737,4,1,0,100,0,0
118725,-90.909090909091,4,1,0,100,0,0
118794,-92.592592592593,4,1,0,100,0,0
118863,-94.339622641509,4,1,0,100,0,0
118932,-96.153846153846,4,1,0,100,0,0
119001,-98.039215686275,4,1,0,100,0,0
119070,-100,4,1,0,100,0,0
119156,-83.333333333333,4,1,0,100,0,0
119706,-90.9090909090909,4,1,0,100,0,0
119724,-95.2380952380953,4,1,0,100,0,0
119844,-80,4,1,0,100,0,0
119878,-83.3333333333333,4,1,0,100,0,0
119982,-71.4285714285714,4,1,0,100,0,0
120119,-74.7551767959931,4,1,0,100,0,0
120188,-76.5462339252909,4,1,0,100,0,0
120257,-78.4313725490196,4,1,0,100,0,0
120394,-82.4606250515379,4,1,0,100,0,0
120515,-71.4285714285714,4,1,0,100,0,0
120652,-74.7551767959931,4,1,0,100,0,0
120721,-76.5462339252909,4,1,0,100,0,0
120790,-78.4313725490196,4,1,0,100,0,0
120927,-82.4606250515379,4,1,0,100,0,0
121065,-71.4285714285714,4,1,0,100,0,0
121202,-74.7551767959931,4,1,0,100,0,0
121271,-76.5462339252909,4,1,0,100,0,0
121340,-78.4313725490196,4,1,0,100,0,0
121477,-82.4606250515379,4,1,0,100,0,0
121616,-71.4285714285714,4,1,0,100,0,0
121753,-74.7551767959931,4,1,0,100,0,0
121822,-76.5462339252909,4,1,0,100,0,0
121891,-78.4313725490196,4,1,0,100,0,0
122028,-82.4606250515379,4,1,0,100,0,0
122166,-71.4285714285714,4,1,0,100,0,0
122303,-74.7551767959931,4,1,0,100,0,0
122372,-76.5462339252909,4,1,0,100,0,0
122441,-78.4313725490196,4,1,0,100,0,0
122578,-82.4606250515379,4,1,0,100,0,0
122717,-71.4285714285714,4,1,0,100,0,0
122854,-74.7551767959931,4,1,0,100,0,0
122923,-76.5462339252909,4,1,0,100,0,0
122992,-78.4313725490196,4,1,0,100,0,0
123129,-82.4606250515379,4,1,0,100,0,0
123267,-71.4285714285714,4,1,0,100,0,0
123404,-74.7551767959931,4,1,0,100,0,0
123473,-76.5462339252909,4,1,0,100,0,0
123542,-78.4313725490196,4,1,0,100,0,0
123679,-82.4606250515379,4,1,0,100,0,0
123818,-71.4285714285714,4,1,0,100,0,0
123955,-74.7551767959931,4,1,0,100,0,0
124024,-76.5462339252909,4,1,0,100,0,0
124093,-78.4313725490196,4,1,0,100,0,0
124230,-82.4606250515379,4,1,0,100,0,0
124368,-71.428571428571,4,1,0,100,0,0
124506,-72.291529875246,4,1,0,100,0,0
124643,-73.169110805901,4,1,0,100,0,0
124781,-74.07490468715,4,1,0,100,0,0
124918,-75.003406149235,4,1,0,100,0,0
125056,-75.948493906645,4,1,0,100,0,0
125194,-76.924868414924,4,1,0,100,0,0
125331,-77.92667390176,4,1,0,100,0,0
125469,-78.947368421053,4,1,0,100,0,0
125607,-80.00290655428,4,1,0,100,0,0
125744,-81.079090775198,4,1,0,100,0,0
125882,-82.192803463893,4,1,0,100,0,0
126019,-83.337538477065,4,1,0,100,0,0
126157,-84.505961213734,4,1,0,100,0,0
126295,-85.716510094981,4,1,0,100,0,0
126432,-86.953087979782,4,1,0,100,0,0
126570,-88.235294117647,4,1,0,100,0,0
126639,-88.890683029227,4,1,0,100,0,0
126707,-89.555880917521,4,1,0,100,0,0
126845,-90.906588869929,4,1,0,100,0,0
126983,-92.308982169806,4,1,0,100,0,0
127051,-93.026530727201,4,1,0,100,0,0
127120,-93.744678435602,4,1,0,100,0,0
127189,-94.484810343841,4,1,0,100,0,0
127258,-95.236722219019,4,1,0,100,0,0
127396,-96.777029006739,4,1,0,100,0,0
127464,-97.566018786554,4,1,0,100,0,0
127533,-98.356262283366,4,1,0,100,0,0
127602,-99.171320482796,4,1,0,100,0,0
127671,-100,4,1,0,100,0,0
127757,-40,4,1,0,25,0,0
128445,-57.142857142857,4,1,0,100,0,0
128720,-66.666666666667,4,1,0,100,0,0
128788,-66.666666666667,4,1,0,100,0,0
129063,-69.562470383826,4,1,0,100,0,0
129338,-72.721268163804,4,1,0,100,0,0
129614,-76.193771626298,4,1,0,100,0,0
129889,-80,4,1,0,100,0,0
130164,-84.206500956023,4,1,0,100,0,0
130439,-88.879919273461,4,1,0,100,0,0
130577,-91.42619887897,4,1,0,100,0,0
130714,-94.102564102564,4,1,0,100,0,0
130990,-66.666666666667,4,1,0,100,0,0
131127,-68.078528366053,4,1,0,100,0,0
131265,-69.562470383826,4,1,0,100,0,0
131540,-72.721268163804,4,1,0,100,0,0
131678,-74.417032781345,4,1,0,100,0,0
131953,-78.043593833068,4,1,0,100,0,0
132022,-79.009687836383,4,1,0,100,0,0
132091,-80,4,1,0,100,0,0
132366,-84.206500956023,4,1,0,100,0,0
132641,-88.879919273461,4,1,0,100,0,0
132779,-91.42619887897,4,1,0,100,0,0
132916,-94.102564102564,4,1,0,100,0,0
133192,-66.666666666667,4,1,0,100,0,0
133467,-69.56384323641,4,1,0,100,0,0
133742,-72.724268957542,4,1,0,100,0,0
134017,-76.185531325718,4,1,0,100,0,0
134292,-79.992731237507,4,1,0,100,0,0
134568,-84.21656782093,4,1,0,100,0,0
134843,-88.89337641357,4,1,0,100,0,0
134981,-91.441628583299,4,1,0,100,0,0
135118,-94.120162497327,4,1,0,100,0,0
135393,-66.666666666667,4,1,0,100,0,0
135531,-68.08905380334,4,1,0,100,0,0
135669,-69.57345971564,4,1,0,100,0,0
135944,-72.733278282411,4,1,0,100,0,0
136081,-74.417032781345,4,1,0,100,0,0
136357,-78.057426444523,4,1,0,100,0,0
136425,-79.009687836383,4,1,0,100,0,0
136494,-80,4,1,0,100,0,0
136678,-82.766397293742,4,1,0,100,0,0
136861,-85.714285714286,4,1,0,100,0,0
137045,-88.897860314897,4,1,0,100,0,0
137320,-94.122675785424,4,1,0,100,0,0
137595,-100,4,1,0,100,0,0
137870,-69.562470383826,4,1,0,100,0,0
138146,-72.733278282411,4,1,0,100,0,0
138421,-76.193771626298,4,1,0,100,0,0
138696,-80,4,1,0,100,0,0
138971,-84.206500956023,4,1,0,100,0,0
139247,-88.897860314897,4,1,0,100,0,0
139384,-91.42619887897,4,1,0,100,0,0
139522,-94.122675785424,4,1,0,100,0,0
139797,-66.666666666667,4,1,0,100,0,0
139934,-68.078528366053,4,1,0,100,0,0
140072,-69.562470383826,4,1,0,100,0,0
140347,-72.721268163804,4,1,0,100,0,0
140485,-74.417032781345,4,1,0,100,0,0
140760,-78.043593833068,4,1,0,100,0,0
140829,-79.009687836383,4,1,0,100,0,0
140898,-80,4,1,0,100,0,0
141173,-84.206500956023,4,1,0,100,0,0
141448,-88.879919273461,4,1,0,100,0,0
141586,-91.42619887897,4,1,0,100,0,0
141723,-94.102564102564,4,1,0,100,0,0
141999,-66.666666666667,4,1,0,100,0,0
142274,-69.562470383826,4,1,0,100,0,0
142549,-72.721268163804,4,1,0,100,0,0
142824,-76.18059159315,4,1,0,100,0,0
143099,-79.985470395932,4,1,0,100,0,0
143375,-84.206500956023,4,1,0,100,0,0
143650,-88.879919273461,4,1,0,100,0,0
143788,-91.42619887897,4,1,0,100,0,0
143925,-94.102564102564,4,1,0,100,0,0
144201,-66.666666666667,4,1,0,100,0,0
144338,-68.078528366053,4,1,0,100,0,0
144476,-69.562470383826,4,1,0,100,0,0
144751,-72.721268163804,4,1,0,100,0,0
144888,-74.404460212874,4,1,0,100,0,0
145164,-78.043593833068,4,1,0,100,0,0
145232,-78.995515695067,4,1,0,100,0,0
145302,-80,4,1,0,100,0,0
145439,-66.666666666667,4,1,0,100,0,0
146404,-76.923076923077,4,1,0,100,0,1
146674,-90.909090909091,4,1,0,100,0,1
146811,-86.95652173913,4,1,0,100,0,1
146880,-85.106382978723,4,1,0,100,0,1
146949,-66.666666666667,4,1,0,100,0,1
147362,-86.95652173913,4,1,0,100,0,1
147431,-88.888888888889,4,1,0,100,0,1
147499,-76.923076923077,4,1,0,100,0,1
147637,-80,4,1,0,100,0,1
147775,-90.909090909091,4,1,0,100,0,1
147912,-86.95652173913,4,1,0,100,0,1
147981,-85.106382978723,4,1,0,100,0,1
148050,-66.666666666667,4,1,0,100,0,1
148463,-86.95652173913,4,1,0,100,0,1
148532,-88.888888888889,4,1,0,100,0,1
148600,-76.923076923077,4,1,0,100,0,1
148841,-90.909090909091,4,1,0,100,0,1
148978,-86.95652173913,4,1,0,100,0,1
149047,-85.106382978723,4,1,0,100,0,1
149151,-66.666666666667,4,1,0,100,0,1
149529,-86.95652173913,4,1,0,100,0,1
149598,-88.888888888889,4,1,0,100,0,1
149701,-76.923076923077,4,1,0,100,0,1
149908,-83.333333333333,4,1,0,100,0,1
150114,-90.909090909091,4,1,0,100,0,1
150252,-66.666666666667,4,1,0,100,0,1
150389,-90.909090909091,4,1,0,100,0,1
150458,-90.832076201829,4,1,0,100,0,1
150527,-90.296605371366,4,1,0,100,0,1
150596,-88.874507956822,4,1,0,100,0,1
150665,-86.229884470225,4,1,0,100,0,1
150733,-82.265751765276,4,1,0,100,0,1
150802,-76.923076923077,4,1,0,100,0,1
151043,-90.909090909091,4,1,0,100,0,1
151181,-86.95652173913,4,1,0,100,0,1
151249,-85.106382978723,4,1,0,100,0,1
151353,-66.666666666667,4,1,0,100,0,1
151731,-86.95652173913,4,1,0,100,0,1
151800,-88.888888888889,4,1,0,100,0,1
151869,-76.923076923077,4,1,0,100,0,1
152006,-80,4,1,0,100,0,1
152144,-90.909090909091,4,1,0,100,0,1
152282,-86.95652173913,4,1,0,100,0,1
152350,-85.106382978723,4,1,0,100,0,1
152454,-66.666666666667,4,1,0,100,0,1
152832,-86.95652173913,4,1,0,100,0,1
152901,-88.888888888889,4,1,0,100,0,1
152970,-76.923076923077,4,1,0,100,0,1
153245,-90.909090909091,4,1,0,100,0,1
153382,-86.95652173913,4,1,0,100,0,1
153451,-85.106382978723,4,1,0,100,0,1
153554,-66.666666666667,4,1,0,100,0,1
153933,-86.95652173913,4,1,0,100,0,1
154002,-88.888888888889,4,1,0,100,0,1
154071,-76.923076923077,4,1,0,100,0,1
154277,-83.333333333333,4,1,0,100,0,1
154483,-90.909090909091,4,1,0,100,0,1
154655,-66.666666666667,4,1,0,100,0,1
154759,-90.909090909091,4,1,0,100,0,1
154828,-90.832076201829,4,1,0,100,0,1
154897,-90.296605371366,4,1,0,100,0,1
154966,-88.874507956822,4,1,0,100,0,1
155035,-86.229884470225,4,1,0,100,0,1
155103,-82.265751765276,4,1,0,100,0,1
155211,-25,4,1,0,100,0,0
155448,-90.909090909091,4,1,0,100,0,0
155620,-96.385542168675,4,1,0,100,0,0
155761,-66.666666666667,4,1,0,100,0,1
155861,-80,4,1,0,100,0,1
156136,-86.95652173913,4,1,0,100,0,1
156205,-88.888888888889,4,1,0,100,0,1
156273,-76.923076923077,4,1,0,100,0,1
156377,-80,4,1,0,100,0,1
156514,-90.909090909091,4,1,0,100,0,1
156652,-86.95652173913,4,1,0,100,0,1
156755,-85.106382978723,4,1,0,100,0,1
156858,-66.666666666667,4,1,0,100,0,1
157271,-86.95652173913,4,1,0,100,0,1
157340,-88.888888888889,4,1,0,100,0,1
157409,-76.923076923077,4,1,0,100,0,1
157684,-90.909090909091,4,1,0,100,0,1
157822,-86.95652173913,4,1,0,100,0,1
157890,-85.106382978723,4,1,0,100,0,1
157959,-66.666666666667,4,1,0,100,0,1
158372,-86.95652173913,4,1,0,100,0,1
158441,-88.888888888889,4,1,0,100,0,1
158513,-76.923076923077,4,1,0,100,0,1
158716,-83.333333333333,4,1,0,100,0,1
158922,-90.909090909091,4,1,0,100,0,1
159060,-66.666666666667,4,1,0,100,0,1
159198,-90.909090909091,4,1,0,100,0,1
159267,-90.832076201829,4,1,0,100,0,1
159336,-90.296605371366,4,1,0,100,0,1
159405,-88.874507956822,4,1,0,100,0,1
159474,-86.229884470225,4,1,0,100,0,1
159542,-82.265751765276,4,1,0,100,0,1
159611,-76.923076923077,4,1,0,100,0,1
159817,-90.909090909091,4,1,0,100,0,1
159955,-86.95652173913,4,1,0,100,0,1
160092,-85.106382978723,4,1,0,100,0,1
160161,-66.666666666667,4,1,0,100,0,1
160574,-86.95652173913,4,1,0,100,0,1
160643,-88.888888888889,4,1,0,100,0,1
160711,-76.923076923077,4,1,0,100,0,1
160849,-80,4,1,0,100,0,1
160987,-90.909090909091,4,1,0,100,0,1
161124,-86.95652173913,4,1,0,100,0,1
161193,-85.106382978723,4,1,0,100,0,1
161262,-66.666666666667,4,1,0,100,0,1
161675,-86.95652173913,4,1,0,100,0,1
161744,-88.888888888889,4,1,0,100,0,1
161812,-76.923076923077,4,1,0,100,0,1
162088,-90.909090909091,4,1,0,100,0,1
162225,-86.95652173913,4,1,0,100,0,1
162294,-85.106382978723,4,1,0,100,0,1
162363,-66.666666666667,4,1,0,100,0,1
162779,-86.95652173913,4,1,0,100,0,1
162847,-88.865926117282,4,1,0,100,0,1
162917,-90.8910760288,4,1,0,100,0,0
162984,-93.010680005408,4,1,0,100,0,0
163053,-95.231503910305,4,1,0,100,0,0
163122,-97.560975609756,4,1,0,100,0,0
163191,-100.007267970056,4,1,0,100,0,0
163259,-102.541172963708,4,1,0,100,0,0
163328,-105.247055224109,4,1,0,100,0,0
163397,-108.099615052243,4,1,0,100,0,0
163466,-111.111111111111,4,1,0,100,0,0
163741,-83.333333333333,4,1,0,100,0,0
163775,-86.95652173913,4,1,0,100,0,0
163879,-76.923076923077,4,1,0,100,0,0
163913,-80,4,1,0,100,0,0
164016,-66.666666666667,4,1,0,100,0,0
164121,-40,4,1,0,60,0,0
165119,-71.428571428571,4,1,0,60,0,0
166220,-76.923076923077,4,1,0,60,0,0
167321,-83.333333333333,4,1,0,60,0,0
168353,-133.333333333333,4,1,0,100,0,0
168422,-66.666666666667,4,1,0,100,0,0
168697,-133.333333333333,4,1,0,70,0,0
176610,-100,4,1,0,70,0,0
176748,-105.263157894737,4,1,0,70,0,0
176885,-111.111111111111,4,1,0,70,0,0
177023,-117.647058823529,4,1,0,70,0,0
177228,-66.666666666667,4,1,0,70,0,0
177780,-133.333333333333,4,1,0,70,0,0
181633,-133.333333333333,4,1,0,70,0,0
181908,-133.297021450509,4,1,0,70,0,0
182183,-133.043391009202,4,1,0,70,0,0
182459,-132.35628744717,4,1,0,70,0,0
182734,-131.042443622695,4,1,0,70,0,0
183009,-128.933352167189,4,1,0,70,0,0
183284,-125.91108585604,4,1,0,70,0,0
183560,-121.907068792874,4,1,0,70,0,0
183835,-116.973804189961,4,1,0,70,0,0
184110,-111.197185077871,4,1,0,70,0,0
184385,-104.738794257145,4,1,0,70,0,0
184660,-97.801775820114,4,1,0,70,0,0
184936,-90.578776251792,4,1,0,70,0,0
185211,-83.333333333333,4,1,0,70,0,0
185968,-83.333333333333,4,1,0,100,0,0
186037,-66.666666666667,4,1,0,100,0,0
186295,-80,4,1,0,100,0,0
186432,-81.47450558321,4,1,0,100,0,0
186570,-83.01576422207,4,1,0,100,0,0
186707,-84.616459410367,4,1,0,100,0,0
186845,-86.267806267806,4,1,0,100,0,0
186983,-87.997675094449,4,1,0,100,0,0
187120,-89.785025945145,4,1,0,100,0,0
187258,-91.660360224005,4,1,0,100,0,0
187396,-93.615705673211,4,1,0,100,0,0
187533,-95.641187618446,4,1,0,100,0,0
187671,-97.772037455602,4,1,0,100,0,0
187808,-100,4,1,0,100,0,0
187963,-83.333333333333,4,1,0,100,0,0
187998,-86.95652173913,4,1,0,100,0,0
188101,-74.074074074074,4,1,0,100,0,0
188135,-76.923076923077,4,1,0,100,0,0
188238,-66.666666666667,4,1,0,100,0,0
188496,-80,4,1,0,100,0,0
188634,-81.47549811524,4,1,0,100,0,0
188772,-83.017832647462,4,1,0,100,0,0
188909,-84.607856843283,4,1,0,100,0,0
189047,-86.272273699216,4,1,0,100,0,0
189185,-88.003489893849,4,1,0,100,0,0
189322,-89.792284866469,4,1,0,100,0,0
189460,-91.669191154196,4,1,0,100,0,0
189597,-93.626237623762,4,1,0,100,0,0
189735,-95.653548285127,4,1,0,100,0,0
189873,-97.786395217321,4,1,0,100,0,0
190010,-100,4,1,0,100,0,0
190148,-83.333333333333,4,1,0,100,0,0
190183,-86.95652173913,4,1,0,100,0,0
190286,-74.074074074074,4,1,0,100,0,0
190320,-76.923076923077,4,1,0,100,0,0
190440,-66.666666666667,4,1,0,100,0,0
190698,-80,4,1,0,100,0,0
190836,-81.47450558321,4,1,0,100,0,0
190974,-83.01576422207,4,1,0,100,0,0
191111,-84.616459410367,4,1,0,100,0,0
191249,-86.267806267806,4,1,0,100,0,0
191386,-87.997675094449,4,1,0,100,0,0
191524,-89.785025945145,4,1,0,100,0,0
191662,-91.660360224005,4,1,0,100,0,0
191799,-93.615705673211,4,1,0,100,0,0
191937,-95.641187618446,4,1,0,100,0,0
192074,-97.772037455602,4,1,0,100,0,0
192212,-100,4,1,0,100,0,0
192350,-83.333333333333,4,1,0,100,0,0
192385,-86.95652173913,4,1,0,100,0,0
192488,-74.074074074074,4,1,0,100,0,0
192522,-76.923076923077,4,1,0,100,0,0
192642,-66.666666666667,4,1,0,100,0,0
192900,-80,4,1,0,100,0,0
193038,-81.47450558321,4,1,0,100,0,0
193175,-83.01576422207,4,1,0,100,0,0
193313,-84.604638167086,4,1,0,100,0,0
193451,-86.267806267806,4,1,0,100,0,0
193588,-87.997675094449,4,1,0,100,0,0
193726,-89.785025945145,4,1,0,100,0,0
193863,-91.660360224005,4,1,0,100,0,0
194001,-93.615705673211,4,1,0,100,0,0
194139,-95.641187618446,4,1,0,100,0,0
194276,-97.772037455602,4,1,0,100,0,0
194414,-99.983490176655,4,1,0,100,0,0
194551,-83.333333333333,4,1,0,100,0,0
194586,-86.95652173913,4,1,0,100,0,0
194689,-74.074074074074,4,1,0,100,0,0
194723,-76.923076923077,4,1,0,100,0,0
194844,-66.666666666667,4,1,0,100,0,0
195102,-80,4,1,0,100,0,0
195240,-81.47450558321,4,1,0,100,0,0
195308,-82.249083254108,4,1,0,100,0,0
195377,-83.01576422207,4,1,0,100,0,0
195515,-84.616459410367,4,1,0,100,0,0
195652,-86.267806267806,4,1,0,100,0,0
195790,-87.997675094449,4,1,0,100,0,0
195859,-88.888888888889,4,1,0,100,0,0
195928,-89.785025945145,4,1,0,100,0,0
196065,-91.660360224005,4,1,0,100,0,0
196203,-93.615705673211,4,1,0,100,0,0
196340,-95.641187618446,4,1,0,100,0,0
196409,-96.694874660706,4,1,0,100,0,0
196478,-97.772037455602,4,1,0,100,0,0
196616,-100,4,1,0,100,0,0
196753,-83.333333333333,4,1,0,100,0,0
196788,-86.95652173913,4,1,0,100,0,0
196891,-74.074074074074,4,1,0,100,0,0
196925,-76.923076923077,4,1,0,100,0,0
197046,-66.666666666667,4,1,0,100,0,0
197304,-80,4,1,0,100,0,0
197441,-81.47450558321,4,1,0,100,0,0
197510,-82.237914177078,4,1,0,100,0,0
197579,-83.01576422207,4,1,0,100,0,0
197717,-84.604638167086,4,1,0,100,0,0
197854,-86.267806267806,4,1,0,100,0,0
197992,-87.997675094449,4,1,0,100,0,0
198061,-88.888888888889,4,1,0,100,0,0
198129,-89.785025945145,4,1,0,100,0,0
198267,-91.660360224005,4,1,0,100,0,0
198405,-93.615705673211,4,1,0,100,0,0
198542,-95.641187618446,4,1,0,100,0,0
198611,-96.694874660706,4,1,0,100,0,0
198680,-97.772037455602,4,1,0,100,0,0
198818,-99.983490176655,4,1,0,100,0,0
198955,-83.333333333333,4,1,0,100,0,0
198990,-86.95652173913,4,1,0,100,0,0
199093,-74.074074074074,4,1,0,100,0,0
199127,-76.923076923077,4,1,0,100,0,0
199248,-66.666666666667,4,1,0,100,0,0
199506,-80,4,1,0,100,0,0
199643,-81.47450558321,4,1,0,100,0,0
199729,-82.249083254108,4,1,0,100,0,0
199781,-83.01576422207,4,1,0,100,0,0
199918,-84.616459410367,4,1,0,100,0,0
199987,-85.428128085767,4,1,0,100,0,0
200056,-86.267806267806,4,1,0,100,0,0
200194,-87.997675094449,4,1,0,100,0,0
200262,-88.888888888889,4,1,0,100,0,0
200331,-89.785025945145,4,1,0,100,0,0
200469,-91.660360224005,4,1,0,100,0,0
200538,-92.627714897522,4,1,0,100,0,0
200607,-93.615705673211,4,1,0,100,0,0
200744,-95.641187618446,4,1,0,100,0,0
200813,-96.694874660706,4,1,0,100,0,0
200882,-97.772037455602,4,1,0,100,0,0
201019,-100,4,1,0,100,0,0
201157,-83.333333333333,4,1,0,100,0,0
201192,-86.95652173913,4,1,0,100,0,0
201295,-74.074074074074,4,1,0,100,0,0
201329,-76.923076923077,4,1,0,100,0,0
201449,-66.666666666667,4,1,0,100,0,0
201725,-66.666666666667,4,1,0,25,0,0
201983,-50,4,1,0,25,0,0
202051,-100,4,1,0,28,0,0
202120,-100,4,1,0,33,0,0
202189,-100,4,1,0,38,0,0
202258,-100,4,1,0,43,0,0
202327,-100,4,1,0,47,0,0
202396,-100,4,1,0,52,0,0
202464,-100,4,1,0,57,0,0
202533,-133.333333333333,4,1,0,61,0,0
202602,-100,4,1,0,66,0,0
202671,-100,4,1,0,71,0,0
202740,-100,4,1,0,75,0,0
202808,-100,4,1,0,80,0,0
202877,-100,4,1,0,85,0,0
202946,-100,4,1,0,89,0,0
203015,-100,4,1,0,94,0,0
203084,-100,4,1,0,99,0,0
203359,-83.333333333333,4,1,0,100,0,0
203394,-86.95652173913,4,1,0,100,0,0
203497,-74.074074074074,4,1,0,100,0,0
203531,-76.923076923077,4,1,0,100,0,0
203651,-66.6666666666667,4,1,0,100,0,0
203909,-57.142857142857,4,1,0,100,0,0
204185,-100,4,1,0,100,0,0
204253,-101.010101010101,4,1,0,100,0,0
204322,-102.040816326531,4,1,0,100,0,0
204391,-103.092783505155,4,1,0,100,0,0
204460,-104.166666666667,4,1,0,100,0,0
204529,-105.263157894737,4,1,0,100,0,0
204597,-90.909090909091,4,1,0,100,0,0
204666,-92.592592592593,4,1,0,100,0,0
204735,-94.339622641509,4,1,0,100,0,0
204804,-96.153846153846,4,1,0,100,0,0
204873,-98.039215686275,4,1,0,100,0,0
204942,-100,4,1,0,100,0,0
205010,-83.333333333333,4,1,0,100,0,0
205079,-85.470085470085,4,1,0,100,0,0
205148,-87.719298245614,4,1,0,100,0,0
205217,-90.09009009009,4,1,0,100,0,0
205286,-92.592592592593,4,1,0,100,0,0
205354,-95.238095238095,4,1,0,100,0,0
205423,-76.923076923077,4,1,0,100,0,0
205492,-79.365079365079,4,1,0,100,0,0
205561,-81.967213114754,4,1,0,100,0,0
205630,-84.745762711864,4,1,0,100,0,0
205698,-87.719298245614,4,1,0,100,0,0
205767,-90.909090909091,4,1,0,100,0,0
205836,-66.666666666667,4,1,0,100,0,0
206111,-57.142857142857,4,1,0,100,0,0
206369,-100,4,1,0,100,0,0
206437,-101.010101010101,4,1,0,100,0,0
206506,-102.040816326531,4,1,0,100,0,0
206575,-103.092783505155,4,1,0,100,0,0
206644,-104.166666666667,4,1,0,100,0,0
206713,-105.263157894737,4,1,0,100,0,0
206781,-90.909090909091,4,1,0,100,0,0
206850,-92.592592592593,4,1,0,100,0,0
206919,-94.339622641509,4,1,0,100,0,0
206988,-96.153846153846,4,1,0,100,0,0
207057,-98.039215686275,4,1,0,100,0,0
207126,-100,4,1,0,100,0,0
207194,-83.333333333333,4,1,0,100,0,0
207263,-85.470085470085,4,1,0,100,0,0
207332,-87.719298245614,4,1,0,100,0,0
207401,-90.09009009009,4,1,0,100,0,0
207470,-92.592592592593,4,1,0,100,0,0
207538,-95.238095238095,4,1,0,100,0,0
207607,-76.923076923077,4,1,0,100,0,0
207676,-79.365079365079,4,1,0,100,0,0
207745,-81.967213114754,4,1,0,100,0,0
207814,-84.745762711864,4,1,0,100,0,0
207882,-87.719298245614,4,1,0,100,0,0
207951,-90.909090909091,4,1,0,100,0,0
208020,-66.666666666667,4,1,0,100,0,0
208295,-57.142857142857,4,1,0,100,0,0
208571,-100,4,1,0,100,0,0
208639,-101.010101010101,4,1,0,100,0,0
208708,-102.040816326531,4,1,0,100,0,0
208777,-103.092783505155,4,1,0,100,0,0
208846,-104.166666666667,4,1,0,100,0,0
208915,-105.263157894737,4,1,0,100,0,0
208983,-90.909090909091,4,1,0,100,0,0
209052,-92.592592592593,4,1,0,100,0,0
209121,-94.339622641509,4,1,0,100,0,0
209190,-96.153846153846,4,1,0,100,0,0
209259,-98.039215686275,4,1,0,100,0,0
209328,-100,4,1,0,100,0,0
209396,-83.333333333333,4,1,0,100,0,0
209465,-85.470085470085,4,1,0,100,0,0
209534,-87.719298245614,4,1,0,100,0,0
209603,-90.09009009009,4,1,0,100,0,0
209672,-92.592592592593,4,1,0,100,0,0
209740,-95.238095238095,4,1,0,100,0,0
209809,-76.923076923077,4,1,0,100,0,0
209878,-79.365079365079,4,1,0,100,0,0
209947,-81.967213114754,4,1,0,100,0,0
210016,-84.745762711864,4,1,0,100,0,0
210084,-87.719298245614,4,1,0,100,0,0
210153,-90.909090909091,4,1,0,100,0,0
210222,-66.666666666667,4,1,0,100,0,0
210497,-57.142857142857,4,1,0,100,0,0
210773,-100,4,1,0,100,0,0
210841,-101.010101010101,4,1,0,100,0,0
210910,-102.040816326531,4,1,0,100,0,0
210979,-103.092783505155,4,1,0,100,0,0
211048,-104.166666666667,4,1,0,100,0,0
211117,-105.263157894737,4,1,0,100,0,0
211185,-90.909090909091,4,1,0,100,0,0
211254,-92.592592592593,4,1,0,100,0,0
211323,-94.339622641509,4,1,0,100,0,0
211392,-96.153846153846,4,1,0,100,0,0
211461,-98.039215686275,4,1,0,100,0,0
211530,-100,4,1,0,100,0,0
211616,-83.333333333333,4,1,0,100,0,0
212181,-90.9090909090909,4,1,0,100,0,0
212199,-95.2380952380953,4,1,0,100,0,0
212319,-80,4,1,0,100,0,0
212353,-83.3333333333333,4,1,0,100,0,0
212457,-71.4285714285714,4,1,0,100,0,0
212594,-74.7551767959931,4,1,0,100,0,0
212663,-76.5462339252909,4,1,0,100,0,0
212732,-78.4313725490196,4,1,0,100,0,0
212869,-82.4606250515379,4,1,0,100,0,0
212990,-71.4285714285714,4,1,0,100,0,0
213127,-74.7551767959931,4,1,0,100,0,0
213196,-76.5462339252909,4,1,0,100,0,0
213265,-78.4313725490196,4,1,0,100,0,0
213402,-82.4606250515379,4,1,0,100,0,0
213540,-71.4285714285714,4,1,0,100,0,0
213677,-74.7551767959931,4,1,0,100,0,0
213746,-76.5462339252909,4,1,0,100,0,0
213815,-78.4313725490196,4,1,0,100,0,0
213952,-82.4606250515379,4,1,0,100,0,0
214091,-71.4285714285714,4,1,0,100,0,0
214228,-74.7551767959931,4,1,0,100,0,0
214297,-76.5462339252909,4,1,0,100,0,0
214366,-78.4313725490196,4,1,0,100,0,0
214503,-82.4606250515379,4,1,0,100,0,0
214641,-71.4285714285714,4,1,0,100,0,0
214778,-74.7551767959931,4,1,0,100,0,0
214847,-76.5462339252909,4,1,0,100,0,0
214916,-78.4313725490196,4,1,0,100,0,0
215053,-82.4606250515379,4,1,0,100,0,0
215192,-71.4285714285714,4,1,0,100,0,0
215329,-74.7551767959931,4,1,0,100,0,0
215398,-76.5462339252909,4,1,0,100,0,0
215467,-78.4313725490196,4,1,0,100,0,0
215604,-82.4606250515379,4,1,0,100,0,0
215742,-71.4285714285714,4,1,0,100,0,0
215879,-74.7551767959931,4,1,0,100,0,0
215948,-76.5462339252909,4,1,0,100,0,0
216017,-78.4313725490196,4,1,0,100,0,0
216154,-82.4606250515379,4,1,0,100,0,0
216293,-71.4285714285714,4,1,0,100,0,0
216430,-74.7551767959931,4,1,0,100,0,0
216499,-76.5462339252909,4,1,0,100,0,0
216568,-78.4313725490196,4,1,0,100,0,0
216705,-82.4606250515379,4,1,0,100,0,0
216843,-71.428571428571,4,1,0,100,0,0
216981,-72.291529875246,4,1,0,100,0,0
217118,-73.169110805901,4,1,0,100,0,0
217256,-74.07490468715,4,1,0,100,0,0
217393,-75.003406149235,4,1,0,100,0,0
217531,-75.948493906645,4,1,0,100,0,0
217669,-76.924868414924,4,1,0,100,0,0
217806,-77.92667390176,4,1,0,100,0,0
217944,-78.947368421053,4,1,0,100,0,0
218082,-80.00290655428,4,1,0,100,0,0
218219,-81.079090775198,4,1,0,100,0,0
218357,-82.192803463893,4,1,0,100,0,0
218494,-83.337538477065,4,1,0,100,0,0
218632,-84.505961213734,4,1,0,100,0,0
218770,-85.716510094981,4,1,0,100,0,0
218907,-86.953087979782,4,1,0,100,0,0
219045,-88.235294117647,4,1,0,100,0,0
219114,-88.890683029227,4,1,0,100,0,0
219182,-89.555880917521,4,1,0,100,0,0
219320,-90.906588869929,4,1,0,100,0,0
219458,-92.308982169806,4,1,0,100,0,0
219526,-93.026530727201,4,1,0,100,0,0
219595,-93.744678435602,4,1,0,100,0,0
219664,-94.484810343841,4,1,0,100,0,0
219733,-95.236722219019,4,1,0,100,0,0
219871,-96.777029006739,4,1,0,100,0,0
219939,-97.566018786554,4,1,0,100,0,0
220008,-98.356262283366,4,1,0,100,0,0
220077,-99.171320482796,4,1,0,100,0,0
220165,275.229357798165,17,1,0,100,1,0
221541,-200,17,1,0,100,0,0
221919,-166.666666666667,17,1,0,100,0,0
224138,-125,4,1,0,40,0,0
224207,-122.024542900793,4,1,0,50,0,0
224276,-119.187445845769,4,1,0,60,0,0
224345,-116.479277414499,4,1,0,70,0,0
224413,-113.891444342226,4,1,0,80,0,0
224482,-111.451206337775,4,1,0,90,0,0
224568,275.229357798165,5,1,0,100,1,0
224568,-109.079695140755,4,1,0,100,0,0
224619,-106.839266450917,4,1,0,100,0,0
224688,-104.658043790684,4,1,0,100,0,0
224757,-102.564102564103,4,1,0,100,0,0
224826,-100.552306692658,4,1,0,100,0,0
224894,-98.61791532242,4,1,0,100,0,0
224963,-96.783019974202,4,1,0,100,0,0
225032,-94.989641678815,4,1,0,100,0,0
225101,-93.261516441297,4,1,0,100,0,0
225170,-91.595146493045,4,1,0,100,0,0
225238,-89.987279665637,4,1,0,100,0,0
225307,-88.457004037012,4,1,0,100,0,0
225376,-86.95652173913,4,1,0,100,0,0
225668,-66.6666666666667,4,1,0,100,0,0
225944,275.229357798165,4,1,0,100,1,1
225944,-80,4,1,0,100,0,1
226064,-81.154534920468,4,1,0,100,0,1
226133,-81.748726655348,4,1,0,100,0,1
226202,-82.351683591662,4,1,0,100,0,1
226339,-83.575612931222,4,1,0,100,0,1
226477,-84.845814977974,4,1,0,100,0,1
226546,-85.495505493286,4,1,0,100,0,1
226614,-86.155222545292,4,1,0,100,0,1
226752,-87.495741056218,4,1,0,100,0,1
226890,-88.888888888889,4,1,0,100,0,1
226958,-89.60223307746,4,1,0,100,0,1
227027,-90.31652989449,4,1,0,100,0,1
227165,-91.801715919924,4,1,0,100,0,1
227302,-93.336564090138,4,1,0,100,0,1
227371,-94.111898363059,4,1,0,100,0,1
227440,-94.911913268449,4,1,0,100,0,1
227578,-96.553452813636,4,1,0,100,0,1
227646,-97.395701643489,4,1,0,100,0,1
227715,-98.240244835501,4,1,0,100,0,1
227784,-99.112311848707,4,1,0,100,0,1
227870,-66.6666666666667,4,1,0,100,0,1
228128,-80,4,1,0,100,0,1
228266,-81.162472359693,4,1,0,100,0,1
228335,-81.756470089096,4,1,0,100,0,1
228403,-82.359226413078,4,1,0,100,0,1
228541,-83.58273693342,4,1,0,100,0,1
228679,-84.852487890797,4,1,0,100,0,1
228747,-85.501941209096,4,1,0,100,0,1
228816,-86.151782720465,4,1,0,100,0,1
228954,-87.501419003292,4,1,0,100,0,1
229091,-88.894014531196,4,1,0,100,0,1
229160,-89.596652330582,4,1,0,100,0,1
229229,-90.32106866651,4,1,0,100,0,1
229367,-91.805621724631,4,1,0,100,0,1
229504,-93.328490131977,4,1,0,100,0,1
229573,-94.114774114774,4,1,0,100,0,1
229642,-94.914419406477,4,1,0,100,0,1
229780,-96.555179756984,4,1,0,100,0,1
229848,-97.397017942886,4,1,0,100,0,1
229917,-98.241141983176,4,1,0,100,0,1
229986,-99.112768419699,4,1,0,100,0,1
230072,-66.6666666666667,4,1,0,100,0,1
230192,-76.923076923077,4,1,0,100,0,1
230261,-77.481746155041,4,1,0,100,0,1
230330,-78.056987469799,4,1,0,100,0,1
230536,-79.835127456081,4,1,0,100,0,1
230605,-80.437061527296,4,1,0,100,0,1
230674,-81.057197127447,4,1,0,100,0,1
230743,-81.686968983519,4,1,0,100,0,1
230880,-82.976334068128,4,1,0,100,0,1
230949,-83.62676056338,4,1,0,100,0,1
231018,-84.297258754556,4,1,0,100,0,1
231087,-84.978595616893,4,1,0,100,0,1
231156,-85.671036104222,4,1,0,100,0,1
231293,-87.079877782628,4,1,0,100,0,1
231362,-87.807132403913,4,1,0,100,0,1
231431,-88.546636781252,4,1,0,100,0,1
231500,-89.298703042646,4,1,0,100,0,1
231568,-90.063654011106,4,1,0,100,0,1
231706,-91.621984683743,4,1,0,100,0,1
231775,-92.427436354792,4,1,0,100,0,1
231844,-93.247175124739,4,1,0,100,0,1
231913,-94.08158453195,4,1,0,100,0,1
231981,-94.931061966905,4,1,0,100,0,1
232050,-95.783371142559,4,1,0,100,0,1
232119,-96.664001744313,4,1,0,100,0,1
232188,-97.560975609756,4,1,0,100,0,1
232257,-66.6666666666667,4,1,0,100,0,1
232549,-102.293266334235,4,1,0,100,0,0
232738,-105.353488679121,4,1,0,100,0,0
232807,-106.419865041474,4,1,0,100,0,0
232945,-108.618718353569,4,1,0,100,0,0
233082,-110.893400591987,4,1,0,100,0,0
233151,-112.075503497093,4,1,0,100,0,0
233220,-113.28307993697,4,1,0,100,0,0
233357,-115.778019586507,4,1,0,100,0,0
233443,-117.067159581023,4,1,0,100,0,0
233495,-118.366015010828,4,1,0,100,0,0
233564,-119.713767083215,4,1,0,100,0,0
233633,-121.092564491654,4,1,0,100,0,0
233770,-123.947687241776,4,1,0,100,0,0
233839,-125.404657887293,4,1,0,100,0,0
233908,-126.918489065606,4,1,0,100,0,0
233977,-128.469315474274,4,1,0,100,0,0
234046,-130.058510031455,4,1,0,100,0,0
234200,-80,4,1,0,100,0,0
234476,-66.6666666666667,4,1,0,100,0,0
234751,-80,4,1,0,100,0,1
234869,-81.154534920468,4,1,0,100,0,1
234938,-81.748726655348,4,1,0,100,0,1
235007,-82.351683591662,4,1,0,100,0,1
235144,-83.575612931222,4,1,0,100,0,1
235282,-84.845814977974,4,1,0,100,0,1
235351,-85.495505493286,4,1,0,100,0,1
235419,-86.155222545292,4,1,0,100,0,1
235557,-87.495741056218,4,1,0,100,0,1
235695,-88.888888888889,4,1,0,100,0,1
235763,-89.60223307746,4,1,0,100,0,1
235832,-90.31652989449,4,1,0,100,0,1
235970,-91.801715919924,4,1,0,100,0,1
236107,-93.336564090138,4,1,0,100,0,1
236176,-94.111898363059,4,1,0,100,0,1
236245,-94.911913268449,4,1,0,100,0,1
236383,-96.553452813636,4,1,0,100,0,1
236451,-97.395701643489,4,1,0,100,0,1
236520,-98.240244835501,4,1,0,100,0,1
236589,-99.112311848707,4,1,0,100,0,1
236675,-66.6666666666667,4,1,0,100,0,1
236933,-80,4,1,0,100,0,1
237071,-81.162472359693,4,1,0,100,0,1
237140,-81.756470089096,4,1,0,100,0,1
237208,-82.359226413078,4,1,0,100,0,1
237346,-83.58273693342,4,1,0,100,0,1
237484,-84.852487890797,4,1,0,100,0,1
237552,-85.501941209096,4,1,0,100,0,1
237621,-86.151782720465,4,1,0,100,0,1
237759,-87.501419003292,4,1,0,100,0,1
237896,-88.894014531196,4,1,0,100,0,1
237965,-89.596652330582,4,1,0,100,0,1
238034,-90.32106866651,4,1,0,100,0,1
238172,-91.805621724631,4,1,0,100,0,1
238309,-93.328490131977,4,1,0,100,0,1
238378,-94.114774114774,4,1,0,100,0,1
238447,-94.914419406477,4,1,0,100,0,1
238585,-96.555179756984,4,1,0,100,0,1
238653,-97.397017942886,4,1,0,100,0,1
238722,-98.241141983176,4,1,0,100,0,1
238791,-99.112768419699,4,1,0,100,0,1
238877,-66.6666666666667,4,1,0,100,0,1
238997,-76.923076923077,4,1,0,100,0,1
239066,-77.481746155041,4,1,0,100,0,1
239135,-78.056987469799,4,1,0,100,0,1
239341,-79.835127456081,4,1,0,100,0,1
239410,-80.437061527296,4,1,0,100,0,1
239479,-81.057197127447,4,1,0,100,0,1
239548,-81.686968983519,4,1,0,100,0,1
239685,-82.976334068128,4,1,0,100,0,1
239754,-83.62676056338,4,1,0,100,0,1
239823,-84.297258754556,4,1,0,100,0,1
239892,-84.978595616893,4,1,0,100,0,1
239961,-85.671036104222,4,1,0,100,0,1
240098,-87.079877782628,4,1,0,100,0,1
240167,-87.807132403913,4,1,0,100,0,1
240236,-88.546636781252,4,1,0,100,0,1
240305,-89.298703042646,4,1,0,100,0,1
240373,-90.063654011106,4,1,0,100,0,1
240511,-91.621984683743,4,1,0,100,0,1
240580,-92.427436354792,4,1,0,100,0,1
240649,-93.247175124739,4,1,0,100,0,1
240718,-94.08158453195,4,1,0,100,0,1
240786,-94.931061966905,4,1,0,100,0,1
240855,-95.783371142559,4,1,0,100,0,1
240924,-96.664001744313,4,1,0,100,0,1
240993,-97.560975609756,4,1,0,100,0,1
241062,-66.6666666666667,4,1,0,100,0,1
241356,-102.293266334235,4,1,0,100,0,0
241545,-105.353488679121,4,1,0,100,0,0
241614,-106.419865041474,4,1,0,100,0,0
241752,-108.618718353569,4,1,0,100,0,0
241889,-110.893400591987,4,1,0,100,0,0
241958,-112.075503497093,4,1,0,100,0,0
242027,-113.28307993697,4,1,0,100,0,0
242164,-115.778019586507,4,1,0,100,0,0
242250,-117.067159581023,4,1,0,100,0,0
242302,-118.366015010828,4,1,0,100,0,0
242371,-119.713767083215,4,1,0,100,0,0
242440,-121.092564491654,4,1,0,100,0,0
242577,-123.947687241776,4,1,0,100,0,0
242646,-125.404657887293,4,1,0,100,0,0
242715,-126.918489065606,4,1,0,100,0,0
242784,-128.469315474274,4,1,0,100,0,0
242853,-130.058510031455,4,1,0,100,0,0
243007,-80,4,1,0,100,0,0
243283,-66.6666666666667,4,1,0,100,0,0
243558,-80,4,1,0,100,0,1
243625,-80.577043696425,4,1,0,100,0,1
243694,-81.162472359693,4,1,0,100,0,1
243831,-82.350427350427,4,1,0,100,0,1
243969,-83.58273693342,4,1,0,100,0,1
244038,-84.212826395717,4,1,0,100,0,1
244107,-84.852487890797,4,1,0,100,0,1
244244,-86.151782720465,4,1,0,100,0,1
244382,-87.501419003292,4,1,0,100,0,1
244451,-88.192219679634,4,1,0,100,0,1
244519,-88.883763837638,4,1,0,100,0,1
244657,-90.32106866651,4,1,0,100,0,1
244726,-91.05729474306,4,1,0,100,0,1
244795,-91.805621724631,4,1,0,100,0,1
244864,-92.566350426324,4,1,0,100,0,1
244932,-93.328490131977,4,1,0,100,0,1
245070,-94.914419406477,4,1,0,100,0,1
245139,-95.727769498261,4,1,0,100,0,1
245208,-96.555179756984,4,1,0,100,0,1
245276,-97.384712571068,4,1,0,100,0,1
245345,-98.241141983176,4,1,0,100,0,1
245483,-66.6666666666667,4,1,0,100,0,1
245743,-80,4,1,0,100,0,1
245810,-80.577043696425,4,1,0,100,0,1
245879,-81.162472359693,4,1,0,100,0,1
246016,-82.350427350427,4,1,0,100,0,1
246154,-83.58273693342,4,1,0,100,0,1
246223,-84.212826395717,4,1,0,100,0,1
246292,-84.852487890797,4,1,0,100,0,1
246429,-86.151782720465,4,1,0,100,0,1
246567,-87.501419003292,4,1,0,100,0,1
246636,-88.192219679634,4,1,0,100,0,1
246704,-88.883763837638,4,1,0,100,0,1
246842,-90.32106866651,4,1,0,100,0,1
246911,-91.05729474306,4,1,0,100,0,1
246980,-91.805621724631,4,1,0,100,0,1
247049,-92.566350426324,4,1,0,100,0,1
247117,-93.328490131977,4,1,0,100,0,1
247255,-94.914419406477,4,1,0,100,0,1
247324,-95.727769498261,4,1,0,100,0,1
247393,-96.555179756984,4,1,0,100,0,1
247461,-97.384712571068,4,1,0,100,0,1
247530,-98.241141983176,4,1,0,100,0,1
247687,-66.6666666666667,4,1,0,100,0,1
247807,-76.923076923077,4,1,0,100,0,1
247876,-77.489879328589,4,1,0,100,0,1
247945,-78.065096627807,4,1,0,100,0,1
248151,-79.834370186634,4,1,0,100,0,1
248220,-80.436140838825,4,1,0,100,0,1
248289,-81.056105610561,4,1,0,100,0,1
248357,-81.685701420443,4,1,0,100,0,1
248495,-82.97469801867,4,1,0,100,0,1
248564,-83.624934520691,4,1,0,100,0,1
248633,-84.29523397155,4,1,0,100,0,1
248702,-84.976365881702,4,1,0,100,0,1
248770,-85.668594979232,4,1,0,100,0,1
248908,-87.076996923614,4,1,0,100,0,1
248977,-87.804019492448,4,1,0,100,0,1
249046,-88.543284376803,4,1,0,100,0,1
249114,-89.295103424359,4,1,0,100,0,1
249183,-90.059799165068,4,1,0,100,0,1
249321,-91.617598108421,4,1,0,100,0,1
249390,-92.422768746237,4,1,0,100,0,1
249458,-93.242217160213,4,1,0,100,0,1
249527,-94.076326520991,4,1,0,100,0,1
249596,-94.925493833767,4,1,0,100,0,1
249665,-95.777487130875,4,1,0,100,0,1
249734,-96.657786388956,4,1,0,100,0,1
249802,-97.554417570061,4,1,0,100,0,1
249871,-66.6666666666667,4,1,0,100,0,1
250164,-102.284813614055,4,1,0,100,0,0
250353,-105.343733090496,4,1,0,100,0,0
250422,-106.409641124087,4,1,0,100,0,0
250559,-108.607505374588,4,1,0,100,0,0
250697,-110.881131315376,4,1,0,100,0,0
250766,-112.062671982928,4,1,0,100,0,0
250835,-113.269664675247,4,1,0,100,0,0
250972,-115.763368189004,4,1,0,100,0,0
251041,-117.051853589864,4,1,0,100,0,0
251110,-118.350038550501,4,1,0,100,0,0
251179,-119.697083302092,4,1,0,100,0,0
251247,-121.075144859388,4,1,0,100,0,0
251385,-123.928704508757,4,1,0,100,0,0
251454,-125.384857053095,4,1,0,100,0,0
251523,-126.897823564013,4,1,0,100,0,0
251591,-128.44774870458,4,1,0,100,0,0
251660,-130.036003453725,4,1,0,100,0,0
251815,-80,4,1,0,100,0,0
252090,-66.6666666666667,4,1,0,100,0,0
252366,-80,4,1,0,100,0,1
252433,-80.577043696425,4,1,0,100,0,1
252502,-81.162472359693,4,1,0,100,0,1
252639,-82.350427350427,4,1,0,100,0,1
252777,-83.58273693342,4,1,0,100,0,1
252846,-84.212826395717,4,1,0,100,0,1
252915,-84.852487890797,4,1,0,100,0,1
253052,-86.151782720465,4,1,0,100,0,1
253190,-87.501419003292,4,1,0,100,0,1
253259,-88.192219679634,4,1,0,100,0,1
253327,-88.883763837638,4,1,0,100,0,1
253465,-90.32106866651,4,1,0,100,0,1
253534,-91.05729474306,4,1,0,100,0,1
253603,-91.805621724631,4,1,0,100,0,1
253672,-92.566350426324,4,1,0,100,0,1
253740,-93.328490131977,4,1,0,100,0,1
253878,-94.914419406477,4,1,0,100,0,1
253947,-95.727769498261,4,1,0,100,0,1
254016,-96.555179756984,4,1,0,100,0,1
254084,-97.384712571068,4,1,0,100,0,1
254153,-98.241141983176,4,1,0,100,0,1
254291,-66.6666666666667,4,1,0,100,0,1
254550,-80,4,1,0,100,0,1
254617,-80.577043696425,4,1,0,100,0,1
254686,-81.162472359693,4,1,0,100,0,1
254823,-82.350427350427,4,1,0,100,0,1
254961,-83.58273693342,4,1,0,100,0,1
255030,-84.212826395717,4,1,0,100,0,1
255099,-84.852487890797,4,1,0,100,0,1
255236,-86.151782720465,4,1,0,100,0,1
255374,-87.501419003292,4,1,0,100,0,1
255443,-88.192219679634,4,1,0,100,0,1
255511,-88.883763837638,4,1,0,100,0,1
255649,-90.32106866651,4,1,0,100,0,1
255718,-91.05729474306,4,1,0,100,0,1
255787,-91.805621724631,4,1,0,100,0,1
255856,-92.566350426324,4,1,0,100,0,1
255924,-93.328490131977,4,1,0,100,0,1
256062,-94.914419406477,4,1,0,100,0,1
256131,-95.727769498261,4,1,0,100,0,1
256200,-96.555179756984,4,1,0,100,0,1
256268,-97.384712571068,4,1,0,100,0,1
256337,-98.241141983176,4,1,0,100,0,1
256493,-66.6666666666667,4,1,0,100,0,1
256613,-76.923076923077,4,1,0,100,0,1
256682,-77.489879328589,4,1,0,100,0,1
256751,-78.065096627807,4,1,0,100,0,1
256957,-79.834370186634,4,1,0,100,0,1
257026,-80.436140838825,4,1,0,100,0,1
257095,-81.056105610561,4,1,0,100,0,1
257163,-81.685701420443,4,1,0,100,0,1
257301,-82.97469801867,4,1,0,100,0,1
257370,-83.624934520691,4,1,0,100,0,1
257439,-84.29523397155,4,1,0,100,0,1
257508,-84.976365881702,4,1,0,100,0,1
257576,-85.668594979232,4,1,0,100,0,1
257714,-87.076996923614,4,1,0,100,0,1
257783,-87.804019492448,4,1,0,100,0,1
257852,-88.543284376803,4,1,0,100,0,1
257920,-89.295103424359,4,1,0,100,0,1
257989,-90.059799165068,4,1,0,100,0,1
258127,-91.617598108421,4,1,0,100,0,1
258196,-92.422768746237,4,1,0,100,0,1
258264,-93.242217160213,4,1,0,100,0,1
258333,-94.076326520991,4,1,0,100,0,1
258402,-94.925493833767,4,1,0,100,0,1
258471,-95.777487130875,4,1,0,100,0,1
258540,-96.657786388956,4,1,0,100,0,1
258608,-97.554417570061,4,1,0,100,0,1
258677,-66.6666666666667,4,1,0,100,0,1
258971,275.229357798165,8,1,0,100,1,0
258971,-102.284813614055,4,1,0,100,0,0
259159,-105.343733090496,4,1,0,100,0,0
259228,-106.409641124087,4,1,0,100,0,0
259365,-108.607505374588,4,1,0,100,0,0
259503,-110.881131315376,4,1,0,100,0,0
259572,-112.062671982928,4,1,0,100,0,0
259641,-113.269664675247,4,1,0,100,0,0
259778,-115.763368189004,4,1,0,100,0,0
259847,-117.051853589864,4,1,0,100,0,0
259916,-118.350038550501,4,1,0,100,0,0
259985,-119.697083302092,4,1,0,100,0,0
260053,-121.075144859388,4,1,0,100,0,0
260191,-123.928704508757,4,1,0,100,0,0
260260,-125.384857053095,4,1,0,100,0,0
260329,-126.897823564013,4,1,0,100,0,0
260397,-128.44774870458,4,1,0,100,0,0
260466,-130.036003453725,4,1,0,100,0,0
260621,-71.4285714285714,4,1,0,100,0,0
260898,275.229357798165,4,1,0,100,1,0
260898,-80,4,1,0,100,0,0
261032,-66.666666666667,4,1,0,25,0,0
261995,-80,4,1,0,25,0,0
263096,-100,4,1,0,25,0,0
263647,-114.285714285714,4,1,0,25,0,0
263739,-113.128050794583,4,1,0,26,0,0
263830,-112.005813953488,4,1,0,27,0,0
263922,-110.893653763131,4,1,0,29,0,0
264014,-109.803362781419,4,1,0,30,0,0
264106,-108.734302243545,4,1,0,31,0,0
264197,-107.69714545264,4,1,0,32,0,0
264289,-106.668512302315,4,1,0,33,0,0
264381,-105.659342542762,4,1,0,35,0,0
264472,-104.679752767778,4,1,0,36,0,0
264564,-103.707691272458,4,1,0,37,0,0
264656,-102.753516901127,4,1,0,38,0,0
264748,-101.816740437339,4,1,0,39,0,0
264839,-100.906799358366,4,1,0,40,0,0
264931,-100.003244330532,4,1,0,42,0,0
265023,-99.1157271938,4,1,0,43,0,0
265115,-98.243824701195,4,1,0,44,0,0
265206,-97.396359959555,4,1,0,45,0,0
265298,-96.554316501692,4,1,0,46,0,0
265367,-95.932277240049,4,1,0,47,0,0
265436,-95.318201496691,4,1,0,48,0,0
265505,-94.71193731756,4,1,0,49,0,0
265573,-94.121957922379,4,1,0,50,0,0
265642,-93.530768297123,4,1,0,51,0,0
265711,-92.946958960287,4,1,0,52,0,0
265780,-92.370392568175,4,1,0,53,0,0
265849,-91.800935163952,4,1,0,54,0,0
265917,-91.246558716438,4,1,0,54,0,0
265986,-90.690832058374,4,1,0,55,0,0
266055,-90.141833601404,4,1,0,56,0,0
266124,-89.599441892913,4,1,0,57,0,0
266193,-89.063538385969,4,1,0,58,0,0
266261,-88.541636744894,4,1,0,59,0,0
266330,-88.018275271274,4,1,0,60,0,0
266399,-87.501064524371,4,1,0,61,0,0
266468,-86.989896709375,4,1,0,62,0,0
266537,-86.484666535731,4,1,0,63,0,0
266606,-85.985271144834,4,1,0,63,0,0
266674,-85.498724065239,4,1,0,64,0,0
266743,-85.010618053449,4,1,0,65,0,0
266812,-84.528053529315,4,1,0,66,0,0
266881,-84.050936656396,4,1,0,67,0,0
266950,-83.579175704989,4,1,0,68,0,0
267018,-83.119404594974,4,1,0,69,0,0
267087,-82.658013998016,4,1,0,70,0,0
267156,-82.201717424929,4,1,0,71,0,0
267225,-81.750430977324,4,1,0,71,0,0
267294,-81.304072589154,4,1,0,72,0,0
267362,-80.868926435093,4,1,0,73,0,0
267431,-80.432116483574,4,1,0,74,0,0
267500,-80,4,1,0,74,0,0
267569,-80,4,1,0,40,0,0
267638,-81.428888395829,4,1,0,40,0,0
267775,-82.898823529412,4,1,0,40,0,0
267847,-83.659435431785,4,1,0,40,0,0
267913,-84.434134089994,4,1,0,40,0,0
268050,-86.015625,4,1,0,40,0,0
268188,-87.669705776964,4,1,0,40,0,0
268326,-89.388649833563,4,1,0,40,0,0
268463,-91.163137303608,4,1,0,40,0,0
268601,-93.023255813953,4,1,0,40,0,0
268670,-93.982074263764,4,1,0,40,0,0
268739,-94.960864221489,4,1,0,40,0,0
268807,-95.945622099736,4,1,0,40,0,0
268876,-96.965960632348,4,1,0,40,0,0
268945,-96.965960632348,4,1,0,70,0,0
269014,-99.073157563214,4,1,0,70,0,0
269083,-100.161477404535,4,1,0,70,0,0
269151,-101.257673648633,4,1,0,70,0,0
269289,-103.55773978884,4,1,0,70,0,0
269427,-105.964726546522,4,1,0,70,0,0
269564,-66.6666666666667,4,1,0,100,0,0
269705,-111.111111111111,4,1,0,100,0,0
270806,-125,4,1,0,100,0,0
271907,-142.857142857143,4,1,0,100,0,0
273008,-166.666666666667,4,1,0,100,0,0
274109,-200,4,1,0,100,0,0
275209,-50,4,1,0,100,0,0

[HitObjects]
256,192,5488,5,4,0:0:0:0:
256,192,5626,12,0,9892,0:0:0:0:
256,192,13745,5,0,0:0:0:0:
256,192,13883,1,2,0:0:0:0:
256,192,14020,1,0,0:0:0:0:
256,192,14158,1,0,0:0:0:0:
256,192,14296,1,6,0:0:0:0:
256,192,14433,12,0,18699,0:0:0:0:
256,192,23103,5,4,0:0:0:0:
256,192,23378,1,2,0:0:0:0:
256,192,23584,1,2,0:0:0:0:
256,192,23722,1,2,0:0:0:0:
256,192,23791,1,0,0:0:0:0:
256,192,23929,1,2,0:0:0:0:
256,192,23997,1,2,0:0:0:0:
256,192,24066,1,0,0:0:0:0:
256,192,24273,1,2,0:0:0:0:
256,192,24479,1,2,0:0:0:0:
256,192,24617,1,0,0:0:0:0:
256,192,24685,1,2,0:0:0:0:
256,192,24754,1,0,0:0:0:0:
256,192,24892,1,2,0:0:0:0:
256,192,25029,1,4,0:0:0:0:
256,192,25305,1,4,0:0:0:0:
256,192,25580,1,2,0:0:0:0:
256,192,25786,1,2,0:0:0:0:
256,192,25924,1,2,0:0:0:0:
256,192,25993,1,0,0:0:0:0:
256,192,26130,1,2,0:0:0:0:
256,192,26199,1,2,0:0:0:0:
256,192,26268,1,0,0:0:0:0:
256,192,26474,1,2,0:0:0:0:
256,192,26681,1,2,0:0:0:0:
256,192,26818,1,0,0:0:0:0:
256,192,26887,1,2,0:0:0:0:
256,192,26956,1,0,0:0:0:0:
256,192,27094,1,2,0:0:0:0:
256,192,27231,1,4,0:0:0:0:
256,192,27507,1,4,0:0:0:0:
256,192,27782,1,2,0:0:0:0:
256,192,27988,1,2,0:0:0:0:
256,192,28126,1,2,0:0:0:0:
256,192,28195,1,0,0:0:0:0:
256,192,28332,1,4,0:0:0:0:
256,192,28607,1,4,0:0:0:0:
256,192,28883,1,2,0:0:0:0:
256,192,29089,1,2,0:0:0:0:
256,192,29227,1,2,0:0:0:0:
256,192,29296,1,0,0:0:0:0:
256,192,29433,1,4,0:0:0:0:
256,192,29708,1,4,0:0:0:0:
256,192,29984,1,2,0:0:0:0:
256,192,30121,1,2,0:0:0:0:
256,192,30259,1,4,0:0:0:0:
256,192,30534,1,2,0:0:0:0:
256,192,30672,1,2,0:0:0:0:
256,192,30809,1,0,0:0:0:0:
256,192,30946,12,0,31497,0:0:0:0:
256,192,31634,5,0,0:0:0:0:
256,192,31909,1,6,0:0:0:0:
256,192,32185,1,0,0:0:0:0:
256,192,32322,1,0,0:0:0:0:
256,192,32460,1,0,0:0:0:0:
256,192,32597,1,0,0:0:0:0:
256,192,32735,1,0,0:0:0:0:
256,192,32873,1,0,0:0:0:0:
256,192,33010,1,0,0:0:0:0:
256,192,33148,1,0,0:0:0:0:
256,192,33285,1,2,0:0:0:0:
256,192,33561,1,0,0:0:0:0:
256,192,33698,1,2,0:0:0:0:
256,192,33836,1,4,0:0:0:0:
256,192,34111,1,6,0:0:0:0:
256,192,34386,1,0,0:0:0:0:
256,192,34524,1,0,0:0:0:0:
256,192,34662,1,0,0:0:0:0:
256,192,34799,1,0,0:0:0:0:
256,192,34937,1,0,0:0:0:0:
256,192,35074,1,0,0:0:0:0:
256,192,35212,1,0,0:0:0:0:
256,192,35350,1,0,0:0:0:0:
256,192,35487,1,2,0:0:0:0:
256,192,35762,1,0,0:0:0:0:
256,192,35900,1,2,0:0:0:0:
256,192,36038,1,4,0:0:0:0:
256,192,36313,1,6,0:0:0:0:
256,192,36588,1,0,0:0:0:0:
256,192,36863,1,2,0:0:0:0:
256,192,36932,1,2,0:0:0:0:
256,192,37001,1,0,0:0:0:0:
256,192,37276,1,2,0:0:0:0:
256,192,37345,1,2,0:0:0:0:
256,192,37414,1,0,0:0:0:0:
256,192,37689,1,2,0:0:0:0:
256,192,37758,1,2,0:0:0:0:
256,192,37827,1,0,0:0:0:0:
256,192,38102,1,2,0:0:0:0:
256,192,38240,1,4,0:0:0:0:
256,192,38515,1,6,0:0:0:0:
256,192,38790,1,0,0:0:0:0:
256,192,39065,1,0,0:0:0:0:
256,192,39134,1,0,0:0:0:0:
256,192,39203,1,0,0:0:0:0:
256,192,39340,1,2,0:0:0:0:
256,192,39616,1,2,0:0:0:0:
256,192,39684,1,2,0:0:0:0:
256,192,39753,1,0,0:0:0:0:
256,192,39891,1,2,0:0:0:0:
256,192,40029,1,0,0:0:0:0:
256,192,40097,1,2,0:0:0:0:
256,192,40166,1,0,0:0:0:0:
256,192,40304,1,2,0:0:0:0:
256,192,40441,1,4,0:0:0:0:
256,192,40717,1,6,0:0:0:0:
256,192,40992,1,0,0:0:0:0:
256,192,41129,1,0,0:0:0:0:
256,192,41267,1,0,0:0:0:0:
256,192,41405,1,0,0:0:0:0:
256,192,41542,1,0,0:0:0:0:
256,192,41680,1,0,0:0:0:0:
256,192,41818,1,0,0:0:0:0:
256,192,41955,1,0,0:0:0:0:
256,192,42093,1,2,0:0:0:0:
256,192,42368,1,0,0:0:0:0:
256,192,42506,1,2,0:0:0:0:
256,192,42643,1,4,0:0:0:0:
256,192,42918,1,6,0:0:0:0:
256,192,43194,1,0,0:0:0:0:
256,192,43331,1,0,0:0:0:0:
256,192,43469,1,0,0:0:0:0:
256,192,43607,1,0,0:0:0:0:
256,192,43744,1,0,0:0:0:0:
256,192,43882,1,0,0:0:0:0:
256,192,44019,1,0,0:0:0:0:
256,192,44157,1,0,0:0:0:0:
256,192,44295,1,2,0:0:0:0:
256,192,44570,1,0,0:0:0:0:
256,192,44707,1,2,0:0:0:0:
256,192,44845,1,4,0:0:0:0:
256,192,45120,1,6,0:0:0:0:
256,192,45396,1,0,0:0:0:0:
256,192,45671,1,2,0:0:0:0:
256,192,45740,1,2,0:0:0:0:
256,192,45808,1,0,0:0:0:0:
256,192,46084,1,2,0:0:0:0:
256,192,46152,1,2,0:0:0:0:
256,192,46221,1,0,0:0:0:0:
256,192,46496,1,2,0:0:0:0:
256,192,46565,1,2,0:0:0:0:
256,192,46634,1,0,0:0:0:0:
256,192,46909,1,2,0:0:0:0:
256,192,47047,1,4,0:0:0:0:
256,192,47322,1,6,0:0:0:0:
256,192,47597,1,0,0:0:0:0:
256,192,47873,1,0,0:0:0:0:
256,192,47941,1,0,0:0:0:0:
256,192,48010,1,0,0:0:0:0:
256,192,48148,1,2,0:0:0:0:
256,192,48423,1,2,0:0:0:0:
256,192,48492,1,2,0:0:0:0:
256,192,48561,1,0,0:0:0:0:
256,192,48698,1,2,0:0:0:0:
256,192,48836,1,0,0:0:0:0:
256,192,48905,1,2,0:0:0:0:
256,192,48973,1,0,0:0:0:0:
256,192,49111,1,2,0:0:0:0:
256,192,49249,1,4,0:0:0:0:
256,192,49524,1,6,0:0:0:0:
256,192,49799,1,2,0:0:0:0:
256,192,49868,1,2,0:0:0:0:
256,192,49937,1,0,0:0:0:0:
256,192,50074,1,0,0:0:0:0:
256,192,50212,1,2,0:0:0:0:
256,192,50281,1,2,0:0:0:0:
256,192,50350,1,0,0:0:0:0:
256,192,50487,1,0,0:0:0:0:
256,192,50625,1,2,0:0:0:0:
256,192,50694,1,2,0:0:0:0:
256,192,50762,1,0,0:0:0:0:
256,192,50831,1,0,0:0:0:0:
256,192,50900,1,0,0:0:0:0:
256,192,51038,1,2,0:0:0:0:
256,192,51107,1,2,0:0:0:0:
256,192,51175,1,0,0:0:0:0:
256,192,51313,1,2,0:0:0:0:
256,192,51451,1,4,0:0:0:0:
256,192,51726,1,6,0:0:0:0:
256,192,52001,1,2,0:0:0:0:
256,192,52070,1,2,0:0:0:0:
256,192,52139,1,0,0:0:0:0:
256,192,52276,1,0,0:0:0:0:
256,192,52414,1,2,0:0:0:0:
256,192,52483,1,2,0:0:0:0:
256,192,52551,1,0,0:0:0:0:
256,192,52689,1,0,0:0:0:0:
256,192,52827,1,2,0:0:0:0:
256,192,52896,1,2,0:0:0:0:
256,192,52964,1,0,0:0:0:0:
256,192,53033,1,0,0:0:0:0:
256,192,53102,1,0,0:0:0:0:
256,192,53240,1,2,0:0:0:0:
256,192,53308,1,2,0:0:0:0:
256,192,53377,1,0,0:0:0:0:
256,192,53515,1,2,0:0:0:0:
256,192,53652,1,4,0:0:0:0:
256,192,53928,1,6,0:0:0:0:
256,192,54203,1,0,0:0:0:0:
256,192,54478,1,2,0:0:0:0:
256,192,54547,1,2,0:0:0:0:
256,192,54616,1,0,0:0:0:0:
256,192,54891,1,2,0:0:0:0:
256,192,54960,1,2,0:0:0:0:
256,192,55029,1,0,0:0:0:0:
256,192,55304,1,2,0:0:0:0:
256,192,55373,1,2,0:0:0:0:
256,192,55441,1,0,0:0:0:0:
256,192,55717,1,2,0:0:0:0:
256,192,55854,1,4,0:0:0:0:
256,192,56129,1,6,0:0:0:0:
256,192,56405,1,0,0:0:0:0:
256,192,56542,12,0,57918,0:0:0:0:
256,192,58056,5,4,0:0:0:0:
256,192,58331,1,6,0:0:0:0:
256,192,58607,1,2,0:0:0:0:
256,192,58675,1,2,0:0:0:0:
256,192,58744,1,0,0:0:0:0:
256,192,58882,1,0,0:0:0:0:
256,192,59019,1,2,0:0:0:0:
256,192,59088,1,2,0:0:0:0:
256,192,59157,1,0,0:0:0:0:
256,192,59295,1,0,0:0:0:0:
256,192,59432,1,2,0:0:0:0:
256,192,59501,1,2,0:0:0:0:
256,192,59570,1,0,0:0:0:0:
256,192,59639,1,0,0:0:0:0:
256,192,59707,1,0,0:0:0:0:
256,192,59845,1,2,0:0:0:0:
256,192,59914,1,2,0:0:0:0:
256,192,59983,1,0,0:0:0:0:
256,192,60120,1,2,0:0:0:0:
256,192,60258,1,4,0:0:0:0:
256,192,60533,1,6,0:0:0:0:
256,192,60808,1,2,0:0:0:0:
256,192,60877,1,2,0:0:0:0:
256,192,60946,1,0,0:0:0:0:
256,192,61084,1,0,0:0:0:0:
256,192,61221,1,2,0:0:0:0:
256,192,61290,1,2,0:0:0:0:
256,192,61359,1,0,0:0:0:0:
256,192,61496,1,0,0:0:0:0:
256,192,61634,1,2,0:0:0:0:
256,192,61703,1,2,0:0:0:0:
256,192,61772,1,0,0:0:0:0:
256,192,61840,1,0,0:0:0:0:
256,192,61909,1,0,0:0:0:0:
256,192,62047,1,2,0:0:0:0:
256,192,62116,1,2,0:0:0:0:
256,192,62184,1,0,0:0:0:0:
256,192,62322,1,2,0:0:0:0:
256,192,62460,1,4,0:0:0:0:
256,192,62735,1,6,0:0:0:0:
256,192,63010,1,0,0:0:0:0:
256,192,63285,1,2,0:0:0:0:
256,192,63354,1,2,0:0:0:0:
256,192,63423,1,0,0:0:0:0:
256,192,63698,1,2,0:0:0:0:
256,192,63767,1,2,0:0:0:0:
256,192,63836,1,0,0:0:0:0:
256,192,64111,1,2,0:0:0:0:
256,192,64180,1,2,0:0:0:0:
256,192,64249,1,0,0:0:0:0:
256,192,64524,1,2,0:0:0:0:
256,192,64662,1,4,0:0:0:0:
256,192,64937,1,6,0:0:0:0:
256,192,65212,1,0,0:0:0:0:
256,192,65349,12,0,66725,0:0:0:0:
256,192,66863,5,4,0:0:0:0:
256,192,67138,1,6,0:0:0:0:
256,192,70440,1,0,0:0:0:0:
256,192,70624,1,0,0:0:0:0:
256,192,70715,1,2,0:0:0:0:
256,192,70899,1,2,0:0:0:0:
256,192,70991,1,0,0:0:0:0:
256,192,71174,1,0,0:0:0:0:
256,192,71266,1,2,0:0:0:0:
256,192,71449,1,2,0:0:0:0:
256,192,71541,1,0,0:0:0:0:
256,192,71679,1,0,0:0:0:0:
256,192,71748,1,0,0:0:0:0:
256,192,71816,1,2,0:0:0:0:
256,192,71954,1,2,0:0:0:0:
256,192,72092,1,0,0:0:0:0:
256,192,72160,1,0,0:0:0:0:
256,192,72229,1,0,0:0:0:0:
256,192,72367,1,2,0:0:0:0:
256,192,72504,1,2,0:0:0:0:
256,192,72642,1,0,0:0:0:0:
256,192,72711,1,0,0:0:0:0:
256,192,72780,1,2,0:0:0:0:
256,192,72849,1,2,0:0:0:0:
256,192,72917,1,0,0:0:0:0:
256,192,73055,1,2,0:0:0:0:
256,192,73193,1,0,0:0:0:0:
256,192,73261,1,0,0:0:0:0:
256,192,73330,1,2,0:0:0:0:
256,192,73399,1,2,0:0:0:0:
256,192,73468,1,0,0:0:0:0:
256,192,73605,1,2,0:0:0:0:
256,192,73674,1,2,0:0:0:0:
256,192,73743,1,0,0:0:0:0:
256,192,73881,1,2,0:0:0:0:
256,192,74018,1,2,0:0:0:0:
256,192,74087,1,2,0:0:0:0:
256,192,74156,1,0,0:0:0:0:
256,192,74293,1,2,0:0:0:0:
256,192,74431,1,0,0:0:0:0:
256,192,74569,1,2,0:0:0:0:
256,192,74844,1,0,0:0:0:0:
256,192,74913,1,0,0:0:0:0:
256,192,74982,1,2,0:0:0:0:
256,192,75119,1,0,0:0:0:0:
256,192,75257,1,2,0:0:0:0:
256,192,75326,1,2,0:0:0:0:
256,192,75394,1,2,0:0:0:0:
256,192,75532,1,2,0:0:0:0:
256,192,75670,1,0,0:0:0:0:
256,192,75945,1,6,0:0:0:0:
256,192,76220,1,0,0:0:0:0:
256,192,76358,1,0,0:0:0:0:
256,192,76495,1,2,0:0:0:0:
256,192,76633,1,0,0:0:0:0:
256,192,76771,1,0,0:0:0:0:
256,192,77046,1,0,0:0:0:0:
256,192,77321,1,0,0:0:0:0:
256,192,77459,1,0,0:0:0:0:
256,192,77596,1,2,0:0:0:0:
256,192,77734,1,0,0:0:0:0:
256,192,77871,1,0,0:0:0:0:
256,192,78147,1,0,0:0:0:0:
256,192,78422,1,0,0:0:0:0:
256,192,78560,1,0,0:0:0:0:
256,192,78697,1,2,0:0:0:0:
256,192,78835,1,0,0:0:0:0:
256,192,78972,1,0,0:0:0:0:
256,192,79248,1,0,0:0:0:0:
256,192,79523,1,0,0:0:0:0:
256,192,79660,1,0,0:0:0:0:
256,192,79798,1,2,0:0:0:0:
256,192,79936,1,0,0:0:0:0:
256,192,80004,1,0,0:0:0:0:
256,192,80073,1,0,0:0:0:0:
256,192,80211,1,0,0:0:0:0:
256,192,80349,1,0,0:0:0:0:
256,192,80624,1,0,0:0:0:0:
256,192,80761,1,0,0:0:0:0:
256,192,80899,1,2,0:0:0:0:
256,192,81037,1,0,0:0:0:0:
256,192,81174,1,0,0:0:0:0:
256,192,81449,1,0,0:0:0:0:
256,192,81725,1,0,0:0:0:0:
256,192,81862,1,0,0:0:0:0:
256,192,82000,1,2,0:0:0:0:
256,192,82137,1,0,0:0:0:0:
256,192,82275,1,0,0:0:0:0:
256,192,82550,1,0,0:0:0:0:
256,192,82826,1,0,0:0:0:0:
256,192,82963,1,0,0:0:0:0:
256,192,83101,1,2,0:0:0:0:
256,192,83238,1,0,0:0:0:0:
256,192,83376,1,0,0:0:0:0:
256,192,83651,1,0,0:0:0:0:
256,192,83926,1,0,0:0:0:0:
256,192,84064,1,0,0:0:0:0:
256,192,84202,1,2,0:0:0:0:
256,192,84339,1,2,0:0:0:0:
256,192,84477,1,0,0:0:0:0:
256,192,84615,1,0,0:0:0:0:
256,192,84752,1,6,0:0:0:0:
256,192,85027,1,0,0:0:0:0:
256,192,85165,1,0,0:0:0:0:
256,192,85303,1,2,0:0:0:0:
256,192,85440,1,0,0:0:0:0:
256,192,85578,1,0,0:0:0:0:
256,192,85853,1,0,0:0:0:0:
256,192,86128,1,0,0:0:0:0:
256,192,86266,1,0,0:0:0:0:
256,192,86404,1,2,0:0:0:0:
256,192,86541,1,0,0:0:0:0:
256,192,86679,1,0,0:0:0:0:
256,192,86954,1,0,0:0:0:0:
256,192,87229,1,0,0:0:0:0:
256,192,87367,1,0,0:0:0:0:
256,192,87504,1,2,0:0:0:0:
256,192,87642,1,0,0:0:0:0:
256,192,87780,1,0,0:0:0:0:
256,192,88055,1,0,0:0:0:0:
256,192,88330,1,0,0:0:0:0:
256,192,88468,1,0,0:0:0:0:
256,192,88605,1,2,0:0:0:0:
256,192,88743,1,0,0:0:0:0:
256,192,88812,1,0,0:0:0:0:
256,192,88881,1,0,0:0:0:0:
256,192,89018,1,0,0:0:0:0:
256,192,89156,1,0,0:0:0:0:
256,192,89431,1,0,0:0:0:0:
256,192,89569,1,0,0:0:0:0:
256,192,89706,1,2,0:0:0:0:
256,192,89844,1,0,0:0:0:0:
256,192,89982,1,0,0:0:0:0:
256,192,90257,1,0,0:0:0:0:
256,192,90532,1,0,0:0:0:0:
256,192,90670,1,0,0:0:0:0:
256,192,90807,1,2,0:0:0:0:
256,192,90945,1,0,0:0:0:0:
256,192,91082,1,0,0:0:0:0:
256,192,91358,1,0,0:0:0:0:
256,192,91495,1,0,0:0:0:0:
256,192,91633,1,2,0:0:0:0:
256,192,91771,1,0,0:0:0:0:
256,192,91839,1,2,0:0:0:0:
256,192,91908,1,0,0:0:0:0:
256,192,92046,1,0,0:0:0:0:
256,192,92183,1,2,0:0:0:0:
256,192,92321,1,0,0:0:0:0:
256,192,92459,1,0,0:0:0:0:
256,192,92527,1,0,0:0:0:0:
256,192,92596,1,2,0:0:0:0:
256,192,92665,1,0,0:0:0:0:
256,192,92734,1,2,0:0:0:0:
256,192,92803,1,2,0:0:0:0:
256,192,92871,1,0,0:0:0:0:
256,192,93009,1,6,0:0:0:0:
256,192,93560,1,4,0:0:0:0:
256,192,93835,1,2,0:0:0:0:
256,192,93972,1,0,0:0:0:0:
256,192,94110,1,6,0:0:0:0:
256,192,94523,1,2,0:0:0:0:
256,192,94660,1,4,0:0:0:0:
256,192,94798,1,4,0:0:0:0:
256,192,94936,1,2,0:0:0:0:
256,192,95073,1,0,0:0:0:0:
256,192,95211,1,6,0:0:0:0:
256,192,95624,1,2,0:0:0:0:
256,192,95761,1,4,0:0:0:0:
256,192,96037,1,2,0:0:0:0:
256,192,96174,1,0,0:0:0:0:
256,192,96312,1,6,0:0:0:0:
256,192,96725,1,2,0:0:0:0:
256,192,96862,1,4,0:0:0:0:
256,192,97069,1,4,0:0:0:0:
256,192,97275,1,0,0:0:0:0:
256,192,97413,1,6,0:0:0:0:
256,192,97550,1,0,0:0:0:0:
256,192,97619,1,2,0:0:0:0:
256,192,97688,1,0,0:0:0:0:
256,192,97757,1,0,0:0:0:0:
256,192,97826,1,2,0:0:0:0:
256,192,97963,1,4,0:0:0:0:
256,192,98238,1,2,0:0:0:0:
256,192,98376,1,0,0:0:0:0:
256,192,98514,1,6,0:0:0:0:
256,192,98926,1,2,0:0:0:0:
256,192,99064,1,4,0:0:0:0:
256,192,99202,1,4,0:0:0:0:
256,192,99339,1,2,0:0:0:0:
256,192,99477,1,0,0:0:0:0:
256,192,99615,1,6,0:0:0:0:
256,192,100027,1,2,0:0:0:0:
256,192,100165,1,4,0:0:0:0:
256,192,100440,1,2,0:0:0:0:
256,192,100578,1,0,0:0:0:0:
256,192,100715,1,6,0:0:0:0:
256,192,101128,1,2,0:0:0:0:
256,192,101266,1,4,0:0:0:0:
256,192,101472,1,4,0:0:0:0:
256,192,101679,1,0,0:0:0:0:
256,192,101816,1,6,0:0:0:0:
256,192,101954,1,0,0:0:0:0:
256,192,102023,1,0,0:0:0:0:
256,192,102092,1,2,0:0:0:0:
256,192,102160,1,0,0:0:0:0:
256,192,102229,1,2,0:0:0:0:
256,192,102298,1,2,0:0:0:0:
256,192,102917,1,6,0:0:0:0:
256,192,103055,1,0,0:0:0:0:
256,192,103330,1,2,0:0:0:0:
256,192,103468,1,4,0:0:0:0:
256,192,103605,1,4,0:0:0:0:
256,192,103743,1,2,0:0:0:0:
256,192,103881,1,0,0:0:0:0:
256,192,104018,1,6,0:0:0:0:
256,192,104431,1,2,0:0:0:0:
256,192,104569,1,4,0:0:0:0:
256,192,104844,1,2,0:0:0:0:
256,192,104982,1,0,0:0:0:0:
256,192,105119,1,6,0:0:0:0:
256,192,105532,1,2,0:0:0:0:
256,192,105670,1,4,0:0:0:0:
256,192,105876,1,4,0:0:0:0:
256,192,106082,1,0,0:0:0:0:
256,192,106220,1,6,0:0:0:0:
256,192,106358,1,0,0:0:0:0:
256,192,106426,1,2,0:0:0:0:
256,192,106495,1,0,0:0:0:0:
256,192,106564,1,0,0:0:0:0:
256,192,106633,1,2,0:0:0:0:
256,192,106771,1,4,0:0:0:0:
256,192,107046,1,2,0:0:0:0:
256,192,107183,1,0,0:0:0:0:
256,192,107321,1,6,0:0:0:0:
256,192,107734,1,2,0:0:0:0:
256,192,107871,1,4,0:0:0:0:
256,192,108009,1,4,0:0:0:0:
256,192,108147,1,2,0:0:0:0:
256,192,108284,1,0,0:0:0:0:
256,192,108422,1,6,0:0:0:0:
256,192,108835,1,2,0:0:0:0:
256,192,108972,1,4,0:0:0:0:
256,192,109248,1,2,0:0:0:0:
256,192,109385,1,0,0:0:0:0:
256,192,109523,1,6,0:0:0:0:
256,192,109936,1,0,0:0:0:0:
256,192,110073,1,2,0:0:0:0:
256,192,110142,1,2,0:0:0:0:
256,192,110211,1,0,0:0:0:0:
256,192,110349,1,2,0:0:0:0:
256,192,110417,1,2,0:0:0:0:
256,192,110486,1,0,0:0:0:0:
256,192,110555,1,0,0:0:0:0:
256,192,110624,1,0,0:0:0:0:
256,192,110899,1,2,0:0:0:0:
256,192,111037,1,2,0:0:0:0:
256,192,111174,1,4,0:0:0:0:
256,192,111449,1,4,0:0:0:0:
224,192,111725,1,0,0:0:0:0:
256,192,111793,1,0,0:0:0:0:
256,192,111862,1,2,0:0:0:0:
256,192,112000,1,2,0:0:0:0:
256,192,112137,1,0,0:0:0:0:
256,192,112206,1,0,0:0:0:0:
256,192,112275,1,2,0:0:0:0:
256,192,112413,1,2,0:0:0:0:
256,192,112550,1,0,0:0:0:0:
256,192,112619,1,0,0:0:0:0:
256,192,112688,1,2,0:0:0:0:
256,192,112757,1,0,0:0:0:0:
256,192,112826,1,2,0:0:0:0:
256,192,112963,1,0,0:0:0:0:
256,192,113032,1,2,0:0:0:0:
256,192,113101,1,2,0:0:0:0:
256,192,113170,1,0,0:0:0:0:
256,192,113238,1,2,0:0:0:0:
256,192,113376,1,4,0:0:0:0:
256,192,113651,1,4,0:0:0:0:
256,192,113926,1,0,0:0:0:0:
256,192,114064,1,0,0:0:0:0:
256,192,114133,1,0,0:0:0:0:
256,192,114202,1,2,0:0:0:0:
256,192,114339,1,0,0:0:0:0:
256,192,114477,1,0,0:0:0:0:
256,192,114546,1,0,0:0:0:0:
256,192,114615,1,2,0:0:0:0:
256,192,114752,1,0,0:0:0:0:
256,192,114821,1,2,0:0:0:0:
256,192,114890,1,0,0:0:0:0:
256,192,114959,1,0,0:0:0:0:
256,192,115027,1,2,0:0:0:0:
256,192,115165,1,0,0:0:0:0:
256,192,115234,1,2,0:0:0:0:
256,192,115303,1,2,0:0:0:0:
256,192,115371,1,0,0:0:0:0:
256,192,115440,1,2,0:0:0:0:
256,192,115578,1,4,0:0:0:0:
256,192,115853,1,4,0:0:0:0:
224,192,116128,1,0,0:0:0:0:
256,192,116197,1,0,0:0:0:0:
256,192,116266,1,2,0:0:0:0:
256,192,116404,1,2,0:0:0:0:
256,192,116541,1,0,0:0:0:0:
256,192,116610,1,0,0:0:0:0:
256,192,116679,1,2,0:0:0:0:
256,192,116816,1,2,0:0:0:0:
256,192,116954,1,0,0:0:0:0:
256,192,117023,1,0,0:0:0:0:
256,192,117092,1,2,0:0:0:0:
256,192,117160,1,0,0:0:0:0:
256,192,117229,1,2,0:0:0:0:
256,192,117367,1,0,0:0:0:0:
256,192,117436,1,2,0:0:0:0:
256,192,117504,1,2,0:0:0:0:
256,192,117573,1,0,0:0:0:0:
256,192,117642,1,2,0:0:0:0:
256,192,117780,1,4,0:0:0:0:
256,192,118055,1,4,0:0:0:0:
256,192,118330,1,0,0:0:0:0:
256,192,118468,1,0,0:0:0:0:
256,192,118537,1,0,0:0:0:0:
256,192,118605,1,2,0:0:0:0:
256,192,118743,1,0,0:0:0:0:
256,192,118881,1,0,0:0:0:0:
256,192,118949,1,0,0:0:0:0:
256,192,119018,1,2,0:0:0:0:
256,192,119156,1,0,0:0:0:0:
256,192,119706,1,2,0:0:0:0:
256,192,119844,1,2,0:0:0:0:
256,192,119982,1,4,0:0:0:0:
256,192,120257,1,2,0:0:0:0:
256,192,120394,1,0,0:0:0:0:
256,192,120532,1,6,0:0:0:0:
256,192,120670,1,2,0:0:0:0:
256,192,120738,1,2,0:0:0:0:
256,192,120807,1,0,0:0:0:0:
256,192,120945,1,0,0:0:0:0:
256,192,121082,1,6,0:0:0:0:
256,192,121220,1,0,0:0:0:0:
256,192,121289,1,0,0:0:0:0:
256,192,121358,1,0,0:0:0:0:
256,192,121495,1,2,0:0:0:0:
256,192,121633,1,4,0:0:0:0:
256,192,121771,1,0,0:0:0:0:
256,192,121839,1,0,0:0:0:0:
256,192,121908,1,2,0:0:0:0:
256,192,122183,1,4,0:0:0:0:
256,192,122459,1,2,0:0:0:0:
256,192,122596,1,0,0:0:0:0:
256,192,122734,1,6,0:0:0:0:
256,192,122871,1,2,0:0:0:0:
256,192,122940,1,2,0:0:0:0:
256,192,123009,1,0,0:0:0:0:
256,192,123147,1,0,0:0:0:0:
256,192,123284,1,6,0:0:0:0:
256,192,123422,1,0,0:0:0:0:
256,192,123491,1,0,0:0:0:0:
256,192,123560,1,0,0:0:0:0:
256,192,123697,1,2,0:0:0:0:
256,192,123835,1,4,0:0:0:0:
256,192,123972,1,0,0:0:0:0:
256,192,124041,1,0,0:0:0:0:
256,192,124110,1,2,0:0:0:0:
256,192,124385,1,4,0:0:0:0:
256,192,124523,1,2,0:0:0:0:
256,192,124660,1,4,0:0:0:0:
256,192,124798,1,2,0:0:0:0:
256,192,124936,1,4,0:0:0:0:
256,192,125073,1,2,0:0:0:0:
256,192,125211,1,4,0:0:0:0:
256,192,125349,1,2,0:0:0:0:
256,192,125486,1,4,0:0:0:0:
256,192,125624,1,2,0:0:0:0:
256,192,125761,1,4,0:0:0:0:
256,192,125899,1,2,0:0:0:0:
256,192,126037,1,4,0:0:0:0:
256,192,126174,1,2,0:0:0:0:
256,192,126312,1,4,0:0:0:0:
256,192,126449,1,2,0:0:0:0:
256,192,126587,5,0,0:0:0:0:
256,192,126656,1,0,0:0:0:0:
256,192,126725,1,2,0:0:0:0:
256,192,126862,1,0,0:0:0:0:
256,192,127000,1,2,0:0:0:0:
256,192,127069,1,2,0:0:0:0:
256,192,127137,1,0,0:0:0:0:
256,192,127206,1,0,0:0:0:0:
256,192,127275,1,2,0:0:0:0:
256,192,127413,1,0,0:0:0:0:
256,192,127482,1,0,0:0:0:0:
256,192,127550,1,2,0:0:0:0:
256,192,127619,1,2,0:0:0:0:
256,192,127688,1,0,0:0:0:0:
256,192,127826,12,0,128376,0:0:0:0:
256,192,128514,5,6,0:0:0:0:
256,192,128789,1,4,0:0:0:0:
256,192,129064,1,4,0:0:0:0:
256,192,129339,1,4,0:0:0:0:
256,192,129615,1,4,0:0:0:0:
256,192,129890,1,4,0:0:0:0:
256,192,130165,1,4,0:0:0:0:
256,192,130440,1,4,0:0:0:0:
256,192,130578,1,4,0:0:0:0:
256,192,130715,1,2,0:0:0:0:
256,192,130991,1,4,0:0:0:0:
256,192,131128,1,4,0:0:0:0:
256,192,131266,1,4,0:0:0:0:
256,192,131541,1,4,0:0:0:0:
256,192,131679,1,4,0:0:0:0:
256,192,131954,1,0,0:0:0:0:
256,192,132023,1,0,0:0:0:0:
256,192,132092,1,0,0:0:0:0:
256,192,132367,1,4,0:0:0:0:
256,192,132642,1,4,0:0:0:0:
256,192,132780,1,4,0:0:0:0:
256,192,132917,1,2,0:0:0:0:
256,192,133193,1,4,0:0:0:0:
256,192,133468,1,4,0:0:0:0:
256,192,133743,1,4,0:0:0:0:
256,192,134018,1,4,0:0:0:0:
256,192,134293,1,4,0:0:0:0:
256,192,134569,1,4,0:0:0:0:
256,192,134844,1,4,0:0:0:0:
256,192,134982,1,4,0:0:0:0:
256,192,135119,1,2,0:0:0:0:
256,192,135394,1,4,0:0:0:0:
256,192,135532,1,4,0:0:0:0:
256,192,135670,1,4,0:0:0:0:
256,192,135945,1,4,0:0:0:0:
256,192,136082,1,4,0:0:0:0:
256,192,136358,1,0,0:0:0:0:
256,192,136426,1,0,0:0:0:0:
256,192,136495,1,0,0:0:0:0:
256,192,136679,1,4,0:0:0:0:
256,192,136862,1,4,0:0:0:0:
256,192,137046,1,4,0:0:0:0:
256,192,137321,1,2,0:0:0:0:
256,192,137871,1,4,0:0:0:0:
256,192,138147,1,4,0:0:0:0:
256,192,138422,1,4,0:0:0:0:
256,192,138697,1,4,0:0:0:0:
256,192,138972,1,4,0:0:0:0:
256,192,139248,1,4,0:0:0:0:
256,192,139385,1,4,0:0:0:0:
256,192,139523,1,2,0:0:0:0:
256,192,139798,1,4,0:0:0:0:
256,192,139936,1,4,0:0:0:0:
256,192,140073,1,4,0:0:0:0:
256,192,140349,1,4,0:0:0:0:
256,192,140486,1,4,0:0:0:0:
256,192,140761,1,0,0:0:0:0:
256,192,140830,1,0,0:0:0:0:
256,192,140899,1,0,0:0:0:0:
256,192,141174,1,4,0:0:0:0:
256,192,141449,1,4,0:0:0:0:
256,192,141587,1,4,0:0:0:0:
256,192,141725,1,2,0:0:0:0:
256,192,142000,1,4,0:0:0:0:
256,192,142275,1,4,0:0:0:0:
256,192,142550,1,4,0:0:0:0:
256,192,142826,1,4,0:0:0:0:
256,192,143101,1,4,0:0:0:0:
256,192,143376,1,4,0:0:0:0:
256,192,143651,1,4,0:0:0:0:
256,192,143789,1,4,0:0:0:0:
256,192,143926,1,2,0:0:0:0:
256,192,144202,1,4,0:0:0:0:
256,192,144339,1,4,0:0:0:0:
256,192,144477,1,4,0:0:0:0:
256,192,144752,1,4,0:0:0:0:
256,192,144890,1,4,0:0:0:0:
256,192,145165,1,2,0:0:0:0:
256,192,145234,1,2,0:0:0:0:
256,192,145303,1,0,0:0:0:0:
256,192,145440,12,0,146266,0:0:0:0:
256,192,146404,5,4,0:0:0:0:
256,192,146679,1,2,0:0:0:0:
256,192,146816,1,0,0:0:0:0:
256,192,146954,1,6,0:0:0:0:
256,192,147367,1,2,0:0:0:0:
256,192,147504,1,4,0:0:0:0:
256,192,147642,1,4,0:0:0:0:
256,192,147780,1,2,0:0:0:0:
256,192,147917,1,0,0:0:0:0:
256,192,148055,1,6,0:0:0:0:
256,192,148468,1,2,0:0:0:0:
256,192,148605,1,4,0:0:0:0:
256,192,148881,1,2,0:0:0:0:
256,192,149018,1,0,0:0:0:0:
256,192,149156,1,6,0:0:0:0:
256,192,149569,1,2,0:0:0:0:
256,192,149706,1,4,0:0:0:0:
256,192,149913,1,4,0:0:0:0:
256,192,150119,1,0,0:0:0:0:
256,192,150257,1,6,0:0:0:0:
256,192,150394,1,0,0:0:0:0:
256,192,150463,1,2,0:0:0:0:
256,192,150532,1,0,0:0:0:0:
256,192,150601,1,0,0:0:0:0:
256,192,150670,1,2,0:0:0:0:
256,192,150807,1,4,0:0:0:0:
256,192,151082,1,2,0:0:0:0:
256,192,151220,1,0,0:0:0:0:
256,192,151358,1,6,0:0:0:0:
256,192,151771,1,2,0:0:0:0:
256,192,151908,1,4,0:0:0:0:
256,192,152046,1,4,0:0:0:0:
256,192,152183,1,2,0:0:0:0:
256,192,152321,1,0,0:0:0:0:
256,192,152459,1,6,0:0:0:0:
256,192,152871,1,2,0:0:0:0:
256,192,153009,1,4,0:0:0:0:
256,192,153284,1,2,0:0:0:0:
256,192,153422,1,0,0:0:0:0:
256,192,153560,1,6,0:0:0:0:
256,192,153972,1,2,0:0:0:0:
256,192,154110,1,4,0:0:0:0:
256,192,154316,1,4,0:0:0:0:
256,192,154523,1,0,0:0:0:0:
256,192,154660,1,6,0:0:0:0:
256,192,154798,1,0,0:0:0:0:
256,192,154867,1,0,0:0:0:0:
256,192,154936,1,2,0:0:0:0:
256,192,155004,1,0,0:0:0:0:
256,192,155073,1,2,0:0:0:0:
256,192,155142,1,2,0:0:0:0:
256,192,155761,1,6,0:0:0:0:
256,192,155899,1,0,0:0:0:0:
256,192,156174,1,2,0:0:0:0:
256,192,156312,1,4,0:0:0:0:
256,192,156449,1,4,0:0:0:0:
256,192,156587,1,2,0:0:0:0:
256,192,156725,1,0,0:0:0:0:
256,192,156862,1,6,0:0:0:0:
256,192,157275,1,2,0:0:0:0:
256,192,157413,1,4,0:0:0:0:
256,192,157688,1,2,0:0:0:0:
256,192,157826,1,0,0:0:0:0:
256,192,157963,1,6,0:0:0:0:
256,192,158376,1,2,0:0:0:0:
256,192,158514,1,4,0:0:0:0:
256,192,158720,1,4,0:0:0:0:
256,192,158926,1,0,0:0:0:0:
256,192,159064,1,6,0:0:0:0:
256,192,159202,1,0,0:0:0:0:
256,192,159271,1,2,0:0:0:0:
256,192,159339,1,0,0:0:0:0:
256,192,159408,1,0,0:0:0:0:
256,192,159477,1,2,0:0:0:0:
256,192,159615,1,4,0:0:0:0:
256,192,159890,1,2,0:0:0:0:
256,192,160027,1,0,0:0:0:0:
256,192,160165,1,6,0:0:0:0:
256,192,160578,1,2,0:0:0:0:
256,192,160715,1,4,0:0:0:0:
256,192,160853,1,4,0:0:0:0:
256,192,160991,1,2,0:0:0:0:
256,192,161128,1,0,0:0:0:0:
256,192,161266,1,6,0:0:0:0:
256,192,161679,1,2,0:0:0:0:
256,192,161816,1,4,0:0:0:0:
256,192,162092,1,2,0:0:0:0:
256,192,162229,1,0,0:0:0:0:
256,192,162367,1,6,0:0:0:0:
256,192,162780,1,0,0:0:0:0:
256,192,162917,1,2,0:0:0:0:
256,192,162986,1,2,0:0:0:0:
256,192,163055,1,0,0:0:0:0:
256,192,163193,1,2,0:0:0:0:
256,192,163261,1,2,0:0:0:0:
256,192,163330,1,0,0:0:0:0:
256,192,163399,1,0,0:0:0:0:
256,192,163468,1,0,0:0:0:0:
256,192,163743,1,2,0:0:0:0:
256,192,163881,1,2,0:0:0:0:
256,192,164018,1,4,0:0:0:0:
256,192,164156,12,0,168284,0:0:0:0:
256,192,168422,5,4,0:0:0:0:
256,192,170624,1,0,0:0:0:0:
256,192,172826,1,2,0:0:0:0:
256,192,175027,1,0,0:0:0:0:
256,192,176679,1,0,0:0:0:0:
256,192,176816,1,2,0:0:0:0:
256,192,176954,1,0,0:0:0:0:
256,192,177092,1,0,0:0:0:0:
256,192,177229,1,6,0:0:0:0:
256,192,179431,1,0,0:0:0:0:
256,192,181633,1,2,0:0:0:0:
256,192,181908,1,2,0:0:0:0:
256,192,182183,1,2,0:0:0:0:
256,192,182459,1,2,0:0:0:0:
256,192,182734,1,2,0:0:0:0:
256,192,183009,1,2,0:0:0:0:
256,192,183284,1,2,0:0:0:0:
256,192,183560,1,2,0:0:0:0:
256,192,183835,1,0,0:0:0:0:
256,192,184110,1,0,0:0:0:0:
256,192,184385,1,0,0:0:0:0:
256,192,184660,1,0,0:0:0:0:
256,192,184936,1,0,0:0:0:0:
256,192,185211,1,0,0:0:0:0:
256,192,186037,1,4,0:0:0:0:
256,192,186312,1,0,0:0:0:0:
256,192,186449,1,2,0:0:0:0:
256,192,186587,1,0,0:0:0:0:
256,192,186725,1,2,0:0:0:0:
256,192,186862,1,0,0:0:0:0:
256,192,187000,1,2,0:0:0:0:
256,192,187137,1,0,0:0:0:0:
256,192,187275,1,2,0:0:0:0:
256,192,187413,1,0,0:0:0:0:
256,192,187550,1,2,0:0:0:0:
256,192,187688,1,0,0:0:0:0:
256,192,187826,1,0,0:0:0:0:
256,192,187963,1,2,0:0:0:0:
256,192,188101,1,2,0:0:0:0:
256,192,188238,1,4,0:0:0:0:
256,192,188514,1,2,0:0:0:0:
256,192,188651,1,0,0:0:0:0:
256,192,188789,1,2,0:0:0:0:
256,192,188926,1,0,0:0:0:0:
256,192,189064,1,2,0:0:0:0:
256,192,189202,1,0,0:0:0:0:
256,192,189339,1,2,0:0:0:0:
256,192,189477,1,0,0:0:0:0:
256,192,189615,1,2,0:0:0:0:
256,192,189752,1,0,0:0:0:0:
256,192,189890,1,0,0:0:0:0:
256,192,190027,1,0,0:0:0:0:
256,192,190165,1,2,0:0:0:0:
256,192,190303,1,2,0:0:0:0:
256,192,190440,1,4,0:0:0:0:
256,192,190715,1,0,0:0:0:0:
256,192,190852,1,2,0:0:0:0:
256,192,190990,1,0,0:0:0:0:
256,192,191128,1,2,0:0:0:0:
256,192,191265,1,0,0:0:0:0:
256,192,191403,1,2,0:0:0:0:
256,192,191540,1,0,0:0:0:0:
256,192,191678,1,2,0:0:0:0:
256,192,191816,1,0,0:0:0:0:
256,192,191953,1,2,0:0:0:0:
256,192,192091,1,0,0:0:0:0:
256,192,192229,1,0,0:0:0:0:
256,192,192366,1,2,0:0:0:0:
256,192,192504,1,2,0:0:0:0:
256,192,192642,1,4,0:0:0:0:
256,192,192917,1,2,0:0:0:0:
256,192,193054,1,0,0:0:0:0:
256,192,193192,1,2,0:0:0:0:
256,192,193329,1,0,0:0:0:0:
256,192,193467,1,2,0:0:0:0:
256,192,193605,1,0,0:0:0:0:
256,192,193742,1,2,0:0:0:0:
256,192,193880,1,0,0:0:0:0:
256,192,194018,1,2,0:0:0:0:
256,192,194155,1,0,0:0:0:0:
256,192,194293,1,0,0:0:0:0:
256,192,194430,1,0,0:0:0:0:
256,192,194568,1,2,0:0:0:0:
256,192,194706,1,2,0:0:0:0:
256,192,194844,1,4,0:0:0:0:
256,192,195119,1,0,0:0:0:0:
256,192,195256,1,2,0:0:0:0:
256,192,195326,1,2,0:0:0:0:
256,192,195394,1,0,0:0:0:0:
256,192,195532,1,2,0:0:0:0:
256,192,195669,1,0,0:0:0:0:
256,192,195807,1,2,0:0:0:0:
256,192,195876,1,2,0:0:0:0:
256,192,195944,1,0,0:0:0:0:
256,192,196082,1,2,0:0:0:0:
256,192,196220,1,0,0:0:0:0:
256,192,196357,1,2,0:0:0:0:
256,192,196426,1,2,0:0:0:0:
256,192,196495,1,0,0:0:0:0:
256,192,196633,1,0,0:0:0:0:
256,192,196770,1,2,0:0:0:0:
256,192,196908,1,2,0:0:0:0:
256,192,197046,1,4,0:0:0:0:
256,192,197321,1,2,0:0:0:0:
256,192,197458,1,0,0:0:0:0:
256,192,197527,1,0,0:0:0:0:
256,192,197596,1,2,0:0:0:0:
256,192,197733,1,0,0:0:0:0:
256,192,197871,1,2,0:0:0:0:
256,192,198009,1,0,0:0:0:0:
256,192,198078,1,0,0:0:0:0:
256,192,198146,1,2,0:0:0:0:
256,192,198284,1,0,0:0:0:0:
256,192,198422,1,2,0:0:0:0:
256,192,198559,1,0,0:0:0:0:
256,192,198628,1,0,0:0:0:0:
256,192,198697,1,0,0:0:0:0:
256,192,198834,1,0,0:0:0:0:
256,192,198972,1,2,0:0:0:0:
256,192,199110,1,2,0:0:0:0:
256,192,199248,1,4,0:0:0:0:
256,192,199523,1,0,0:0:0:0:
256,192,199660,1,2,0:0:0:0:
256,192,199730,1,2,0:0:0:0:
256,192,199798,1,0,0:0:0:0:
256,192,199936,1,2,0:0:0:0:
256,192,200073,1,0,0:0:0:0:
256,192,200211,1,2,0:0:0:0:
256,192,200280,1,2,0:0:0:0:
256,192,200348,1,0,0:0:0:0:
256,192,200486,1,2,0:0:0:0:
256,192,200624,1,0,0:0:0:0:
256,192,200761,1,2,0:0:0:0:
256,192,200830,1,2,0:0:0:0:
256,192,200899,1,0,0:0:0:0:
256,192,201037,1,0,0:0:0:0:
256,192,201174,1,2,0:0:0:0:
256,192,201312,1,2,0:0:0:0:
256,192,201449,1,4,0:0:0:0:
256,192,202000,12,0,202963,0:0:0:0:
256,192,203101,5,0,0:0:0:0:
256,192,203376,1,2,0:0:0:0:
256,192,203514,1,2,0:0:0:0:
256,192,203651,1,4,0:0:0:0:
256,192,203926,1,4,0:0:0:0:
224,192,204202,1,0,0:0:0:0:
256,192,204339,1,0,0:0:0:0:
256,192,204408,1,0,0:0:0:0:
256,192,204477,1,2,0:0:0:0:
256,192,204614,1,0,0:0:0:0:
256,192,204752,1,0,0:0:0:0:
256,192,204821,1,0,0:0:0:0:
256,192,204890,1,2,0:0:0:0:
256,192,205027,1,0,0:0:0:0:
256,192,205096,1,2,0:0:0:0:
256,192,205165,1,0,0:0:0:0:
256,192,205234,1,0,0:0:0:0:
256,192,205303,1,2,0:0:0:0:
256,192,205440,1,0,0:0:0:0:
256,192,205509,1,2,0:0:0:0:
256,192,205578,1,2,0:0:0:0:
256,192,205647,1,0,0:0:0:0:
256,192,205715,1,2,0:0:0:0:
256,192,205853,1,4,0:0:0:0:
256,192,206128,1,4,0:0:0:0:
256,192,206403,1,0,0:0:0:0:
256,192,206541,1,2,0:0:0:0:
256,192,206610,1,0,0:0:0:0:
256,192,206679,1,2,0:0:0:0:
256,192,206816,1,0,0:0:0:0:
256,192,206954,1,2,0:0:0:0:
256,192,207023,1,0,0:0:0:0:
256,192,207092,1,2,0:0:0:0:
256,192,207229,1,0,0:0:0:0:
256,192,207298,1,0,0:0:0:0:
256,192,207367,1,2,0:0:0:0:
256,192,207436,1,0,0:0:0:0:
256,192,207504,1,2,0:0:0:0:
256,192,207642,1,0,0:0:0:0:
256,192,207711,1,2,0:0:0:0:
256,192,207780,1,2,0:0:0:0:
256,192,207848,1,0,0:0:0:0:
256,192,207917,1,2,0:0:0:0:
256,192,208055,1,4,0:0:0:0:
256,192,208330,1,4,0:0:0:0:
224,192,208605,1,0,0:0:0:0:
256,192,208743,1,0,0:0:0:0:
256,192,208812,1,0,0:0:0:0:
256,192,208881,1,2,0:0:0:0:
256,192,209018,1,0,0:0:0:0:
256,192,209156,1,0,0:0:0:0:
256,192,209225,1,0,0:0:0:0:
256,192,209293,1,2,0:0:0:0:
256,192,209431,1,0,0:0:0:0:
256,192,209500,1,2,0:0:0:0:
256,192,209569,1,0,0:0:0:0:
256,192,209637,1,0,0:0:0:0:
256,192,209706,1,2,0:0:0:0:
256,192,209844,1,0,0:0:0:0:
256,192,209913,1,2,0:0:0:0:
256,192,209981,1,2,0:0:0:0:
256,192,210050,1,0,0:0:0:0:
256,192,210119,1,2,0:0:0:0:
256,192,210257,1,4,0:0:0:0:
256,192,210532,1,4,0:0:0:0:
256,192,210807,1,0,0:0:0:0:
256,192,210945,1,2,0:0:0:0:
256,192,211014,1,0,0:0:0:0:
256,192,211082,1,2,0:0:0:0:
256,192,211220,1,0,0:0:0:0:
256,192,211358,1,2,0:0:0:0:
256,192,211426,1,0,0:0:0:0:
256,192,211495,1,2,0:0:0:0:
256,192,211633,1,0,0:0:0:0:
256,192,212183,1,2,0:0:0:0:
256,192,212321,1,2,0:0:0:0:
256,192,212459,1,4,0:0:0:0:
256,192,212734,1,2,0:0:0:0:
256,192,212871,1,0,0:0:0:0:
256,192,213009,1,6,0:0:0:0:
256,192,213147,1,2,0:0:0:0:
256,192,213215,1,2,0:0:0:0:
256,192,213284,1,0,0:0:0:0:
256,192,213422,1,0,0:0:0:0:
256,192,213559,1,6,0:0:0:0:
256,192,213697,1,0,0:0:0:0:
256,192,213766,1,0,0:0:0:0:
256,192,213835,1,0,0:0:0:0:
256,192,213972,1,2,0:0:0:0:
256,192,214110,1,4,0:0:0:0:
256,192,214248,1,0,0:0:0:0:
256,192,214316,1,0,0:0:0:0:
256,192,214385,1,2,0:0:0:0:
256,192,214660,1,4,0:0:0:0:
256,192,214936,1,2,0:0:0:0:
256,192,215073,1,0,0:0:0:0:
256,192,215211,1,6,0:0:0:0:
256,192,215348,1,2,0:0:0:0:
256,192,215417,1,2,0:0:0:0:
256,192,215486,1,0,0:0:0:0:
256,192,215624,1,0,0:0:0:0:
256,192,215761,1,6,0:0:0:0:
256,192,215899,1,0,0:0:0:0:
256,192,215968,1,0,0:0:0:0:
256,192,216037,1,0,0:0:0:0:
256,192,216174,1,2,0:0:0:0:
256,192,216312,1,4,0:0:0:0:
256,192,216449,1,0,0:0:0:0:
256,192,216518,1,0,0:0:0:0:
256,192,216587,1,2,0:0:0:0:
256,192,216862,1,4,0:0:0:0:
256,192,217000,1,2,0:0:0:0:
256,192,217137,1,4,0:0:0:0:
256,192,217275,1,2,0:0:0:0:
256,192,217413,1,4,0:0:0:0:
256,192,217550,1,2,0:0:0:0:
256,192,217688,1,4,0:0:0:0:
256,192,217826,1,2,0:0:0:0:
256,192,217963,1,4,0:0:0:0:
256,192,218101,1,2,0:0:0:0:
256,192,218238,1,4,0:0:0:0:
256,192,218376,1,2,0:0:0:0:
256,192,218514,1,4,0:0:0:0:
256,192,218651,1,2,0:0:0:0:
256,192,218789,1,4,0:0:0:0:
256,192,218926,1,2,0:0:0:0:
256,192,219064,5,0,0:0:0:0:
256,192,219133,1,0,0:0:0:0:
256,192,219202,1,0,0:0:0:0:
256,192,219339,1,2,0:0:0:0:
256,192,219477,1,0,0:0:0:0:
256,192,219546,1,2,0:0:0:0:
256,192,219614,1,0,0:0:0:0:
256,192,219683,1,0,0:0:0:0:
256,192,219752,1,2,0:0:0:0:
256,192,219890,1,2,0:0:0:0:
256,192,219959,1,0,0:0:0:0:
256,192,220027,1,2,0:0:0:0:
256,192,220096,1,2,0:0:0:0:
256,192,220165,1,0,0:0:0:0:
256,192,221541,1,0,0:0:0:0:
256,192,221919,1,2,0:0:0:0:
256,192,224568,1,0,0:0:0:0:
256,192,224636,1,0,0:0:0:0:
256,192,224705,1,2,0:0:0:0:
256,192,224843,1,2,0:0:0:0:
256,192,224912,1,2,0:0:0:0:
256,192,224980,1,0,0:0:0:0:
256,192,225049,1,0,0:0:0:0:
256,192,225118,1,2,0:0:0:0:
256,192,225256,1,2,0:0:0:0:
256,192,225324,1,2,0:0:0:0:
256,192,225393,1,0,0:0:0:0:
256,192,225668,1,6,0:0:0:0:
256,192,225944,1,2,0:0:0:0:
256,192,226081,1,0,0:0:0:0:
256,192,226219,1,0,0:0:0:0:
256,192,226356,1,2,0:0:0:0:
256,192,226494,1,0,0:0:0:0:
256,192,226563,1,2,0:0:0:0:
256,192,226632,1,0,0:0:0:0:
256,192,226769,1,2,0:0:0:0:
256,192,226907,1,0,0:0:0:0:
256,192,227044,1,0,0:0:0:0:
256,192,227182,1,2,0:0:0:0:
256,192,227320,1,0,0:0:0:0:
256,192,227388,1,2,0:0:0:0:
256,192,227457,1,0,0:0:0:0:
256,192,227595,1,2,0:0:0:0:
256,192,227664,1,0,0:0:0:0:
256,192,227732,1,2,0:0:0:0:
256,192,227870,1,4,0:0:0:0:
256,192,228145,1,2,0:0:0:0:
256,192,228283,1,2,0:0:0:0:
256,192,228421,1,0,0:0:0:0:
256,192,228558,1,2,0:0:0:0:
256,192,228696,1,2,0:0:0:0:
256,192,228765,1,2,0:0:0:0:
256,192,228833,1,0,0:0:0:0:
256,192,228971,1,2,0:0:0:0:
256,192,229109,1,2,0:0:0:0:
256,192,229246,1,0,0:0:0:0:
256,192,229384,1,2,0:0:0:0:
256,192,229521,1,2,0:0:0:0:
256,192,229590,1,2,0:0:0:0:
256,192,229659,1,0,0:0:0:0:
256,192,229797,1,2,0:0:0:0:
256,192,229866,1,0,0:0:0:0:
256,192,229934,1,2,0:0:0:0:
256,192,230072,1,4,0:0:0:0:
256,192,230210,1,0,0:0:0:0:
256,192,230278,1,0,0:0:0:0:
256,192,230347,1,2,0:0:0:0:
256,192,230622,1,0,0:0:0:0:
256,192,230691,1,0,0:0:0:0:
256,192,230760,1,2,0:0:0:0:
256,192,230898,1,0,0:0:0:0:
256,192,231035,1,0,0:0:0:0:
256,192,231104,1,0,0:0:0:0:
256,192,231173,1,2,0:0:0:0:
256,192,231310,1,0,0:0:0:0:
256,192,231448,1,0,0:0:0:0:
256,192,231517,1,0,0:0:0:0:
256,192,231586,1,2,0:0:0:0:
256,192,231723,1,0,0:0:0:0:
256,192,231861,1,0,0:0:0:0:
256,192,231930,1,0,0:0:0:0:
256,192,231999,1,2,0:0:0:0:
256,192,232067,1,0,0:0:0:0:
256,192,232136,1,2,0:0:0:0:
256,192,232274,1,4,0:0:0:0:
256,192,232549,1,2,0:0:0:0:
256,192,232755,1,2,0:0:0:0:
256,192,232824,1,0,0:0:0:0:
256,192,232962,1,2,0:0:0:0:
256,192,233099,1,0,0:0:0:0:
256,192,233168,1,2,0:0:0:0:
256,192,233237,1,0,0:0:0:0:
256,192,233375,1,2,0:0:0:0:
256,192,233444,1,2,0:0:0:0:
256,192,233512,1,0,0:0:0:0:
256,192,233650,1,2,0:0:0:0:
256,192,233788,1,0,0:0:0:0:
256,192,233856,1,2,0:0:0:0:
256,192,233925,1,0,0:0:0:0:
256,192,234063,1,2,0:0:0:0:
256,192,234200,1,4,0:0:0:0:
256,192,234476,1,6,0:0:0:0:
256,192,234751,1,2,0:0:0:0:
256,192,234888,1,0,0:0:0:0:
256,192,235026,1,0,0:0:0:0:
256,192,235163,1,2,0:0:0:0:
256,192,235301,1,0,0:0:0:0:
256,192,235370,1,2,0:0:0:0:
256,192,235439,1,0,0:0:0:0:
256,192,235576,1,2,0:0:0:0:
256,192,235714,1,0,0:0:0:0:
256,192,235851,1,0,0:0:0:0:
256,192,235989,1,2,0:0:0:0:
256,192,236127,1,0,0:0:0:0:
256,192,236195,1,2,0:0:0:0:
256,192,236264,1,0,0:0:0:0:
256,192,236402,1,2,0:0:0:0:
256,192,236471,1,0,0:0:0:0:
256,192,236539,1,2,0:0:0:0:
256,192,236677,1,4,0:0:0:0:
256,192,236952,1,2,0:0:0:0:
256,192,237090,1,2,0:0:0:0:
256,192,237228,1,0,0:0:0:0:
256,192,237365,1,2,0:0:0:0:
256,192,237503,1,2,0:0:0:0:
256,192,237572,1,2,0:0:0:0:
256,192,237640,1,0,0:0:0:0:
256,192,237778,1,2,0:0:0:0:
256,192,237916,1,2,0:0:0:0:
256,192,238053,1,0,0:0:0:0:
256,192,238191,1,2,0:0:0:0:
256,192,238328,1,2,0:0:0:0:
256,192,238397,1,2,0:0:0:0:
256,192,238466,1,0,0:0:0:0:
256,192,238604,1,2,0:0:0:0:
256,192,238673,1,0,0:0:0:0:
256,192,238741,1,2,0:0:0:0:
256,192,238879,1,4,0:0:0:0:
256,192,239017,1,0,0:0:0:0:
256,192,239085,1,0,0:0:0:0:
256,192,239154,1,2,0:0:0:0:
256,192,239429,1,2,0:0:0:0:
256,192,239498,1,0,0:0:0:0:
256,192,239567,1,2,0:0:0:0:
256,192,239705,1,0,0:0:0:0:
256,192,239842,1,2,0:0:0:0:
256,192,239911,1,0,0:0:0:0:
256,192,239980,1,2,0:0:0:0:
256,192,240117,1,0,0:0:0:0:
256,192,240255,1,2,0:0:0:0:
256,192,240324,1,0,0:0:0:0:
256,192,240393,1,2,0:0:0:0:
256,192,240530,1,0,0:0:0:0:
256,192,240668,1,2,0:0:0:0:
256,192,240737,1,2,0:0:0:0:
256,192,240806,1,0,0:0:0:0:
256,192,240874,1,0,0:0:0:0:
256,192,240943,1,2,0:0:0:0:
256,192,241081,1,4,0:0:0:0:
256,192,241356,1,2,0:0:0:0:
256,192,241562,1,2,0:0:0:0:
256,192,241631,1,0,0:0:0:0:
256,192,241769,1,2,0:0:0:0:
256,192,241906,1,0,0:0:0:0:
256,192,241975,1,2,0:0:0:0:
256,192,242044,1,0,0:0:0:0:
256,192,242182,1,2,0:0:0:0:
256,192,242251,1,2,0:0:0:0:
256,192,242319,1,0,0:0:0:0:
256,192,242457,1,2,0:0:0:0:
256,192,242595,1,0,0:0:0:0:
256,192,242663,1,2,0:0:0:0:
256,192,242732,1,0,0:0:0:0:
256,192,242870,1,2,0:0:0:0:
256,192,243007,1,4,0:0:0:0:
256,192,243283,1,6,0:0:0:0:
256,192,243558,1,0,0:0:0:0:
256,192,243627,1,0,0:0:0:0:
256,192,243696,1,2,0:0:0:0:
256,192,243833,1,2,0:0:0:0:
256,192,243971,1,0,0:0:0:0:
256,192,244040,1,0,0:0:0:0:
256,192,244109,1,2,0:0:0:0:
256,192,244246,1,2,0:0:0:0:
256,192,244384,1,0,0:0:0:0:
256,192,244453,1,0,0:0:0:0:
256,192,244521,1,2,0:0:0:0:
256,192,244659,1,0,0:0:0:0:
256,192,244728,1,0,0:0:0:0:
256,192,244797,1,2,0:0:0:0:
256,192,244866,1,2,0:0:0:0:
256,192,244934,1,0,0:0:0:0:
256,192,245072,1,2,0:0:0:0:
256,192,245141,1,0,0:0:0:0:
256,192,245210,1,2,0:0:0:0:
256,192,245278,1,2,0:0:0:0:
256,192,245347,1,0,0:0:0:0:
256,192,245485,1,4,0:0:0:0:
256,192,245760,1,0,0:0:0:0:
256,192,245829,1,0,0:0:0:0:
256,192,245898,1,2,0:0:0:0:
256,192,246035,1,2,0:0:0:0:
256,192,246173,1,0,0:0:0:0:
256,192,246242,1,0,0:0:0:0:
256,192,246311,1,2,0:0:0:0:
256,192,246448,1,2,0:0:0:0:
256,192,246586,1,0,0:0:0:0:
256,192,246655,1,0,0:0:0:0:
256,192,246723,1,2,0:0:0:0:
256,192,246861,1,0,0:0:0:0:
256,192,246930,1,0,0:0:0:0:
256,192,246999,1,2,0:0:0:0:
256,192,247067,1,2,0:0:0:0:
256,192,247136,1,0,0:0:0:0:
256,192,247274,1,2,0:0:0:0:
256,192,247343,1,0,0:0:0:0:
256,192,247412,1,2,0:0:0:0:
256,192,247480,1,2,0:0:0:0:
256,192,247549,1,0,0:0:0:0:
256,192,247687,1,4,0:0:0:0:
256,192,247824,1,0,0:0:0:0:
256,192,247893,1,0,0:0:0:0:
256,192,247962,1,2,0:0:0:0:
256,192,248236,1,0,0:0:0:0:
256,192,248305,1,0,0:0:0:0:
256,192,248374,1,2,0:0:0:0:
256,192,248512,1,0,0:0:0:0:
256,192,248649,1,0,0:0:0:0:
256,192,248718,1,0,0:0:0:0:
256,192,248787,1,2,0:0:0:0:
256,192,248924,1,0,0:0:0:0:
256,192,249062,1,0,0:0:0:0:
256,192,249131,1,0,0:0:0:0:
256,192,249200,1,2,0:0:0:0:
256,192,249337,1,0,0:0:0:0:
256,192,249475,1,0,0:0:0:0:
256,192,249544,1,0,0:0:0:0:
256,192,249613,1,2,0:0:0:0:
256,192,249681,1,0,0:0:0:0:
256,192,249750,1,2,0:0:0:0:
256,192,249888,1,4,0:0:0:0:
256,192,250164,1,2,0:0:0:0:
256,192,250369,1,2,0:0:0:0:
256,192,250438,1,0,0:0:0:0:
256,192,250576,1,2,0:0:0:0:
256,192,250713,1,0,0:0:0:0:
256,192,250782,1,2,0:0:0:0:
256,192,250851,1,0,0:0:0:0:
256,192,250989,1,2,0:0:0:0:
256,192,251126,1,0,0:0:0:0:
256,192,251196,1,2,0:0:0:0:
256,192,251264,1,0,0:0:0:0:
256,192,251402,1,2,0:0:0:0:
256,192,251539,1,0,0:0:0:0:
256,192,251609,1,2,0:0:0:0:
256,192,251677,1,0,0:0:0:0:
256,192,251815,1,4,0:0:0:0:
256,192,252090,1,6,0:0:0:0:
256,192,252366,1,0,0:0:0:0:
256,192,252435,1,2,0:0:0:0:
256,192,252504,1,0,0:0:0:0:
256,192,252641,1,2,0:0:0:0:
256,192,252779,1,0,0:0:0:0:
256,192,252848,1,2,0:0:0:0:
256,192,252917,1,0,0:0:0:0:
256,192,253054,1,2,0:0:0:0:
256,192,253192,1,0,0:0:0:0:
256,192,253260,1,0,0:0:0:0:
256,192,253329,1,2,0:0:0:0:
256,192,253467,1,0,0:0:0:0:
256,192,253535,1,0,0:0:0:0:
256,192,253605,1,2,0:0:0:0:
256,192,253673,1,2,0:0:0:0:
256,192,253742,1,0,0:0:0:0:
256,192,253880,1,2,0:0:0:0:
256,192,253948,1,0,0:0:0:0:
256,192,254018,1,2,0:0:0:0:
256,192,254086,1,2,0:0:0:0:
256,192,254155,1,0,0:0:0:0:
256,192,254293,1,4,0:0:0:0:
256,192,254568,1,0,0:0:0:0:
256,192,254637,1,2,0:0:0:0:
256,192,254706,1,0,0:0:0:0:
256,192,254843,1,2,0:0:0:0:
256,192,254981,1,0,0:0:0:0:
256,192,255050,1,2,0:0:0:0:
256,192,255119,1,0,0:0:0:0:
256,192,255256,1,2,0:0:0:0:
256,192,255394,1,0,0:0:0:0:
256,192,255462,1,0,0:0:0:0:
256,192,255531,1,2,0:0:0:0:
256,192,255669,1,0,0:0:0:0:
256,192,255738,1,0,0:0:0:0:
256,192,255807,1,2,0:0:0:0:
256,192,255876,1,2,0:0:0:0:
256,192,255944,1,0,0:0:0:0:
256,192,256082,1,2,0:0:0:0:
256,192,256151,1,0,0:0:0:0:
256,192,256220,1,2,0:0:0:0:
256,192,256288,1,2,0:0:0:0:
256,192,256357,1,0,0:0:0:0:
256,192,256495,1,4,0:0:0:0:
256,192,256632,1,0,0:0:0:0:
256,192,256701,1,0,0:0:0:0:
256,192,256770,1,2,0:0:0:0:
256,192,257044,1,2,0:0:0:0:
256,192,257113,1,0,0:0:0:0:
256,192,257182,1,2,0:0:0:0:
256,192,257320,1,0,0:0:0:0:
256,192,257457,1,2,0:0:0:0:
256,192,257526,1,0,0:0:0:0:
256,192,257595,1,2,0:0:0:0:
256,192,257732,1,0,0:0:0:0:
256,192,257870,1,2,0:0:0:0:
256,192,257939,1,0,0:0:0:0:
256,192,258008,1,2,0:0:0:0:
256,192,258145,1,0,0:0:0:0:
256,192,258283,1,2,0:0:0:0:
256,192,258352,1,2,0:0:0:0:
256,192,258421,1,0,0:0:0:0:
256,192,258489,1,0,0:0:0:0:
256,192,258558,1,2,0:0:0:0:
256,192,258696,1,4,0:0:0:0:
256,192,258971,1,2,0:0:0:0:
256,192,259177,1,2,0:0:0:0:
256,192,259246,1,0,0:0:0:0:
256,192,259384,1,2,0:0:0:0:
256,192,259521,1,0,0:0:0:0:
256,192,259590,1,2,0:0:0:0:
256,192,259659,1,0,0:0:0:0:
256,192,259796,1,2,0:0:0:0:
256,192,259934,1,0,0:0:0:0:
256,192,260003,1,2,0:0:0:0:
256,192,260071,1,0,0:0:0:0:
256,192,260210,1,2,0:0:0:0:
256,192,260347,1,0,0:0:0:0:
256,192,260415,1,2,0:0:0:0:
256,192,260484,1,0,0:0:0:0:
256,192,260622,1,4,0:0:0:0:
256,192,260898,1,6,0:0:0:0:
256,192,264200,1,0,0:0:0:0:
256,192,264384,1,0,0:0:0:0:
256,192,264475,1,2,0:0:0:0:
256,192,264659,1,2,0:0:0:0:
256,192,264751,1,0,0:0:0:0:
256,192,264934,1,0,0:0:0:0:
256,192,265026,1,2,0:0:0:0:
256,192,265209,1,2,0:0:0:0:
256,192,265301,1,0,0:0:0:0:
256,192,265439,1,2,0:0:0:0:
256,192,265576,1,0,0:0:0:0:
256,192,265645,1,2,0:0:0:0:
256,192,265714,1,0,0:0:0:0:
256,192,265852,1,2,0:0:0:0:
256,192,265989,1,0,0:0:0:0:
256,192,266058,1,2,0:0:0:0:
256,192,266127,1,0,0:0:0:0:
256,192,266264,1,2,0:0:0:0:
256,192,266402,1,0,0:0:0:0:
256,192,266471,1,2,0:0:0:0:
256,192,266540,1,0,0:0:0:0:
256,192,266677,1,2,0:0:0:0:
256,192,266815,1,0,0:0:0:0:
256,192,266884,1,2,0:0:0:0:
256,192,266953,1,0,0:0:0:0:
256,192,267090,1,2,0:0:0:0:
256,192,267228,1,0,0:0:0:0:
256,192,267297,1,0,0:0:0:0:
256,192,267365,1,2,0:0:0:0:
256,192,267434,1,2,0:0:0:0:
256,192,267503,1,0,0:0:0:0:
256,192,267641,1,2,0:0:0:0:
256,192,267778,1,2,0:0:0:0:
256,192,267847,1,2,0:0:0:0:
256,192,267916,1,0,0:0:0:0:
256,192,268053,1,2,0:0:0:0:
256,192,268191,1,0,0:0:0:0:
256,192,268329,1,2,0:0:0:0:
256,192,268604,1,0,0:0:0:0:
256,192,268673,1,0,0:0:0:0:
256,192,268742,1,2,0:0:0:0:
256,192,268879,1,0,0:0:0:0:
256,192,269017,1,2,0:0:0:0:
256,192,269086,1,2,0:0:0:0:
256,192,269154,5,2,0:0:0:0:
256,192,269292,1,2,0:0:0:0:
256,192,269430,1,0,0:0:0:0:
256,192,269567,5,4,0:0:0:0:
256,192,275209,5,6,0:0:0:0:
