osu file format v14

[General]
AudioFilename: audio.mp3
AudioLeadIn: 0
PreviewTime: 75948
Countdown: 0
SampleSet: Normal
StackLeniency: 0.7
Mode: 1
LetterboxInBreaks: 0
WidescreenStoryboard: 0

[Editor]
Bookmarks: 23104,31911,67072,75948,93563,111177,122324,146338,185764,225535
DistanceSpacing: 1.4
BeatDivisor: 8
GridSize: 32
TimelineZoom: 2.999999

[Metadata]
Title:Destroy, Destroy, Destroy The Happy End
TitleUnicode:Destroy, Destroy, Destroy The Happy End
Artist:Chroma
ArtistUnicode:黒魔
Creator:Eyenine
Version:Inner Oni
Source:
Tags:electronic instrumental robot & and human chro-0006 kuroma
BeatmapID:2631100
BeatmapSetID:1265951

[Difficulty]
HPDrainRate:5
CircleSize:5
OverallDifficulty:7.4
ApproachRate:7
SliderMultiplier:1.4
SliderTickRate:1

[Events]
//Background and Video events
0,0,"after the explosion bg crop.jpg",0,-40
//Break Periods
//Storyboard Layer 0 (Background)
//Storyboard Layer 1 (Fail)
//Storyboard Layer 2 (Pass)
//Storyboard Layer 3 (Foreground)
//Storyboard Layer 4 (Overlay)
//Storyboard Sound Samples

[TimingPoints]
1086,275.229357798165,4,1,0,10,1,0
2186,-100,4,1,0,20,0,0
2462,-100,4,1,0,22,0,0
2737,-100,4,1,0,25,0,0
3012,-100,4,1,0,27,0,0
3287,-100,4,1,0,30,0,0
3563,-100,4,1,0,32,0,0
3838,-100,4,1,0,35,0,0
4113,-100,4,1,0,37,0,0
4388,-100,4,1,0,40,0,0
4663,-100,4,1,0,42,0,0
4939,-100,4,1,0,45,0,0
5214,-100,4,1,0,47,0,0
5420,-100,4,1,0,70,0,0
5558,-40,4,1,0,50,0,0
5696,-100,4,1,0,50,0,0
13677,-100,4,1,0,70,0,0
14365,-40,4,1,0,50,0,0
14503,-100,4,1,0,50,0,0
23069,-95.2380952380952,4,1,0,80,0,0
23138,-100,4,1,0,80,0,0
24996,-95.2380952380952,4,1,0,80,0,0
25340,-100,4,1,0,80,0,0
27198,-95.2380952380952,4,1,0,80,0,0
27542,-100,4,1,0,80,0,0
28299,-95.2380952380952,4,1,0,80,0,0
28643,-100,4,1,0,80,0,0
29400,-95.2380952380952,4,1,0,80,0,0
29744,-100,4,1,0,80,0,0
30225,-95.2380952380952,4,1,0,80,0,0
30294,-100,4,1,0,80,0,0
30810,275.229357798165,5,1,0,60,1,0
31567,-100,5,1,0,90,0,0
32186,275.229357798165,4,1,0,90,1,1
32186,-95.2380952380952,4,1,0,90,0,1
33803,-100,4,1,0,90,0,1
34182,-95.2380952380952,4,1,0,90,0,1
36005,-100,4,1,0,90,0,1
36349,-95.2380952380952,4,1,0,90,0,1
38791,-100,4,1,0,90,0,0
38861,-100,4,1,0,80,0,0
40714,-100,4,1,0,90,0,0
40993,-95.2380952380952,4,1,0,90,0,1
42611,-100,4,1,0,90,0,1
42989,-95.2380952380952,4,1,0,90,0,1
44813,-100,4,1,0,90,0,1
45157,-95.2380952380952,4,1,0,90,0,1
47598,-100,4,1,0,90,0,0
47668,-100,4,1,0,80,0,0
49521,-95.2380952380952,4,1,0,90,0,0
49800,-90.9090909090909,4,1,0,90,0,1
51723,-95.2380952380952,4,1,0,90,0,1
51762,-90.9090909090909,4,1,0,90,0,1
53895,-95.2380952380952,4,1,0,90,0,1
53964,-90.9090909090909,4,1,0,90,0,1
56406,-100,4,1,0,90,0,0
56475,-100,4,1,0,60,0,0
57989,-100,4,1,0,70,0,0
58328,-95.2380952380952,4,1,0,90,0,0
58608,-90.9090909090909,4,1,0,90,0,1
60501,-95.2380952380952,4,1,0,90,0,1
60604,-90.9090909090909,4,1,0,90,0,1
62702,-95.2380952380952,4,1,0,90,0,1
62771,-90.9090909090909,4,1,0,90,0,1
65213,-100,4,1,0,90,0,0
65283,-100,4,1,0,60,0,0
66797,-100,4,1,0,70,0,0
67141,275.229357798165,4,1,0,80,1,0
67209,-100,4,1,0,60,0,0
68930,-100,4,1,0,70,0,0
69824,-100,4,1,0,80,0,0
73741,-100,4,1,0,70,0,0
73879,-100.943926658181,4,1,0,45,0,0
74016,-101.905739229328,4,1,0,45,0,0
74085,-102.393656508192,4,1,0,45,0,0
74154,-102.886162634215,4,1,0,45,0,0
74292,-103.885634382821,4,1,0,45,0,0
74429,-104.904604997446,4,1,0,45,0,0
74567,-105.943875172689,4,1,0,45,0,0
74704,-107.003943095303,4,1,0,45,0,0
74842,-108.085322553624,4,1,0,45,0,0
74911,-108.634368220536,4,1,0,45,0,0
74980,-109.188901166574,4,1,0,45,0,0
75117,-110.315126189473,4,1,0,45,0,0
75255,-111.46495040367,4,1,0,70,0,0
75324,-112.048835364405,4,1,0,70,0,0
75392,-112.638996521708,4,1,0,70,0,0
75530,-113.837908478875,4,1,0,70,0,0
75668,-115.062749470424,4,1,0,70,0,0
75805,-116.314234536023,4,1,0,70,0,0
75943,-105.263157894737,4,1,0,70,0,0
76017,-125,4,1,0,60,0,0
84200,-125,4,1,0,60,0,0
84337,-123.076923076923,4,1,0,60,0,0
84406,-122.137404580153,4,1,0,60,0,0
84475,-121.212121212121,4,1,0,60,0,0
84613,-119.402985074627,4,1,0,60,0,0
84750,-111.111111111111,4,1,0,70,0,0
84790,-125,4,1,0,60,0,0
90255,-125,4,1,0,60,0,0
90392,-123.081770605119,4,1,0,60,0,0
90530,-121.221672010522,4,1,0,60,0,0
90668,-119.416816037201,4,1,0,60,0,0
90805,-117.665054655418,4,1,0,60,0,0
90943,-115.963810014171,4,1,0,60,0,0
91012,-115.131635755741,4,1,0,60,0,0
91080,-114.31118935077,4,1,0,60,0,0
91218,-112.704883389892,4,1,0,60,0,0
91356,-111.1432191522,4,1,0,60,0,0
91493,-109.624120814551,4,1,0,60,0,0
91631,-108.14610538838,4,1,0,60,0,0
91769,-106.707300806814,4,1,0,60,0,0
91837,-106.002160324027,4,1,0,60,0,0
91906,-105.306388938617,4,1,0,60,0,0
91975,-104.619582274932,4,1,0,60,0,0
92044,-103.941676246624,4,1,0,60,0,0
92181,-102.611988158577,4,1,0,60,0,0
92319,-101.315788140582,4,1,0,60,0,0
92388,-100.679891305989,4,1,0,60,0,0
92457,-100.051926950087,4,1,0,70,0,0
93563,-80,4,1,0,90,0,1
93592,-100,4,1,0,90,0,1
94074,-71.4285714285714,4,1,0,90,0,1
94142,-100,4,1,0,90,0,1
94624,-80,4,1,0,90,0,1
94693,-100,4,1,0,90,0,1
95175,-71.4285714285714,4,1,0,90,0,1
95243,-100,4,1,0,90,0,1
95725,-80,4,1,0,90,0,1
95794,-100,4,1,0,90,0,1
96275,-71.4285714285714,4,1,0,90,0,1
96344,-100,4,1,0,90,0,1
96826,-80,4,1,0,90,0,1
96895,-100,4,1,0,90,0,1
97376,-71.4285714285714,4,1,0,90,0,1
97445,-100,4,1,0,90,0,1
97543,-97.5609756097561,4,1,0,90,0,1
97612,-96.3855421686747,4,1,0,90,0,1
97681,-95.2380952380952,4,1,0,90,0,1
97750,-94.1176470588235,4,1,0,90,0,1
97819,-93.0232558139535,4,1,0,90,0,1
97887,-91.9540229885058,4,1,0,90,0,1
97927,-80,4,1,0,90,0,1
97996,-100,4,1,0,90,0,1
98477,-71.4285714285714,4,1,0,90,0,1
98546,-100,4,1,0,90,0,1
99028,-80,4,1,0,90,0,1
99097,-100,4,1,0,90,0,1
99578,-71.4285714285714,4,1,0,90,0,1
99647,-100,4,1,0,90,0,1
100129,-80,4,1,0,90,0,1
100197,-100,4,1,0,90,0,1
100679,-71.4285714285714,4,1,0,90,0,1
100748,-100,4,1,0,90,0,1
101230,-80,4,1,0,90,0,1
101298,-100,4,1,0,90,0,1
101814,-100,4,1,0,90,0,1
101883,-97.2540323953182,4,1,0,90,0,1
101952,-94.6547515265445,4,1,0,90,0,1
102021,-92.190879371922,4,1,0,90,0,1
102090,-89.8520227038091,4,1,0,90,0,1
102158,-87.6289021150112,4,1,0,90,0,1
102227,-85.5130612649776,4,1,0,90,0,1
102296,-83.4970571462209,4,1,0,90,0,1
102370,-100,4,1,0,90,0,0
102920,-71.4285714285714,4,1,0,90,0,1
102950,-100,4,1,0,90,0,1
103431,-80,4,1,0,90,0,1
103500,-100,4,1,0,90,0,1
103982,-71.4285714285714,4,1,0,90,0,1
104051,-100,4,1,0,90,0,1
104532,-80,4,1,0,90,0,1
104601,-100,4,1,0,90,0,1
105083,-71.4285714285714,4,1,0,90,0,1
105152,-100,4,1,0,90,0,1
105633,-80,4,1,0,90,0,1
105702,-100,4,1,0,90,0,1
106184,-71.4285714285714,4,1,0,90,0,1
106253,-100,4,1,0,90,0,1
106356,-97.5855386038632,4,1,0,90,0,1
106425,-96.4215085530699,4,1,0,90,0,1
106493,-95.2848301786114,4,1,0,90,0,1
106562,-94.1747280233855,4,1,0,90,0,1
106631,-93.090194158218,4,1,0,90,0,1
106700,-92.0303552923896,4,1,0,90,0,1
106734,-83.3333333333333,4,1,0,90,0,1
106803,-100,4,1,0,90,0,1
107285,-71.4285714285714,4,1,0,90,0,1
107353,-100,4,1,0,90,0,1
107835,-83.3333333333333,4,1,0,90,0,1
107904,-100,4,1,0,90,0,1
108386,-71.4285714285714,4,1,0,90,0,1
108454,-100,4,1,0,90,0,1
108936,-83.3333333333333,4,1,0,90,0,1
109005,-100,4,1,0,90,0,1
109486,-71.4285714285714,4,1,0,90,0,1
109555,-100,4,1,0,90,0,1
110076,-100,4,1,0,90,0,0
111143,-93.0232558139535,4,1,0,90,0,0
111487,-100,4,1,0,90,0,0
113345,-93.0232558139535,4,1,0,90,0,0
113689,-100,4,1,0,90,0,0
115547,-93.0232558139535,4,1,0,90,0,0
115891,-100,4,1,0,90,0,0
117748,-93.0232558139535,4,1,0,90,0,0
118092,-100,4,1,0,90,0,0
119950,-93.0232558139535,4,1,0,90,0,0
120019,-100,4,1,0,90,0,0
124383,-100,4,1,0,90,0,0
124521,-99.1749634788197,4,1,0,90,0,0
124590,-98.767578159723,4,1,0,90,0,0
124658,-98.3634292639071,4,1,0,90,0,0
124796,-97.565068583365,4,1,0,90,0,0
124934,-96.779563253187,4,1,0,90,0,0
125071,-96.0066974272125,4,1,0,90,0,0
125140,-95.624783648927,4,1,0,90,0,0
125209,-95.2459870484507,4,1,0,90,0,0
125347,-94.497236900793,4,1,0,90,0,0
125484,-93.7601671181219,4,1,0,90,0,0
125622,-93.0345064984603,4,1,0,90,0,0
125691,-92.6759151051547,4,1,0,90,0,0
125759,-92.3199921712647,4,1,0,90,0,0
125897,-91.616369279932,4,1,0,90,0,0
126035,-90.9233906787158,4,1,0,90,0,0
126172,-90.2408166432943,4,1,0,90,0,0
126241,-89.9033987979916,4,1,0,90,0,0
126310,-89.5684948193583,4,1,0,90,0,0
126447,-88.9060378757502,4,1,0,90,0,0
126585,-88.2533081752569,4,1,0,90,0,0
126654,-87.9304856752446,4,1,0,90,0,0
126723,-87.6100930331578,4,1,0,90,0,0
126792,-87.2919505473642,4,1,0,90,0,0
126860,-86.976185920295,4,1,0,90,0,0
126929,-86.6626975151205,4,1,0,90,0,0
126998,-86.351386241979,4,1,0,90,0,0
127067,-86.0423775918115,4,1,0,90,0,0
127136,-85.7354991263553,4,1,0,90,0,0
127204,-85.4308748890466,4,1,0,90,0,0
127273,-85.1283352217636,4,1,0,90,0,0
127342,-84.8280027416411,4,1,0,90,0,0
127411,-84.5297105026475,4,1,0,90,0,0
127480,-84.233579716554,4,1,0,90,0,0
127548,-83.9395165419605,4,1,0,90,0,0
127617,-83.6474294308462,4,1,0,90,0,0
127686,-83.3574375256845,4,1,0,90,0,0
128482,-100,4,1,0,90,0,0
128758,-80,4,1,0,90,0,0
130684,-90.9090909090909,4,1,0,90,0,0
130753,-80,4,1,0,90,0,0
132886,-90.9090909090909,4,1,0,90,0,0
132955,-80,4,1,0,90,0,0
135088,-90.9090909090909,4,1,0,90,0,0
135157,-80,4,1,0,90,0,0
137290,-100,4,1,0,90,0,0
137525,-98.3606234883202,4,1,0,80,0,0
137594,-96.774224765879,4,1,0,80,0,0
137732,-93.7499707031342,4,1,0,80,0,0
137840,-80,4,1,0,90,0,0
139491,-90.9090909090909,4,1,0,90,0,0
139560,-80,4,1,0,90,0,0
141693,-90.9090909090909,4,1,0,90,0,0
141762,-80,4,1,0,90,0,0
143895,-90.9090909090909,4,1,0,90,0,0
143964,-80,4,1,0,90,0,0
145507,-83.1000990553181,4,1,0,80,0,0
145576,-84.1875564056628,4,1,0,80,0,0
145714,-86.4501493858581,4,1,0,80,0,0
145851,-88.8377183631117,4,1,0,80,0,0
145920,-90.0816500075669,4,1,0,80,0,0
145989,-91.3609121473469,4,1,0,80,0,0
146058,-92.6770316658882,4,1,0,80,0,0
146126,-94.0316247160245,4,1,0,80,0,0
146264,-96.8632765165641,4,1,0,80,0,0
146407,-80,4,1,0,90,0,1
146436,-100,4,1,0,90,0,1
146918,-71.4285714285714,4,1,0,90,0,1
146986,-100,4,1,0,90,0,1
147468,-80,4,1,0,90,0,1
147537,-100,4,1,0,90,0,1
148019,-71.4285714285714,4,1,0,90,0,1
148087,-100,4,1,0,90,0,1
148569,-80,4,1,0,90,0,1
148638,-100,4,1,0,90,0,1
149119,-71.4285714285714,4,1,0,90,0,1
149188,-100,4,1,0,90,0,1
149670,-80,4,1,0,90,0,1
149739,-100,4,1,0,90,0,1
150220,-71.4285714285714,4,1,0,90,0,1
150289,-100,4,1,0,90,0,1
150392,-97.5609756097561,4,1,0,90,0,1
150461,-96.3855421686747,4,1,0,90,0,1
150530,-95.2380952380952,4,1,0,90,0,1
150599,-94.1176470588235,4,1,0,90,0,1
150668,-93.0232558139535,4,1,0,90,0,1
150736,-91.9540229885058,4,1,0,90,0,1
150771,-80,4,1,0,90,0,1
150840,-100,4,1,0,90,0,1
151321,-71.4285714285714,4,1,0,90,0,1
151390,-100,4,1,0,90,0,1
151872,-80,4,1,0,90,0,1
151941,-100,4,1,0,90,0,1
152422,-71.4285714285714,4,1,0,90,0,1
152491,-100,4,1,0,90,0,1
152973,-80,4,1,0,90,0,1
153041,-100,4,1,0,90,0,1
153523,-71.4285714285714,4,1,0,90,0,1
153592,-100,4,1,0,90,0,1
154074,-80,4,1,0,90,0,1
154142,-100,4,1,0,90,0,1
154658,-100,4,1,0,90,0,1
154727,-97.2540323953182,4,1,0,90,0,1
154796,-94.6547515265445,4,1,0,90,0,1
154865,-92.190879371922,4,1,0,90,0,1
154934,-89.8520227038091,4,1,0,90,0,1
155002,-87.6289021150112,4,1,0,90,0,1
155071,-85.5130612649776,4,1,0,90,0,1
155140,-83.4970571462209,4,1,0,90,0,1
155214,-100,4,1,0,90,0,0
155764,-71.4285714285714,4,1,0,90,0,1
155794,-100,4,1,0,90,0,1
156275,-80,4,1,0,90,0,1
156344,-100,4,1,0,90,0,1
156826,-71.4285714285714,4,1,0,90,0,1
156895,-100,4,1,0,90,0,1
157376,-80,4,1,0,90,0,1
157445,-100,4,1,0,90,0,1
157927,-71.4285714285714,4,1,0,90,0,1
157996,-100,4,1,0,90,0,1
158477,-80,4,1,0,90,0,1
158546,-100,4,1,0,90,0,1
159028,-71.4285714285714,4,1,0,90,0,1
159097,-100,4,1,0,90,0,1
159200,-97.5855386038632,4,1,0,90,0,1
159269,-96.4215085530699,4,1,0,90,0,1
159337,-95.2848301786114,4,1,0,90,0,1
159406,-94.1747280233855,4,1,0,90,0,1
159475,-93.090194158218,4,1,0,90,0,1
159544,-92.0303552923896,4,1,0,90,0,1
159578,-83.3333333333333,4,1,0,90,0,1
159647,-100,4,1,0,90,0,1
160129,-71.4285714285714,4,1,0,90,0,1
160197,-100,4,1,0,90,0,1
160679,-83.3333333333333,4,1,0,90,0,1
160748,-100,4,1,0,90,0,1
161230,-71.4285714285714,4,1,0,90,0,1
161298,-100,4,1,0,90,0,1
161780,-83.3333333333333,4,1,0,90,0,1
161849,-100,4,1,0,90,0,1
162330,-71.4285714285714,4,1,0,90,0,1
162399,-100,4,1,0,90,0,1
162920,-100,4,1,0,90,0,0
164090,-40,4,1,0,90,0,0
164228,-100,4,1,0,90,0,0
168494,-112.780767721242,4,1,0,60,0,0
170627,-114.501369436378,4,1,0,60,0,0
171728,-116.275284060519,4,1,0,60,0,0
172829,-118.105028439691,4,1,0,60,0,0
173379,-119.041666964271,4,1,0,60,0,0
173925,-119.993280376299,4,1,0,60,0,0
174475,-120.960230695352,4,1,0,60,0,0
175025,-121.942891704957,4,1,0,60,0,0
175301,-122.440383777139,4,1,0,60,0,0
175576,-122.941800581023,4,1,0,60,0,0
175851,-123.447341067721,4,1,0,60,0,0
176126,-123.957056317409,4,1,0,60,0,0
176402,-124.470998257406,4,1,0,60,0,0
176677,-125,4,1,0,90,0,0
176814,-119.402985074627,4,1,0,90,0,0
176952,-114.285714285714,4,1,0,90,0,0
177090,-109.58904109589,4,1,0,90,0,0
177227,-100,4,1,0,90,0,0
177296,-105.263157894737,4,1,0,80,0,0
186040,-95.2380952380952,4,1,0,90,0,1
187932,-97.5609756097561,4,1,0,90,0,1
188138,-95.2380952380952,4,1,0,90,0,1
190134,-97.5609756097561,4,1,0,90,0,1
190340,-95.2380952380952,4,1,0,90,0,1
192335,-97.5609756097561,4,1,0,90,0,1
192576,-95.2380952380952,4,1,0,90,0,1
194503,-97.5609756097561,4,1,0,90,0,1
194778,-95.2380952380952,4,1,0,90,0,1
196705,-97.5609756097561,4,1,0,90,0,1
196980,-95.2380952380952,4,1,0,90,0,1
198907,-97.5609756097561,4,1,0,90,0,1
199182,-95.2380952380952,4,1,0,90,0,1
201108,-97.5609756097561,4,1,0,90,0,1
201452,-95.2380952380952,4,1,0,90,0,0
201487,-100,4,1,0,90,0,0
203620,-93.0232558139535,4,1,0,90,0,0
203998,-100,4,1,0,90,0,0
205822,-93.0232558139535,4,1,0,90,0,0
206166,-100,4,1,0,90,0,0
208024,-93.0232558139535,4,1,0,90,0,0
208368,-100,4,1,0,90,0,0
210225,-93.0232558139535,4,1,0,90,0,0
210569,-100,4,1,0,90,0,0
212427,-93.0232558139535,4,1,0,90,0,0
212496,-100,4,1,0,90,0,0
216860,-100,4,1,0,90,0,0
216998,-99.1749634788197,4,1,0,90,0,0
217067,-98.767578159723,4,1,0,90,0,0
217136,-98.3634292639071,4,1,0,90,0,0
217273,-97.565068583365,4,1,0,90,0,0
217411,-96.779563253187,4,1,0,90,0,0
217480,-96.3915811593015,4,1,0,90,0,0
217548,-96.0066974272125,4,1,0,90,0,0
217617,-95.624783648927,4,1,0,90,0,0
217686,-95.2459870484507,4,1,0,90,0,0
217824,-94.497236900793,4,1,0,90,0,0
217961,-93.7601671181219,4,1,0,90,0,0
218030,-93.3958836698231,4,1,0,90,0,0
218099,-93.0345064984603,4,1,0,90,0,0
218168,-92.6759151051547,4,1,0,90,0,0
218236,-92.3199921712647,4,1,0,90,0,0
218374,-91.616369279932,4,1,0,90,0,0
218512,-90.9233906787158,4,1,0,90,0,0
218585,-90.5660377085084,4,1,0,90,0,0
218649,-90.2408166432943,4,1,0,90,0,0
218718,-89.9033987979916,4,1,0,90,0,0
218787,-89.5684948193583,4,1,0,90,0,0
218925,-88.9060378757502,4,1,0,90,0,0
219062,-88.2533081752569,4,1,0,90,0,0
219131,-87.9304856752446,4,1,0,90,0,0
219200,-87.6100930331578,4,1,0,90,0,0
219269,-87.2919505473642,4,1,0,90,0,0
219337,-86.976185920295,4,1,0,90,0,0
219406,-86.6626975151205,4,1,0,90,0,0
219475,-86.351386241979,4,1,0,90,0,0
219544,-86.0423775918115,4,1,0,90,0,0
219613,-85.7354991263553,4,1,0,90,0,0
219681,-85.4308748890466,4,1,0,90,0,0
219750,-85.1283352217636,4,1,0,90,0,0
219819,-84.8280027416411,4,1,0,90,0,0
219888,-84.5297105026475,4,1,0,90,0,0
219957,-84.233579716554,4,1,0,90,0,0
220025,-83.9395165419605,4,1,0,90,0,0
220094,-83.6474294308462,4,1,0,90,0,0
220163,-83.3574375256845,4,1,0,90,0,0
220374,-100,4,1,0,90,0,0
224572,275.229357798165,5,1,0,90,1,0
225948,275.229357798165,4,1,0,90,1,1
225948,-90.9090909090909,4,1,0,90,0,1
227633,-91.9540229885057,4,1,0,90,0,1
227702,-93.0232558139535,4,1,0,90,0,1
227771,-94.1176470588235,4,1,0,90,0,1
227840,-95.2380952380952,4,1,0,90,0,1
227909,-90.9090909090909,4,1,0,90,0,1
229835,-91.9540229885057,4,1,0,90,0,1
229904,-93.0232558139535,4,1,0,90,0,1
229973,-94.1176470588235,4,1,0,90,0,1
230042,-95.2380952380952,4,1,0,90,0,1
230283,-90.9090909090909,4,1,0,90,0,1
232553,-90.9090909090909,4,1,0,90,0,0
232686,-106.058259923341,4,1,0,90,0,0
232755,-106.460219009963,4,1,0,90,0,0
232824,-106.865350726738,4,1,0,90,0,0
232961,-107.68493541596,4,1,0,90,0,0
233099,-108.517188580085,4,1,0,90,0,0
233168,-108.938039311381,4,1,0,90,0,0
233236,-109.362286634179,4,1,0,90,0,0
233374,-110.22077220673,4,1,0,90,0,0
233512,-111.092842510343,4,1,0,90,0,0
233580,-111.533948703306,4,1,0,90,0,0
233649,-111.97869717265,4,1,0,90,0,0
233787,-112.878920426005,4,1,0,90,0,0
233925,-113.793735199702,4,1,0,90,0,0
233993,-114.256595176315,4,1,0,90,0,0
234062,-114.723367543842,4,1,0,90,0,0
234165,-100,4,1,0,90,0,0
234755,-90.9090909090909,4,1,0,90,0,1
236441,-91.9540229885057,4,1,0,90,0,1
236510,-93.0232558139535,4,1,0,90,0,1
236579,-94.1176470588235,4,1,0,90,0,1
236647,-95.2380952380952,4,1,0,90,0,1
236888,-90.9090909090909,4,1,0,90,0,1
238642,-91.9540229885057,4,1,0,90,0,1
238711,-93.0232558139535,4,1,0,90,0,1
238780,-94.1176470588235,4,1,0,90,0,1
238849,-95.2380952380952,4,1,0,90,0,1
239090,-90.9090909090909,4,1,0,90,0,1
241360,-90.9090909090909,4,1,0,90,0,0
241494,-106.058259923341,4,1,0,90,0,0
241563,-106.460219009963,4,1,0,90,0,0
241632,-106.865350726738,4,1,0,90,0,0
241769,-107.68493541596,4,1,0,90,0,0
241907,-108.517188580085,4,1,0,90,0,0
241976,-108.938039311381,4,1,0,90,0,0
242044,-109.362286634179,4,1,0,90,0,0
242182,-110.22077220673,4,1,0,90,0,0
242320,-111.092842510343,4,1,0,90,0,0
242388,-111.533948703306,4,1,0,90,0,0
242457,-111.97869717265,4,1,0,90,0,0
242595,-112.878920426005,4,1,0,90,0,0
242733,-113.793735199702,4,1,0,90,0,0
242801,-114.256595176315,4,1,0,90,0,0
242870,-114.723367543842,4,1,0,90,0,0
242973,-100,4,1,0,90,0,0
243562,-86.9565217391304,4,1,0,90,0,1
245248,-87.527352297593,4,1,0,90,0,1
245317,-88.1057268722467,4,1,0,90,0,1
245386,-88.6917960088692,4,1,0,90,0,1
245455,-89.2857142857143,4,1,0,90,0,1
245730,-86.9565217391304,4,1,0,90,0,1
247450,-87.527352297593,4,1,0,90,0,1
247519,-88.1057268722467,4,1,0,90,0,1
247588,-88.6917960088692,4,1,0,90,0,1
247657,-89.2857142857143,4,1,0,90,0,1
247932,-86.9565217391304,4,1,0,90,0,1
250168,-86.9565217391304,4,1,0,90,0,0
250301,-106.058259923341,4,1,0,90,0,0
250370,-106.460219009963,4,1,0,90,0,0
250439,-106.865350726738,4,1,0,90,0,0
250576,-107.68493541596,4,1,0,90,0,0
250714,-108.517188580085,4,1,0,90,0,0
250783,-108.938039311381,4,1,0,90,0,0
250851,-109.362286634179,4,1,0,90,0,0
250989,-110.22077220673,4,1,0,90,0,0
251127,-111.092842510343,4,1,0,90,0,0
251195,-111.533948703306,4,1,0,90,0,0
251264,-111.97869717265,4,1,0,90,0,0
251402,-112.878920426005,4,1,0,90,0,0
251540,-113.793735199702,4,1,0,90,0,0
251608,-114.256595176315,4,1,0,90,0,0
251677,-114.723367543842,4,1,0,90,0,0
251780,-100,4,1,0,90,0,0
252370,-86.9565217391304,4,1,0,90,0,1
254055,-87.527352297593,4,1,0,90,0,1
254124,-88.1057268722467,4,1,0,90,0,1
254193,-88.6917960088692,4,1,0,90,0,1
254262,-89.2857142857143,4,1,0,90,0,1
254537,-86.9565217391304,4,1,0,90,0,1
256257,-87.527352297593,4,1,0,90,0,1
256326,-88.1057268722467,4,1,0,90,0,1
256395,-88.6917960088692,4,1,0,90,0,1
256464,-89.2857142857143,4,1,0,90,0,1
256739,-86.9565217391304,4,1,0,90,0,1
258975,-86.9565217391304,4,1,0,90,0,0
259108,-106.058259923341,4,1,0,90,0,0
259177,-106.460219009963,4,1,0,90,0,0
259246,-106.865350726738,4,1,0,90,0,0
259383,-107.68493541596,4,1,0,90,0,0
259521,-108.517188580085,4,1,0,90,0,0
259590,-108.938039311381,4,1,0,90,0,0
259658,-109.362286634179,4,1,0,90,0,0
259796,-110.22077220673,4,1,0,90,0,0
259934,-111.092842510343,4,1,0,90,0,0
260002,-111.533948703306,4,1,0,90,0,0
260071,-111.97869717265,4,1,0,90,0,0
260209,-112.878920426005,4,1,0,90,0,0
260347,-113.793735199702,4,1,0,90,0,0
260415,-114.256595176315,4,1,0,90,0,0
260484,-114.723367543842,4,1,0,90,0,0
260587,-100,4,1,0,90,0,0
260902,275.229357798165,4,1,0,90,1,0
260971,-100,4,1,0,60,0,0
262691,-100,4,1,0,70,0,0
263585,-100,4,1,0,80,0,0
267503,-100,4,1,0,70,0,0
267640,-100.946372239748,4,1,0,45,0,0
267778,-101.910828025478,4,1,0,45,0,0
267847,-102.400052428827,4,1,0,45,0,0
267915,-102.893890675241,4,1,0,45,0,0
268053,-103.896103896104,4,1,0,45,0,0
268191,-104.918032786885,4,1,0,45,0,0
268328,-105.960264900662,4,1,0,45,0,0
268466,-107.023411371237,4,1,0,45,0,0
268603,-108.108108108108,4,1,0,45,0,0
268672,-108.658802666922,4,1,0,45,0,0
268741,-109.215017064846,4,1,0,45,0,0
268879,-110.344827586207,4,1,0,45,0,0
269016,-111.498257839721,4,1,0,70,0,0
269085,-112.084000233135,4,1,0,70,0,0
269154,-112.676056338028,4,1,0,70,0,0
269292,-113.879003558719,4,1,0,70,0,0
269429,-115.107913669065,4,1,0,70,0,0
269567,-100,4,1,0,80,0,0
269706,-40,4,1,0,70,0,0
269778,-100,4,1,0,70,0,0
275180,-76.9230769230769,4,1,0,90,0,0

[HitObjects]
256,192,2186,12,0,5352,0:0:0:0:
160,256,5489,5,4,0:0:0:0:
256,192,5627,12,0,13608,0:0:0:0:
160,128,13746,5,0,0:0:0:0:
352,128,13884,1,8,0:0:0:0:
352,128,14021,1,8,0:0:0:0:
352,128,14159,1,8,0:0:0:0:
160,256,14297,1,4,0:0:0:0:
256,192,14434,12,4,22415,0:0:0:0:
160,256,23104,5,4,0:0:0:0:
352,128,23379,1,8,0:0:0:0:
160,128,23517,1,0,0:0:0:0:
352,128,23585,1,8,0:0:0:0:
160,128,23792,1,0,0:0:0:0:
352,128,23930,1,8,0:0:0:0:
352,128,23998,1,8,0:0:0:0:
160,128,24205,1,0,0:0:0:0:
352,128,24274,1,8,0:0:0:0:
160,128,24411,1,0,0:0:0:0:
352,128,24480,1,8,0:0:0:0:
160,128,24686,1,0,0:0:0:0:
352,128,24824,1,8,0:0:0:0:
352,128,24893,1,8,0:0:0:0:
160,256,25030,1,4,0:0:0:0:
160,256,25306,1,4,0:0:0:0:
352,128,25581,1,8,0:0:0:0:
160,128,25719,1,0,0:0:0:0:
352,128,25787,1,8,0:0:0:0:
160,128,25994,1,0,0:0:0:0:
352,128,26131,1,8,0:0:0:0:
352,128,26200,1,8,0:0:0:0:
160,128,26407,1,0,0:0:0:0:
352,128,26475,1,8,0:0:0:0:
160,128,26613,1,0,0:0:0:0:
352,128,26682,1,8,0:0:0:0:
160,128,26888,1,0,0:0:0:0:
352,128,27026,1,8,0:0:0:0:
352,128,27095,1,8,0:0:0:0:
160,256,27232,1,4,0:0:0:0:
160,256,27508,1,4,0:0:0:0:
352,128,27783,1,8,0:0:0:0:
160,128,27920,1,0,0:0:0:0:
352,128,27989,1,8,0:0:0:0:
160,128,28127,1,0,0:0:0:0:
352,128,28196,1,8,0:0:0:0:
160,256,28333,1,4,0:0:0:0:
160,256,28608,1,4,0:0:0:0:
352,128,28884,1,8,0:0:0:0:
160,128,29021,1,0,0:0:0:0:
352,128,29090,1,8,0:0:0:0:
160,128,29228,1,0,0:0:0:0:
352,128,29297,1,8,0:0:0:0:
160,256,29434,1,4,0:0:0:0:
160,256,29709,1,4,0:0:0:0:
160,128,29916,1,0,0:0:0:0:
352,128,29985,1,8,0:0:0:0:
160,128,30122,1,0,0:0:0:0:
160,256,30260,1,4,0:0:0:0:
160,128,30466,1,0,0:0:0:0:
352,128,30535,1,8,0:0:0:0:
160,128,30673,1,0,0:0:0:0:
256,192,30810,12,4,31498,0:0:0:0:
160,256,31635,5,4,0:0:0:0:
352,256,31910,5,12,0:0:0:0:
160,128,32186,1,0,0:0:0:0:
160,128,32323,1,0,0:0:0:0:
160,128,32461,1,0,0:0:0:0:
160,128,32598,1,0,0:0:0:0:
160,128,32736,1,0,0:0:0:0:
160,128,32874,1,0,0:0:0:0:
160,128,33011,1,0,0:0:0:0:
160,128,33149,1,0,0:0:0:0:
352,128,33286,1,8,0:0:0:0:
160,128,33424,1,0,0:0:0:0:
160,128,33562,1,0,0:0:0:0:
352,128,33699,1,8,0:0:0:0:
160,256,33837,1,4,0:0:0:0:
352,256,34112,1,12,0:0:0:0:
160,128,34387,1,0,0:0:0:0:
160,128,34525,1,0,0:0:0:0:
160,128,34663,1,0,0:0:0:0:
160,128,34800,1,0,0:0:0:0:
160,128,34938,1,0,0:0:0:0:
160,128,35075,1,0,0:0:0:0:
160,128,35213,1,0,0:0:0:0:
160,128,35351,1,0,0:0:0:0:
352,128,35488,1,8,0:0:0:0:
160,128,35626,1,0,0:0:0:0:
160,128,35763,1,0,0:0:0:0:
352,128,35901,1,8,0:0:0:0:
160,256,36039,1,4,0:0:0:0:
352,256,36314,1,12,0:0:0:0:
352,128,36589,1,8,0:0:0:0:
160,128,36864,1,0,0:0:0:0:
160,128,36933,1,0,0:0:0:0:
352,128,37002,1,8,0:0:0:0:
160,128,37277,1,0,0:0:0:0:
160,128,37346,1,0,0:0:0:0:
352,128,37415,1,8,0:0:0:0:
160,128,37690,1,0,0:0:0:0:
160,128,37759,1,0,0:0:0:0:
352,128,37828,1,8,0:0:0:0:
160,128,38103,1,0,0:0:0:0:
160,128,38172,1,0,0:0:0:0:
160,128,38241,1,0,0:0:0:0:
352,256,38516,1,12,0:0:0:0:
160,128,38791,1,0,0:0:0:0:
160,128,38997,1,0,0:0:0:0:
352,128,39066,1,8,0:0:0:0:
352,128,39135,1,8,0:0:0:0:
160,128,39204,1,0,0:0:0:0:
352,128,39341,1,8,0:0:0:0:
160,128,39548,1,0,0:0:0:0:
352,128,39617,1,8,0:0:0:0:
160,128,39685,1,0,0:0:0:0:
160,128,39754,1,0,0:0:0:0:
352,128,39823,1,8,0:0:0:0:
352,128,39892,1,8,0:0:0:0:
160,128,40030,1,0,0:0:0:0:
352,128,40098,1,8,0:0:0:0:
160,128,40167,1,0,0:0:0:0:
352,128,40236,1,8,0:0:0:0:
352,128,40305,1,8,0:0:0:0:
160,256,40442,1,4,0:0:0:0:
352,256,40718,1,12,0:0:0:0:
160,128,40993,1,0,0:0:0:0:
160,128,41130,1,0,0:0:0:0:
160,128,41268,1,0,0:0:0:0:
160,128,41406,1,0,0:0:0:0:
160,128,41474,1,0,0:0:0:0:
160,128,41543,1,0,0:0:0:0:
160,128,41681,1,0,0:0:0:0:
160,128,41819,1,0,0:0:0:0:
160,128,41956,1,0,0:0:0:0:
160,128,42025,1,0,0:0:0:0:
352,128,42094,1,8,0:0:0:0:
160,128,42231,1,0,0:0:0:0:
160,128,42369,1,0,0:0:0:0:
352,128,42507,1,8,0:0:0:0:
160,256,42644,1,4,0:0:0:0:
352,256,42919,1,12,0:0:0:0:
160,128,43195,1,0,0:0:0:0:
160,128,43332,1,0,0:0:0:0:
160,128,43470,1,0,0:0:0:0:
160,128,43608,1,0,0:0:0:0:
160,128,43676,1,0,0:0:0:0:
160,128,43745,1,0,0:0:0:0:
160,128,43883,1,0,0:0:0:0:
160,128,44020,1,0,0:0:0:0:
160,128,44158,1,0,0:0:0:0:
160,128,44227,1,0,0:0:0:0:
352,128,44296,1,8,0:0:0:0:
160,128,44433,1,0,0:0:0:0:
160,128,44571,1,0,0:0:0:0:
352,128,44708,1,8,0:0:0:0:
160,256,44846,1,4,0:0:0:0:
352,256,45121,1,12,0:0:0:0:
352,128,45397,1,8,0:0:0:0:
160,128,45534,1,0,0:0:0:0:
160,128,45672,1,0,0:0:0:0:
160,128,45741,1,0,0:0:0:0:
352,128,45809,1,8,0:0:0:0:
160,128,45947,1,0,0:0:0:0:
160,128,46085,1,0,0:0:0:0:
160,128,46153,1,0,0:0:0:0:
352,128,46222,1,8,0:0:0:0:
160,128,46360,1,0,0:0:0:0:
160,128,46497,1,0,0:0:0:0:
160,128,46566,1,0,0:0:0:0:
352,128,46635,1,8,0:0:0:0:
160,128,46773,1,0,0:0:0:0:
160,128,46910,1,0,0:0:0:0:
160,128,46979,1,0,0:0:0:0:
160,128,47048,1,0,0:0:0:0:
352,256,47323,1,12,0:0:0:0:
160,128,47598,1,0,0:0:0:0:
160,128,47805,1,0,0:0:0:0:
352,128,47874,1,8,0:0:0:0:
352,128,47942,1,8,0:0:0:0:
160,128,48011,1,0,0:0:0:0:
352,128,48149,1,8,0:0:0:0:
160,128,48355,1,0,0:0:0:0:
352,128,48424,1,8,0:0:0:0:
160,128,48493,1,0,0:0:0:0:
160,128,48562,1,0,0:0:0:0:
352,128,48630,1,8,0:0:0:0:
352,128,48699,1,8,0:0:0:0:
160,128,48837,1,0,0:0:0:0:
352,128,48906,1,8,0:0:0:0:
160,128,48974,1,0,0:0:0:0:
352,128,49043,1,8,0:0:0:0:
352,128,49112,1,8,0:0:0:0:
160,256,49250,1,4,0:0:0:0:
352,256,49525,1,12,0:0:0:0:
352,128,49800,1,8,0:0:0:0:
160,128,49869,1,0,0:0:0:0:
160,128,49938,1,0,0:0:0:0:
160,128,50007,1,0,0:0:0:0:
160,128,50075,1,0,0:0:0:0:
160,128,50144,1,0,0:0:0:0:
352,128,50213,1,8,0:0:0:0:
160,128,50282,1,0,0:0:0:0:
160,128,50351,1,0,0:0:0:0:
160,128,50419,1,0,0:0:0:0:
160,128,50488,1,0,0:0:0:0:
160,128,50557,1,0,0:0:0:0:
352,128,50626,1,8,0:0:0:0:
352,128,50672,1,8,0:0:0:0:
352,128,50718,1,8,0:0:0:0:
160,128,50763,1,0,0:0:0:0:
160,128,50901,1,0,0:0:0:0:
352,128,51039,1,8,0:0:0:0:
352,128,51085,1,8,0:0:0:0:
352,128,51130,1,8,0:0:0:0:
352,128,51176,1,8,0:0:0:0:
352,128,51314,1,8,0:0:0:0:
160,128,51452,1,0,0:0:0:0:
160,128,51520,1,0,0:0:0:0:
160,128,51589,1,0,0:0:0:0:
352,256,51727,1,12,0:0:0:0:
352,128,52002,1,8,0:0:0:0:
352,128,52071,1,8,0:0:0:0:
160,128,52140,1,0,0:0:0:0:
160,128,52208,1,0,0:0:0:0:
160,128,52277,1,0,0:0:0:0:
160,128,52346,1,0,0:0:0:0:
352,128,52415,1,8,0:0:0:0:
352,128,52484,1,8,0:0:0:0:
160,128,52552,1,0,0:0:0:0:
160,128,52621,1,0,0:0:0:0:
160,128,52690,1,0,0:0:0:0:
160,128,52759,1,0,0:0:0:0:
352,128,52828,1,8,0:0:0:0:
352,128,52874,1,8,0:0:0:0:
352,128,52919,1,8,0:0:0:0:
160,128,52965,1,0,0:0:0:0:
160,128,53103,1,0,0:0:0:0:
352,128,53241,1,8,0:0:0:0:
352,128,53286,1,8,0:0:0:0:
352,128,53332,1,8,0:0:0:0:
352,128,53378,1,8,0:0:0:0:
352,128,53516,1,8,0:0:0:0:
160,128,53653,1,0,0:0:0:0:
160,128,53722,1,0,0:0:0:0:
160,128,53791,1,0,0:0:0:0:
352,256,53929,1,12,0:0:0:0:
352,128,54204,1,8,0:0:0:0:
160,128,54341,1,0,0:0:0:0:
352,128,54410,1,8,0:0:0:0:
160,128,54479,1,0,0:0:0:0:
160,128,54548,1,0,0:0:0:0:
352,128,54617,1,8,0:0:0:0:
160,128,54754,1,0,0:0:0:0:
352,128,54823,1,8,0:0:0:0:
160,128,54892,1,0,0:0:0:0:
160,128,54961,1,0,0:0:0:0:
352,128,55030,1,8,0:0:0:0:
160,128,55167,1,0,0:0:0:0:
352,128,55236,1,8,0:0:0:0:
160,128,55305,1,0,0:0:0:0:
160,128,55374,1,0,0:0:0:0:
352,128,55442,1,8,0:0:0:0:
160,128,55580,1,0,0:0:0:0:
352,128,55649,1,8,0:0:0:0:
160,128,55718,1,0,0:0:0:0:
160,128,55786,1,0,0:0:0:0:
160,128,55855,1,0,0:0:0:0:
352,256,56130,1,12,0:0:0:0:
160,256,56406,1,4,0:0:0:0:
256,192,57094,12,0,57919,0:0:0:0:
352,128,58057,5,8,0:0:0:0:
352,128,58103,1,8,0:0:0:0:
352,128,58149,1,8,0:0:0:0:
352,128,58195,1,8,0:0:0:0:
352,256,58332,1,12,0:0:0:0:
352,128,58608,1,8,0:0:0:0:
160,128,58676,1,0,0:0:0:0:
352,128,58745,1,8,0:0:0:0:
160,128,58814,1,0,0:0:0:0:
160,128,58883,1,0,0:0:0:0:
160,128,58952,1,0,0:0:0:0:
352,128,59020,1,8,0:0:0:0:
160,128,59089,1,0,0:0:0:0:
352,128,59158,1,8,0:0:0:0:
160,128,59227,1,0,0:0:0:0:
160,128,59296,1,0,0:0:0:0:
160,128,59364,1,0,0:0:0:0:
352,128,59433,1,8,0:0:0:0:
352,128,59479,1,8,0:0:0:0:
352,128,59525,1,8,0:0:0:0:
160,128,59571,1,0,0:0:0:0:
160,128,59708,1,0,0:0:0:0:
352,128,59846,1,8,0:0:0:0:
352,128,59892,1,8,0:0:0:0:
352,128,59938,1,8,0:0:0:0:
352,128,59984,1,8,0:0:0:0:
352,128,60121,1,8,0:0:0:0:
160,128,60259,1,0,0:0:0:0:
352,128,60328,1,8,0:0:0:0:
160,128,60397,1,0,0:0:0:0:
352,256,60534,1,12,0:0:0:0:
352,128,60809,1,8,0:0:0:0:
160,128,60878,1,0,0:0:0:0:
352,128,60947,1,8,0:0:0:0:
352,128,61016,1,8,0:0:0:0:
160,128,61085,1,0,0:0:0:0:
160,128,61153,1,0,0:0:0:0:
352,128,61222,1,8,0:0:0:0:
160,128,61291,1,0,0:0:0:0:
352,128,61360,1,8,0:0:0:0:
352,128,61429,1,8,0:0:0:0:
160,128,61497,1,0,0:0:0:0:
160,128,61566,1,0,0:0:0:0:
352,128,61635,1,8,0:0:0:0:
352,128,61681,1,8,0:0:0:0:
352,128,61727,1,8,0:0:0:0:
160,128,61773,1,0,0:0:0:0:
160,128,61910,1,0,0:0:0:0:
352,128,62048,1,8,0:0:0:0:
352,128,62094,1,8,0:0:0:0:
352,128,62140,1,8,0:0:0:0:
352,128,62185,1,8,0:0:0:0:
352,128,62323,1,8,0:0:0:0:
160,128,62461,1,0,0:0:0:0:
352,128,62530,1,8,0:0:0:0:
160,128,62598,1,0,0:0:0:0:
352,256,62736,1,12,0:0:0:0:
352,128,63011,1,8,0:0:0:0:
160,128,63149,1,0,0:0:0:0:
160,128,63218,1,0,0:0:0:0:
352,128,63286,1,8,0:0:0:0:
160,128,63355,1,0,0:0:0:0:
352,128,63424,1,8,0:0:0:0:
160,128,63562,1,0,0:0:0:0:
160,128,63630,1,0,0:0:0:0:
352,128,63699,1,8,0:0:0:0:
160,128,63768,1,0,0:0:0:0:
352,128,63837,1,8,0:0:0:0:
160,128,63974,1,0,0:0:0:0:
160,128,64043,1,0,0:0:0:0:
352,128,64112,1,8,0:0:0:0:
160,128,64181,1,0,0:0:0:0:
352,128,64250,1,8,0:0:0:0:
160,128,64387,1,0,0:0:0:0:
160,128,64456,1,0,0:0:0:0:
352,128,64525,1,8,0:0:0:0:
160,128,64594,1,0,0:0:0:0:
160,128,64663,1,0,0:0:0:0:
352,256,64938,1,12,0:0:0:0:
160,256,65213,1,4,0:0:0:0:
256,192,65901,12,8,66727,0:0:0:0:
352,128,66864,5,8,0:0:0:0:
352,128,66910,1,8,0:0:0:0:
352,128,66956,1,8,0:0:0:0:
352,128,67002,1,8,0:0:0:0:
160,128,67140,1,4,0:0:0:0:
352,128,67966,1,8,0:0:0:0:
160,128,68241,1,0,0:0:0:0:
160,128,68975,1,0,0:0:0:0:
352,128,69067,1,8,0:0:0:0:
160,128,69342,1,0,0:0:0:0:
352,128,69893,1,8,0:0:0:0:
160,128,70076,1,0,0:0:0:0:
352,128,70168,1,8,0:0:0:0:
160,128,70352,1,0,0:0:0:0:
352,128,70443,1,8,0:0:0:0:
160,128,70535,1,0,0:0:0:0:
160,128,70627,1,0,0:0:0:0:
352,128,70718,1,8,0:0:0:0:
160,128,70902,1,0,0:0:0:0:
352,128,70994,1,8,0:0:0:0:
160,128,71177,1,0,0:0:0:0:
352,128,71269,1,8,0:0:0:0:
160,128,71361,1,0,0:0:0:0:
160,128,71452,1,0,0:0:0:0:
352,128,71544,1,8,0:0:0:0:
352,128,71613,5,8,0:0:0:0:
352,128,71682,1,8,0:0:0:0:
352,128,71751,1,8,0:0:0:0:
160,128,71819,1,0,0:0:0:0:
160,128,71888,1,0,0:0:0:0:
160,128,71957,1,0,0:0:0:0:
160,128,72026,1,0,0:0:0:0:
352,128,72095,1,8,0:0:0:0:
352,128,72163,1,8,0:0:0:0:
352,128,72232,1,8,0:0:0:0:
352,128,72301,1,8,0:0:0:0:
160,128,72370,1,0,0:0:0:0:
160,128,72439,1,0,0:0:0:0:
160,128,72507,1,0,0:0:0:0:
160,128,72576,1,0,0:0:0:0:
352,128,72645,1,8,0:0:0:0:
352,128,72714,1,8,0:0:0:0:
160,128,72783,1,0,0:0:0:0:
160,128,72852,1,0,0:0:0:0:
352,128,72920,1,8,0:0:0:0:
352,128,72989,1,8,0:0:0:0:
160,128,73058,1,0,0:0:0:0:
160,128,73127,1,0,0:0:0:0:
352,128,73196,1,8,0:0:0:0:
352,128,73264,1,8,0:0:0:0:
160,128,73333,1,0,0:0:0:0:
160,128,73402,1,0,0:0:0:0:
352,128,73471,1,8,0:0:0:0:
352,128,73540,1,8,0:0:0:0:
352,128,73608,1,8,0:0:0:0:
352,128,73677,1,8,0:0:0:0:
160,128,73746,1,0,0:0:0:0:
160,128,73884,1,0,0:0:0:0:
160,128,74021,1,0,0:0:0:0:
352,128,74090,1,8,0:0:0:0:
160,128,74159,1,0,0:0:0:0:
352,128,74296,1,8,0:0:0:0:
160,128,74434,1,0,0:0:0:0:
160,128,74572,1,0,0:0:0:0:
352,128,74709,1,8,0:0:0:0:
160,128,74847,1,0,0:0:0:0:
352,128,74916,1,8,0:0:0:0:
160,128,74985,1,0,0:0:0:0:
352,128,75122,1,8,0:0:0:0:
352,128,75260,1,8,0:0:0:0:
352,128,75329,1,8,0:0:0:0:
352,128,75397,1,8,0:0:0:0:
160,128,75535,1,0,0:0:0:0:
160,128,75673,1,0,0:0:0:0:
352,128,75810,1,8,0:0:0:0:
160,256,75948,1,4,0:0:0:0:
160,128,76085,1,0,0:0:0:0:
160,128,76223,1,0,0:0:0:0:
160,128,76361,1,0,0:0:0:0:
352,128,76498,1,8,0:0:0:0:
160,128,76636,1,0,0:0:0:0:
160,128,76774,1,0,0:0:0:0:
352,128,76911,1,8,0:0:0:0:
160,128,77049,1,0,0:0:0:0:
160,128,77186,1,0,0:0:0:0:
160,128,77324,1,0,0:0:0:0:
160,128,77462,1,0,0:0:0:0:
352,128,77599,1,8,0:0:0:0:
160,128,77737,1,0,0:0:0:0:
352,128,77874,1,8,0:0:0:0:
352,128,78012,1,8,0:0:0:0:
160,128,78150,1,0,0:0:0:0:
160,128,78287,1,0,0:0:0:0:
160,128,78425,1,0,0:0:0:0:
160,128,78563,1,0,0:0:0:0:
352,128,78700,1,8,0:0:0:0:
160,128,78838,1,0,0:0:0:0:
160,128,78975,1,0,0:0:0:0:
352,128,79113,1,8,0:0:0:0:
160,128,79251,1,0,0:0:0:0:
160,128,79388,1,0,0:0:0:0:
160,128,79526,1,0,0:0:0:0:
160,128,79663,1,0,0:0:0:0:
352,128,79801,1,8,0:0:0:0:
160,128,79939,1,0,0:0:0:0:
160,128,80007,1,0,0:0:0:0:
160,128,80076,1,0,0:0:0:0:
352,128,80214,1,8,0:0:0:0:
160,128,80352,1,0,0:0:0:0:
160,128,80489,1,0,0:0:0:0:
160,128,80627,1,0,0:0:0:0:
160,128,80764,1,0,0:0:0:0:
352,128,80902,1,8,0:0:0:0:
160,128,81040,1,0,0:0:0:0:
160,128,81177,1,0,0:0:0:0:
352,128,81315,1,8,0:0:0:0:
160,128,81452,1,0,0:0:0:0:
160,128,81590,1,0,0:0:0:0:
160,128,81728,1,0,0:0:0:0:
160,128,81865,1,0,0:0:0:0:
352,128,82003,1,8,0:0:0:0:
160,128,82140,1,0,0:0:0:0:
352,128,82278,1,8,0:0:0:0:
352,128,82416,1,8,0:0:0:0:
160,128,82553,1,0,0:0:0:0:
160,128,82691,1,0,0:0:0:0:
160,128,82829,1,0,0:0:0:0:
160,128,82966,1,0,0:0:0:0:
352,128,83104,1,8,0:0:0:0:
160,128,83241,1,0,0:0:0:0:
160,128,83379,1,0,0:0:0:0:
352,128,83517,1,8,0:0:0:0:
160,128,83654,1,0,0:0:0:0:
160,128,83792,1,0,0:0:0:0:
160,128,83929,1,0,0:0:0:0:
160,128,84067,1,0,0:0:0:0:
352,128,84205,1,8,0:0:0:0:
352,128,84342,1,8,0:0:0:0:
352,128,84411,1,8,0:0:0:0:
352,128,84480,1,8,0:0:0:0:
352,128,84618,1,8,0:0:0:0:
160,256,84755,1,4,0:0:0:0:
160,128,84893,1,0,0:0:0:0:
160,128,85030,1,0,0:0:0:0:
352,128,85168,1,8,0:0:0:0:
352,128,85306,1,8,0:0:0:0:
160,128,85443,1,0,0:0:0:0:
160,128,85581,1,0,0:0:0:0:
352,128,85718,1,8,0:0:0:0:
160,128,85856,1,0,0:0:0:0:
160,128,85994,1,0,0:0:0:0:
352,128,86131,1,8,0:0:0:0:
160,128,86269,1,0,0:0:0:0:
352,128,86407,1,8,0:0:0:0:
160,128,86544,1,0,0:0:0:0:
352,128,86682,1,8,0:0:0:0:
352,128,86819,1,8,0:0:0:0:
160,128,86957,1,0,0:0:0:0:
160,128,87095,1,0,0:0:0:0:
160,128,87232,1,0,0:0:0:0:
352,128,87370,1,8,0:0:0:0:
352,128,87507,1,8,0:0:0:0:
160,128,87645,1,0,0:0:0:0:
160,128,87783,1,0,0:0:0:0:
352,128,87920,1,8,0:0:0:0:
160,128,88058,1,0,0:0:0:0:
160,128,88196,1,0,0:0:0:0:
160,128,88333,1,0,0:0:0:0:
352,128,88471,1,8,0:0:0:0:
352,128,88608,1,8,0:0:0:0:
160,128,88746,1,0,0:0:0:0:
160,128,88815,1,0,0:0:0:0:
160,128,88884,1,0,0:0:0:0:
352,128,89021,1,8,0:0:0:0:
160,128,89159,1,0,0:0:0:0:
160,128,89296,1,0,0:0:0:0:
160,128,89434,1,0,0:0:0:0:
352,128,89572,1,8,0:0:0:0:
352,128,89709,1,8,0:0:0:0:
160,128,89847,1,0,0:0:0:0:
160,128,89985,1,0,0:0:0:0:
352,128,90122,1,8,0:0:0:0:
160,128,90260,1,0,0:0:0:0:
160,128,90397,1,0,0:0:0:0:
160,128,90535,1,0,0:0:0:0:
352,128,90673,1,8,0:0:0:0:
352,128,90810,1,8,0:0:0:0:
160,128,90948,1,0,0:0:0:0:
160,128,91017,1,0,0:0:0:0:
352,128,91085,1,8,0:0:0:0:
352,128,91223,1,8,0:0:0:0:
160,128,91361,1,0,0:0:0:0:
160,128,91498,1,0,0:0:0:0:
352,128,91636,1,8,0:0:0:0:
160,128,91774,1,0,0:0:0:0:
352,128,91842,1,8,0:0:0:0:
160,128,91911,1,0,0:0:0:0:
352,128,91980,1,8,0:0:0:0:
160,128,92049,1,0,0:0:0:0:
352,128,92186,1,8,0:0:0:0:
160,128,92324,1,0,0:0:0:0:
352,128,92393,1,8,0:0:0:0:
160,128,92462,1,0,0:0:0:0:
160,128,92530,1,0,0:0:0:0:
160,128,92599,1,0,0:0:0:0:
160,128,92668,1,0,0:0:0:0:
160,128,92737,1,0,0:0:0:0:
160,128,92806,1,0,0:0:0:0:
160,128,92874,1,0,0:0:0:0:
160,128,92943,1,0,0:0:0:0:
352,128,93012,1,8,0:0:0:0:
352,128,93150,1,8,0:0:0:0:
352,128,93287,1,8,0:0:0:0:
352,128,93356,1,8,0:0:0:0:
352,128,93425,1,8,0:0:0:0:
160,256,93563,1,4,0:0:0:0:
352,128,93838,1,8,0:0:0:0:
160,128,93975,1,0,0:0:0:0:
160,128,94044,1,0,0:0:0:0:
352,256,94113,1,12,0:0:0:0:
352,128,94388,1,8,0:0:0:0:
352,128,94526,1,8,0:0:0:0:
352,128,94595,1,8,0:0:0:0:
160,256,94663,1,4,0:0:0:0:
160,128,94801,1,0,0:0:0:0:
352,128,94939,1,8,0:0:0:0:
160,128,95076,1,0,0:0:0:0:
160,128,95145,1,0,0:0:0:0:
352,256,95214,1,12,0:0:0:0:
352,128,95489,1,8,0:0:0:0:
352,128,95627,1,8,0:0:0:0:
352,128,95696,1,8,0:0:0:0:
160,256,95764,1,4,0:0:0:0:
352,128,96040,1,8,0:0:0:0:
160,128,96177,1,0,0:0:0:0:
160,128,96246,1,0,0:0:0:0:
352,256,96315,1,12,0:0:0:0:
352,128,96590,1,8,0:0:0:0:
352,128,96728,1,8,0:0:0:0:
352,128,96796,1,8,0:0:0:0:
160,256,96865,1,4,0:0:0:0:
160,128,97072,1,0,0:0:0:0:
352,128,97140,1,8,0:0:0:0:
160,128,97278,1,0,0:0:0:0:
352,256,97416,1,12,0:0:0:0:
160,128,97553,1,0,0:0:0:0:
160,128,97622,1,0,0:0:0:0:
352,128,97691,1,8,0:0:0:0:
160,128,97760,1,0,0:0:0:0:
352,128,97829,1,8,0:0:0:0:
352,128,97897,1,8,0:0:0:0:
160,256,97966,1,4,0:0:0:0:
352,128,98241,1,8,0:0:0:0:
160,128,98379,1,0,0:0:0:0:
160,128,98448,1,0,0:0:0:0:
352,256,98517,1,12,0:0:0:0:
352,128,98792,1,8,0:0:0:0:
352,128,98929,1,8,0:0:0:0:
352,128,98998,1,8,0:0:0:0:
160,256,99067,1,4,0:0:0:0:
160,128,99205,1,0,0:0:0:0:
352,128,99342,1,8,0:0:0:0:
160,128,99480,1,0,0:0:0:0:
160,128,99549,1,0,0:0:0:0:
352,256,99618,1,12,0:0:0:0:
352,128,99893,1,8,0:0:0:0:
352,128,100030,1,8,0:0:0:0:
352,128,100099,1,8,0:0:0:0:
160,256,100168,1,4,0:0:0:0:
352,128,100443,1,8,0:0:0:0:
160,128,100581,1,0,0:0:0:0:
160,128,100650,1,0,0:0:0:0:
352,256,100718,1,12,0:0:0:0:
352,128,100994,1,8,0:0:0:0:
352,128,101131,1,8,0:0:0:0:
352,128,101200,1,8,0:0:0:0:
160,256,101269,1,4,0:0:0:0:
160,128,101475,1,0,0:0:0:0:
352,128,101544,1,8,0:0:0:0:
160,128,101682,1,0,0:0:0:0:
352,128,101819,1,8,0:0:0:0:
160,128,101888,1,0,0:0:0:0:
352,128,101957,1,8,0:0:0:0:
352,128,102026,1,8,0:0:0:0:
160,128,102095,1,0,0:0:0:0:
352,128,102163,1,8,0:0:0:0:
352,128,102232,1,8,0:0:0:0:
352,128,102301,1,8,0:0:0:0:
160,128,102783,1,0,0:0:0:0:
352,256,102920,1,12,0:0:0:0:
160,128,103058,1,0,0:0:0:0:
352,128,103333,1,8,0:0:0:0:
352,128,103402,1,8,0:0:0:0:
160,256,103471,1,4,0:0:0:0:
160,128,103608,1,0,0:0:0:0:
352,128,103746,1,8,0:0:0:0:
160,128,103884,1,0,0:0:0:0:
160,128,103952,1,0,0:0:0:0:
352,256,104021,1,12,0:0:0:0:
352,128,104296,1,8,0:0:0:0:
352,128,104434,1,8,0:0:0:0:
352,128,104503,1,8,0:0:0:0:
160,256,104572,1,4,0:0:0:0:
352,128,104847,1,8,0:0:0:0:
160,128,104985,1,0,0:0:0:0:
160,128,105053,1,0,0:0:0:0:
352,256,105122,1,12,0:0:0:0:
352,128,105397,1,8,0:0:0:0:
352,128,105535,1,8,0:0:0:0:
352,128,105604,1,8,0:0:0:0:
160,256,105673,1,4,0:0:0:0:
160,128,105879,1,0,0:0:0:0:
352,128,105948,1,8,0:0:0:0:
160,128,106085,1,0,0:0:0:0:
352,256,106223,1,12,0:0:0:0:
160,128,106361,1,0,0:0:0:0:
160,128,106429,1,0,0:0:0:0:
352,128,106498,1,8,0:0:0:0:
160,128,106567,1,0,0:0:0:0:
352,128,106636,1,8,0:0:0:0:
352,128,106705,1,8,0:0:0:0:
160,256,106774,1,4,0:0:0:0:
352,128,107049,1,8,0:0:0:0:
160,128,107186,1,0,0:0:0:0:
160,128,107255,1,0,0:0:0:0:
352,256,107324,1,12,0:0:0:0:
352,128,107599,1,8,0:0:0:0:
352,128,107737,1,8,0:0:0:0:
352,128,107806,1,8,0:0:0:0:
160,256,107874,1,4,0:0:0:0:
160,128,108012,1,0,0:0:0:0:
352,128,108150,1,8,0:0:0:0:
160,128,108287,1,0,0:0:0:0:
160,128,108356,1,0,0:0:0:0:
352,256,108425,1,12,0:0:0:0:
352,128,108700,1,8,0:0:0:0:
352,128,108838,1,8,0:0:0:0:
352,128,108907,1,8,0:0:0:0:
160,256,108975,1,4,0:0:0:0:
352,128,109251,1,8,0:0:0:0:
160,128,109388,1,0,0:0:0:0:
160,128,109457,1,0,0:0:0:0:
352,256,109526,1,12,0:0:0:0:
352,128,109801,1,8,0:0:0:0:
352,128,109939,1,8,0:0:0:0:
352,128,110007,1,8,0:0:0:0:
160,128,110076,1,0,0:0:0:0:
160,128,110145,1,0,0:0:0:0:
160,128,110214,1,0,0:0:0:0:
352,128,110283,1,8,0:0:0:0:
160,128,110352,1,0,0:0:0:0:
160,128,110420,1,0,0:0:0:0:
160,128,110489,1,0,0:0:0:0:
352,128,110558,1,8,0:0:0:0:
160,128,110627,1,0,0:0:0:0:
352,128,110902,1,8,0:0:0:0:
352,128,110948,1,8,0:0:0:0:
352,128,111040,1,8,0:0:0:0:
160,256,111177,1,4,0:0:0:0:
160,256,111452,1,4,0:0:0:0:
352,128,111590,1,8,0:0:0:0:
352,128,111659,1,8,0:0:0:0:
160,128,111728,1,0,0:0:0:0:
160,128,111796,1,0,0:0:0:0:
160,128,111865,1,0,0:0:0:0:
160,128,111934,1,0,0:0:0:0:
352,128,112003,1,8,0:0:0:0:
352,128,112072,1,8,0:0:0:0:
160,128,112140,1,0,0:0:0:0:
160,128,112209,1,0,0:0:0:0:
160,128,112278,1,0,0:0:0:0:
160,128,112347,1,0,0:0:0:0:
352,128,112416,1,8,0:0:0:0:
352,128,112485,1,8,0:0:0:0:
160,128,112553,1,0,0:0:0:0:
160,128,112622,1,0,0:0:0:0:
352,128,112691,1,8,0:0:0:0:
160,128,112760,1,0,0:0:0:0:
352,128,112829,1,8,0:0:0:0:
352,128,112897,1,8,0:0:0:0:
160,128,112966,1,0,0:0:0:0:
352,128,113035,1,8,0:0:0:0:
160,128,113104,1,0,0:0:0:0:
352,128,113173,1,8,0:0:0:0:
352,128,113241,1,8,0:0:0:0:
352,128,113310,1,8,0:0:0:0:
160,256,113379,1,4,0:0:0:0:
160,256,113654,1,4,0:0:0:0:
352,128,113792,1,8,0:0:0:0:
352,128,113861,1,8,0:0:0:0:
160,128,113929,1,0,0:0:0:0:
160,128,113998,1,0,0:0:0:0:
160,128,114067,1,0,0:0:0:0:
160,128,114136,1,0,0:0:0:0:
352,128,114205,1,8,0:0:0:0:
160,128,114274,1,0,0:0:0:0:
352,128,114342,1,8,0:0:0:0:
352,128,114411,1,8,0:0:0:0:
160,128,114480,1,0,0:0:0:0:
160,128,114549,1,0,0:0:0:0:
352,128,114618,1,8,0:0:0:0:
352,128,114686,1,8,0:0:0:0:
160,128,114755,1,0,0:0:0:0:
352,128,114824,1,8,0:0:0:0:
160,128,114893,1,0,0:0:0:0:
352,128,114962,1,8,0:0:0:0:
352,128,115030,1,8,0:0:0:0:
352,128,115099,1,8,0:0:0:0:
160,128,115168,1,0,0:0:0:0:
352,128,115237,1,8,0:0:0:0:
352,128,115306,1,8,0:0:0:0:
160,128,115374,1,0,0:0:0:0:
352,128,115443,1,8,0:0:0:0:
352,128,115512,1,8,0:0:0:0:
160,256,115581,1,4,0:0:0:0:
160,256,115856,1,4,0:0:0:0:
352,128,115994,1,8,0:0:0:0:
352,128,116063,1,8,0:0:0:0:
160,128,116131,1,0,0:0:0:0:
160,128,116200,1,0,0:0:0:0:
160,128,116269,1,0,0:0:0:0:
160,128,116338,1,0,0:0:0:0:
352,128,116407,1,8,0:0:0:0:
352,128,116475,1,8,0:0:0:0:
352,128,116544,1,8,0:0:0:0:
352,128,116613,1,8,0:0:0:0:
160,128,116682,1,0,0:0:0:0:
160,128,116751,1,0,0:0:0:0:
352,128,116819,1,8,0:0:0:0:
352,128,116888,1,8,0:0:0:0:
160,128,116957,1,0,0:0:0:0:
352,128,117026,1,8,0:0:0:0:
352,128,117095,1,8,0:0:0:0:
160,128,117163,1,0,0:0:0:0:
352,128,117232,1,8,0:0:0:0:
352,128,117301,1,8,0:0:0:0:
160,128,117370,1,0,0:0:0:0:
352,128,117439,1,8,0:0:0:0:
160,128,117507,1,0,0:0:0:0:
160,128,117576,1,0,0:0:0:0:
352,128,117645,1,8,0:0:0:0:
352,128,117714,1,8,0:0:0:0:
160,256,117783,1,4,0:0:0:0:
160,256,118058,1,4,0:0:0:0:
352,128,118196,1,8,0:0:0:0:
352,128,118264,1,8,0:0:0:0:
160,128,118333,1,0,0:0:0:0:
160,128,118402,1,0,0:0:0:0:
160,128,118471,1,0,0:0:0:0:
160,128,118540,1,0,0:0:0:0:
352,128,118608,1,8,0:0:0:0:
352,128,118677,1,8,0:0:0:0:
160,128,118746,1,0,0:0:0:0:
352,128,118815,1,8,0:0:0:0:
160,128,118884,1,0,0:0:0:0:
160,128,118952,1,0,0:0:0:0:
352,128,119021,1,8,0:0:0:0:
352,128,119090,1,8,0:0:0:0:
160,128,119159,1,0,0:0:0:0:
256,192,119296,12,0,119572,0:0:0:0:
352,128,119709,5,8,0:0:0:0:
352,128,119755,1,8,0:0:0:0:
352,128,119847,1,8,0:0:0:0:
160,256,119985,1,4,0:0:0:0:
160,128,120122,1,0,0:0:0:0:
352,128,120260,1,8,0:0:0:0:
352,128,120329,1,8,0:0:0:0:
352,128,120397,1,8,0:0:0:0:
160,128,120535,1,0,0:0:0:0:
352,128,120673,1,8,0:0:0:0:
352,128,120741,1,8,0:0:0:0:
160,128,120810,1,0,0:0:0:0:
160,128,120948,1,0,0:0:0:0:
352,128,121085,1,8,0:0:0:0:
352,128,121154,1,8,0:0:0:0:
352,128,121223,1,8,0:0:0:0:
160,128,121361,1,0,0:0:0:0:
352,128,121498,1,8,0:0:0:0:
352,128,121567,1,8,0:0:0:0:
160,128,121636,1,0,0:0:0:0:
160,128,121774,1,0,0:0:0:0:
352,128,121911,1,8,0:0:0:0:
352,128,121980,1,8,0:0:0:0:
352,128,122049,1,8,0:0:0:0:
160,128,122186,1,0,0:0:0:0:
160,128,122324,1,0,0:0:0:0:
352,128,122462,1,8,0:0:0:0:
352,128,122530,1,8,0:0:0:0:
352,128,122599,1,8,0:0:0:0:
160,128,122737,1,0,0:0:0:0:
352,128,122874,1,8,0:0:0:0:
352,128,122943,1,8,0:0:0:0:
160,128,123012,1,0,0:0:0:0:
160,128,123150,1,0,0:0:0:0:
352,128,123287,1,8,0:0:0:0:
352,128,123356,1,8,0:0:0:0:
352,128,123425,1,8,0:0:0:0:
160,128,123563,1,0,0:0:0:0:
352,128,123700,1,8,0:0:0:0:
352,128,123769,1,8,0:0:0:0:
160,128,123838,1,0,0:0:0:0:
160,128,123975,1,0,0:0:0:0:
352,128,124113,1,8,0:0:0:0:
352,128,124182,1,8,0:0:0:0:
352,128,124251,1,8,0:0:0:0:
160,128,124388,1,0,0:0:0:0:
352,128,124526,1,8,0:0:0:0:
352,128,124595,1,8,0:0:0:0:
160,128,124663,1,0,0:0:0:0:
352,128,124801,1,8,0:0:0:0:
160,128,124939,1,0,0:0:0:0:
352,128,125076,1,8,0:0:0:0:
352,128,125145,1,8,0:0:0:0:
160,128,125214,1,0,0:0:0:0:
352,128,125352,1,8,0:0:0:0:
160,128,125489,1,0,0:0:0:0:
352,128,125627,1,8,0:0:0:0:
352,128,125696,1,8,0:0:0:0:
352,128,125764,1,8,0:0:0:0:
352,128,125902,1,8,0:0:0:0:
160,128,126040,1,0,0:0:0:0:
352,128,126177,1,8,0:0:0:0:
352,128,126246,1,8,0:0:0:0:
352,128,126315,1,8,0:0:0:0:
352,128,126452,1,8,0:0:0:0:
160,128,126590,1,0,0:0:0:0:
160,128,126659,1,0,0:0:0:0:
160,128,126728,1,0,0:0:0:0:
160,128,126796,1,0,0:0:0:0:
352,128,126865,1,8,0:0:0:0:
352,128,126934,1,8,0:0:0:0:
160,128,127003,1,0,0:0:0:0:
160,128,127072,1,0,0:0:0:0:
352,128,127140,1,8,0:0:0:0:
352,128,127209,1,8,0:0:0:0:
160,128,127278,1,0,0:0:0:0:
160,128,127347,1,0,0:0:0:0:
352,128,127416,1,8,0:0:0:0:
352,128,127485,1,8,0:0:0:0:
352,128,127553,1,8,0:0:0:0:
352,128,127622,1,8,0:0:0:0:
160,128,127691,1,0,0:0:0:0:
256,192,127829,12,0,128379,0:0:0:0:
160,256,128517,5,4,0:0:0:0:
352,256,128792,1,12,0:0:0:0:
352,256,129067,1,12,0:0:0:0:
352,256,129342,1,12,0:0:0:0:
352,256,129618,1,12,0:0:0:0:
352,256,129893,1,12,0:0:0:0:
352,256,130168,1,12,0:0:0:0:
352,256,130443,1,12,0:0:0:0:
352,256,130581,1,12,0:0:0:0:
160,128,130718,1,0,0:0:0:0:
352,256,130994,1,12,0:0:0:0:
352,256,131131,1,12,0:0:0:0:
352,256,131269,1,12,0:0:0:0:
352,256,131544,1,12,0:0:0:0:
352,256,131682,1,12,0:0:0:0:
352,128,131957,1,8,0:0:0:0:
352,128,132026,1,8,0:0:0:0:
352,128,132095,1,8,0:0:0:0:
352,256,132370,1,12,0:0:0:0:
352,256,132645,1,12,0:0:0:0:
352,256,132783,1,12,0:0:0:0:
160,128,132920,1,0,0:0:0:0:
352,256,133196,1,12,0:0:0:0:
352,256,133471,1,12,0:0:0:0:
352,256,133746,1,12,0:0:0:0:
352,256,134021,1,12,0:0:0:0:
352,256,134296,1,12,0:0:0:0:
352,256,134572,1,12,0:0:0:0:
352,256,134847,1,12,0:0:0:0:
352,256,134985,1,12,0:0:0:0:
160,128,135122,1,0,0:0:0:0:
352,256,135397,1,12,0:0:0:0:
352,256,135535,1,12,0:0:0:0:
352,256,135673,1,12,0:0:0:0:
352,256,135948,1,12,0:0:0:0:
352,256,136085,1,12,0:0:0:0:
352,128,136361,1,8,0:0:0:0:
352,128,136429,1,8,0:0:0:0:
352,128,136498,1,8,0:0:0:0:
352,256,136682,1,12,0:0:0:0:
352,256,136865,1,12,0:0:0:0:
352,256,137049,1,12,0:0:0:0:
160,128,137324,1,0,0:0:0:0:
160,128,137530,1,0,0:0:0:0:
352,128,137599,1,8,0:0:0:0:
160,128,137737,1,0,0:0:0:0:
352,256,137874,1,12,0:0:0:0:
352,256,138150,1,12,0:0:0:0:
352,256,138425,1,12,0:0:0:0:
352,256,138700,1,12,0:0:0:0:
352,256,138975,1,12,0:0:0:0:
352,256,139251,1,12,0:0:0:0:
352,256,139388,1,12,0:0:0:0:
160,128,139526,1,0,0:0:0:0:
352,256,139801,1,12,0:0:0:0:
352,256,139939,1,12,0:0:0:0:
352,256,140076,1,12,0:0:0:0:
352,256,140352,1,12,0:0:0:0:
352,256,140489,1,12,0:0:0:0:
352,128,140764,1,8,0:0:0:0:
352,128,140833,1,8,0:0:0:0:
352,128,140902,1,8,0:0:0:0:
352,256,141177,1,12,0:0:0:0:
352,256,141452,1,12,0:0:0:0:
352,256,141590,1,12,0:0:0:0:
160,128,141728,1,0,0:0:0:0:
352,256,142003,1,12,0:0:0:0:
352,256,142278,1,12,0:0:0:0:
352,256,142553,1,12,0:0:0:0:
352,256,142829,1,12,0:0:0:0:
352,256,143104,1,12,0:0:0:0:
352,256,143379,1,12,0:0:0:0:
352,256,143654,1,12,0:0:0:0:
352,256,143792,1,12,0:0:0:0:
160,128,143929,1,0,0:0:0:0:
352,256,144205,1,12,0:0:0:0:
352,256,144342,1,12,0:0:0:0:
352,256,144480,1,12,0:0:0:0:
352,256,144755,1,12,0:0:0:0:
352,256,144893,1,12,0:0:0:0:
352,128,145168,1,8,0:0:0:0:
352,128,145237,1,8,0:0:0:0:
352,128,145306,1,8,0:0:0:0:
160,128,145512,1,0,0:0:0:0:
160,128,145581,1,0,0:0:0:0:
160,128,145718,1,0,0:0:0:0:
352,128,145856,1,8,0:0:0:0:
352,128,145925,1,8,0:0:0:0:
352,128,145994,1,8,0:0:0:0:
352,128,146063,1,8,0:0:0:0:
352,128,146131,1,8,0:0:0:0:
352,128,146269,1,8,0:0:0:0:
160,256,146407,1,4,0:0:0:0:
160,128,146613,1,0,0:0:0:0:
352,128,146682,1,8,0:0:0:0:
160,128,146819,1,0,0:0:0:0:
160,128,146888,1,0,0:0:0:0:
352,256,146957,1,12,0:0:0:0:
352,128,147232,1,8,0:0:0:0:
352,128,147370,1,8,0:0:0:0:
352,128,147439,1,8,0:0:0:0:
160,256,147507,1,4,0:0:0:0:
160,128,147645,1,0,0:0:0:0:
352,128,147783,1,8,0:0:0:0:
160,128,147920,1,0,0:0:0:0:
160,128,147989,1,0,0:0:0:0:
352,256,148058,1,12,0:0:0:0:
352,128,148333,1,8,0:0:0:0:
352,128,148471,1,8,0:0:0:0:
352,128,148540,1,8,0:0:0:0:
160,256,148608,1,4,0:0:0:0:
160,128,148815,1,0,0:0:0:0:
352,128,148884,1,8,0:0:0:0:
160,128,149021,1,0,0:0:0:0:
160,128,149090,1,0,0:0:0:0:
352,256,149159,1,12,0:0:0:0:
352,128,149434,1,8,0:0:0:0:
352,128,149572,1,8,0:0:0:0:
352,128,149640,1,8,0:0:0:0:
160,256,149709,1,4,0:0:0:0:
160,128,149847,1,0,0:0:0:0:
160,128,149916,1,0,0:0:0:0:
352,128,149985,1,8,0:0:0:0:
160,128,150122,1,0,0:0:0:0:
352,256,150260,1,12,0:0:0:0:
160,128,150397,1,0,0:0:0:0:
160,128,150466,1,0,0:0:0:0:
352,128,150535,1,8,0:0:0:0:
160,128,150604,1,0,0:0:0:0:
352,128,150673,1,8,0:0:0:0:
352,128,150741,1,8,0:0:0:0:
160,256,150810,1,4,0:0:0:0:
160,128,151017,1,0,0:0:0:0:
352,128,151085,1,8,0:0:0:0:
160,128,151223,1,0,0:0:0:0:
160,128,151292,1,0,0:0:0:0:
352,256,151361,1,12,0:0:0:0:
352,128,151636,1,8,0:0:0:0:
352,128,151774,1,8,0:0:0:0:
352,128,151842,1,8,0:0:0:0:
160,256,151911,1,4,0:0:0:0:
160,128,152049,1,0,0:0:0:0:
352,128,152186,1,8,0:0:0:0:
160,128,152324,1,0,0:0:0:0:
160,128,152393,1,0,0:0:0:0:
352,256,152462,1,12,0:0:0:0:
352,128,152737,1,8,0:0:0:0:
352,128,152874,1,8,0:0:0:0:
352,128,152943,1,8,0:0:0:0:
160,256,153012,1,4,0:0:0:0:
160,128,153218,1,0,0:0:0:0:
352,128,153287,1,8,0:0:0:0:
160,128,153425,1,0,0:0:0:0:
160,128,153494,1,0,0:0:0:0:
352,256,153563,1,12,0:0:0:0:
352,128,153838,1,8,0:0:0:0:
352,128,153975,1,8,0:0:0:0:
352,128,154044,1,8,0:0:0:0:
160,256,154113,1,4,0:0:0:0:
160,128,154251,1,0,0:0:0:0:
160,128,154319,1,0,0:0:0:0:
352,128,154388,1,8,0:0:0:0:
160,128,154526,1,0,0:0:0:0:
352,128,154663,1,8,0:0:0:0:
160,128,154732,1,0,0:0:0:0:
352,128,154801,1,8,0:0:0:0:
352,128,154870,1,8,0:0:0:0:
160,128,154939,1,0,0:0:0:0:
352,128,155007,1,8,0:0:0:0:
352,128,155076,1,8,0:0:0:0:
352,128,155145,1,8,0:0:0:0:
160,128,155558,1,0,0:0:0:0:
160,128,155627,1,0,0:0:0:0:
352,256,155764,1,12,0:0:0:0:
160,128,155902,1,0,0:0:0:0:
352,128,156177,1,8,0:0:0:0:
352,128,156246,1,8,0:0:0:0:
160,256,156315,1,4,0:0:0:0:
160,128,156452,1,0,0:0:0:0:
352,128,156590,1,8,0:0:0:0:
160,128,156728,1,0,0:0:0:0:
160,128,156796,1,0,0:0:0:0:
352,256,156865,1,12,0:0:0:0:
352,128,157140,1,8,0:0:0:0:
352,128,157278,1,8,0:0:0:0:
352,128,157347,1,8,0:0:0:0:
160,256,157416,1,4,0:0:0:0:
160,128,157622,1,0,0:0:0:0:
352,128,157691,1,8,0:0:0:0:
160,128,157829,1,0,0:0:0:0:
160,128,157897,1,0,0:0:0:0:
352,256,157966,1,12,0:0:0:0:
352,128,158241,1,8,0:0:0:0:
352,128,158379,1,8,0:0:0:0:
352,128,158448,1,8,0:0:0:0:
160,256,158517,1,4,0:0:0:0:
160,128,158654,1,0,0:0:0:0:
160,128,158723,1,0,0:0:0:0:
352,128,158792,1,8,0:0:0:0:
160,128,158929,1,0,0:0:0:0:
352,256,159067,1,12,0:0:0:0:
160,128,159205,1,0,0:0:0:0:
160,128,159274,1,0,0:0:0:0:
352,128,159342,1,8,0:0:0:0:
160,128,159411,1,0,0:0:0:0:
352,128,159480,1,8,0:0:0:0:
352,128,159549,1,8,0:0:0:0:
160,256,159618,1,4,0:0:0:0:
160,128,159824,1,0,0:0:0:0:
352,128,159893,1,8,0:0:0:0:
160,128,160030,1,0,0:0:0:0:
160,128,160099,1,0,0:0:0:0:
352,256,160168,1,12,0:0:0:0:
352,128,160443,1,8,0:0:0:0:
352,128,160581,1,8,0:0:0:0:
352,128,160650,1,8,0:0:0:0:
160,256,160718,1,4,0:0:0:0:
160,128,160856,1,0,0:0:0:0:
352,128,160994,1,8,0:0:0:0:
160,128,161131,1,0,0:0:0:0:
160,128,161200,1,0,0:0:0:0:
352,256,161269,1,12,0:0:0:0:
352,128,161544,1,8,0:0:0:0:
352,128,161682,1,8,0:0:0:0:
352,128,161751,1,8,0:0:0:0:
160,256,161819,1,4,0:0:0:0:
160,128,162026,1,0,0:0:0:0:
352,128,162095,1,8,0:0:0:0:
160,128,162232,1,0,0:0:0:0:
160,128,162301,1,0,0:0:0:0:
352,256,162370,1,12,0:0:0:0:
352,128,162645,1,8,0:0:0:0:
352,128,162783,1,8,0:0:0:0:
352,128,162852,1,8,0:0:0:0:
160,128,162920,1,0,0:0:0:0:
160,128,162989,1,0,0:0:0:0:
160,128,163058,1,0,0:0:0:0:
352,128,163127,1,8,0:0:0:0:
160,128,163196,1,0,0:0:0:0:
160,128,163264,1,0,0:0:0:0:
160,128,163333,1,0,0:0:0:0:
352,128,163402,1,8,0:0:0:0:
160,128,163471,1,0,0:0:0:0:
352,128,163746,1,8,0:0:0:0:
352,128,163792,1,8,0:0:0:0:
352,128,163884,1,8,0:0:0:0:
160,256,164021,1,4,0:0:0:0:
256,192,164159,12,0,168287,0:0:0:0:
160,256,168425,5,4,0:0:0:0:
352,128,169526,1,8,0:0:0:0:
160,128,170627,1,0,0:0:0:0:
352,128,171728,1,8,0:0:0:0:
160,128,172829,1,0,0:0:0:0:
160,128,173379,1,0,0:0:0:0:
352,128,173929,1,8,0:0:0:0:
352,128,174480,1,8,0:0:0:0:
160,128,175030,1,0,0:0:0:0:
160,128,175306,1,0,0:0:0:0:
160,128,175581,1,0,0:0:0:0:
160,128,175856,1,0,0:0:0:0:
352,128,176131,1,8,0:0:0:0:
352,128,176407,1,8,0:0:0:0:
160,128,176682,1,0,0:0:0:0:
352,128,176819,1,8,0:0:0:0:
352,128,176957,1,8,0:0:0:0:
352,128,177095,1,8,0:0:0:0:
160,256,177232,1,4,0:0:0:0:
160,128,177507,1,0,0:0:0:0:
352,128,177783,1,8,0:0:0:0:
160,128,178058,1,0,0:0:0:0:
352,128,178333,1,8,0:0:0:0:
160,128,178608,1,0,0:0:0:0:
352,128,178884,1,8,0:0:0:0:
352,128,179159,1,8,0:0:0:0:
160,128,179434,1,0,0:0:0:0:
352,128,179709,1,8,0:0:0:0:
352,128,179985,1,8,0:0:0:0:
160,128,180260,1,0,0:0:0:0:
352,128,180535,1,8,0:0:0:0:
160,128,180810,1,0,0:0:0:0:
160,128,181085,1,0,0:0:0:0:
352,128,181361,1,8,0:0:0:0:
352,128,181636,1,8,0:0:0:0:
160,128,181911,1,0,0:0:0:0:
352,128,182186,1,8,0:0:0:0:
352,128,182462,1,8,0:0:0:0:
352,128,182737,1,8,0:0:0:0:
160,128,183012,1,0,0:0:0:0:
352,128,183287,1,8,0:0:0:0:
352,128,183563,1,8,0:0:0:0:
160,128,183838,1,0,0:0:0:0:
352,128,184113,1,8,0:0:0:0:
352,128,184388,1,8,0:0:0:0:
352,128,184663,1,8,0:0:0:0:
160,128,184939,1,0,0:0:0:0:
160,128,185214,1,0,0:0:0:0:
352,128,185489,1,8,0:0:0:0:
160,256,186040,1,4,0:0:0:0:
352,128,186177,1,8,0:0:0:0:
160,128,186315,1,0,0:0:0:0:
352,128,186452,1,8,0:0:0:0:
352,128,186521,1,8,0:0:0:0:
160,128,186590,1,0,0:0:0:0:
352,128,186728,1,8,0:0:0:0:
160,128,186865,1,0,0:0:0:0:
352,128,187003,1,8,0:0:0:0:
352,128,187072,1,8,0:0:0:0:
160,128,187140,1,0,0:0:0:0:
352,128,187278,1,8,0:0:0:0:
160,128,187416,1,0,0:0:0:0:
352,128,187553,1,8,0:0:0:0:
352,128,187622,1,8,0:0:0:0:
160,128,187691,1,0,0:0:0:0:
160,128,187829,1,0,0:0:0:0:
352,128,187966,1,8,0:0:0:0:
352,128,188012,1,8,0:0:0:0:
352,128,188104,1,8,0:0:0:0:
352,256,188241,1,12,0:0:0:0:
160,128,188379,1,0,0:0:0:0:
160,128,188517,1,0,0:0:0:0:
352,128,188654,1,8,0:0:0:0:
352,128,188723,1,8,0:0:0:0:
160,128,188792,1,0,0:0:0:0:
352,128,188929,1,8,0:0:0:0:
160,128,189067,1,0,0:0:0:0:
352,128,189205,1,8,0:0:0:0:
352,128,189274,1,8,0:0:0:0:
160,128,189342,1,0,0:0:0:0:
352,128,189480,1,8,0:0:0:0:
160,128,189618,1,0,0:0:0:0:
160,128,189686,1,0,0:0:0:0:
352,128,189755,1,8,0:0:0:0:
352,128,189824,1,8,0:0:0:0:
160,128,189893,1,0,0:0:0:0:
160,128,190030,1,0,0:0:0:0:
352,128,190168,1,8,0:0:0:0:
352,128,190214,1,8,0:0:0:0:
352,128,190306,1,8,0:0:0:0:
352,256,190443,1,12,0:0:0:0:
352,128,190581,1,8,0:0:0:0:
160,128,190718,1,0,0:0:0:0:
352,128,190856,1,8,0:0:0:0:
352,128,190925,1,8,0:0:0:0:
352,128,190994,1,8,0:0:0:0:
352,128,191131,1,8,0:0:0:0:
160,128,191269,1,0,0:0:0:0:
352,128,191407,1,8,0:0:0:0:
352,128,191475,1,8,0:0:0:0:
352,128,191544,1,8,0:0:0:0:
352,128,191682,1,8,0:0:0:0:
160,128,191819,1,0,0:0:0:0:
160,128,191888,1,0,0:0:0:0:
352,128,191957,1,8,0:0:0:0:
352,128,192026,1,8,0:0:0:0:
160,128,192095,1,0,0:0:0:0:
352,128,192163,1,8,0:0:0:0:
160,128,192232,1,0,0:0:0:0:
352,128,192370,1,8,0:0:0:0:
352,128,192416,1,8,0:0:0:0:
352,128,192507,1,8,0:0:0:0:
352,256,192645,1,12,0:0:0:0:
160,128,192783,1,0,0:0:0:0:
160,128,192920,1,0,0:0:0:0:
352,128,193058,1,8,0:0:0:0:
352,128,193127,1,8,0:0:0:0:
352,128,193196,1,8,0:0:0:0:
352,128,193333,1,8,0:0:0:0:
160,128,193471,1,0,0:0:0:0:
352,128,193608,1,8,0:0:0:0:
160,128,193677,1,0,0:0:0:0:
352,128,193746,1,8,0:0:0:0:
352,128,193884,1,8,0:0:0:0:
160,128,194021,1,0,0:0:0:0:
160,128,194090,1,0,0:0:0:0:
352,128,194159,1,8,0:0:0:0:
160,128,194228,1,0,0:0:0:0:
352,128,194296,1,8,0:0:0:0:
160,128,194434,1,0,0:0:0:0:
352,128,194572,1,8,0:0:0:0:
352,128,194618,1,8,0:0:0:0:
352,128,194709,1,8,0:0:0:0:
160,128,194847,1,0,0:0:0:0:
160,128,194916,1,0,0:0:0:0:
352,128,194985,1,8,0:0:0:0:
160,128,195122,1,0,0:0:0:0:
352,128,195260,1,8,0:0:0:0:
352,128,195329,1,8,0:0:0:0:
160,128,195397,1,0,0:0:0:0:
352,128,195535,1,8,0:0:0:0:
160,128,195673,1,0,0:0:0:0:
160,128,195741,1,0,0:0:0:0:
352,128,195810,1,8,0:0:0:0:
352,128,195879,1,8,0:0:0:0:
160,128,195948,1,0,0:0:0:0:
352,128,196085,1,8,0:0:0:0:
160,128,196223,1,0,0:0:0:0:
160,128,196292,1,0,0:0:0:0:
352,128,196361,1,8,0:0:0:0:
352,128,196429,1,8,0:0:0:0:
160,128,196498,1,0,0:0:0:0:
160,128,196567,1,0,0:0:0:0:
160,128,196636,1,0,0:0:0:0:
352,128,196774,1,8,0:0:0:0:
352,128,196819,1,8,0:0:0:0:
352,128,196911,1,8,0:0:0:0:
352,128,197049,1,8,0:0:0:0:
352,128,197118,1,8,0:0:0:0:
160,128,197186,1,0,0:0:0:0:
160,128,197324,1,0,0:0:0:0:
352,128,197462,1,8,0:0:0:0:
352,128,197530,1,8,0:0:0:0:
160,128,197599,1,0,0:0:0:0:
352,128,197737,1,8,0:0:0:0:
160,128,197874,1,0,0:0:0:0:
160,128,197943,1,0,0:0:0:0:
352,128,198012,1,8,0:0:0:0:
352,128,198081,1,8,0:0:0:0:
160,128,198150,1,0,0:0:0:0:
352,128,198287,1,8,0:0:0:0:
160,128,198425,1,0,0:0:0:0:
160,128,198494,1,0,0:0:0:0:
352,128,198563,1,8,0:0:0:0:
352,128,198631,1,8,0:0:0:0:
160,128,198700,1,0,0:0:0:0:
160,128,198769,1,0,0:0:0:0:
352,128,198838,1,8,0:0:0:0:
352,128,198975,1,8,0:0:0:0:
352,128,199021,1,8,0:0:0:0:
352,128,199113,1,8,0:0:0:0:
352,128,199251,1,8,0:0:0:0:
352,128,199319,1,8,0:0:0:0:
352,128,199388,1,8,0:0:0:0:
160,128,199526,1,0,0:0:0:0:
352,128,199663,1,8,0:0:0:0:
160,128,199801,1,0,0:0:0:0:
160,128,199870,1,0,0:0:0:0:
352,128,199939,1,8,0:0:0:0:
352,128,200007,1,8,0:0:0:0:
160,128,200076,1,0,0:0:0:0:
352,128,200214,1,8,0:0:0:0:
160,128,200352,1,0,0:0:0:0:
160,128,200420,1,0,0:0:0:0:
352,128,200489,1,8,0:0:0:0:
352,128,200558,1,8,0:0:0:0:
352,128,200627,1,8,0:0:0:0:
352,128,200764,1,8,0:0:0:0:
160,128,200833,1,0,0:0:0:0:
352,128,200902,1,8,0:0:0:0:
160,128,201040,1,0,0:0:0:0:
352,128,201177,1,8,0:0:0:0:
352,128,201223,1,8,0:0:0:0:
352,128,201315,1,8,0:0:0:0:
160,256,201452,1,4,0:0:0:0:
160,128,201865,1,0,0:0:0:0:
160,128,201934,1,0,0:0:0:0:
352,128,202003,1,8,0:0:0:0:
352,128,202072,1,8,0:0:0:0:
352,128,202140,1,8,0:0:0:0:
160,128,202209,1,0,0:0:0:0:
352,128,202278,1,8,0:0:0:0:
352,128,202347,1,8,0:0:0:0:
352,128,202416,1,8,0:0:0:0:
160,128,202485,1,0,0:0:0:0:
352,128,202553,1,8,0:0:0:0:
352,128,202622,1,8,0:0:0:0:
352,128,202691,1,8,0:0:0:0:
160,128,202760,1,0,0:0:0:0:
352,128,202829,1,8,0:0:0:0:
352,128,202897,1,8,0:0:0:0:
352,128,202966,1,8,0:0:0:0:
352,128,203035,1,8,0:0:0:0:
160,128,203104,1,0,0:0:0:0:
352,128,203379,1,8,0:0:0:0:
352,128,203425,1,8,0:0:0:0:
352,128,203517,1,8,0:0:0:0:
160,256,203654,1,4,0:0:0:0:
160,256,203929,1,4,0:0:0:0:
352,128,204067,1,8,0:0:0:0:
352,128,204136,1,8,0:0:0:0:
160,128,204205,1,0,0:0:0:0:
160,128,204274,1,0,0:0:0:0:
352,128,204342,1,8,0:0:0:0:
160,128,204411,1,0,0:0:0:0:
352,128,204480,1,8,0:0:0:0:
352,128,204549,1,8,0:0:0:0:
160,128,204618,1,0,0:0:0:0:
160,128,204686,1,0,0:0:0:0:
352,128,204755,1,8,0:0:0:0:
160,128,204824,1,0,0:0:0:0:
352,128,204893,1,8,0:0:0:0:
352,128,204962,1,8,0:0:0:0:
160,128,205030,1,0,0:0:0:0:
160,128,205099,1,0,0:0:0:0:
352,128,205168,1,8,0:0:0:0:
160,128,205237,1,0,0:0:0:0:
352,128,205306,1,8,0:0:0:0:
352,128,205374,1,8,0:0:0:0:
160,128,205443,1,0,0:0:0:0:
352,128,205512,1,8,0:0:0:0:
160,128,205581,1,0,0:0:0:0:
352,128,205650,1,8,0:0:0:0:
352,128,205718,1,8,0:0:0:0:
352,128,205787,1,8,0:0:0:0:
160,256,205856,1,4,0:0:0:0:
160,256,206131,1,4,0:0:0:0:
352,128,206269,1,8,0:0:0:0:
352,128,206338,1,8,0:0:0:0:
160,128,206407,1,0,0:0:0:0:
160,128,206475,1,0,0:0:0:0:
352,128,206544,1,8,0:0:0:0:
160,128,206613,1,0,0:0:0:0:
352,128,206682,1,8,0:0:0:0:
160,128,206751,1,0,0:0:0:0:
352,128,206819,1,8,0:0:0:0:
352,128,206888,1,8,0:0:0:0:
160,128,206957,1,0,0:0:0:0:
352,128,207026,1,8,0:0:0:0:
352,128,207095,1,8,0:0:0:0:
352,128,207163,1,8,0:0:0:0:
160,128,207232,1,0,0:0:0:0:
160,128,207301,1,0,0:0:0:0:
160,128,207370,1,0,0:0:0:0:
160,128,207439,1,0,0:0:0:0:
352,128,207507,1,8,0:0:0:0:
352,128,207576,1,8,0:0:0:0:
160,128,207645,1,0,0:0:0:0:
160,128,207714,1,0,0:0:0:0:
352,128,207783,1,8,0:0:0:0:
352,128,207852,1,8,0:0:0:0:
352,128,207920,1,8,0:0:0:0:
352,128,207989,1,8,0:0:0:0:
160,256,208058,1,4,0:0:0:0:
160,256,208333,1,4,0:0:0:0:
352,128,208471,1,8,0:0:0:0:
352,128,208540,1,8,0:0:0:0:
160,128,208608,1,0,0:0:0:0:
160,128,208677,1,0,0:0:0:0:
352,128,208746,1,8,0:0:0:0:
160,128,208815,1,0,0:0:0:0:
352,128,208884,1,8,0:0:0:0:
352,128,208952,1,8,0:0:0:0:
160,128,209021,1,0,0:0:0:0:
352,128,209090,1,8,0:0:0:0:
160,128,209159,1,0,0:0:0:0:
160,128,209228,1,0,0:0:0:0:
352,128,209296,1,8,0:0:0:0:
352,128,209365,1,8,0:0:0:0:
160,128,209434,1,0,0:0:0:0:
160,128,209503,1,0,0:0:0:0:
352,128,209572,1,8,0:0:0:0:
160,128,209640,1,0,0:0:0:0:
352,128,209709,1,8,0:0:0:0:
352,128,209778,1,8,0:0:0:0:
160,128,209847,1,0,0:0:0:0:
160,128,209916,1,0,0:0:0:0:
352,128,209985,1,8,0:0:0:0:
160,128,210053,1,0,0:0:0:0:
352,128,210122,1,8,0:0:0:0:
352,128,210191,1,8,0:0:0:0:
160,256,210260,1,4,0:0:0:0:
160,256,210535,1,4,0:0:0:0:
352,128,210673,1,8,0:0:0:0:
352,128,210741,1,8,0:0:0:0:
160,128,210810,1,0,0:0:0:0:
160,128,210879,1,0,0:0:0:0:
352,128,210948,1,8,0:0:0:0:
160,128,211017,1,0,0:0:0:0:
352,128,211085,1,8,0:0:0:0:
352,128,211154,1,8,0:0:0:0:
160,128,211223,1,0,0:0:0:0:
352,128,211292,1,8,0:0:0:0:
160,128,211361,1,0,0:0:0:0:
160,128,211429,1,0,0:0:0:0:
352,128,211498,1,8,0:0:0:0:
352,128,211567,1,8,0:0:0:0:
160,128,211636,1,0,0:0:0:0:
256,192,211774,12,0,212049,0:0:0:0:
352,128,212186,5,8,0:0:0:0:
352,128,212232,1,8,0:0:0:0:
352,128,212324,1,8,0:0:0:0:
160,256,212462,1,4,0:0:0:0:
160,128,212599,1,0,0:0:0:0:
352,128,212737,1,8,0:0:0:0:
352,128,212806,1,8,0:0:0:0:
352,128,212874,1,8,0:0:0:0:
352,128,212943,1,8,0:0:0:0:
160,128,213012,1,0,0:0:0:0:
352,128,213150,1,8,0:0:0:0:
352,128,213218,1,8,0:0:0:0:
160,128,213287,1,0,0:0:0:0:
352,128,213356,1,8,0:0:0:0:
160,128,213425,1,0,0:0:0:0:
352,128,213563,1,8,0:0:0:0:
352,128,213631,1,8,0:0:0:0:
352,128,213700,1,8,0:0:0:0:
352,128,213769,1,8,0:0:0:0:
160,128,213838,1,0,0:0:0:0:
352,128,213975,1,8,0:0:0:0:
352,128,214044,1,8,0:0:0:0:
160,128,214113,1,0,0:0:0:0:
352,128,214182,1,8,0:0:0:0:
160,128,214251,1,0,0:0:0:0:
352,128,214388,1,8,0:0:0:0:
352,128,214457,1,8,0:0:0:0:
352,128,214526,1,8,0:0:0:0:
352,128,214595,1,8,0:0:0:0:
160,128,214663,1,0,0:0:0:0:
160,128,214801,1,0,0:0:0:0:
352,128,214939,1,8,0:0:0:0:
352,128,215007,1,8,0:0:0:0:
352,128,215076,1,8,0:0:0:0:
352,128,215145,1,8,0:0:0:0:
160,128,215214,1,0,0:0:0:0:
352,128,215352,1,8,0:0:0:0:
352,128,215420,1,8,0:0:0:0:
160,128,215489,1,0,0:0:0:0:
352,128,215558,1,8,0:0:0:0:
160,128,215627,1,0,0:0:0:0:
352,128,215764,1,8,0:0:0:0:
352,128,215833,1,8,0:0:0:0:
352,128,215902,1,8,0:0:0:0:
352,128,215971,1,8,0:0:0:0:
160,128,216040,1,0,0:0:0:0:
352,128,216177,1,8,0:0:0:0:
352,128,216246,1,8,0:0:0:0:
160,128,216315,1,0,0:0:0:0:
352,128,216384,1,8,0:0:0:0:
160,128,216452,1,0,0:0:0:0:
352,128,216590,1,8,0:0:0:0:
352,128,216659,1,8,0:0:0:0:
352,128,216728,1,8,0:0:0:0:
352,128,216796,1,8,0:0:0:0:
160,128,216865,1,0,0:0:0:0:
352,128,217003,1,8,0:0:0:0:
352,128,217072,1,8,0:0:0:0:
160,128,217140,1,0,0:0:0:0:
352,128,217278,1,8,0:0:0:0:
160,128,217416,1,0,0:0:0:0:
160,128,217485,1,0,0:0:0:0:
352,128,217553,1,8,0:0:0:0:
352,128,217622,1,8,0:0:0:0:
160,128,217691,1,0,0:0:0:0:
352,128,217829,1,8,0:0:0:0:
160,128,217966,1,0,0:0:0:0:
160,128,218035,1,0,0:0:0:0:
352,128,218104,1,8,0:0:0:0:
352,128,218173,1,8,0:0:0:0:
352,128,218241,1,8,0:0:0:0:
352,128,218379,1,8,0:0:0:0:
160,128,218517,1,0,0:0:0:0:
160,128,218585,1,0,0:0:0:0:
352,128,218654,1,8,0:0:0:0:
352,128,218723,1,8,0:0:0:0:
352,128,218792,1,8,0:0:0:0:
352,128,218929,1,8,0:0:0:0:
160,128,219067,1,0,0:0:0:0:
160,128,219136,1,0,0:0:0:0:
160,128,219205,1,0,0:0:0:0:
160,128,219274,1,0,0:0:0:0:
352,128,219342,1,8,0:0:0:0:
352,128,219411,1,8,0:0:0:0:
160,128,219480,1,0,0:0:0:0:
160,128,219549,1,0,0:0:0:0:
352,128,219618,1,8,0:0:0:0:
352,128,219686,1,8,0:0:0:0:
160,128,219755,1,0,0:0:0:0:
160,128,219824,1,0,0:0:0:0:
352,128,219893,1,8,0:0:0:0:
352,128,219962,1,8,0:0:0:0:
352,128,220030,1,8,0:0:0:0:
352,128,220099,1,8,0:0:0:0:
160,128,220168,1,0,0:0:0:0:
256,192,220306,12,0,221819,0:0:0:0:
256,160,221957,6,0,L|256:224,28,35
160,128,224021,1,0,0:0:0:0:
160,128,224090,1,0,0:0:0:0:
352,128,224159,1,8,0:0:0:0:
352,128,224228,1,8,0:0:0:0:
160,128,224296,1,0,0:0:0:0:
352,128,224365,1,8,0:0:0:0:
352,128,224434,1,8,0:0:0:0:
352,128,224503,1,8,0:0:0:0:
160,128,224572,1,0,0:0:0:0:
160,128,224640,1,0,0:0:0:0:
352,128,224709,1,8,0:0:0:0:
160,128,224778,1,0,0:0:0:0:
352,128,224847,1,8,0:0:0:0:
160,128,224916,1,0,0:0:0:0:
352,128,224984,1,8,0:0:0:0:
352,128,225053,1,8,0:0:0:0:
352,128,225122,1,8,0:0:0:0:
160,128,225191,1,0,0:0:0:0:
352,128,225260,1,8,0:0:0:0:
352,128,225328,1,8,0:0:0:0:
160,128,225397,1,0,0:0:0:0:
160,256,225672,1,4,0:0:0:0:
352,256,225948,1,12,0:0:0:0:
160,128,226085,1,0,0:0:0:0:
160,128,226154,1,0,0:0:0:0:
352,128,226223,1,8,0:0:0:0:
352,256,226360,1,12,0:0:0:0:
160,128,226498,1,0,0:0:0:0:
160,128,226567,1,0,0:0:0:0:
160,128,226636,1,0,0:0:0:0:
352,256,226773,1,12,0:0:0:0:
160,128,226911,1,0,0:0:0:0:
352,128,226980,1,8,0:0:0:0:
160,128,227048,1,0,0:0:0:0:
352,256,227186,1,12,0:0:0:0:
160,128,227324,1,0,0:0:0:0:
160,128,227392,1,0,0:0:0:0:
352,128,227461,1,8,0:0:0:0:
160,128,227599,1,0,0:0:0:0:
352,128,227668,1,8,0:0:0:0:
352,128,227736,1,8,0:0:0:0:
352,128,227805,1,8,0:0:0:0:
160,256,227874,1,4,0:0:0:0:
352,256,228149,1,12,0:0:0:0:
160,128,228287,1,0,0:0:0:0:
160,128,228356,1,0,0:0:0:0:
352,128,228425,1,8,0:0:0:0:
352,256,228562,1,12,0:0:0:0:
160,128,228700,1,0,0:0:0:0:
160,128,228769,1,0,0:0:0:0:
160,128,228837,1,0,0:0:0:0:
352,256,228975,1,12,0:0:0:0:
160,128,229113,1,0,0:0:0:0:
352,128,229181,1,8,0:0:0:0:
160,128,229250,1,0,0:0:0:0:
352,256,229388,1,12,0:0:0:0:
160,128,229525,1,0,0:0:0:0:
160,128,229594,1,0,0:0:0:0:
352,128,229663,1,8,0:0:0:0:
160,128,229801,1,0,0:0:0:0:
352,128,229870,1,8,0:0:0:0:
352,128,229938,1,8,0:0:0:0:
352,128,230007,1,8,0:0:0:0:
160,256,230076,1,4,0:0:0:0:
352,256,230351,1,12,0:0:0:0:
160,128,230489,1,0,0:0:0:0:
160,128,230626,1,0,0:0:0:0:
160,128,230695,1,0,0:0:0:0:
352,128,230764,1,8,0:0:0:0:
160,128,230902,1,0,0:0:0:0:
160,128,231039,1,0,0:0:0:0:
160,128,231108,1,0,0:0:0:0:
352,128,231177,1,8,0:0:0:0:
160,128,231314,1,0,0:0:0:0:
160,128,231452,1,0,0:0:0:0:
160,128,231521,1,0,0:0:0:0:
352,128,231590,1,8,0:0:0:0:
160,128,231727,1,0,0:0:0:0:
160,128,231865,1,0,0:0:0:0:
160,128,231934,1,0,0:0:0:0:
352,128,232003,1,8,0:0:0:0:
352,128,232071,1,8,0:0:0:0:
352,128,232140,1,8,0:0:0:0:
352,128,232209,1,8,0:0:0:0:
160,128,232278,1,0,0:0:0:0:
352,256,232553,1,12,0:0:0:0:
160,128,232691,1,0,0:0:0:0:
352,128,232759,1,8,0:0:0:0:
160,128,232828,1,0,0:0:0:0:
352,128,232966,1,8,0:0:0:0:
352,128,233103,1,8,0:0:0:0:
352,128,233172,1,8,0:0:0:0:
160,128,233241,1,0,0:0:0:0:
352,128,233379,1,8,0:0:0:0:
160,128,233516,1,0,0:0:0:0:
352,128,233585,1,8,0:0:0:0:
160,128,233654,1,0,0:0:0:0:
352,128,233792,1,8,0:0:0:0:
352,128,233929,1,8,0:0:0:0:
352,128,233998,1,8,0:0:0:0:
160,128,234067,1,0,0:0:0:0:
352,256,234204,1,12,0:0:0:0:
160,256,234480,1,4,0:0:0:0:
352,256,234755,1,12,0:0:0:0:
160,128,234892,1,0,0:0:0:0:
160,128,234961,1,0,0:0:0:0:
352,128,235030,1,8,0:0:0:0:
352,256,235168,1,12,0:0:0:0:
160,128,235305,1,0,0:0:0:0:
160,128,235374,1,0,0:0:0:0:
160,128,235443,1,0,0:0:0:0:
352,256,235581,1,12,0:0:0:0:
160,128,235718,1,0,0:0:0:0:
352,128,235787,1,8,0:0:0:0:
160,128,235856,1,0,0:0:0:0:
352,256,235993,1,12,0:0:0:0:
160,128,236131,1,0,0:0:0:0:
160,128,236200,1,0,0:0:0:0:
352,128,236269,1,8,0:0:0:0:
160,128,236406,1,0,0:0:0:0:
352,128,236475,1,8,0:0:0:0:
352,128,236544,1,8,0:0:0:0:
352,128,236613,1,8,0:0:0:0:
160,256,236681,1,4,0:0:0:0:
352,256,236957,1,12,0:0:0:0:
160,128,237094,1,0,0:0:0:0:
160,128,237163,1,0,0:0:0:0:
352,128,237232,1,8,0:0:0:0:
352,256,237370,1,12,0:0:0:0:
160,128,237507,1,0,0:0:0:0:
160,128,237576,1,0,0:0:0:0:
160,128,237645,1,0,0:0:0:0:
352,256,237782,1,12,0:0:0:0:
160,128,237920,1,0,0:0:0:0:
352,128,237989,1,8,0:0:0:0:
160,128,238058,1,0,0:0:0:0:
352,256,238195,1,12,0:0:0:0:
160,128,238333,1,0,0:0:0:0:
160,128,238402,1,0,0:0:0:0:
352,128,238470,1,8,0:0:0:0:
160,128,238608,1,0,0:0:0:0:
352,128,238677,1,8,0:0:0:0:
352,128,238746,1,8,0:0:0:0:
352,128,238814,1,8,0:0:0:0:
160,256,238883,1,4,0:0:0:0:
352,256,239159,1,12,0:0:0:0:
160,128,239296,1,0,0:0:0:0:
160,128,239434,1,0,0:0:0:0:
160,128,239503,1,0,0:0:0:0:
352,128,239571,1,8,0:0:0:0:
160,128,239709,1,0,0:0:0:0:
160,128,239847,1,0,0:0:0:0:
160,128,239915,1,0,0:0:0:0:
352,128,239984,1,8,0:0:0:0:
160,128,240122,1,0,0:0:0:0:
160,128,240259,1,0,0:0:0:0:
160,128,240328,1,0,0:0:0:0:
352,128,240397,1,8,0:0:0:0:
160,128,240535,1,0,0:0:0:0:
160,128,240672,1,0,0:0:0:0:
160,128,240741,1,0,0:0:0:0:
352,128,240810,1,8,0:0:0:0:
352,128,240879,1,8,0:0:0:0:
352,128,240948,1,8,0:0:0:0:
352,128,241016,1,8,0:0:0:0:
160,128,241085,1,0,0:0:0:0:
352,256,241360,1,12,0:0:0:0:
160,128,241498,1,0,0:0:0:0:
352,128,241567,1,8,0:0:0:0:
160,128,241636,1,0,0:0:0:0:
352,128,241773,1,8,0:0:0:0:
352,128,241911,1,8,0:0:0:0:
352,128,241980,1,8,0:0:0:0:
160,128,242048,1,0,0:0:0:0:
352,128,242186,1,8,0:0:0:0:
160,128,242324,1,0,0:0:0:0:
352,128,242392,1,8,0:0:0:0:
160,128,242461,1,0,0:0:0:0:
352,128,242599,1,8,0:0:0:0:
352,128,242736,1,8,0:0:0:0:
352,128,242805,1,8,0:0:0:0:
160,128,242874,1,0,0:0:0:0:
352,256,243012,1,12,0:0:0:0:
160,256,243287,1,4,0:0:0:0:
352,128,243562,1,8,0:0:0:0:
352,128,243631,1,8,0:0:0:0:
160,128,243700,1,0,0:0:0:0:
352,128,243769,1,8,0:0:0:0:
160,128,243837,1,0,0:0:0:0:
352,128,243906,1,8,0:0:0:0:
352,128,243975,1,8,0:0:0:0:
160,128,244044,1,0,0:0:0:0:
352,128,244113,1,8,0:0:0:0:
352,128,244181,1,8,0:0:0:0:
352,128,244250,1,8,0:0:0:0:
160,128,244319,1,0,0:0:0:0:
352,128,244388,1,8,0:0:0:0:
352,128,244434,1,8,0:0:0:0:
352,128,244480,1,8,0:0:0:0:
160,128,244525,1,0,0:0:0:0:
160,128,244663,1,0,0:0:0:0:
352,128,244801,1,8,0:0:0:0:
352,128,244847,1,8,0:0:0:0:
352,128,244892,1,8,0:0:0:0:
352,128,244938,1,8,0:0:0:0:
160,128,245076,1,0,0:0:0:0:
160,128,245145,1,0,0:0:0:0:
352,128,245214,1,8,0:0:0:0:
352,128,245282,1,8,0:0:0:0:
352,128,245351,1,8,0:0:0:0:
352,128,245420,1,8,0:0:0:0:
160,256,245489,1,4,0:0:0:0:
352,128,245764,1,8,0:0:0:0:
160,128,245833,1,0,0:0:0:0:
352,128,245902,1,8,0:0:0:0:
352,128,245970,1,8,0:0:0:0:
352,128,246039,1,8,0:0:0:0:
160,128,246108,1,0,0:0:0:0:
352,128,246177,1,8,0:0:0:0:
352,128,246246,1,8,0:0:0:0:
160,128,246314,1,0,0:0:0:0:
352,128,246383,1,8,0:0:0:0:
352,128,246452,1,8,0:0:0:0:
160,128,246521,1,0,0:0:0:0:
352,128,246590,1,8,0:0:0:0:
352,128,246636,1,8,0:0:0:0:
352,128,246681,1,8,0:0:0:0:
160,128,246727,1,0,0:0:0:0:
160,128,246865,1,0,0:0:0:0:
352,128,247003,1,8,0:0:0:0:
352,128,247048,1,8,0:0:0:0:
352,128,247094,1,8,0:0:0:0:
352,128,247140,1,8,0:0:0:0:
160,128,247278,1,0,0:0:0:0:
160,128,247347,1,0,0:0:0:0:
352,128,247415,1,8,0:0:0:0:
352,128,247484,1,8,0:0:0:0:
352,128,247553,1,8,0:0:0:0:
352,128,247622,1,8,0:0:0:0:
160,256,247691,1,4,0:0:0:0:
352,256,247966,1,12,0:0:0:0:
160,128,248103,1,0,0:0:0:0:
352,128,248172,1,8,0:0:0:0:
160,128,248241,1,0,0:0:0:0:
160,128,248310,1,0,0:0:0:0:
352,128,248379,1,8,0:0:0:0:
160,128,248516,1,0,0:0:0:0:
352,128,248585,1,8,0:0:0:0:
160,128,248654,1,0,0:0:0:0:
160,128,248723,1,0,0:0:0:0:
352,128,248792,1,8,0:0:0:0:
160,128,248929,1,0,0:0:0:0:
352,128,248998,1,8,0:0:0:0:
160,128,249067,1,0,0:0:0:0:
160,128,249136,1,0,0:0:0:0:
352,128,249204,1,8,0:0:0:0:
160,128,249342,1,0,0:0:0:0:
160,128,249411,1,0,0:0:0:0:
352,128,249480,1,8,0:0:0:0:
352,128,249548,1,8,0:0:0:0:
160,128,249617,1,0,0:0:0:0:
352,128,249686,1,8,0:0:0:0:
352,128,249755,1,8,0:0:0:0:
352,128,249824,1,8,0:0:0:0:
160,128,249892,1,0,0:0:0:0:
352,256,250168,1,12,0:0:0:0:
160,128,250305,1,0,0:0:0:0:
352,128,250374,1,8,0:0:0:0:
160,128,250443,1,0,0:0:0:0:
352,128,250581,1,8,0:0:0:0:
352,128,250718,1,8,0:0:0:0:
352,128,250787,1,8,0:0:0:0:
160,128,250856,1,0,0:0:0:0:
352,128,250993,1,8,0:0:0:0:
160,128,251131,1,0,0:0:0:0:
352,128,251200,1,8,0:0:0:0:
160,128,251269,1,0,0:0:0:0:
352,128,251406,1,8,0:0:0:0:
352,128,251544,1,8,0:0:0:0:
352,128,251613,1,8,0:0:0:0:
160,128,251681,1,0,0:0:0:0:
352,128,251819,1,8,0:0:0:0:
352,128,251865,1,8,0:0:0:0:
352,128,251911,1,8,0:0:0:0:
352,128,251957,1,8,0:0:0:0:
160,256,252094,1,4,0:0:0:0:
352,128,252370,1,8,0:0:0:0:
352,128,252438,1,8,0:0:0:0:
160,128,252507,1,0,0:0:0:0:
352,128,252576,1,8,0:0:0:0:
160,128,252645,1,0,0:0:0:0:
352,128,252714,1,8,0:0:0:0:
352,128,252782,1,8,0:0:0:0:
160,128,252851,1,0,0:0:0:0:
352,128,252920,1,8,0:0:0:0:
352,128,252989,1,8,0:0:0:0:
352,128,253058,1,8,0:0:0:0:
160,128,253126,1,0,0:0:0:0:
352,128,253195,1,8,0:0:0:0:
352,128,253241,1,8,0:0:0:0:
352,128,253287,1,8,0:0:0:0:
160,128,253333,1,0,0:0:0:0:
160,128,253470,1,0,0:0:0:0:
352,128,253608,1,8,0:0:0:0:
352,128,253654,1,8,0:0:0:0:
352,128,253700,1,8,0:0:0:0:
352,128,253746,1,8,0:0:0:0:
160,128,253883,1,0,0:0:0:0:
160,128,253952,1,0,0:0:0:0:
352,128,254021,1,8,0:0:0:0:
352,128,254090,1,8,0:0:0:0:
352,128,254159,1,8,0:0:0:0:
352,128,254227,1,8,0:0:0:0:
160,256,254296,1,4,0:0:0:0:
352,128,254571,1,8,0:0:0:0:
160,128,254640,1,0,0:0:0:0:
352,128,254709,1,8,0:0:0:0:
352,128,254778,1,8,0:0:0:0:
160,128,254847,1,0,0:0:0:0:
352,128,254915,1,8,0:0:0:0:
352,128,254984,1,8,0:0:0:0:
160,128,255053,1,0,0:0:0:0:
352,128,255122,1,8,0:0:0:0:
352,128,255191,1,8,0:0:0:0:
352,128,255259,1,8,0:0:0:0:
160,128,255328,1,0,0:0:0:0:
352,128,255397,1,8,0:0:0:0:
352,128,255443,1,8,0:0:0:0:
352,128,255489,1,8,0:0:0:0:
160,128,255535,1,0,0:0:0:0:
160,128,255672,1,0,0:0:0:0:
352,128,255810,1,8,0:0:0:0:
352,128,255856,1,8,0:0:0:0:
352,128,255902,1,8,0:0:0:0:
352,128,255947,1,8,0:0:0:0:
160,128,256085,1,0,0:0:0:0:
160,128,256154,1,0,0:0:0:0:
352,128,256223,1,8,0:0:0:0:
352,128,256292,1,8,0:0:0:0:
352,128,256360,1,8,0:0:0:0:
352,128,256429,1,8,0:0:0:0:
160,256,256498,1,4,0:0:0:0:
352,256,256773,1,12,0:0:0:0:
160,128,256911,1,0,0:0:0:0:
352,128,256980,1,8,0:0:0:0:
160,128,257048,1,0,0:0:0:0:
160,128,257117,1,0,0:0:0:0:
352,128,257186,1,8,0:0:0:0:
160,128,257324,1,0,0:0:0:0:
352,128,257392,1,8,0:0:0:0:
160,128,257461,1,0,0:0:0:0:
160,128,257530,1,0,0:0:0:0:
352,128,257599,1,8,0:0:0:0:
160,128,257736,1,0,0:0:0:0:
352,128,257805,1,8,0:0:0:0:
160,128,257874,1,0,0:0:0:0:
160,128,257943,1,0,0:0:0:0:
352,128,258012,1,8,0:0:0:0:
160,128,258149,1,0,0:0:0:0:
160,128,258218,1,0,0:0:0:0:
352,128,258287,1,8,0:0:0:0:
352,128,258356,1,8,0:0:0:0:
160,128,258425,1,0,0:0:0:0:
352,128,258493,1,8,0:0:0:0:
352,128,258562,1,8,0:0:0:0:
352,128,258631,1,8,0:0:0:0:
160,128,258700,1,0,0:0:0:0:
352,256,258975,1,12,0:0:0:0:
160,128,259113,1,0,0:0:0:0:
352,128,259181,1,8,0:0:0:0:
160,128,259250,1,0,0:0:0:0:
352,128,259388,1,8,0:0:0:0:
352,128,259525,1,8,0:0:0:0:
352,128,259594,1,8,0:0:0:0:
160,128,259663,1,0,0:0:0:0:
352,128,259801,1,8,0:0:0:0:
160,128,259938,1,0,0:0:0:0:
352,128,260007,1,8,0:0:0:0:
160,128,260076,1,0,0:0:0:0:
352,128,260214,1,8,0:0:0:0:
352,128,260351,1,8,0:0:0:0:
352,128,260420,1,8,0:0:0:0:
160,128,260489,1,0,0:0:0:0:
352,128,260626,1,8,0:0:0:0:
352,128,260672,1,8,0:0:0:0:
352,128,260718,1,8,0:0:0:0:
352,128,260764,1,8,0:0:0:0:
160,256,260902,1,4,0:0:0:0:
352,128,261727,1,8,0:0:0:0:
160,128,262002,1,0,0:0:0:0:
160,128,262736,1,0,0:0:0:0:
352,128,262828,1,8,0:0:0:0:
160,128,263103,1,0,0:0:0:0:
352,128,263654,1,8,0:0:0:0:
160,128,263837,1,0,0:0:0:0:
352,128,263929,1,8,0:0:0:0:
160,128,264113,1,0,0:0:0:0:
352,128,264204,1,8,0:0:0:0:
160,128,264296,1,0,0:0:0:0:
160,128,264388,1,0,0:0:0:0:
352,128,264479,1,8,0:0:0:0:
160,128,264663,1,0,0:0:0:0:
352,128,264755,1,8,0:0:0:0:
160,128,264938,1,0,0:0:0:0:
352,128,265030,1,8,0:0:0:0:
160,128,265122,1,0,0:0:0:0:
160,128,265213,1,0,0:0:0:0:
352,128,265305,1,8,0:0:0:0:
352,128,265374,5,8,0:0:0:0:
352,128,265443,1,8,0:0:0:0:
352,128,265512,1,8,0:0:0:0:
160,128,265580,1,0,0:0:0:0:
160,128,265649,1,0,0:0:0:0:
160,128,265718,1,0,0:0:0:0:
160,128,265787,1,0,0:0:0:0:
352,128,265856,1,8,0:0:0:0:
160,128,265924,1,0,0:0:0:0:
352,128,265993,1,8,0:0:0:0:
352,128,266062,1,8,0:0:0:0:
160,128,266131,1,0,0:0:0:0:
160,128,266200,1,0,0:0:0:0:
352,128,266268,1,8,0:0:0:0:
160,128,266337,1,0,0:0:0:0:
352,128,266406,1,8,0:0:0:0:
352,128,266475,1,8,0:0:0:0:
160,128,266544,1,0,0:0:0:0:
160,128,266613,1,0,0:0:0:0:
352,128,266681,1,8,0:0:0:0:
160,128,266750,1,0,0:0:0:0:
352,128,266819,1,8,0:0:0:0:
352,128,266888,1,8,0:0:0:0:
160,128,266957,1,0,0:0:0:0:
160,128,267025,1,0,0:0:0:0:
352,128,267094,1,8,0:0:0:0:
352,128,267163,1,8,0:0:0:0:
160,128,267232,1,0,0:0:0:0:
160,128,267301,1,0,0:0:0:0:
352,128,267369,1,8,0:0:0:0:
352,128,267438,1,8,0:0:0:0:
160,128,267507,1,0,0:0:0:0:
160,128,267645,1,0,0:0:0:0:
160,128,267782,1,0,0:0:0:0:
352,128,267851,1,8,0:0:0:0:
160,128,267920,1,0,0:0:0:0:
352,128,268057,1,8,0:0:0:0:
160,128,268195,1,0,0:0:0:0:
160,128,268333,1,0,0:0:0:0:
352,128,268470,1,8,0:0:0:0:
160,128,268608,1,0,0:0:0:0:
352,128,268677,1,8,0:0:0:0:
160,128,268746,1,0,0:0:0:0:
352,128,268883,1,8,0:0:0:0:
352,128,269021,1,8,0:0:0:0:
352,128,269090,1,8,0:0:0:0:
352,128,269158,1,8,0:0:0:0:
160,128,269296,1,0,0:0:0:0:
160,128,269434,1,0,0:0:0:0:
352,256,269571,1,12,0:0:0:0:
256,192,269709,12,0,275076,0:0:0:0:
352,256,275213,5,12,0:0:0:0:
