osu file format v14

[General]
AudioFilename: audio.mp3
AudioLeadIn: 0
PreviewTime: 88877
Countdown: 0
SampleSet: Soft
StackLeniency: 0.2
Mode: 0
LetterboxInBreaks: 0
WidescreenStoryboard: 1

[Editor]
Bookmarks: 5483,14290,31905,49519,71538,89152,111171,128785
DistanceSpacing: 0.5
BeatDivisor: 4
GridSize: 8
TimelineZoom: 1.900005

[Metadata]
Title:Destroy, Destroy, Destroy The Happy End (Cut Ver.)
TitleUnicode:Destroy, Destroy, Destroy The Happy End (Cut Ver.)
Artist:Chroma
ArtistUnicode:黒魔
Creator:Fisky
Version:ak74 & Garden's "42" Ultra
Source:
Tags:Robot & Human Diverse Direct ralkinson ak74 ak74qbz95xm8 garden ioexception deadcode ceo of osu ceo_of_osu jezag electronic instrumental featured artist fa
BeatmapID:3433655
BeatmapSetID:1160351

[Difficulty]
HPDrainRate:5
CircleSize:4.2
OverallDifficulty:9
ApproachRate:9.7
SliderMultiplier:2
SliderTickRate:1

[Events]
//Background and Video events
0,0,"bg destroy.jpg",0,0
//Break Periods
2,54123,61685
2,144398,145217
//Storyboard Layer 0 (Background)
//Storyboard Layer 1 (Fail)
//Storyboard Layer 2 (Pass)
//Storyboard Layer 3 (Foreground)
//Storyboard Layer 4 (Overlay)
//Storyboard Sound Samples

[TimingPoints]
5483,275.229357798165,4,2,0,70,1,0
5483,-20.8333333333333,4,2,0,70,0,0
5758,-57.1428571428571,4,2,0,70,0,0
6859,-80,4,2,0,70,0,0
7065,-133.333333333333,4,2,0,70,0,0
7271,-200,4,2,0,70,0,0
7409,-31.25,4,2,0,70,0,0
7684,-20.8333333333333,4,2,0,70,0,0
7960,-57.1428571428571,4,2,0,70,0,0
9060,-80,4,2,0,70,0,0
9267,-133.333333333333,4,2,0,70,0,0
9473,-200,4,2,0,70,0,0
9611,-31.25,4,2,0,70,0,0
9886,-20.8333333333333,4,2,0,70,0,0
10161,-57.1428571428571,4,2,0,70,0,0
10574,-66.6666666666667,4,2,0,70,0,0
10712,-31.25,4,2,0,70,0,0
10987,-20.8333333333333,4,2,0,70,0,0
11262,-57.1428571428571,4,2,0,70,0,0
11675,-66.6666666666667,4,2,0,70,0,0
11813,-31.25,4,2,0,70,0,0
12088,-20.8333333333333,4,2,0,70,0,0
13189,-1000,4,2,0,60,0,0
13206,-1000,4,2,0,5,0,0
13464,-1000,4,2,0,10,0,0
13602,-1000,4,2,0,20,0,0
13739,-1000,4,2,0,30,0,0
14015,-38.4615384615385,4,2,0,60,0,0
14290,-100,4,2,0,60,0,0
14565,-400,4,2,0,60,0,0
14840,-100,4,2,0,60,0,0
15116,-400,4,2,0,60,0,0
15391,-100,4,2,0,60,0,0
15666,-400,4,2,0,60,0,0
15941,-100,4,2,0,60,0,0
16216,-400,4,2,0,60,0,0
16492,-100,4,2,0,60,0,0
18418,-400,4,2,0,60,0,0
18694,-90.9090909090909,4,2,0,60,0,0
18969,-400,4,2,0,60,0,0
19244,-90.9090909090909,4,2,0,60,0,0
19519,-400,4,2,0,60,0,0
19794,-90.9090909090909,4,2,0,60,0,0
20070,-400,4,2,0,60,0,0
20345,-90.9090909090909,4,2,0,60,0,0
20620,-400,4,2,0,60,0,0
20895,-90.9090909090909,4,2,0,60,0,0
21171,-400,4,2,0,60,0,0
21446,-90.9090909090909,4,2,0,60,0,0
21721,-181.818181818182,4,2,0,60,0,0
21996,-90.9090909090909,4,2,0,60,0,0
22271,-400,4,2,0,60,0,0
22547,-50,4,2,0,60,0,0
22822,-66.6666666666667,4,2,0,60,0,0
22960,-80,4,2,0,60,0,0
23097,-100,4,2,0,60,0,0
23372,-400,4,2,0,60,0,0
23648,-100,4,2,0,60,0,0
23923,-400,4,2,0,60,0,0
24198,-100,4,2,0,60,0,0
24473,-400,4,2,0,60,0,0
24749,-100,4,2,0,60,0,0
25024,-400,4,2,0,60,0,0
25299,-100,4,2,0,60,0,0
27226,-400,4,2,0,60,0,0
27501,-100,4,2,0,60,0,0
27776,-400,4,2,0,60,0,0
28051,-100,4,2,0,60,0,0
28327,-400,4,2,0,60,0,0
28602,-100,4,2,0,60,0,0
28877,-400,4,2,0,60,0,0
29152,-100,4,2,0,60,0,0
29427,-400,4,2,0,60,0,0
29978,-100,4,2,0,60,0,0
31354,-20,4,2,0,60,0,0
31905,-133.333333333333,4,2,0,80,0,0
32317,-400,4,2,0,80,0,0
32455,-35.7142857142857,4,2,0,80,0,0
33005,-50,4,2,0,80,0,0
33143,-133.333333333333,4,2,0,80,0,0
33556,-35.7142857142857,4,2,0,80,0,0
34106,-133.333333333333,4,2,0,80,0,0
34519,-400,4,2,0,80,0,0
34657,-35.7142857142857,4,2,0,80,0,0
35207,-66.6666666666667,4,2,0,80,0,0
35414,-50,4,2,0,80,0,0
35620,-100,4,2,0,80,0,0
36308,-133.333333333333,4,2,0,80,0,0
36721,-400,4,2,0,80,0,0
36859,-35.7142857142857,4,2,0,80,0,0
37409,-50,4,2,0,80,0,0
37547,-133.333333333333,4,2,0,80,0,0
37960,-35.7142857142857,4,2,0,80,0,0
38510,-133.333333333333,4,2,0,80,0,0
38923,-400,4,2,0,80,0,0
39060,-35.7142857142857,4,2,0,80,0,0
39611,-66.6666666666667,4,2,0,80,0,0
39817,-50,4,2,0,80,0,0
40024,-100,4,2,0,80,0,0
40987,-21.7391304347826,4,2,0,80,0,0
41125,-66.6666666666667,4,2,0,80,0,0
41262,-33.3333333333333,4,2,0,80,0,0
41813,-50,4,2,0,80,0,0
41950,-133.333333333333,4,2,0,80,0,0
42363,-35.7142857142857,4,2,0,80,0,0
42914,-133.333333333333,4,2,0,80,0,0
43327,-400,4,2,0,80,0,0
43464,-35.7142857142857,4,2,0,80,0,0
44015,-66.6666666666667,4,2,0,80,0,0
44221,-50,4,2,0,80,0,0
44427,-100,4,2,0,80,0,0
45116,-133.333333333333,4,2,0,80,0,0
45528,-400,4,2,0,80,0,0
45666,-35.7142857142857,4,2,0,80,0,0
46216,-50,4,2,0,80,0,0
46354,-133.333333333333,4,2,0,80,0,0
46767,-35.7142857142857,4,2,0,80,0,0
47317,-133.333333333333,4,2,0,80,0,0
47730,-400,4,2,0,80,0,0
47868,-35.7142857142857,4,2,0,80,0,0
48281,-66.6666666666667,4,2,0,80,0,0
49244,-50,4,2,0,35,0,0
49519,-33.3333333333333,4,2,0,60,0,0
62180,-33.3333333333333,4,2,0,50,0,0
62317,-66.6666666666667,4,2,0,40,0,0
62455,-80,4,2,0,40,0,0
62593,-100,4,2,0,30,0,0
62730,-500,4,2,0,50,0,0
70987,-50,4,2,0,20,0,0
71538,-66.6666666666667,4,2,0,70,0,0
73464,-50,4,2,0,35,0,0
73602,-100,4,2,0,35,0,0
73739,-50,4,2,0,70,0,0
75666,-50,4,2,0,35,0,0
75804,-100,4,2,0,35,0,0
75941,-66.6666666666667,4,2,0,70,0,0
77868,-50,4,2,0,35,0,0
78005,-100,4,2,0,35,0,0
78143,-50,4,2,0,70,0,0
80070,-50,4,2,0,35,0,0
80207,-100,4,2,0,35,0,0
80345,-57.1428571428571,4,2,0,70,0,0
82271,-50,4,2,0,35,0,0
82409,-100,4,2,0,35,0,0
82547,-44.4444444444445,4,2,0,70,0,0
84473,-50,4,2,0,35,0,0
84611,-100,4,2,0,35,0,0
84749,-36.3636363636364,4,2,0,70,0,0
86675,-50,4,2,0,35,0,0
86813,-100,4,2,0,35,0,0
86950,-44.4444444444445,4,2,0,70,0,0
88051,-44.4444444444445,4,2,0,50,0,0
88327,-44.4444444444445,4,2,0,60,0,0
88602,-44.4444444444445,4,2,0,70,0,0
88877,-44.4444444444445,4,2,0,35,0,0
89015,-57.1428571428571,4,2,0,35,0,0
89152,-50,4,2,0,80,0,0
89978,-100,4,2,0,80,0,0
90528,-66.6666666666667,4,2,0,80,0,0
91354,-47.6190476190476,4,2,0,80,0,0
92180,-95.2380952380952,4,2,0,80,0,0
92730,-64.5161290322581,4,2,0,80,0,0
93556,-45.4545454545455,4,2,0,80,0,0
94382,-90.9090909090909,4,2,0,80,0,0
94932,-62.5,4,2,0,80,0,0
95758,-43.4782608695652,4,2,0,80,0,0
96583,-86.9565217391304,4,2,0,80,0,0
97134,-100,4,2,0,80,0,0
97684,-100,4,2,0,35,0,0
97960,-100,4,2,0,80,0,0
98372,-66.6666666666667,4,2,0,80,0,0
104290,-133.333333333333,4,2,0,80,0,0
105666,-1000,4,2,0,60,0,0
105683,-1000,4,2,0,5,0,0
105941,-1000,4,2,0,10,0,0
106079,-1000,4,2,0,20,0,0
106216,-1000,4,2,0,30,0,0
107455,-100,4,2,0,40,0,0
109657,-100,4,2,0,45,0,0
109725,-100,4,2,0,50,0,0
109794,-66.6666666666667,4,2,0,55,0,0
109862,-66.6666666666667,4,2,0,60,0,0
109931,-66.6666666666667,4,2,0,65,0,0
110000,-66.6666666666667,4,2,0,70,0,0
110070,-66.6666666666667,4,2,0,80,0,0
111171,-33.3333333333333,4,2,0,80,0,0
111446,-66.6666666666667,4,2,0,80,0,0
113372,-33.3333333333333,4,2,0,80,0,0
113648,-66.6666666666667,4,2,0,80,0,0
115574,-100,4,2,0,80,0,0
115849,-50,4,2,0,80,0,0
116262,-40,4,2,0,80,0,0
117088,-33.3333333333333,4,2,0,80,0,0
117363,-66.6666666666667,4,2,0,80,0,0
117776,-33.3333333333333,4,2,0,80,0,0
118189,-133.333333333333,4,2,0,80,0,0
119703,-31.25,4,2,0,80,0,0
119978,-33.3333333333333,4,2,0,80,0,0
120253,-66.6666666666667,4,2,0,80,0,0
122180,-33.3333333333333,4,2,0,80,0,0
122455,-66.6666666666667,4,2,0,80,0,0
124382,-100,4,2,0,80,0,0
124657,-50,4,2,0,80,0,0
125070,-40,4,2,0,80,0,0
125276,-40,4,2,0,5,0,0
125345,-40,4,2,0,80,0,0
125688,-40,4,2,0,5,0,0
125758,-40,4,2,0,80,0,0
125895,-33.3333333333333,4,2,0,80,0,0
126101,-33.3333333333333,4,2,0,5,0,0
126171,-66.6666666666667,4,2,0,80,0,0
126583,-33.3333333333333,4,2,0,80,0,0
126789,-33.3333333333333,4,2,0,5,0,0
126859,-33.3333333333333,4,2,0,60,0,0
126996,-133.333333333333,4,2,0,60,0,0
128510,-31.25,4,2,0,60,0,0
128716,-31.25,4,2,0,5,0,0
128785,-33.3333333333333,4,2,0,90,0,0
128991,-33.3333333333333,4,2,0,5,0,0
129060,-33.3333333333333,4,2,0,90,0,0
129886,-66.6666666666667,4,2,0,80,0,0
129920,-66.6666666666667,4,2,0,5,0,0
130023,-66.6666666666667,4,2,0,80,0,0
130161,-50,4,2,0,80,0,0
130229,-50,4,2,0,5,0,0
130299,-33.3333333333333,4,2,0,80,0,0
130316,-33.3333333333333,4,2,0,5,0,0
130436,-33.3333333333333,4,2,0,80,0,0
130574,-50,4,2,0,80,0,0
130642,-50,4,2,0,5,0,0
130712,-50,4,2,0,80,0,0
130987,-33.3333333333333,4,2,0,90,0,0
131193,-33.3333333333333,4,2,0,5,0,0
131262,-33.3333333333333,4,2,0,90,0,0
132088,-66.6666666666667,4,2,0,80,0,0
132122,-66.6666666666667,4,2,0,5,0,0
132225,-66.6666666666667,4,2,0,80,0,0
132363,-50,4,2,0,80,0,0
132431,-50,4,2,0,5,0,0
132501,-33.3333333333333,4,2,0,80,0,0
132518,-33.3333333333333,4,2,0,5,0,0
132638,-33.3333333333333,4,2,0,80,0,0
132776,-50,4,2,0,80,0,0
132844,-50,4,2,0,5,0,0
132914,-50,4,2,0,80,0,0
133189,-50,4,2,0,80,0,0
133257,-50,4,2,0,5,0,0
133327,-66.6666666666667,4,2,0,80,0,0
133464,-50,4,2,0,80,0,0
133670,-50,4,2,0,5,0,0
133739,-50,4,2,0,80,0,0
133877,-40,4,2,0,80,0,0
134083,-40,4,2,0,5,0,0
134152,-40,4,2,0,80,0,0
134496,-40,4,2,0,5,0,0
134565,-40,4,2,0,80,0,0
134703,-33.3333333333333,4,2,0,80,0,0
134909,-33.3333333333333,4,2,0,5,0,0
134978,-66.6666666666667,4,2,0,80,0,0
135391,-33.3333333333333,4,2,0,80,0,0
135597,-33.3333333333333,4,2,0,5,0,0
135666,-133.333333333333,4,2,0,80,0,0
137317,-40,4,2,0,80,0,0
137523,-40,4,2,0,5,0,0
137593,-40,4,2,0,80,0,0
140345,-40,4,2,0,50,0,0
142547,-40,4,2,0,55,0,0
143097,-40,4,2,0,60,0,0
143648,-40,4,2,0,65,0,0
144198,-40,4,2,0,40,0,0
145712,-40,4,2,0,60,0,0

[Colours]
Combo1 : 255,57,0
Combo2 : 4,173,255
Combo3 : 192,136,255
Combo4 : 245,155,255
Combo5 : 255,138,170

[HitObjects]
256,0,5483,6,0,B|264:28|264:28|296:40|296:40|264:52|264:52|256:80|256:80|248:52|248:52|216:40|216:40|248:28|248:28|256:0,1,240,4|0,3:1|2:0,2:0:0:0:
0,273,5758,6,0,P|80:261|151:200,1,175,2|0,1:2|2:0,2:0:0:0:
149,201,5964,2,0,P|91:257|69:348,1,175,2|0,2:0|2:0,2:0:0:0:
69,346,6171,2,0,P|82:266|65:221,1,87.5000000000001,2|0,2:0|2:0,2:0:0:0:
47,182,6308,1,0,1:0:0:0:
47,182,6377,2,0,P|83:254|123:280,1,87.5000000000001,2|0,2:0|2:0,2:0:0:0:
336,376,6652,6,0,L|160:328,1,175,2|0,2:0|2:0,2:0:0:0:
167,329,6859,6,0,L|287:295,1,125,2|0,1:2|2:0,2:0:0:0:
287,294,7065,22,0,L|199:269,1,75.0000000000002,2|0,2:0|2:0,2:0:0:0:
214,273,7271,6,0,L|244:264,1,25,2|0,1:2|2:0,2:0:0:0:
384,56,7409,6,0,B|336:176|336:176|176:152|176:152|160:176|160:176|128:8,1,480,4|0,3:1|2:0,2:0:0:0:
256,0,7684,6,0,B|264:28|264:28|296:40|296:40|264:52|264:52|256:80|256:80|248:52|248:52|216:40|216:40|248:28|248:28|256:0,1,240,4|0,3:1|2:0,2:0:0:0:
512,273,7960,22,0,P|432:261|361:200,1,175,2|0,1:2|2:0,2:0:0:0:
363,201,8166,2,0,P|421:257|443:348,1,175,2|0,2:0|2:0,2:0:0:0:
443,346,8372,2,0,P|430:266|447:221,1,87.5000000000001,2|0,2:0|2:0,2:0:0:0:
465,182,8510,1,0,1:0:0:0:
465,182,8579,2,0,P|429:254|389:280,1,87.5000000000001,2|0,2:0|2:0,2:0:0:0:
176,376,8854,6,0,L|352:328,1,175,2|0,2:0|2:0,2:0:0:0:
344,329,9060,6,0,L|224:295,1,125,2|0,1:2|2:0,2:0:0:0:
223,294,9267,6,0,L|311:269,1,75.0000000000002,2|0,2:0|2:0,2:0:0:0:
295,273,9473,22,0,L|265:264,1,25,2|0,1:2|2:0,2:0:0:0:
128,56,9611,6,0,B|176:176|176:176|336:152|336:152|352:176|352:176|384:8,1,480,4|0,3:1|2:0,2:0:0:0:
256,0,9886,6,0,B|264:28|264:28|296:40|296:40|264:52|264:52|256:80|256:80|248:52|248:52|216:40|216:40|248:28|248:28|256:0,1,240,4|0,3:1|2:0,2:0:0:0:
59,236,10161,6,0,B|87:205|28:187|31:227|31:227|57:268|57:268|38:326,1,175,2|0,1:2|2:0,2:0:0:0:
121,320,10368,2,0,B|93:351|152:369|149:329|149:329|123:288|123:288|142:230,1,175,2|0,2:0|2:0,2:0:0:0:
160,175,10574,2,0,B|186:169|186:169|204:188|204:188|226:182,1,75,2|0,2:0|2:0,2:0:0:0:
384,56,10712,22,0,B|336:176|336:176|176:152|176:152|160:176|160:176|128:8,1,480,4|0,3:1|2:0,2:0:0:0:
256,0,10987,6,0,B|264:28|264:28|296:40|296:40|264:52|264:52|256:80|256:80|248:52|248:52|216:40|216:40|248:28|248:28|256:0,1,240,4|0,3:1|2:0,2:0:0:0:
453,236,11262,6,0,B|425:205|484:187|481:227|481:227|455:268|455:268|474:326,1,175,2|0,1:2|2:0,2:0:0:0:
391,320,11469,2,0,B|419:351|360:369|363:329|363:329|389:288|389:288|370:230,1,175,2|0,2:0|2:0,2:0:0:0:
352,175,11675,2,0,B|326:169|326:169|308:188|308:188|286:182,1,75,2|0,2:0|2:0,2:0:0:0:
128,56,11813,6,0,B|176:176|176:176|336:152|336:152|352:176|352:176|384:8,1,480,4|0,3:1|2:0,2:0:0:0:
256,0,12088,54,0,B|264:28|264:28|296:40|296:40|264:52|264:52|256:80|256:80|248:52|248:52|216:40|216:40|248:28|248:28|256:0,1,240,4|0,3:1|2:0,2:0:0:0:
256,160,12363,5,2,1:2:0:0:
256,240,12501,1,0,2:0:0:0:
256,0,12638,54,0,B|264:28|264:28|296:40|296:40|264:52|264:52|256:80|256:80|248:52|248:52|216:40|216:40|248:28|248:28|256:0,1,240,4|0,3:1|2:0,2:0:0:0:
256,240,12914,5,2,1:2:0:0:
256,352,13051,1,0,2:0:0:0:
256,0,13189,54,0,L|256:56,1,55,4|0,3:0|2:0,2:0:0:0:
239,127,14015,6,0,B|248:166|248:166|289:167|289:167|303:219|303:219|228:264|228:264|258:263|258:263|275:326|275:326|284:306|284:306|298:354,1,390,4|0,3:1|2:0,2:0:0:0:
415,377,14290,22,0,B|393:374|393:374|397:359|397:359|373:280,1,100,4|0,3:1|3:0,2:0:0:0:
378,299,14565,2,0,L|394:273,1,25,0|0,3:0|3:0,2:0:0:0:
508,172,14840,6,0,L|450:187,1,50,10|0,3:0|2:0,2:0:0:0:
380,200,14978,1,0,3:0:0:0:
380,200,15116,2,0,L|372:167,1,25,0|0,3:0|3:0,2:0:0:0:
97,7,15391,6,0,B|118:9|118:9|115:25|115:25|139:104,1,100,4|0,3:0|3:0,2:0:0:0:
133,84,15666,2,0,L|117:110,1,25,0|0,3:0|3:0,2:0:0:0:
4,212,15941,6,0,L|62:197,1,50,10|0,3:0|2:0,2:0:0:0:
132,184,16079,1,0,3:0:0:0:
132,184,16216,2,0,L|140:217,1,25,0|0,3:0|3:0,2:0:0:0:
235,340,16492,22,0,B|197:321|197:321|191:307|191:307|154:286,1,100,4|0,3:0|3:0,2:0:0:0:
320,310,16767,1,0,3:0:0:0:
325,334,16905,1,0,3:0:0:0:
69,384,17042,6,0,L|92:325,1,50,10|0,3:0|2:0,2:0:0:0:
218,226,17180,1,0,3:0:0:0:
213,202,17317,1,0,3:0:0:0:
208,178,17455,1,0,3:0:0:0:
277,44,17593,6,0,B|314:62|314:62|320:76|320:76|357:97,1,100,4|0,3:0|3:0,2:0:0:0:
192,74,17868,1,0,3:0:0:0:
187,50,18005,1,0,3:0:0:0:
443,0,18143,6,0,L|420:59,1,50,10|0,3:0|2:0,2:0:0:0:
294,158,18281,1,2,3:2:0:0:
299,182,18349,1,2,3:2:0:0:
304,206,18418,2,0,L|338:199,1,25,2|2,3:2|3:2,2:0:0:0:
479,239,18694,22,0,B|449:232|449:232|432:186|432:186|446:159,1,110,4|0,3:0|3:0,2:0:0:0:
446,159,18969,2,0,L|436:130,1,25,0|0,3:0|3:0,2:0:0:0:
375,272,19244,6,0,L|352:330,1,55,10|0,3:0|2:0,2:0:0:0:
274,341,19382,1,0,3:0:0:0:
274,341,19519,2,0,L|241:349,1,25,0|0,3:0|3:0,2:0:0:0:
33,145,19794,6,0,B|63:152|63:152|80:198|80:198|66:225,1,110,4|0,3:0|3:0,2:0:0:0:
66,225,20070,2,0,L|76:254,1,25,0|0,3:0|3:0,2:0:0:0:
137,112,20345,6,0,L|160:54,1,55,10|0,3:0|2:0,2:0:0:0:
238,43,20482,1,0,3:0:0:0:
238,43,20620,2,0,L|271:35,1,25,0|0,3:0|3:0,2:0:0:0:
25,0,20895,22,0,B|7:25|7:25|10:42|10:42|61:62|61:62|58:68,1,110,4|0,3:0|3:0,2:0:0:0:
137,112,21171,2,0,L|145:146,1,25,0|0,3:0|3:0,2:0:0:0:
292,158,21446,6,0,L|238:143,1,55,10|0,3:0|2:0,2:0:0:0:
220,226,21583,1,0,3:0:0:0:
220,226,21721,2,0,L|276:240,1,55,0|0,3:0|3:0,2:0:0:0:
487,384,21996,6,0,B|505:359|505:359|502:342|502:342|451:322|451:322|453:315,1,110,4|0,3:0|3:0,2:0:0:0:
375,272,22271,2,0,L|369:247,1,25,0|0,3:0|3:0,2:0:0:0:
367,234,22478,1,0,2:0:0:0:
365,220,22547,6,0,P|420:224|435:166,1,100,10|0,3:0|2:0,2:0:0:0:
477,6,22684,22,0,L|457:104,1,100,8|0,3:0|3:0,2:0:0:0:
439,189,22822,6,0,L|423:262,1,75,12|0,3:0|2:0,2:0:0:0:
419,286,22960,6,0,L|405:347,1,62.5,4|0,3:0|2:0,2:0:0:0:
400,363,23097,6,0,B|383:368|383:368|363:358|363:358|301:368,1,100,4|0,3:1|3:0,2:0:0:0:
265,295,23372,2,0,L|254:269,1,25,0|0,3:0|3:0,2:0:0:0:
152,355,23648,22,0,L|200:320,1,50,10|0,3:0|2:0,2:0:0:0:
312,210,23785,1,0,3:0:0:0:
312,210,23923,2,0,L|335:193,1,25,0|0,3:0|3:0,2:0:0:0:
112,21,24198,6,0,B|129:16|129:16|149:26|149:26|211:16,1,100,4|0,3:0|3:0,2:0:0:0:
245,91,24473,2,0,L|255:116,1,25,0|0,3:0|3:0,2:0:0:0:
360,29,24749,6,0,L|312:64,1,50,10|0,3:0|2:0,2:0:0:0:
200,174,24886,1,0,3:0:0:0:
200,174,25024,2,0,L|177:191,1,25,0|0,3:0|3:0,2:0:0:0:
33,88,25299,6,0,B|58:124|58:124|68:125|68:125|94:162,1,100,4|0,3:0|3:0,2:0:0:0:
128,271,25574,1,0,3:0:0:0:
114,250,25712,1,0,3:0:0:0:
18,360,25849,22,0,L|60:333,1,50,10|0,3:0|2:0,2:0:0:0:
196,333,25987,1,0,3:0:0:0:
175,347,26125,1,0,3:0:0:0:
154,361,26262,1,0,3:0:0:0:
479,296,26400,6,0,B|453:259|453:259|443:258|443:258|417:221,1,100,4|0,3:0|3:0,2:0:0:0:
384,113,26675,1,0,3:0:0:0:
398,134,26813,1,0,3:0:0:0:
494,24,26950,6,0,L|451:50,1,50,10|0,3:0|2:0,2:0:0:0:
316,51,27088,1,2,3:2:0:0:
337,37,27157,1,2,3:2:0:0:
358,23,27226,2,0,L|345:1,1,25,2|2,3:2|3:2,2:0:0:0:
485,166,27501,6,0,B|463:142|463:142|439:145|439:145|397:133,1,100,4|0,3:0|3:0,2:0:0:0:
318,129,27776,2,0,L|295:139,1,25,0|0,3:0|3:0,2:0:0:0:
198,22,28051,22,0,L|230:60,1,50,10|0,3:0|2:0,2:0:0:0:
213,141,28189,1,0,3:0:0:0:
213,141,28327,2,0,L|204:176,1,25,0|0,3:0|3:0,2:0:0:0:
27,218,28602,6,0,B|49:242|49:242|73:239|73:239|115:251,1,100,4|0,3:0|3:0,2:0:0:0:
194,255,28877,2,0,L|216:244,1,25,0|0,3:0|3:0,2:0:0:0:
314,362,29152,6,0,L|281:323,1,50,10|0,3:0|2:0,2:0:0:0:
299,243,29290,1,0,3:0:0:0:
299,243,29427,2,0,L|308:208,1,25,0|0,3:0|3:0,2:0:0:0:
350,40,29703,5,4,3:0:0:0:
367,52,29840,1,0,3:0:0:0:
382,61,29978,22,0,L|367:108,1,50,0|0,1:0|2:0,2:0:0:0:
226,145,30116,2,0,L|211:192,1,50,0|0,3:0|2:0,2:0:0:0:
162,344,30253,5,2,1:2:0:0:
145,332,30391,1,0,1:0:0:0:
130,323,30528,6,0,L|144:275,1,50,8|0,3:2|2:0,2:0:0:0:
286,239,30666,2,0,L|300:191,1,50,0|0,3:0|2:0,2:0:0:0:
110,5,30804,5,4,3:0:0:0:
140,30,30872,1,4,3:0:0:0:
178,19,30941,1,4,3:0:0:0:
208,44,31010,1,4,3:0:0:0:
246,33,31079,1,4,3:0:0:0:
276,58,31148,1,4,3:0:0:0:
314,47,31216,1,4,3:0:0:0:
344,72,31285,1,4,3:0:0:0:
382,61,31354,2,0,B|403:84|403:84|432:73,28,62.5,4|0|0|0|0|0|0|0|0|0|0|0|0|0|0|0|0|0|0|0|0|0|0|0|0|0|0|0|0,1:0|2:0|2:0|2:0|2:0|2:0|2:0|2:0|2:0|2:0|2:0|2:0|2:0|2:0|2:0|2:0|2:0|2:0|2:0|2:0|2:0|2:0|2:0|2:0|2:0|2:0|2:0|2:0|2:0,2:0:0:0:
498,34,31905,22,0,L|307:63,1,187.5,6|0,3:2|2:0,2:0:0:0:
141,138,32317,2,0,L|157:133,1,12.5,4|0,3:0|3:0,2:0:0:0:
176,200,32455,54,0,B|75:233|75:233|58:238|51:217|51:217|51:217|51:217|20:115|20:115|15:96|36:91|36:91|36:91|36:91|138:60|138:60|156:54|162:76|162:76|162:76|162:76|198:197|198:197|159:357,1,700,10|0,1:0|2:0,2:0:0:0:
242,367,32868,1,8,3:0:0:0:
230,372,32937,1,8,3:0:0:0:
242,378,33005,54,0,B|296:368|296:368|312:378|312:378|331:342,1,100,6|0,3:2|2:0,2:0:0:0:
459,231,33143,2,0,P|415:200|462:225,1,150,6|4,3:2|3:0,2:0:0:0:
358,150,33556,6,0,B|387:252|387:252|393:270|413:263|413:263|413:263|413:263|515:231|515:231|532:225|526:205|526:205|526:205|526:205|495:103|495:103|488:86|468:92|468:92|468:92|468:92|348:130|348:130|308:293,1,700,10|0,1:0|2:0,2:0:0:0:
250,358,33969,5,8,3:0:0:0:
244,343,34038,1,8,3:0:0:0:
238,369,34106,6,0,L|206:169,1,187.5,6|0,3:2|2:0,2:0:0:0:
61,81,34519,2,0,L|79:76,1,12.5,4|0,3:0|3:0,2:0:0:0:
34,147,34657,38,0,B|1:46|1:46|-3:27|17:22|17:22|17:22|17:22|119:-9|119:-9|138:-14|143:7|143:7|143:7|143:7|174:109|174:109|179:127|158:133|158:133|158:133|158:133|37:169|37:169|-2:326,1,700,10|0,1:0|2:0,2:0:0:0:
74,363,35070,37,8,3:0:0:0:
88,359,35138,1,8,3:0:0:0:
155,341,35207,54,0,P|110:312|142:354,1,150,6|0,3:2|2:0,2:0:0:0:
221,367,35414,2,0,B|264:361|264:361|320:353|291:309|346:301|346:301|415:290,1,200,6|0,3:2|2:0,2:0:0:0:
498,355,35620,2,0,L|442:346,1,50,4|0,3:0|2:0,2:0:0:0:
394,293,35758,53,6,1:2:0:0:
398,275,35827,1,0,2:0:0:0:
427,244,35895,1,0,2:0:0:0:
431,226,35964,1,0,2:0:0:0:
394,170,36033,5,2,2:3:0:0:
378,144,36102,5,2,2:3:0:0:
399,91,36171,5,10,3:0:0:0:
467,77,36239,53,10,3:0:0:0:
510,142,36308,6,0,L|295:103,1,187.5,6|0,3:2|2:0,2:0:0:0:
126,189,36721,2,0,L|129:206,1,12.5,4|0,3:0|3:0,2:0:0:0:
195,165,36859,6,0,B|94:132|94:132|76:128|70:148|70:148|70:148|70:148|39:250|39:250|33:268|55:274|55:274|55:274|55:274|157:305|157:305|176:310|181:289|181:289|181:289|181:289|217:168|217:168|178:8,1,700,10|0,1:0|2:0,2:0:0:0:
262,39,37271,1,8,3:0:0:0:
281,27,37340,1,8,3:0:0:0:
269,24,37409,6,0,B|313:19|313:19|339:32|339:32|357:6,1,100,6|0,3:2|2:0,2:0:0:0:
467,124,37547,2,0,P|429:162|461:120,1,150,6|4,3:2|3:0,2:0:0:0:
361,261,37960,54,0,B|390:159|390:159|395:142|416:148|416:148|416:148|416:148|518:180|518:180|536:185|529:206|529:206|529:206|529:206|498:308|498:308|491:327|471:319|471:319|471:319|471:319|351:281|351:281|311:118,1,700,10|0,1:0|2:0,2:0:0:0:
218,0,38372,5,8,3:0:0:0:
232,17,38441,1,8,3:0:0:0:
214,54,38510,6,0,L|261:249,1,187.5,6|0,3:2|2:0,2:0:0:0:
58,303,38923,2,0,L|78:298,1,12.5,4|0,3:0|3:0,2:0:0:0:
36,232,39060,38,0,B|3:333|3:333|-2:352|19:357|19:357|19:357|19:357|121:388|121:388|140:393|145:372|145:372|145:372|145:372|176:270|176:270|181:251|160:246|160:246|160:246|160:246|39:210|39:210|0:53,1,700,10|0,1:0|2:0,2:0:0:0:
74,21,39473,37,8,3:0:0:0:
88,25,39542,1,8,3:0:0:0:
155,43,39611,38,0,B|163:72|163:72|204:83|204:83|231:54|231:54|220:17,1,150,6|0,3:2|2:0,2:0:0:0:
292,0,39817,2,0,B|429:35|429:35|452:5|492:20,1,200,6|0,3:2|2:0,2:0:0:0:
359,49,40024,2,0,L|370:97,1,50,4|0,3:0|2:0,2:0:0:0:
397,162,40161,5,6,1:2:0:0:
397,189,40230,1,0,2:0:0:0:
381,242,40299,5,0,2:0:0:0:
346,300,40368,1,0,2:0:0:0:
282,347,40437,5,10,3:0:0:0:
208,360,40505,21,10,3:0:0:0:
141,342,40574,5,6,3:0:0:0:
123,322,40643,5,6,3:0:0:0:
76,144,40987,6,0,B|-12:170|-12:170|14:162|14:162|-4:98|-4:98|-16:101|-16:101|38:86,1,230,4|0,2:0|2:0,2:0:0:0:
52,31,41125,22,0,P|59:6|47:29,1,75,4|0,3:0|2:0,2:0:0:0:
1,239,41262,54,0,B|45:252|45:252|71:308|71:308|112:319,1,150,10|0,1:0|2:0,2:0:0:0:
347,351,41400,2,0,P|297:154|290:369,1,600.000000000001,6|8,3:2|3:0,2:0:0:0:
293,302,41744,21,8,3:0:0:0:
300,295,41813,2,0,B|316:258|316:258|276:248|276:248|274:271,1,100,6|0,3:2|2:0,2:0:0:0:
115,347,41950,6,0,B|79:357|79:357|70:346|70:346|77:312|77:312|92:307|92:307|118:331|118:331|115:347,1,150,6|4,3:2|3:0,2:0:0:0:
103,130,42363,22,0,B|140:186|140:186|158:211|145:227|145:227|145:227|145:227|102:280|102:280|83:304|64:297|64:297|0:273|0:273|-28:263|-27:244|-27:244|-25:176|-25:176|-24:145|-5:140|-5:140|89:113|89:113|247:155,1,700,10|0,1:0|2:0,2:0:0:0:
342,214,42776,53,8,3:0:0:0:
353,226,42845,1,8,3:0:0:0:
330,247,42914,22,0,B|366:265|385:230|385:230|403:197|437:217|437:217|470:236|491:202,1,187.5,6|0,3:2|2:0,2:0:0:0:
332,82,43327,2,0,L|348:76,1,12.5,4|0,3:0|3:0,2:0:0:0:
357,147,43464,54,0,B|394:90|394:90|412:65|398:49|398:49|398:49|398:49|356:-4|356:-4|336:-27|317:-20|317:-20|254:3|254:3|225:12|225:33|225:33|228:100|228:100|228:132|249:137|249:137|499:208,1,700,10|0,1:0|2:0,2:0:0:0:
479,310,43877,21,8,3:0:0:0:
465,318,43946,1,8,3:0:0:0:
401,348,44015,6,0,B|436:357|436:357|444:346|444:346|436:312|436:312|421:308|421:308|396:333|396:333|401:348,1,150,6|0,3:2|2:0,2:0:0:0:
332,367,44221,2,0,B|311:372|311:372|300:333|300:333|206:311|206:311|200:286|200:286|221:282,1,200,6|0,3:2|2:0,2:0:0:0:
106,329,44427,2,0,B|135:324|135:324|128:286,1,50,4|0,3:0|2:0,2:0:0:0:
78,77,44565,5,6,1:2:0:0:
72,94,44634,1,0,2:0:0:0:
40,122,44703,1,0,2:0:0:0:
34,139,44771,1,0,2:0:0:0:
13,209,44840,21,2,2:3:0:0:
44,225,44909,5,2,2:3:0:0:
77,193,44978,5,10,3:0:0:0:
119,228,45047,5,10,3:0:0:0:
168,176,45116,22,0,B|204:194|223:159|223:159|241:126|275:146|275:146|308:165|329:131,1,187.5,6|0,3:2|2:0,2:0:0:0:
406,277,45528,2,0,L|402:300,1,12.5,4|0,3:0|3:0,2:0:0:0:
358,226,45666,54,0,B|400:173|400:173|418:148|438:156|438:156|438:156|438:156|501:180|501:180|529:192|529:212|529:212|526:279|526:279|526:307|507:316|507:316|442:334|442:334|412:344|400:325|400:325|347:244|347:244|195:296,1,700,10|0,1:0|2:0,2:0:0:0:
79,253,46079,21,8,3:0:0:0:
90,240,46148,1,8,3:0:0:0:
86,225,46216,6,0,B|75:212|75:212|103:206|103:206|91:189|91:189|99:149,1,100,6|0,3:2|2:0,2:0:0:0:
102,61,46354,2,0,B|76:36|76:36|63:40|63:40|52:73|52:73|63:84|63:84|97:75|97:75|102:61,1,150,6|4,3:2|3:0,2:0:0:0:
233,133,46767,22,0,B|196:189|196:189|178:215|191:230|191:230|191:230|191:230|234:283|234:283|253:307|272:300|272:300|336:276|336:276|364:267|363:247|363:247|361:179|361:179|360:148|341:143|341:143|247:116|247:116|89:158,1,700,10|0,1:0|2:0,2:0:0:0:
0,253,47180,53,8,3:0:0:0:
22,270,47249,1,8,3:0:0:0:
9,285,47317,22,0,B|31:316|64:294|64:294|96:275|117:307|117:307|137:340|171:320,1,187.5,6|0,3:2|2:0,2:0:0:0:
357,255,47730,2,0,L|351:275,1,12.5,4|0,3:0|3:0,2:0:0:0:
323,193,47868,54,0,B|286:136|286:136|268:113|282:95|282:95|282:95|282:95|328:38|328:38|344:19|363:26|363:26|426:49|426:49|457:58|455:79|455:79|452:146|452:146|451:176|431:182|431:182|181:254,1,700,10|0,1:0|2:0,2:0:0:0:
127,183,48281,22,0,L|142:99,1,75,8|8,3:0|3:0,2:0:0:0:
223,18,48418,5,4,3:0:0:0:
211,20,48487,1,8,3:0:0:0:
198,22,48555,1,8,3:0:0:0:
186,24,48625,1,8,3:0:0:0:
117,35,48694,5,4,3:0:0:0:
105,37,48762,1,8,3:0:0:0:
92,39,48830,1,8,3:0:0:0:
80,41,48900,1,8,3:0:0:0:
11,52,48969,21,4,3:0:0:0:
244,233,49244,6,0,B|258:184|258:184|305:173,1,100,8|0,2:0|2:0,2:0:0:0:
315,175,49382,2,0,B|351:209|351:209|340:257,1,100,8|0,2:0|2:0,2:0:0:0:
277,309,49519,5,4,3:1:0:0:
256,192,49588,12,4,53923,3:1:0:0:
512,330,62180,37,4,3:0:0:0:
512,330,62317,6,0,P|481:311|474:266,1,75,8|0,3:0|2:0,2:0:0:0:
360,267,62455,6,0,P|364:242|399:219,1,62.5,12|0,3:0|2:0,2:0:0:0:
331,117,62593,6,0,P|355:109|385:127,1,50,4|0,3:0|2:0,2:0:0:0:
428,42,62730,22,0,B|343:102|216:89|141:2|141:2|146:34|146:34|36:64|-8:166|38:260|38:260|36:235|36:235|108:123|188:90|279:109|279:109|276:124|276:124|343:166|314:236|229:244|222:174,1,1160,4|0,3:1|2:0,2:0:0:0:
225,189,70987,6,0,L|249:184,28,25,2|0|0|0|0|0|0|0|0|0|0|0|0|0|0|0|0|0|0|0|0|0|0|0|0|0|0|0|0,2:0|2:0|2:0|2:0|2:0|2:0|2:0|2:0|2:0|2:0|2:0|2:0|2:0|2:0|2:0|2:0|2:0|2:0|2:0|2:0|2:0|2:0|2:0|2:0|2:0|2:0|2:0|2:0|2:0,2:0:0:0:
185,20,71538,6,0,B|177:94|177:94|140:143|140:143|129:232,1,225.000008583069,6|0,3:1|2:0,2:0:0:0:
129,242,71813,5,4,3:0:0:0:
55,256,71950,1,2,2:0:0:0:
189,281,72088,21,4,3:0:0:0:
203,355,72226,1,2,2:0:0:0:
277,341,72363,5,4,3:0:0:0:
203,355,72501,1,2,2:0:0:0:
316,281,72638,5,4,3:0:0:0:
302,207,72776,1,2,2:0:0:0:
376,193,72914,5,4,3:0:0:0:
302,207,73051,1,2,2:0:0:0:
436,232,73189,21,4,3:0:0:0:
450,306,73327,1,4,3:0:0:0:
507,384,73464,6,0,B|402:366|402:366|407:343|407:343|443:351,1,150,8|0,2:0|2:0,2:0:0:0:
464,321,73602,2,0,L|473:388,1,50,8|0,2:0|2:0,2:0:0:0:
319,383,73739,6,0,B|308:310|308:310|330:279|330:279|303:90,1,300,6|0,3:1|2:0,2:0:0:0:
304,76,74015,5,4,3:0:0:0:
382,90,74152,1,2,2:0:0:0:
511,1,74290,21,4,3:0:0:0:
458,62,74427,1,2,2:0:0:0:
304,76,74565,5,4,3:0:0:0:
382,90,74703,1,2,2:0:0:0:
472,217,74840,5,4,3:0:0:0:
445,142,74978,1,2,2:0:0:0:
304,76,75116,5,4,3:0:0:0:
382,90,75253,1,2,2:0:0:0:
459,297,75391,21,4,3:0:0:0:
406,358,75528,1,4,3:0:0:0:
193,312,75666,6,0,B|211:207|211:207|234:212|234:212|226:248,1,150,8|0,2:0|2:0,2:0:0:0:
256,269,75804,2,0,L|189:278,1,50,8|0,2:0|2:0,2:0:0:0:
0,138,75941,6,0,B|73:127|73:127|104:149|104:149|227:130,1,225,6|0,3:1|2:0,2:0:0:0:
223,131,76216,5,4,3:0:0:0:
239,41,76354,1,2,2:0:0:0:
256,297,76492,21,4,3:0:0:0:
273,208,76629,1,2,2:0:0:0:
167,280,76767,5,4,3:0:0:0:
256,297,76905,1,2,2:0:0:0:
0,314,77042,5,4,3:0:0:0:
90,331,77180,1,2,2:0:0:0:
346,314,77317,5,4,3:0:0:0:
256,297,77455,1,2,2:0:0:0:
512,280,77593,21,4,3:0:0:0:
423,263,77730,1,4,3:0:0:0:
353,122,77868,6,0,B|458:140|458:140|453:163|453:163|417:155,1,150,8|0,2:0|2:0,2:0:0:0:
396,185,78005,2,0,L|387:118,1,50,8|0,2:0|2:0,2:0:0:0:
470,10,78143,6,0,B|481:83|481:83|459:114|459:114|486:303,1,300,6|0,3:1|2:0,2:0:0:0:
488,311,78418,5,4,3:0:0:0:
411,325,78556,1,2,2:0:0:0:
284,248,78694,21,4,3:0:0:0:
335,306,78831,1,2,2:0:0:0:
207,184,78969,5,4,3:0:0:0:
283,169,79106,1,2,2:0:0:0:
127,313,79244,5,4,3:0:0:0:
152,239,79382,1,2,2:0:0:0:
377,134,79519,5,4,3:0:0:0:
351,207,79657,1,2,2:0:0:0:
305,0,79794,21,4,3:0:0:0:
356,59,79932,1,4,3:0:0:0:
351,207,80070,6,0,B|333:312|333:312|310:307|310:307|318:271,1,150,8|0,2:0|2:0,2:0:0:0:
288,250,80207,2,0,L|355:241,1,50,8|0,2:0|2:0,2:0:0:0:
512,332,80345,6,0,B|494:337|494:337|414:253|414:253|395:367|395:367|379:371,1,262.5,6|0,3:1|2:0,2:0:0:0:
435,324,80620,5,4,3:0:0:0:
467,256,80758,1,2,2:0:0:0:
299,380,80895,21,4,3:0:0:0:
331,312,81033,1,2,2:0:0:0:
288,250,81171,5,4,3:0:0:0:
320,182,81308,1,2,2:0:0:0:
152,306,81446,5,4,3:0:0:0:
184,238,81583,1,2,2:0:0:0:
141,176,81721,5,4,3:0:0:0:
173,108,81859,1,2,2:0:0:0:
5,232,81996,21,4,3:0:0:0:
37,164,82134,1,4,3:0:0:0:
161,62,82271,6,0,B|170:3|170:3|141:16|141:16|131:76,1,150,8|0,2:0|2:0,2:0:0:0:
175,80,82409,2,0,P|192:96|215:91,1,50,8|0,2:0|2:0,2:0:0:0:
451,110,82547,6,0,B|421:115|421:115|343:1|343:1|318:138|318:138|287:144,1,337.5,6|0,3:1|2:0,2:0:0:0:
362,89,82822,5,4,3:0:0:0:
279,73,82960,1,2,2:0:0:0:
42,32,83097,21,4,3:0:0:0:
70,109,83235,1,2,2:0:0:0:
362,89,83372,5,4,3:0:0:0:
279,73,83510,1,2,2:0:0:0:
96,186,83648,5,4,3:0:0:0:
174,159,83785,1,2,2:0:0:0:
362,89,83923,5,4,3:0:0:0:
279,73,84060,1,2,2:0:0:0:
201,237,84198,21,4,3:0:0:0:
228,314,84336,1,4,3:0:0:0:
404,296,84473,6,0,B|463:305|463:305|450:276|450:276|390:266,1,150,8|0,2:0|2:0,2:0:0:0:
386,310,84611,2,0,P|370:327|375:350,1,50,8|0,2:0|2:0,2:0:0:0:
489,171,84749,6,0,B|454:177|454:177|370:26|370:26|349:199|349:199|309:207,1,412.5,6|0,3:1|2:0,2:0:0:0:
390,125,85024,5,4,3:0:0:0:
467,42,85161,1,2,2:0:0:0:
390,125,85299,21,4,3:0:0:0:
279,99,85437,1,2,2:0:0:0:
335,198,85574,5,4,3:0:0:0:
279,99,85712,1,2,2:0:0:0:
335,198,85849,5,4,3:0:0:0:
275,295,85987,1,2,2:0:0:0:
387,273,86125,5,4,3:0:0:0:
275,295,86262,1,2,2:0:0:0:
387,273,86400,21,4,3:0:0:0:
460,360,86538,1,4,3:0:0:0:
455,168,86675,6,0,B|446:227|446:227|475:214|475:214|485:154,1,150,8|0,2:0|2:0,2:0:0:0:
441,150,86813,2,0,P|424:134|401:139,1,50,8|0,2:0|2:0,2:0:0:0:
233,198,86950,6,0,B|242:247|242:247|250:250|250:250|242:247|242:247|259:354|259:354|335:371|335:371|318:271|318:271|329:234|306:207|306:207|294:143|294:143|218:118|218:118|199:10|199:10|276:34|276:34|284:80,1,787.499999999999,4|0,3:1|2:0,2:0:0:0:
362,93,87501,5,0,2:0:0:0:
373,90,87570,21,0,2:0:0:0:
380,81,87638,5,0,2:0:0:0:
378,70,87707,5,0,2:0:0:0:
368,63,87776,5,0,3:0:0:0:
357,65,87845,21,0,3:0:0:0:
352,74,87914,5,0,3:0:0:0:
353,86,87982,5,0,3:0:0:0:
365,80,88051,5,0,3:0:0:0:
352,134,88120,21,0,3:0:0:0:
298,149,88189,5,0,3:0:0:0:
285,203,88258,5,0,3:0:0:0:
324,242,88327,5,0,3:0:0:0:
311,296,88395,21,0,3:0:0:0:
257,310,88464,5,0,3:0:0:0:
217,272,88533,5,0,3:0:0:0:
154,303,88602,5,4,3:0:0:0:
154,303,88877,22,0,B|172:311|172:311|227:267|291:283|291:283|304:262,1,168.75,8|0,2:0|2:0,2:0:0:0:
324,242,89015,6,0,B|336:246|336:246|318:215|282:228|282:228|302:234,1,87.5000000000001,8|0,2:0|2:0,2:0:0:0:
49,365,89152,6,0,B|106:355|106:355|154:174|154:174|110:141,1,300,6|0,1:2|2:0,2:0:0:0:
19,29,89427,2,0,B|29:86|29:86|210:134|210:134|243:90,1,300,6|0,1:2|2:0,2:0:0:0:
389,83,89703,5,0,2:0:0:0:
404,57,89771,1,0,2:0:0:0:
397,27,89840,1,0,2:0:0:0:
373,8,89909,1,0,2:0:0:0:
343,0,89978,2,0,L|288:19,1,50,0|0,3:0|3:0,2:0:0:0:
242,90,90116,21,0,3:0:0:0:
227,116,90184,1,0,3:0:0:0:
234,146,90253,1,0,3:0:0:0:
258,165,90322,1,0,3:0:0:0:
288,173,90391,2,0,L|343:154,1,50,0|0,3:0|3:0,2:0:0:0:
488,277,90528,6,0,B|447:242|447:242|382:244|382:244|410:231|410:231|428:155,1,225,6|0,1:2|2:0,2:0:0:0:
496,104,90804,2,0,B|522:112|522:112|510:171,1,75,2|0,2:0|2:0,2:0:0:0:
478,268,90941,6,0,B|437:233|437:233|372:235|372:235|400:222|400:222|418:146,1,225,6|0,1:2|2:0,2:0:0:0:
486,95,91216,2,0,B|512:103|512:103|500:162,1,75,2|0,2:0|2:0,2:0:0:0:
411,311,91354,6,0,B|480:36|480:36|470:34|470:34|455:16,1,315,6|0,1:2|2:0,2:0:0:0:
373,66,91629,2,0,B|98:-3|98:-3|96:7|96:7|78:21,1,315,6|0,1:2|2:0,2:0:0:0:
93,133,91905,21,0,2:0:0:0:
83,162,91973,1,0,2:0:0:0:
51,162,92042,1,0,2:0:0:0:
42,133,92111,1,0,2:0:0:0:
66,114,92180,2,0,P|91:107|117:103,1,52.5,0|0,3:0|3:0,2:0:0:0:
224,180,92317,5,0,3:0:0:0:
214,209,92386,1,0,3:0:0:0:
182,209,92455,1,0,3:0:0:0:
173,180,92524,1,0,3:0:0:0:
197,161,92593,2,0,P|222:154|248:150,1,52.5,0|0,3:0|3:0,2:0:0:0:
373,66,92730,6,0,B|357:125|357:125|333:138|333:138|323:192|323:192|339:213|339:213|327:274,1,232.5,6|0,1:2|2:0,2:0:0:0:
361,356,93005,2,0,B|399:366|399:366|406:322,1,77.4999999999999,2|0,2:0|2:0,2:0:0:0:
388,71,93143,6,0,B|372:130|372:130|348:143|348:143|338:197|338:197|354:218|354:218|342:279,1,232.5,6|0,1:2|2:0,2:0:0:0:
376,361,93418,2,0,B|414:371|414:371|421:327,1,77.4999999999999,2|0,2:0|2:0,2:0:0:0:
512,268,93556,22,0,B|468:279|468:279|459:297|459:297|269:346|269:346|260:365|260:365|214:374,1,330,6|0,1:2|2:0,2:0:0:0:
122,331,93831,2,0,B|111:287|111:287|92:278|92:278|44:88|44:88|25:79|25:79|15:33,1,330,6|0,1:2|2:0,2:0:0:0:
101,25,94106,5,0,2:0:0:0:
128,40,94175,1,0,2:0:0:0:
139,71,94244,1,0,2:0:0:0:
135,103,94313,1,0,2:0:0:0:
114,129,94382,2,0,P|84:138|44:136,1,55,0|0,3:0|3:0,2:0:0:0:
43,337,94519,5,0,3:0:0:0:
16,322,94588,1,0,3:0:0:0:
5,291,94657,1,0,3:0:0:0:
9,259,94726,1,0,3:0:0:0:
30,233,94794,2,0,P|60:224|100:226,1,55,0|0,3:0|3:0,2:0:0:0:
216,166,94932,6,0,B|165:199|165:199|179:273|179:273|237:287|237:287|250:335,1,240,6|0,1:2|2:0,2:0:0:0:
332,337,95207,2,0,B|342:365|342:365|391:372,1,80,2|0,2:0|2:0,2:0:0:0:
229,147,95345,22,0,B|178:180|178:180|192:254|192:254|250:268|250:268|263:316,1,240,6|0,1:2|2:0,2:0:0:0:
345,318,95620,2,0,B|355:346|355:346|404:353,1,80,2|0,2:0|2:0,2:0:0:0:
167,357,95758,6,0,B|217:335|217:335|246:340|246:340|456:242|456:242|460:213,1,345,6|0,1:2|2:0,2:0:0:0:
512,318,96033,2,0,B|490:267|490:267|495:239|495:239|397:29|397:29|368:24,1,345,6|0,1:2|2:0,2:0:0:0:
241,1,96308,5,0,2:0:0:0:
276,21,96377,1,0,2:0:0:0:
290,58,96446,1,0,2:0:0:0:
284,97,96515,1,0,2:0:0:0:
253,122,96583,2,0,P|220:114|167:103,1,57.5,0|0,3:0|3:0,2:0:0:0:
337,173,96721,5,0,3:0:0:0:
372,193,96790,1,0,3:0:0:0:
386,230,96859,1,0,3:0:0:0:
380,269,96927,1,0,3:0:0:0:
349,294,96996,2,0,P|316:286|263:275,1,57.5,0|0,3:0|3:0,2:0:0:0:
198,377,97134,22,0,B|263:180|332:313|395:101,1,350,4|0,3:0|2:0,2:0:0:0:
391,82,97684,2,0,B|441:89|441:89|475:53,1,100,8|8,2:0|2:0,2:0:0:0:
237,0,97960,5,6,1:2:0:0:
262,79,98097,1,0,2:0:0:0:
287,158,98235,1,2,1:2:0:0:
287,158,98372,6,0,L|384:180,1,75,0|0,2:0|2:0,2:0:0:0:
275,384,98510,5,6,1:2:0:0:
250,305,98648,1,2,2:0:0:0:
225,226,98785,1,0,1:0:0:0:
225,226,98923,22,0,L|128:204,1,75,0|0,2:0|2:0,2:0:0:0:
39,121,99060,5,6,1:2:0:0:
93,48,99198,1,0,2:0:0:0:
182,61,99336,1,0,1:0:0:0:
182,61,99473,6,0,L|202:133,1,75,2|0,2:0|2:0,2:0:0:0:
330,323,99611,5,4,1:2:0:0:
419,336,99749,1,0,2:0:0:0:
473,263,99886,1,2,1:2:0:0:
473,263,100024,22,0,L|452:190,1,75,0|0,2:0|2:0,2:0:0:0:
407,24,100161,5,4,1:2:0:0:
327,65,100299,1,0,2:0:0:0:
361,148,100437,1,2,1:2:0:0:
361,148,100574,6,0,L|289:177,1,75,0|0,2:0|2:0,2:0:0:0:
105,360,100712,5,6,1:2:0:0:
185,319,100849,1,2,2:0:0:0:
151,236,100987,1,0,1:0:0:0:
151,236,101125,22,0,L|223:207,1,75,0|0,2:0|2:0,2:0:0:0:
444,343,101262,5,6,1:2:0:0:
364,384,101400,1,0,2:0:0:0:
288,334,101538,1,0,1:0:0:0:
288,334,101675,6,0,L|306:241,1,75,2|0,2:0|2:0,2:0:0:0:
224,50,101813,5,4,1:2:0:0:
148,0,101950,1,0,2:0:0:0:
68,41,102088,1,2,1:2:0:0:
68,41,102226,22,0,L|50:134,1,75,0|0,2:0|2:0,2:0:0:0:
104,209,102363,5,6,1:2:0:0:
92,190,102501,1,0,1:0:0:0:
198,225,102638,5,6,1:2:0:0:
166,171,102776,1,0,1:0:0:0:
307,241,102914,5,6,1:2:0:0:
243,159,103051,1,0,1:0:0:0:
422,266,103189,21,6,1:2:0:0:
320,166,103327,1,0,1:0:0:0:
361,371,103464,5,6,1:2:0:0:
505,267,103602,1,0,1:0:0:0:
237,364,103739,5,6,1:2:0:0:
422,266,103877,1,0,1:0:0:0:
131,303,104015,5,6,1:2:0:0:
354,224,104152,1,0,1:0:0:0:
83,197,104290,22,0,L|65:148,3,37.5000000000001,6|0|0|0,1:2|2:0|1:0|2:0,2:0:0:0:
114,89,104565,5,6,1:2:0:0:
139,77,104634,1,8,3:0:0:0:
167,74,104703,1,8,3:0:0:0:
194,80,104771,1,8,3:0:0:0:
219,92,104840,1,12,3:0:0:0:
239,112,104909,1,12,3:0:0:0:
253,136,104978,1,12,3:0:0:0:
258,163,105047,1,12,3:0:0:0:
256,192,105116,1,4,3:0:0:0:
253,220,105184,1,4,3:0:0:0:
258,247,105253,1,4,3:0:0:0:
271,272,105322,1,4,3:0:0:0:
292,292,105391,1,4,3:0:0:0:
316,304,105460,1,4,3:0:0:0:
344,310,105528,1,4,3:0:0:0:
372,306,105597,1,4,3:0:0:0:
397,295,105666,6,0,B|399:260|399:260|394:253|394:253|402:249|402:249|409:202,1,100,4|2,3:1|2:0,2:0:0:0:
124,323,107455,6,0,L|121:310,120,12.5,2|0|0|0|0|0|0|0|0|0|0|0|0|0|0|0|0|0|0|0|0|0|0|0|0|0|0|0|0|0|0|0|0|0|0|0|0|0|0|0|0|0|0|0|0|0|0|0|0|0|0|0|0|0|0|0|0|0|0|0|0|0|0|0|0|0|0|0|0|0|0|0|0|0|0|0|0|0|0|0|0|0|0|0|0|0|0|0|0|0|0|0|0|0|0|0|0|0|0|0|0|0|0|0|0|0|0|0|0|0|0|0|0|0|0|0|0|0|0|0|0,2:0|2:0|2:0|2:0|2:0|2:0|2:0|2:0|2:0|2:0|2:0|2:0|2:0|2:0|2:0|2:0|2:0|2:0|2:0|2:0|2:0|2:0|2:0|2:0|2:0|2:0|2:0|2:0|2:0|2:0|2:0|2:0|2:0|2:0|2:0|2:0|2:0|2:0|2:0|2:0|2:0|2:0|2:0|2:0|2:0|2:0|2:0|2:0|2:0|2:0|2:0|2:0|2:0|2:0|2:0|2:0|2:0|2:0|2:0|2:0|2:0|2:0|2:0|2:0|2:0|2:0|2:0|2:0|2:0|2:0|2:0|2:0|2:0|2:0|2:0|2:0|2:0|2:0|2:0|2:0|2:0|2:0|2:0|2:0|2:0|2:0|2:0|2:0|2:0|2:0|2:0|2:0|2:0|2:0|2:0|2:0|2:0|2:0|2:0|2:0|2:0|2:0|2:0|2:0|2:0|2:0|2:0|2:0|2:0|2:0|2:0|2:0|2:0|2:0|2:0|2:0|2:0|2:0|2:0|2:0|2:0,2:0:0:0:
37,278,109588,21,0,1:0:0:0:
49,271,109657,2,0,L|74:199,1,50,0|0,1:0|1:0,2:0:0:0:
140,168,109794,6,0,L|121:88,3,75,0|0|0|0,1:0|1:0|1:0|1:0,2:0:0:0:
50,7,110070,5,6,3:2:0:0:
39,15,110138,1,2,3:2:0:0:
28,24,110207,1,2,3:2:0:0:
21,37,110276,1,2,3:2:0:0:
16,50,110345,5,2,3:2:0:0:
12,72,110414,1,2,3:2:0:0:
12,94,110482,1,2,3:2:0:0:
17,116,110551,1,2,3:2:0:0:
30,135,110620,21,2,3:2:0:0:
53,154,110689,1,2,3:2:0:0:
80,169,110758,1,2,3:2:0:0:
110,174,110827,1,2,3:2:0:0:
140,168,110895,6,0,L|121:88,1,75,4|0,3:0|2:0,2:0:0:0:
314,68,111171,38,0,B|282:108|282:108|252:74|252:74|208:92|208:92|191:18|191:18|301:-9|301:-9|335:106,1,450,4|0,3:1|2:0,2:0:0:0:
372,161,111446,54,0,L|350:241,1,75,4|0,1:0|2:0,2:0:0:0:
350,336,111583,2,0,L|297:282,1,75,4|0,3:0|2:0,2:0:0:0:
210,229,111721,2,0,L|282:210,1,75,4|0,3:0|2:0,2:0:0:0:
422,318,111859,22,0,L|349:336,1,75,4|0,1:0|2:0,2:0:0:0:
190,301,111996,2,0,L|209:228,1,75.0000028610231,4|0,3:0|2:0,2:0:0:0:
320,107,112134,2,0,L|378:166,1,75,4|0,3:0|2:0,2:0:0:0:
242,354,112271,22,0,L|189:300,1,75,4|0,1:0|2:0,2:0:0:0:
247,126,112409,2,0,L|319:107,1,75,4|0,3:0|2:0,2:0:0:0:
442,245,112547,2,0,L|422:317,1,75,4|0,3:0|2:0,2:0:0:0:
242,354,112684,6,0,L|262:282,1,75,4|0,1:0|2:0,2:0:0:0:
319,106,112822,1,4,3:0:0:0:
372,160,112891,1,4,3:0:0:0:
380,170,112960,2,0,L|360:242,1,75,4|0,3:0|2:0,2:0:0:0:
244,355,113097,21,8,2:1:0:0:
174,372,113166,1,2,2:0:0:0:
119,324,113235,5,2,2:0:0:0:
106,302,113304,1,2,2:0:0:0:
121,280,113372,38,0,B|227:255|227:255|301:367|301:367|401:340|401:340|365:278|365:278|320:290,1,450,4|0,3:1|2:0,2:0:0:0:
293,218,113648,38,0,L|314:141,1,75,4|0,1:0|2:0,2:0:0:0:
481,108,113785,2,0,L|404:87,1,75,4|0,3:0|2:0,2:0:0:0:
387,163,113923,2,0,L|434:237,1,75,4|0,3:0|2:0,2:0:0:0:
360,344,114060,6,0,L|271:368,1,75,4|0,1:0|2:0,2:0:0:0:
144,218,114198,2,0,L|168:306,1,75,4|0,3:0|2:0,2:0:0:0:
252,281,114336,2,0,L|306:195,1,75,4|0,3:0|2:0,2:0:0:0:
294,21,114473,22,0,L|192:-6,1,75,4|0,1:0|2:0,2:0:0:0:
45,165,114611,2,0,L|72:63,1,75,4|0,3:0|2:0,2:0:0:0:
169,93,114749,2,0,L|231:190,1,75,4|0,3:0|2:0,2:0:0:0:
357,246,114886,6,0,L|294:343,1,75,4|0,1:0|2:0,2:0:0:0:
97,325,115024,1,4,3:0:0:0:
150,377,115093,1,4,3:0:0:0:
158,384,115161,2,0,L|230:364,1,75,4|0,3:0|2:0,2:0:0:0:
357,246,115299,5,8,2:1:0:0:
375,176,115368,1,2,2:0:0:0:
323,125,115437,5,2,2:0:0:0:
271,144,115505,1,2,2:0:0:0:
261,167,115574,22,0,L|272:227,1,50,4|0,3:1|2:0,2:0:0:0:
292,335,115712,2,0,L|300:383,1,50,0|0,2:0|2:0,2:0:0:0:
201,300,115849,6,0,P|138:127|231:68,1,300,6|0,2:0|2:0,2:0:0:0:
281,52,116125,5,4,3:0:0:0:
281,52,116194,1,4,3:0:0:0:
349,93,116262,6,0,P|358:279|142:253,1,375,6|0,2:0|2:0,2:0:0:0:
134,260,116538,21,4,3:0:0:0:
134,260,116606,1,4,3:0:0:0:
120,183,116675,6,0,P|216:23|381:166,1,375,6|0,2:0|2:0,2:0:0:0:
408,155,116950,5,4,3:0:0:0:
408,155,117019,1,4,3:0:0:0:
383,235,117088,6,0,P|253:320|128:77,1,450,6|0,2:0|2:0,2:0:0:0:
144,64,117363,2,0,B|163:58|163:58|201:77|201:77|229:67,1,75,4|4,3:0|3:0,2:0:0:0:
283,43,117501,21,8,2:1:0:0:
310,53,117570,1,0,2:0:0:0:
355,28,117638,1,0,2:0:0:0:
406,46,117707,1,0,2:0:0:0:
459,4,117776,54,0,B|489:21|489:21|505:131|505:131|478:161|478:161|502:326|502:326|520:323|520:323|506:236,1,450,4|0,3:1|2:0,2:0:0:0:
426,292,118051,21,6,2:0:0:0:
366,336,118189,2,0,L|355:376,2,37.5000000000001,0|0|0,2:0|2:0|2:0,2:0:0:0:
333,269,118464,5,2,2:0:0:0:
273,313,118602,2,0,L|262:353,2,37.5000000000001,0|0|0,2:0|2:0|2:0,2:0:0:0:
240,246,118877,5,2,2:0:0:0:
180,290,119015,2,0,L|169:330,2,37.5000000000001,0|0|0,2:0|2:0|2:0,2:0:0:0:
147,223,119290,21,2,2:0:0:0:
87,267,119427,2,0,L|76:307,2,37.5000000000001,0|0|0,2:0|2:0|2:0,2:0:0:0:
3,249,119703,6,0,B|58:365|58:365|216:330|216:330|234:353|234:353|255:182,1,480,0|0,1:0|2:0,2:0:0:0:
209,129,119978,38,0,B|171:41|171:41|166:57|166:57|22:86|22:86|10:72|10:72|10:165|10:165|66:154|66:154|80:184,1,450,4|0,3:1|2:0,2:0:0:0:
177,256,120253,38,0,L|257:276,1,75,4|0,1:0|2:0,2:0:0:0:
339,323,120391,2,0,L|318:250,1,75,4|0,3:0|2:0,2:0:0:0:
315,148,120528,2,0,L|262:200,1,75,4|0,3:0|2:0,2:0:0:0:
287,377,120666,6,0,L|339:322,1,75,4|0,1:0|2:0,2:0:0:0:
387,168,120804,2,0,L|314:147,1,75,4|0,3:0|2:0,2:0:0:0:
156,183,120941,2,0,L|178:262,1,75,4|0,3:0|2:0,2:0:0:0:
408,241,121079,22,0,L|387:168,1,75,4|0,1:0|2:0,2:0:0:0:
209,130,121216,2,0,L|156:182,1,75,4|0,3:0|2:0,2:0:0:0:
214,358,121354,2,0,L|286:376,1,75,4|0,3:0|2:0,2:0:0:0:
408,241,121492,6,0,L|335:222,1,75,4|0,1:0|2:0,2:0:0:0:
156,183,121629,1,4,3:0:0:0:
176,253,121698,1,4,3:0:0:0:
179,263,121767,2,0,L|251:281,1,75,4|0,3:0|2:0,2:0:0:0:
408,241,121905,5,8,2:1:0:0:
458,189,121973,1,2,2:0:0:0:
444,119,122042,5,2,2:0:0:0:
441,94,122111,1,2,2:0:0:0:
459,77,122180,6,0,B|334:99|334:99|284:14|284:14|312:-1|312:-1|210:20|210:20|222:83|222:83|263:96,1,450,4|0,3:1|2:0,2:0:0:0:
278,159,122455,6,0,L|258:240,1,75,4|0,1:0|2:0,2:0:0:0:
358,313,122593,2,0,L|337:240,1,75,4|0,3:0|2:0,2:0:0:0:
430,282,122730,2,0,L|484:333,1,75,4|0,3:0|2:0,2:0:0:0:
476,151,122868,6,0,L|406:217,1,75,4|0,1:0|2:0,2:0:0:0:
278,159,123005,2,0,L|361:138,1,75,4|0,3:0|2:0,2:0:0:0:
267,69,123143,2,0,L|184:45,1,75,4|0,3:0|2:0,2:0:0:0:
122,14,123281,6,0,L|16:44,1,75,4|0,1:0|2:0,2:0:0:0:
0,205,123418,2,0,L|68:133,1,75,4|0,3:0|2:0,2:0:0:0:
84,267,123556,2,0,L|60:363,1,75,4|0,3:0|2:0,2:0:0:0:
252,307,123694,6,0,L|275:210,1,75,4|0,1:0|2:0,2:0:0:0:
267,69,123831,1,4,3:0:0:0:
195,88,123900,1,4,3:0:0:0:
185,91,123969,2,0,L|166:163,1,75,4|0,3:0|2:0,2:0:0:0:
252,307,124106,21,8,2:1:0:0:
318,337,124175,1,2,2:0:0:0:
392,321,124244,5,2,2:0:0:0:
431,277,124313,1,2,2:0:0:0:
438,238,124382,6,0,L|426:179,1,50,4|0,3:1|2:0,2:0:0:0:
389,13,124519,2,0,L|398:61,1,50,0|0,2:0|2:0,2:0:0:0:
512,120,124657,6,0,L|207:61,1,300,6|0,2:0|2:0,2:0:0:0:
146,76,124932,21,4,3:0:0:0:
146,76,125001,1,4,3:0:0:0:
75,84,125070,6,0,L|456:159,1,375,6|0,2:0|2:0,2:0:0:0:
478,222,125345,5,4,3:0:0:0:
478,222,125414,1,4,3:0:0:0:
512,286,125482,6,0,L|131:209,1,375,6|0,2:0|2:0,2:0:0:0:
71,250,125758,21,4,3:0:0:0:
71,250,125827,1,4,3:0:0:0:
0,287,125895,6,0,L|453:376,1,450,6|0,2:0|2:0,2:0:0:0:
330,324,126171,2,0,B|324:305|324:305|343:267|343:267|333:239,1,75,4|4,3:0|3:0,2:0:0:0:
323,188,126308,5,8,2:1:0:0:
333,161,126377,1,0,2:0:0:0:
308,116,126446,1,0,2:0:0:0:
326,65,126515,1,0,2:0:0:0:
295,0,126583,22,0,B|349:-26|420:2|447:95|388:172|308:162|267:126|256:80|256:80|191:106|191:106|175:65,1,450,4|0,3:1|2:0,2:0:0:0:
99,49,126859,53,6,2:0:0:0:
41,96,126996,2,0,L|1:85,2,37.5000000000001,0|0|0,2:0|2:0|2:0,2:0:0:0:
108,128,127271,21,2,2:0:0:0:
50,175,127409,2,0,L|10:164,2,37.5000000000001,0|0|0,2:0|2:0|2:0,2:0:0:0:
117,207,127684,5,2,2:0:0:0:
59,254,127822,2,0,L|19:243,2,37.5000000000001,0|0|0,2:0|2:0|2:0,2:0:0:0:
126,286,128097,5,2,2:0:0:0:
68,333,128235,2,0,L|28:322,2,37.5000000000001,0|0|0,2:0|2:0|2:0,2:0:0:0:
212,384,128510,6,0,B|96:329|96:329|131:171|131:171|108:153|108:153|279:132,1,480,8|0,2:1|2:0,2:0:0:0:
301,206,128785,6,0,B|324:253|324:253|385:264|385:264|331:296|331:296|326:349|326:349|303:301|303:301|242:290|242:290|295:258|295:258|301:206,1,450,4|0,1:0|2:0,2:0:0:0:
352,95,129060,5,10,3:0:0:0:
359,109,129129,1,10,3:0:0:0:
366,123,129198,1,10,3:0:0:0:
372,136,129267,1,10,3:0:0:0:
380,151,129336,5,10,3:0:0:0:
399,126,129405,1,10,3:0:0:0:
415,99,129473,1,10,3:0:0:0:
433,72,129542,1,10,3:0:0:0:
448,46,129611,5,10,3:0:0:0:
404,34,129680,1,10,3:0:0:0:
361,26,129749,1,10,3:0:0:0:
318,18,129817,1,10,3:0:0:0:
274,12,129886,6,0,L|296:73,4,37.5,2|0|0|0|4,2:0|2:0|2:0|2:0|3:0,2:0:0:0:
201,64,130093,1,0,2:0:0:0:
201,64,130161,2,0,B|130:87|130:87|122:111,1,100,4|0,3:0|2:0,2:0:0:0:
201,161,130299,22,0,L|213:196,8,37.5,2|0|0|0|0|0|0|0|4,2:0|2:0|2:0|2:0|2:0|2:0|2:0|2:0|3:0,2:0:0:0:
128,213,130505,1,0,2:0:0:0:
128,213,130574,2,0,B|57:236|57:236|49:260,1,100,4|0,3:0|2:0,2:0:0:0:
9,359,130712,5,8,2:1:0:0:
51,344,130781,1,0,2:0:0:0:
93,329,130849,1,0,2:0:0:0:
136,315,130918,1,0,2:0:0:0:
180,298,130987,38,0,B|166:338|166:338|309:288|309:288|272:268|272:268|268:380|268:380|397:334,1,450,4|0,1:0|2:0,2:0:0:0:
404,257,131262,37,10,3:0:0:0:
412,243,131331,1,10,3:0:0:0:
420,230,131400,1,10,3:0:0:0:
427,217,131469,1,10,3:0:0:0:
436,203,131538,5,10,3:0:0:0:
451,228,131606,1,10,3:0:0:0:
466,253,131675,1,10,3:0:0:0:
480,279,131744,1,10,3:0:0:0:
495,305,131813,21,10,3:0:0:0:
453,322,131882,1,10,3:0:0:0:
410,334,131950,1,10,3:0:0:0:
364,345,132019,1,10,3:0:0:0:
319,352,132088,6,0,L|336:306,4,37.5,2|0|0|0|4,2:0|2:0|2:0|2:0|3:0,2:0:0:0:
237,300,132294,1,0,2:0:0:0:
237,300,132363,2,0,B|232:275|232:275|158:244,1,100,4|0,3:0|2:0,2:0:0:0:
230,175,132501,6,0,L|247:129,8,37.5,2|0|0|0|0|0|0|0|4,2:0|2:0|2:0|2:0|2:0|2:0|2:0|2:0|3:0,2:0:0:0:
148,123,132707,1,0,2:0:0:0:
148,123,132776,2,0,B|143:98|143:98|69:67,1,100,4|0,3:0|2:0,2:0:0:0:
158,0,132914,5,8,2:1:0:0:
196,10,132982,1,0,2:0:0:0:
233,24,133051,1,0,2:0:0:0:
270,38,133120,1,0,2:0:0:0:
310,52,133189,22,0,L|335:157,1,100,4|0,1:0|2:0,2:0:0:0:
413,205,133327,6,0,B|384:231|384:231|419:236,1,75,0|0,2:0|2:0,2:0:0:0:
503,198,133464,6,0,B|285:251|285:251|269:264|269:264|184:286,1,300,6|0,2:0|2:0,2:0:0:0:
77,337,133739,5,4,3:0:0:0:
71,317,133808,1,4,3:0:0:0:
17,263,133877,22,0,B|281:325|281:325|299:344|299:344|385:365,1,375,6|0,2:0|2:0,2:0:0:0:
512,301,134152,5,4,3:0:0:0:
492,307,134221,1,4,3:0:0:0:
470,384,134290,6,0,B|451:308|451:308|432:290|432:290|370:26,1,375,6|0,2:0|2:0,2:0:0:0:
466,11,134565,5,4,3:0:0:0:
486,2,134634,1,4,3:0:0:0:
512,81,134703,22,0,B|430:112|430:112|416:158|416:158|352:144|352:144|336:101|336:101|320:123|320:123|242:145|242:145|218:135|218:135|150:157,1,450,6|0,2:0|2:0,2:0:0:0:
247,177,134978,2,0,B|251:188|251:188|232:226|232:226|238:245,1,75,4|4,3:0|3:0,2:0:0:0:
214,333,135116,5,8,2:1:0:0:
185,337,135184,1,0,2:0:0:0:
145,304,135253,1,0,2:0:0:0:
91,314,135322,1,0,2:0:0:0:
25,271,135391,38,0,B|102:187|207:279|150:363|150:363|245:287|245:287|264:302|264:302|348:280,1,450,4|0,3:1|2:0,2:0:0:0:
421,264,135666,37,6,2:0:0:0:
357,215,135804,2,0,L|363:178,2,37.5000000000001,0|0|0,2:0|2:0|2:0,2:0:0:0:
421,264,136079,5,2,2:0:0:0:
485,313,136216,2,0,L|478:349,2,37.5000000000001,0|0|0,2:0|2:0|2:0,2:0:0:0:
444,147,136492,21,2,2:0:0:0:
380,98,136629,2,0,L|386:61,2,37.5000000000001,0|0|0,2:0|2:0|2:0,2:0:0:0:
444,147,136905,5,2,2:0:0:0:
508,196,137042,2,0,L|501:232,2,37.5000000000001,0|0|0,2:0|2:0|2:0,2:0:0:0:
99,34,137317,6,0,B|191:62|191:62|85:198|85:198|185:229,1,375,2|0,1:0|2:0,2:0:0:0:
256,192,137593,1,4,3:1:0:0:
256,192,137661,12,4,144198,3:0:0:0:
248,190,145712,5,0,3:0:0:0:
260,186,145781,1,0,3:0:0:0:
258,198,145849,1,8,3:0:0:0:
120,160,145987,21,12,3:0:0:0:
350,90,146125,1,4,3:0:0:0:
296,324,146262,1,4,3:1:0:0:
256,192,146331,12,4,151905,2:0:0:0:
