osu file format v14

[General]
AudioFilename: audio.mp3
AudioLeadIn: 0
PreviewTime: 88877
Countdown: 0
SampleSet: Soft
StackLeniency: 0.2
Mode: 0
LetterboxInBreaks: 0
WidescreenStoryboard: 1

[Editor]
Bookmarks: 5483,14290,31905,49519,71538,89152,111171,128785,137593
DistanceSpacing: 0.6
BeatDivisor: 4
GridSize: 8
TimelineZoom: 7.200001

[Metadata]
Title:Destroy, Destroy, Destroy The Happy End (Cut Ver.)
TitleUnicode:Destroy, Destroy, Destroy The Happy End (Cut Ver.)
Artist:Chroma
ArtistUnicode:黒魔
Creator:Fisky
Version:Ralkinson's Extra
Source:
Tags:Robot & Human Diverse Direct ralkinson ak74 ak74qbz95xm8 garden ioexception deadcode ceo of osu ceo_of_osu jezag electronic instrumental featured artist fa
BeatmapID:3364545
BeatmapSetID:1160351

[Difficulty]
HPDrainRate:5
CircleSize:4
OverallDifficulty:8
ApproachRate:9.1
SliderMultiplier:2
SliderTickRate:1

[Events]
//Background and Video events
0,0,"bg destroy.jpg",0,0
//Break Periods
2,54122,59944
//Storyboard Layer 0 (Background)
//Storyboard Layer 1 (Fail)
//Storyboard Layer 2 (Pass)
//Storyboard Layer 3 (Foreground)
//Storyboard Layer 4 (Overlay)
//Storyboard Sound Samples

[TimingPoints]
5483,275.229357798165,4,2,0,70,1,0
5483,-52.6315789473684,4,2,0,70,0,0
5758,-142.857142857143,4,2,0,70,0,0
7409,-52.6315789473684,4,2,0,70,0,0
7960,-142.857142857143,4,2,0,70,0,0
9611,-52.6315789473684,4,2,0,70,0,0
10161,-166.666666666667,4,2,0,70,0,0
10712,-52.6315789473684,4,2,0,70,0,0
11262,-166.666666666667,4,2,0,70,0,0
11813,-52.6315789473684,4,2,0,70,0,0
13189,-30.3030303030303,4,2,0,60,0,0
13206,-30.3030303030303,4,2,0,60,0,0
13223,-30.3030303030303,4,2,0,5,0,0
13464,-30.3030303030303,4,2,0,60,0,0
13601,-30.3030303030303,4,2,0,60,0,0
13739,-30.3030303030303,4,2,0,60,0,0
14014,-30.3030303030303,4,2,0,60,0,0
14290,-200,4,2,0,60,0,0
29978,-142.857142857143,4,2,0,60,0,0
30804,-90.9090909090909,4,2,0,60,0,0
31285,-55.5555555555556,4,2,0,60,0,0
31905,-71.4285714285714,4,2,0,80,0,0
32386,-34.4827586206897,4,2,0,80,0,0
33005,-52.6315789473684,4,2,0,80,0,0
33143,-71.4285714285714,4,2,0,80,0,0
33487,-34.4827586206897,4,2,0,80,0,0
34106,-71.4285714285714,4,2,0,80,0,0
34588,-34.4827586206897,4,2,0,80,0,0
35207,-71.4285714285714,4,2,0,80,0,0
36790,-34.4827586206897,4,2,0,80,0,0
37409,-52.6315789473684,4,2,0,80,0,0
37547,-71.4285714285714,4,2,0,80,0,0
37891,-34.4827586206897,4,2,0,80,0,0
38510,-71.4285714285714,4,2,0,80,0,0
38992,-34.4827586206897,4,2,0,80,0,0
39611,-71.4285714285714,4,2,0,80,0,0
40987,-90.9090909090909,4,2,0,80,0,0
41125,-45.4545454545455,4,2,0,80,0,0
41813,-52.6315789473684,4,2,0,80,0,0
41950,-71.4285714285714,4,2,0,80,0,0
42294,-34.4827586206897,4,2,0,80,0,0
42914,-71.4285714285714,4,2,0,80,0,0
43395,-34.4827586206897,4,2,0,80,0,0
44015,-71.4285714285714,4,2,0,80,0,0
45597,-34.4827586206897,4,2,0,80,0,0
46216,-52.6315789473684,4,2,0,80,0,0
46354,-71.4285714285714,4,2,0,80,0,0
46698,-34.4827586206897,4,2,0,80,0,0
47317,-71.4285714285714,4,2,0,80,0,0
47799,-34.4827586206897,4,2,0,80,0,0
48281,-111.111111111111,4,2,0,80,0,0
48418,-90.9090909090909,4,2,0,80,0,0
48900,-55.5555555555556,4,2,0,80,0,0
49244,-111.111111111111,4,2,0,35,0,0
49519,-222.222222222222,4,2,0,60,0,0
60528,-500,4,2,0,60,0,0
61079,-333.333333333333,4,2,0,60,0,0
61629,-250,4,2,0,60,0,0
62179,-250,4,2,0,50,0,0
62317,-250,4,2,0,40,0,0
62593,-250,4,2,0,30,0,0
62730,-166.666666666667,4,2,0,50,0,0
70987,-166.666666666667,4,2,0,20,0,0
71538,-71.4285714285714,4,2,0,70,0,0
71950,-76.9230769230769,4,2,0,70,0,0
72226,-90.9090909090909,4,2,0,70,0,0
72501,-111.111111111111,4,2,0,70,0,0
72776,-142.857142857143,4,2,0,70,0,0
73051,-200,4,2,0,70,0,0
73327,-71.4285714285714,4,2,0,70,0,0
73464,-71.4285714285714,4,2,0,35,0,0
73739,-71.4285714285714,4,2,0,70,0,0
74152,-76.9230769230769,4,2,0,70,0,0
74427,-90.9090909090909,4,2,0,70,0,0
74703,-111.111111111111,4,2,0,70,0,0
74978,-142.857142857143,4,2,0,70,0,0
75253,-200,4,2,0,70,0,0
75528,-71.4285714285714,4,2,0,70,0,0
75665,-71.4285714285714,4,2,0,35,0,0
75941,-71.4285714285714,4,2,0,70,0,0
76354,-76.9230769230769,4,2,0,70,0,0
76629,-90.9090909090909,4,2,0,70,0,0
76905,-111.111111111111,4,2,0,70,0,0
77180,-142.857142857143,4,2,0,70,0,0
77455,-200,4,2,0,70,0,0
77730,-71.4285714285714,4,2,0,70,0,0
77867,-71.4285714285714,4,2,0,35,0,0
78143,-71.4285714285714,4,2,0,70,0,0
78556,-76.9230769230769,4,2,0,70,0,0
78831,-90.9090909090909,4,2,0,70,0,0
79106,-111.111111111111,4,2,0,70,0,0
79382,-142.857142857143,4,2,0,70,0,0
79657,-200,4,2,0,70,0,0
79932,-71.4285714285714,4,2,0,70,0,0
80069,-71.4285714285714,4,2,0,35,0,0
80345,-71.4285714285714,4,2,0,70,0,0
80758,-76.9230769230769,4,2,0,70,0,0
81033,-90.9090909090909,4,2,0,70,0,0
81308,-111.111111111111,4,2,0,70,0,0
81583,-142.857142857143,4,2,0,70,0,0
81859,-200,4,2,0,70,0,0
82134,-71.4285714285714,4,2,0,70,0,0
82271,-71.4285714285714,4,2,0,35,0,0
82547,-71.4285714285714,4,2,0,70,0,0
82960,-76.9230769230769,4,2,0,70,0,0
83235,-90.9090909090909,4,2,0,70,0,0
83510,-111.111111111111,4,2,0,70,0,0
83785,-142.857142857143,4,2,0,70,0,0
84060,-200,4,2,0,70,0,0
84336,-71.4285714285714,4,2,0,70,0,0
84473,-71.4285714285714,4,2,0,35,0,0
84749,-71.4285714285714,4,2,0,70,0,0
85161,-76.9230769230769,4,2,0,70,0,0
85437,-90.9090909090909,4,2,0,70,0,0
85712,-111.111111111111,4,2,0,70,0,0
85987,-142.857142857143,4,2,0,70,0,0
86262,-200,4,2,0,70,0,0
86538,-71.4285714285714,4,2,0,70,0,0
86675,-71.4285714285714,4,2,0,35,0,0
86950,-111.111111111111,4,2,0,70,0,0
87226,-100,4,2,0,70,0,0
87501,-90.9090909090909,4,2,0,70,0,0
87776,-83.3333333333333,4,2,0,40,0,0
88051,-83.3333333333333,4,2,0,50,0,0
88327,-83.3333333333333,4,2,0,60,0,0
88601,-83.3333333333333,4,2,0,70,0,0
88877,-125,4,2,0,35,0,0
89152,-71.4285714285714,4,2,0,80,0,0
96996,-125,4,2,0,80,0,0
97684,-125,4,2,0,35,0,0
97960,-100,4,2,0,80,0,0
102776,-125,4,2,0,80,0,0
103051,-166.666666666667,4,2,0,80,0,0
103327,-250,4,2,0,80,0,0
103602,-500,4,2,0,80,0,0
104703,-83.3333333333333,4,2,0,80,0,0
105666,-47.6190476190476,4,2,0,60,0,0
105683,-100,4,2,0,5,0,0
105941,-100,4,2,0,10,0,0
106078,-100,4,2,0,20,0,0
106216,-100,4,2,0,30,0,0
107042,-47.6190476190476,4,2,0,30,0,0
107059,-100,4,2,0,20,0,0
107421,-25,4,2,0,30,0,0
107455,-25,4,2,0,40,0,0
109657,-25,4,2,0,45,0,0
109726,-25,4,2,0,50,0,0
109794,-25,4,2,0,55,0,0
109863,-25,4,2,0,60,0,0
109932,-25,4,2,0,65,0,0
110001,-25,4,2,0,70,0,0
110070,-76.9230769230769,4,2,0,80,0,0
113235,-47.6190476190476,4,2,0,80,0,0
113648,-76.9230769230769,4,2,0,80,0,0
115437,-47.6190476190476,4,2,0,80,0,0
115712,-71.4285714285714,4,2,0,80,0,0
116194,-47.6190476190476,4,2,0,80,0,0
117501,-76.9230769230769,4,2,0,80,0,0
118327,-142.857142857143,4,2,0,80,0,0
119703,-76.9230769230769,4,2,0,80,0,0
122042,-47.6190476190476,4,2,0,80,0,0
122455,-76.9230769230769,4,2,0,80,0,0
124244,-47.6190476190476,4,2,0,80,0,0
124519,-71.4285714285714,4,2,0,80,0,0
125001,-47.6190476190476,4,2,0,80,0,0
126308,-76.9230769230769,4,2,0,80,0,0
126859,-76.9230769230769,4,2,0,60,0,0
127134,-142.857142857143,4,2,0,60,0,0
128510,-76.9230769230769,4,2,0,60,0,0
128785,-76.9230769230769,4,2,0,90,0,0
129749,-55.5555555555556,4,2,0,90,0,0
129886,-55.5555555555556,4,2,0,80,0,0
130849,-47.6190476190476,4,2,0,80,0,0
130986,-47.6190476190476,4,2,0,90,0,0
131262,-76.9230769230769,4,2,0,90,0,0
131950,-55.5555555555556,4,2,0,90,0,0
132087,-55.5555555555556,4,2,0,80,0,0
133051,-47.6190476190476,4,2,0,80,0,0
133327,-71.4285714285714,4,2,0,80,0,0
133808,-47.6190476190476,4,2,0,80,0,0
135116,-76.9230769230769,4,2,0,80,0,0
135941,-181.818181818182,4,2,0,80,0,0
137317,-76.9230769230769,4,2,0,80,0,0
137593,-171.526586620926,4,2,0,80,0,0
140345,-1000,4,2,0,50,0,0
141996,-90.9090909090909,4,2,0,50,0,0
142547,-90.9090909090909,4,2,0,50,0,0
143097,-90.9090909090909,4,2,0,50,0,0
143648,-90.9090909090909,4,2,0,65,0,0
144197,-90.9090909090909,4,2,0,40,0,0
144473,-125,4,2,0,40,0,0
145712,-125,4,2,0,60,0,0
146125,-66.6666666666667,4,2,0,60,0,0

[Colours]
Combo1 : 255,57,0
Combo2 : 4,173,255
Combo3 : 192,136,255
Combo4 : 245,155,255
Combo5 : 255,138,170

[HitObjects]
280,140,5483,6,0,B|314:98|314:98|365:107|365:107|374:103|374:103|440:116|440:116|466:214,1,285,4|0,3:1|0:0,0:0:0:0:
457,225,5758,6,0,L|371:239,1,69.9999999999999,2|0,1:2|0:0,0:0:0:0:
377,245,5964,2,0,L|291:259,1,69.9999999999999,2|0,2:0|0:0,0:0:0:0:
297,265,6171,2,0,L|211:279,1,69.9999999999999,2|0,2:0|1:0,0:0:0:0:
217,285,6377,2,0,L|131:299,1,69.9999999999999,2|0,2:0|0:0,0:0:0:0:
380,240,6652,6,0,L|294:254,1,69.9999999999999,2|0,2:0|0:0,0:0:0:0:
300,260,6859,2,0,L|214:274,1,69.9999999999999,2|0,1:2|0:0,0:0:0:0:
220,280,7065,2,0,L|134:294,1,69.9999999999999,2|0,2:0|0:0,0:0:0:0:
66,268,7271,5,2,1:2:0:0:
66,268,7409,2,0,B|88:189|88:189|94:187|94:187|112:133|112:133|213:103|213:103|256:129,1,285,4|0,3:1|0:0,0:0:0:0:
250,137,7684,2,0,B|273:173|273:173|170:149|170:149|163:141|163:141|96:125|96:125|113:69,1,285,4|0,3:1|0:0,0:0:0:0:
185,14,7960,22,0,L|271:28,1,69.9999999999999,2|0,1:2|0:0,0:0:0:0:
265,34,8166,2,0,L|351:48,1,69.9999999999999,2|0,2:0|0:0,0:0:0:0:
345,54,8372,2,0,L|431:68,1,69.9999999999999,2|0,2:0|1:0,0:0:0:0:
425,74,8579,2,0,L|511:88,1,69.9999999999999,2|0,2:0|0:0,0:0:0:0:
262,29,8854,6,0,L|348:43,1,69.9999999999999,2|0,2:0|0:0,0:0:0:0:
342,49,9060,2,0,L|428:63,1,69.9999999999999,2|0,1:2|0:0,0:0:0:0:
422,69,9267,2,0,L|508:83,1,69.9999999999999,2|0,2:0|0:0,0:0:0:0:
351,140,9473,5,2,1:2:0:0:
351,140,9611,2,0,B|314:152|314:152|294:256|294:256|346:268|346:268|348:273|348:273|351:269|351:269|414:282|414:282|407:263,1,285,4|0,3:1|0:0,0:0:0:0:
405,264,9886,2,0,B|390:240|390:240|288:266|288:266|259:308|259:308|142:286,1,285,4|0,3:1|0:0,0:0:0:0:
148,279,10161,6,0,L|133:183,2,89.9999999999998,2|2|2,1:2|2:0|2:0,0:0:0:0:
84,94,10712,22,0,B|74:152|74:152|145:166|145:166|158:151|158:151|301:128,1,285,4|0,3:1|0:0,0:0:0:0:
303,127,10987,2,0,B|297:81|297:81|211:62|211:62|215:111|215:111|213:142|213:142|222:166|222:166|230:209,1,285,4|0,3:1|0:0,0:0:0:0:
247,213,11262,6,0,L|343:228,2,89.9999999999998,2|2|2,1:2|2:0|2:0,0:0:0:0:
370,348,11813,6,0,B|336:316|336:316|345:240|345:240|356:228|356:228|366:154|366:154|441:136,1,285,4|0,3:1|0:0,0:0:0:0:
444,144,12088,6,0,B|468:176|468:176|447:232|447:232|384:218|384:218|361:186|361:186|278:167|278:167|251:188|251:188|238:246,1,380,4|2,3:1|1:2,0:0:0:0:
43,263,12638,22,0,B|26:206|26:206|147:176|147:176|122:339|122:339|49:324,1,380,4|2,3:1|1:2,0:0:0:0:
91,332,13189,6,0,B|149:316|104:306|179:286,24,82.5,4|0|0|0|0|0|0|0|0|0|0|0|0|0|0|0|0|0|0|0|0|0|0|0|4,3:0|0:0|0:0|0:0|0:0|0:0|0:0|0:0|0:0|0:0|0:0|0:0|0:0|0:0|0:0|0:0|0:0|0:0|0:0|0:0|0:0|0:0|0:0|0:0|3:1,0:0:0:0:
182,300,14290,5,4,3:1:0:0:
184,316,14427,1,0,3:0:0:0:
187,332,14565,1,0,3:0:0:0:
190,349,14702,1,0,3:0:0:0:
374,369,14840,1,10,3:0:0:0:
374,369,14978,1,0,3:0:0:0:
374,369,15116,1,0,3:0:0:0:
374,369,15253,1,0,3:0:0:0:
286,308,15391,5,4,3:0:0:0:
288,291,15528,1,0,3:0:0:0:
291,275,15666,1,0,3:0:0:0:
294,258,15803,1,0,3:0:0:0:
400,136,15941,1,10,3:0:0:0:
400,136,16079,1,0,3:0:0:0:
400,136,16216,1,0,3:0:0:0:
400,136,16354,1,0,3:0:0:0:
300,162,16492,21,4,3:0:0:0:
284,156,16629,1,0,3:0:0:0:
268,151,16767,1,0,3:0:0:0:
252,146,16904,1,0,3:0:0:0:
79,197,17042,1,10,3:0:0:0:
79,197,17180,1,0,3:0:0:0:
79,197,17317,1,0,3:0:0:0:
79,197,17455,1,0,3:0:0:0:
152,106,17593,5,4,3:0:0:0:
155,122,17730,1,0,3:0:0:0:
158,138,17868,1,0,3:0:0:0:
161,155,18005,1,0,3:0:0:0:
238,237,18143,2,0,L|297:249,1,50,10|2,3:0|3:2,0:0:0:0:
293,257,18349,1,2,3:2:0:0:
300,267,18418,2,0,L|359:279,1,50,2|2,3:2|3:2,2:0:0:0:
434,251,18694,5,4,3:0:0:0:
450,247,18831,1,0,3:0:0:0:
466,244,18969,1,0,3:0:0:0:
482,241,19106,1,0,3:0:0:0:
440,90,19244,1,10,3:0:0:0:
440,90,19382,1,0,3:0:0:0:
440,90,19519,1,0,3:0:0:0:
440,90,19657,1,0,3:0:0:0:
368,168,19794,5,4,3:0:0:0:
351,171,19931,1,0,3:0:0:0:
335,174,20069,1,0,3:0:0:0:
319,177,20206,1,0,3:0:0:0:
187,290,20345,1,10,3:0:0:0:
187,290,20482,1,0,3:0:0:0:
187,290,20620,1,0,3:0:0:0:
187,290,20758,1,0,3:0:0:0:
220,193,20895,21,4,3:0:0:0:
214,177,21032,1,0,3:0:0:0:
209,161,21170,1,0,3:0:0:0:
204,145,21307,1,0,3:0:0:0:
84,24,21446,1,10,3:0:0:0:
84,24,21583,1,0,3:0:0:0:
84,24,21721,1,0,3:0:0:0:
84,24,21859,1,0,3:0:0:0:
53,135,21996,5,4,3:0:0:0:
68,130,22133,1,0,3:0:0:0:
84,125,22271,1,0,3:0:0:0:
100,120,22408,1,0,3:0:0:0:
192,55,22547,1,10,3:0:0:0:
279,72,22684,1,8,3:0:0:0:
279,72,22753,1,0,3:0:0:0:
279,72,22822,2,0,L|339:84,1,50,12|4,3:0|3:0,2:0:0:0:
428,207,23097,5,4,3:1:0:0:
432,222,23234,1,0,3:0:0:0:
437,238,23372,1,0,3:0:0:0:
442,254,23509,1,0,3:0:0:0:
472,76,23648,1,10,3:0:0:0:
472,76,23785,1,0,3:0:0:0:
472,76,23923,1,0,3:0:0:0:
472,76,24060,1,0,3:0:0:0:
340,118,24198,5,4,3:0:0:0:
356,121,24335,1,0,3:0:0:0:
372,125,24473,1,0,3:0:0:0:
389,129,24610,1,0,3:0:0:0:
208,167,24749,1,10,3:0:0:0:
208,167,24886,1,0,3:0:0:0:
208,167,25024,1,0,3:0:0:0:
208,167,25161,1,0,3:0:0:0:
313,252,25299,21,4,3:0:0:0:
309,236,25436,1,0,3:0:0:0:
305,220,25574,1,0,3:0:0:0:
301,204,25711,1,0,3:0:0:0:
336,370,25849,1,10,3:0:0:0:
336,370,25987,1,0,3:0:0:0:
336,370,26125,1,0,3:0:0:0:
336,370,26262,1,0,3:0:0:0:
382,296,26400,5,4,3:0:0:0:
398,292,26537,1,0,3:0:0:0:
414,288,26675,1,0,3:0:0:0:
431,284,26812,1,0,3:0:0:0:
261,327,26950,2,0,L|202:339,1,50,10|2,3:0|3:2,0:0:0:0:
205,347,27157,1,2,3:2:0:0:
199,357,27226,2,0,L|140:369,1,50,2|2,3:2|3:2,2:0:0:0:
52,254,27501,5,4,3:0:0:0:
55,271,27638,1,0,3:0:0:0:
58,287,27776,1,0,3:0:0:0:
62,304,27913,1,0,3:0:0:0:
89,128,28051,1,10,3:0:0:0:
89,128,28189,1,0,3:0:0:0:
89,128,28327,1,0,3:0:0:0:
89,128,28464,1,0,3:0:0:0:
183,223,28602,5,4,3:0:0:0:
167,219,28739,1,0,3:0:0:0:
151,216,28877,1,0,3:0:0:0:
135,213,29014,1,0,3:0:0:0:
362,148,29152,1,10,3:0:0:0:
362,148,29290,1,0,3:0:0:0:
362,148,29427,1,0,3:0:0:0:
362,148,29565,1,0,3:0:0:0:
243,76,29703,22,0,L|258:130,1,50,4|0,3:0|3:0,0:0:0:0:
361,246,29978,2,0,L|272:224,1,69.9999999999999,0|0,1:0|3:0,2:0:0:0:
292,223,30184,1,0,2:0:0:0:
291,216,30253,1,2,1:2:0:0:
232,324,30391,1,0,1:0:0:0:
176,164,30528,2,0,L|195:237,1,69.9999999999999,8|0,3:2|3:0,2:0:0:0:
77,181,30804,5,4,3:0:0:0:
77,181,30872,1,4,3:0:0:0:
77,181,30941,2,0,L|85:126,1,55,4|4,3:0|3:0,0:0:0:0:
270,75,31079,2,0,L|261:129,2,55,4|4|4,3:0|3:0|3:0,0:0:0:0:
280,147,31285,2,0,L|360:187,1,89.9999999999999,4|4,3:0|1:0,0:0:0:0:
511,334,31905,6,0,B|483:330|483:330|430:265|430:265|305:284|305:284|300:301|300:301|215:315|215:315|206:310|206:310|114:323,1,420,6|4,3:2|3:0,0:0:0:0:
350,240,32386,22,0,L|502:216,1,145,0|10,3:0|1:0,0:0:0:0:
493,217,32868,5,8,3:0:0:0:
493,217,32937,1,8,3:0:0:0:
493,217,33005,2,0,B|508:143|508:143|483:130,1,95,6|0,3:2|0:0,0:0:0:0:
399,90,33143,2,0,B|344:103|344:103|341:111|341:111|357:184|357:184|373:195|373:195|405:336,1,280,6|4,3:2|3:0,0:0:0:0:
387,170,33487,54,0,L|347:-1,1,145,0|10,3:0|1:0,0:0:0:0:
353,28,33969,21,8,3:0:0:0:
353,28,34038,1,8,3:0:0:0:
353,28,34106,2,0,B|330:56|330:56|295:66|295:66|256:54|256:54|202:71|202:71|176:93|176:93|159:79|159:79|113:94|113:94|21:90|21:90|98:67,1,420,6|4,3:2|3:0,0:0:0:0:
245,103,34588,38,0,L|410:59,1,145,0|10,3:0|1:0,0:0:0:0:
385,65,35070,37,8,3:0:0:0:
385,65,35138,1,8,3:0:0:0:
385,65,35207,2,0,B|368:148|368:148|296:168,1,140,6|0,3:2|0:0,0:0:0:0:
235,110,35414,2,0,B|203:73|203:73|213:64|213:64|310:83,1,140,6|0,3:2|0:0,0:0:0:0:
212,215,35620,1,4,3:0:0:0:
14,188,35758,5,6,1:2:0:0:
30,183,35827,1,0,0:0:0:0:
47,178,35895,1,0,0:0:0:0:
64,174,35964,1,0,0:0:0:0:
81,169,36033,2,0,L|165:145,3,70,2|2|10|10,2:3|2:3|3:0|3:0,0:0:0:0:
235,110,36308,22,0,B|307:127|307:127|336:181|336:181|307:222|307:222|290:327|290:327|327:383|327:383|342:287,1,420,6|4,3:2|3:0,0:0:0:0:
290,207,36790,54,0,L|318:41,1,145,0|10,3:0|1:0,0:0:0:0:
314,64,37271,21,8,3:0:0:0:
314,64,37340,1,8,3:0:0:0:
314,64,37409,2,0,B|332:89|332:89|399:71,1,95,6|0,3:2|0:0,0:0:0:0:
303,185,37547,2,0,B|272:206|272:206|209:192|209:192|164:204|164:204|106:191|106:191|103:185|103:185|92:188|92:188|13:170,1,280,6|4,3:2|3:0,0:0:0:0:
219,221,37891,38,0,L|393:260,1,145,0|10,3:0|1:0,0:0:0:0:
360,252,38372,37,8,3:0:0:0:
360,252,38441,1,8,3:0:0:0:
360,252,38510,2,0,B|363:271|363:271|406:283|406:283|445:253|445:253|433:179|433:179|427:172|427:172|419:124|419:124|411:117|411:117|424:116|424:116|416:110|416:110|409:64|409:64|370:17|370:17|378:72,1,420,6|4,3:2|3:0,0:0:0:0:
397,181,38992,22,0,L|422:342,1,145,0|10,3:0|1:0,0:0:0:0:
419,324,39473,53,8,3:0:0:0:
419,324,39542,1,8,3:0:0:0:
419,324,39611,2,0,B|363:305|363:305|349:288|349:288|291:270,1,140,6|0,3:2|0:0,0:0:0:0:
132,249,39817,2,0,B|116:278|116:278|190:258|190:258|205:227,1,140,6|0,3:2|0:0,0:0:0:0:
149,164,40024,1,4,3:0:0:0:
160,353,40161,22,0,L|246:372,3,70,6|0|0|0,1:2|0:0|0:0|0:0,0:0:0:0:
287,318,40437,1,10,3:0:0:0:
308,312,40505,1,10,3:0:0:0:
329,306,40574,1,6,3:0:0:0:
350,300,40643,1,6,3:0:0:0:
350,300,40987,54,0,L|338:247,1,55
416,222,41125,2,0,L|193:146,1,220,4|10,3:0|1:0,0:0:0:0:
297,93,41400,1,6,3:2:0:0:
297,93,41675,21,8,3:0:0:0:
297,93,41744,1,8,3:0:0:0:
297,93,41813,2,0,B|320:164|320:164|297:188,1,95,6|0,3:2|0:0,0:0:0:0:
210,290,41950,2,0,B|172:281|172:281|162:263|162:263|187:139|187:139|197:127|197:127|194:112|194:112|205:42,1,280,6|4,3:2|3:0,0:0:0:0:
208,196,42294,38,0,L|168:373,1,145,0|10,3:0|1:0,0:0:0:0:
176,337,42776,37,8,3:0:0:0:
176,337,42845,1,8,3:0:0:0:
176,337,42914,2,0,B|184:307|184:307|206:297|206:297|292:312|292:312|306:324|306:324|458:352|458:352|480:338|480:338|404:323,1,420,6|4,3:2|3:0,0:0:0:0:
260,283,43395,22,0,L|107:255,1,145,0|10,3:0|1:0,0:0:0:0:
117,256,43877,53,8,3:0:0:0:
117,256,43946,1,8,3:0:0:0:
117,256,44015,2,0,B|212:239|212:239|235:196,1,140,6|0,3:2|0:0,0:0:0:0:
169,121,44221,2,0,B|161:72|161:72|144:88|144:88|156:168,1,140,6|0,3:2|0:0,0:0:0:0:
264,121,44427,1,4,3:0:0:0:
253,213,44565,21,6,1:2:0:0:
269,208,44634,1,0,0:0:0:0:
286,203,44703,1,0,0:0:0:0:
303,199,44771,1,0,0:0:0:0:
320,194,44840,2,0,L|404:170,3,70,2|2|10|10,2:3|2:3|3:0|3:0,0:0:0:0:
359,283,45116,6,0,B|332:308|332:308|234:289|234:289|181:185|181:185|94:206|94:206|73:241|73:241|118:252,1,420,6|4,3:2|3:0,0:0:0:0:
256,325,45597,38,0,L|403:353,1,145,0|10,3:0|1:0,0:0:0:0:
398,352,46079,37,8,3:0:0:0:
398,352,46148,1,8,3:0:0:0:
398,352,46216,2,0,B|374:283|374:283|386:263,1,95,6|0,3:2|0:0,0:0:0:0:
287,249,46354,2,0,B|331:190|331:190|309:93|309:93|298:84|298:84|285:28|285:28|291:15|291:15|299:46,1,280,6|4,3:2|3:0,0:0:0:0:
246,171,46698,22,0,L|276:325,1,145,0|10,3:0|1:0,0:0:0:0:
410,180,47180,53,8,3:0:0:0:
410,180,47249,1,8,3:0:0:0:
410,180,47317,2,0,B|389:224|389:224|320:243|320:243|302:239|302:239|258:249|258:249|261:253|261:253|257:249|257:249|216:259|216:259|191:249|191:249|97:273|97:273|126:283|126:283|157:275,1,420,6|4,3:2|3:0,0:0:0:0:
307,286,47799,6,0,L|449:247,1,145,0|10,3:0|1:0,0:0:0:0:
447,248,48281,6,0,L|434:186,1,45.0000000000001,8|8,3:0|3:0,0:0:0:0:
408,116,48418,2,0,L|416:61,3,55,8|8|4|4,3:0|3:0|3:0|3:0,0:0:0:0:
341,183,48694,2,0,L|306:101,2,55,8|8|4,3:0|3:0|3:0,0:0:0:0:
330,207,48900,2,0,L|279:313,1,89.9999999999999,4|4,3:0|3:0,0:0:0:0:
350,365,49244,6,0,L|390:284,1,90.0000000000001,8|8,2:0|2:0,0:0:0:0:
246,73,49519,6,0,B|142:16|142:16|59:38|59:38|45:105|45:105|121:158|121:158|196:142|196:142|238:163|238:163|364:134|364:134|453:225|453:225|440:287|440:287|313:322|313:322|227:247|227:247|186:257|186:257|151:236|151:236|68:254|68:254|56:301|56:301|130:362|130:362|208:343,1,1440,4|4,3:1|3:1,0:0:0:0:
202,84,60528,6,0,L|240:72,1,40
282,192,61079,22,0,L|320:146,1,60.0000000000001
408,239,61629,6,0,L|418:159,2,80,0|0|4,0:0|0:0|3:0,0:0:0:0:
223,372,62317,5,8,3:0:0:0:
297,319,62455,1,12,3:0:0:0:
373,332,62593,1,4,3:0:0:0:
297,212,62730,6,0,P|347:241|430:227,7,120,4|0|0|0|0|0|0|0,3:1|0:0|0:0|0:0|0:0|0:0|0:0|0:0,0:0:0:0:
204,182,64932,22,0,P|203:239|257:304,7,120,2|0|0|0|0|0|0|0,2:0|0:0|0:0|0:0|0:0|0:0|0:0|0:0,0:0:0:0:
183,86,67134,6,0,P|132:114|103:193,1,120,2|0,2:0|0:0,0:0:0:0:
201,76,67684,2,0,P|144:85|89:150,1,120
233,66,68235,2,0,P|176:55|102:97,1,120
280,64,68785,2,0,P|229:35|147:48,1,120
353,118,69336,6,0,P|371:81|369:51,1,59.9999999999999,2|0,2:0|0:0,0:0:0:0:
274,150,69611,2,0,P|256:187|258:217,1,59.9999999999999
387,132,69886,6,0,P|418:104|427:76,1,59.9999999999999
238,153,70161,2,0,P|206:180|197:208,1,59.9999999999999
387,222,70437,22,0,P|427:214|450:195,1,59.9999999999999
240,73,70712,2,0,P|199:80|176:99,1,59.9999999999999
318,151,70987,6,0,L|320:139,30,7.49999999999998,2|0|0|0|0|0|0|0|0|0|0|0|0|0|0|0|0|0|0|0|0|0|0|0|0|0|0|0|0|0|0,2:0|0:0|0:0|0:0|0:0|0:0|0:0|0:0|0:0|0:0|0:0|0:0|0:0|0:0|0:0|0:0|0:0|0:0|0:0|0:0|0:0|0:0|0:0|0:0|0:0|0:0|0:0|0:0|0:0|0:0|0:0,0:0:0:0:
312,157,71538,6,0,P|260:276|123:235,1,280,6|4,3:1|3:0,0:0:0:0:
134,250,71950,2,0,P|128:313|88:364,1,130,2|4,2:0|3:0,0:0:0:0:
134,250,72226,2,0,P|186:264|237:244,1,110,2|4,2:0|3:0,0:0:0:0:
134,250,72501,2,0,P|103:282|62:299,1,90.0000000000001,2|4,2:0|3:0,0:0:0:0:
134,250,72776,2,0,P|146:282|168:310,1,69.9999999999999,2|4,2:0|3:0,0:0:0:0:
134,250,73051,2,0,P|109:247|92:231,1,50,2|4,2:0|3:0,0:0:0:0:
134,250,73327,6,0,P|96:308|106:376,2,140,4|8|8,3:0|2:0|2:0,0:0:0:0:
134,250,73739,22,0,P|268:268|368:176,1,280,6|4,3:1|3:0,0:0:0:0:
248,171,74152,2,0,P|308:195|369:176,1,130,2|4,2:0|3:0,0:0:0:0:
464,219,74427,2,0,P|410:211|368:177,1,110,2|4,2:0|3:0,0:0:0:0:
320,249,74703,2,0,P|353:220|368:178,1,90.0000000000001,2|4,2:0|3:0,0:0:0:0:
429,155,74978,2,0,P|402:177|368:177,1,69.9999999999999,2|4,2:0|3:0,0:0:0:0:
387,222,75253,2,0,P|382:198|369:177,1,50,2|4,2:0|3:0,0:0:0:0:
262,105,75528,6,0,P|302:160|369:177,2,140,4|8|8,3:0|2:0|2:0,0:0:0:0:
58,324,75941,6,0,P|177:254|315:258,1,280,6|4,3:1|3:0,0:0:0:0:
474,185,76354,2,0,P|420:220|396:280,1,130,2|4,2:0|3:0,0:0:0:0:
222,384,76629,2,0,P|284:349|339:347,1,110,2|4,2:0|3:0,0:0:0:0:
497,384,76905,2,0,P|441:380|402:354,1,90.0000000000001,2|4,2:0|3:0,0:0:0:0:
259,316,77180,2,0,P|306:331|324:348,1,69.9999999999999,2|4,2:0|3:0,0:0:0:0:
436,252,77455,2,0,P|416:272|392:281,1,50,2|4,2:0|3:0,0:0:0:0:
193,196,77730,6,0,P|262:202|318:244,2,140,4|8|8,3:0|2:0|2:0,0:0:0:0:
385,373,78143,22,0,P|329:221|333:68,1,280,6|4,3:1|3:0,0:0:0:0:
182,0,78556,2,0,P|223:49|236:112,1,130,2|4,2:0|3:0,0:0:0:0:
454,61,78831,2,0,P|423:114|415:171,1,110,2|4,2:0|3:0,0:0:0:0:
301,161,79106,2,0,P|283:218|261:243,1,90.0000000000001,2|4,2:0|3:0,0:0:0:0:
370,226,79382,2,0,P|393:262|427:280,1,69.9999999999999,2|4,2:0|3:0,0:0:0:0:
317,305,79657,2,0,P|292:321|264:327,1,50,2|4,2:0|3:0,0:0:0:0:
388,352,79932,6,0,P|463:378|523:363,2,140,4|8|8,3:0|2:0|2:0,0:0:0:0:
459,138,80345,6,0,P|330:87|194:112,1,280,6|4,3:1|3:0,0:0:0:0:
194,111,80758,2,0,P|189:48|147:0,1,130,2|4,2:0|3:0,0:0:0:0:
194,111,81033,2,0,P|248:111|296:138,1,110,2|4,2:0|3:0,0:0:0:0:
194,111,81308,2,0,P|158:85|114:85,1,90.0000000000001,2|4,2:0|3:0,0:0:0:0:
194,111,81583,2,0,P|215:85|249:75,1,69.9999999999999,2|4,2:0|3:0,0:0:0:0:
194,111,81859,2,0,P|178:129|157:143,1,50,2|4,2:0|3:0,0:0:0:0:
194,111,82134,6,0,P|232:167|211:232,2,140,4|8|8,3:0|2:0|2:0,0:0:0:0:
195,112,82547,22,0,P|324:107|442:216,1,280,6|4,3:1|3:0,0:0:0:0:
312,199,82960,2,0,P|373:180|435:200,1,130,2|4,2:0|3:0,0:0:0:0:
504,125,83235,2,0,P|456:151|434:200,1,110,2|4,2:0|3:0,0:0:0:0:
395,276,83510,2,0,P|404:232|434:199,1,90.0000000000001,2|4,2:0|3:0,0:0:0:0:
408,138,83785,2,0,P|412:172|434:200,1,69.9999999999999,2|4,2:0|3:0,0:0:0:0:
469,229,84060,2,0,P|446:219|433:199,1,50,2|4,2:0|3:0,0:0:0:0:
307,168,84336,6,0,P|376:162|434:200,2,140,4|8|8,3:0|2:0|2:0,0:0:0:0:
317,312,84749,6,0,P|272:185|142:152,1,280,6|4,3:1|3:0,0:0:0:0:
26,329,85161,2,0,P|50:259|111:235,1,130,2|4,2:0|3:0,0:0:0:0:
128,49,85437,2,0,P|118:102|141:151,1,110,2|4,2:0|3:0,0:0:0:0:
231,314,85712,2,0,P|200:283|187:233,1,90.0000000000001,2|4,2:0|3:0,0:0:0:0:
38,200,85987,2,0,P|63:223|96:235,1,69.9999999999999,2|4,2:0|3:0,0:0:0:0:
227,212,86262,2,0,P|203:221|187:239,1,50,2|4,2:0|3:0,0:0:0:0:
31,382,86538,6,0,P|81:335|149:330,2,140,4|8|8,3:0|2:0|2:0,0:0:0:0:
252,358,86950,22,0,L|239:315,2,45.0000000000001,4|0|0,3:1|0:0|0:0,0:0:0:0:
310,214,87157,1,0,0:0:0:0:
320,211,87226,2,0,L|377:193,3,50
218,221,87501,6,0,L|152:204,2,55
326,301,87707,1,0,0:0:0:0:
332,304,87776,2,0,L|400:321,3,60,0|0|0|0,3:0|3:0|3:0|3:0,0:0:0:0:
234,309,88051,5,0,3:0:0:0:
225,314,88120,1,0,3:0:0:0:
215,319,88189,2,0,L|152:352,1,60,0|0,3:0|3:0,0:0:0:0:
308,210,88327,5,0,3:0:0:0:
310,200,88395,1,0,3:0:0:0:
313,189,88464,2,0,L|330:120,2,60,0|0|4,3:0|3:0|3:0,0:0:0:0:
395,229,88877,22,0,L|420:129,1,80,8|8,2:0|2:0,0:0:0:0:
419,348,89152,6,0,B|360:308|360:308|192:347,1,210,6|0,1:2|0:0,0:0:0:0:
419,348,89427,2,0,B|372:360|372:360|286:307|286:307|215:323,1,210,6|0,1:2|0:0,0:0:0:0:
132,338,89703,6,0,L|148:248,2,70
82,212,89909,1,0,0:0:0:0:
80,202,89978,2,0,L|65:117,1,70,0|0,3:0|3:0,0:0:0:0:
227,320,90116,2,0,L|243:230,2,70,0|0|0,3:0|3:0|3:0,0:0:0:0:
177,194,90322,1,0,3:0:0:0:
175,184,90391,6,0,L|150:46,1,140,0|6,3:0|1:2,0:0:0:0:
406,245,90804,2,0,L|430:107,1,140,2|6,2:0|1:2,0:0:0:0:
102,348,91216,2,0,L|77:210,1,140,2|6,2:0|1:2,0:0:0:0:
333,39,91629,1,6,1:2:0:0:
333,39,91905,22,0,L|317:129,2,70
220,75,92111,1,0,0:0:0:0:
222,85,92180,2,0,L|237:170,1,70,0|0,3:0|3:0,0:0:0:0:
313,196,92317,2,0,L|297:286,2,70,0|0|0,3:0|3:0|3:0,0:0:0:0:
200,232,92524,1,0,3:0:0:0:
202,242,92593,6,0,L|226:379,1,140,0|6,3:0|1:2,0:0:0:0:
444,135,93005,2,0,L|419:272,1,140,2|6,2:0|1:2,0:0:0:0:
75,48,93418,2,0,L|99:185,1,140,2|6,2:0|1:2,0:0:0:0:
399,369,93831,1,6,1:2:0:0:
399,369,94106,6,0,L|309:353,2,70
216,288,94313,1,0,0:0:0:0:
226,286,94382,2,0,L|311:271,1,70,0|0,3:0|3:0,0:0:0:0:
457,273,94519,2,0,L|367:257,2,70,0|0|0,3:0|3:0|3:0,0:0:0:0:
274,192,94726,1,0,3:0:0:0:
284,190,94794,6,0,L|421:165,1,140,0|6,3:0|1:2,0:0:0:0:
126,360,95207,2,0,L|263:384,1,140,2|6,2:0|1:2,0:0:0:0:
286,73,95620,2,0,L|423:48,1,140,2|6,2:0|1:2,0:0:0:0:
71,255,96033,1,6,1:2:0:0:
71,255,96308,22,0,L|161:271,2,70
197,205,96515,1,0,0:0:0:0:
207,203,96583,2,0,L|292:188,1,70,0|0,3:0|3:0,0:0:0:0:
89,350,96721,2,0,L|179:366,2,70,0|0|0,3:0|3:0|3:0,0:0:0:0:
215,300,96927,1,0,3:0:0:0:
224,298,96996,6,0,L|303:284,1,80,0|4,3:0|3:0,0:0:0:0:
424,34,97684,2,0,L|502:20,1,80,8|8,2:0|2:0,0:0:0:0:
512,155,97960,6,0,L|289:115,1,200,6|2,1:2|1:2,0:0:0:0:
202,49,98372,5,0,0:0:0:0:
204,61,98441,1,0,0:0:0:0:
206,72,98510,2,0,L|224:175,1,100,6|2,1:2|2:0,0:0:0:0:
330,315,98785,2,0,L|312:216,2,100,0|0|6,1:0|0:0|1:2,0:0:0:0:
86,52,99336,1,0,1:0:0:0:
133,165,99473,21,2,2:0:0:0:
121,163,99542,1,0,0:0:0:0:
110,161,99611,2,0,L|7:143,1,100,4|0,1:2|0:0,0:0:0:0:
98,291,99886,2,0,L|196:273,2,100,2|0|4,1:2|0:0|1:2,0:0:0:0:
463,103,100437,1,2,1:2:0:0:
352,53,100574,5,0,0:0:0:0:
354,65,100643,1,0,0:0:0:0:
356,76,100712,2,0,L|374:179,1,100,6|2,1:2|2:0,0:0:0:0:
459,301,100987,2,0,L|477:198,2,100,0|0|6,1:0|0:0|1:2,0:0:0:0:
201,49,101538,1,0,1:0:0:0:
154,162,101675,5,2,2:0:0:0:
166,160,101744,1,0,0:0:0:0:
177,158,101813,2,0,L|280:140,1,100,4|0,1:2|0:0,0:0:0:0:
376,242,102088,2,0,L|277:259,2,100,2|0|6,1:2|0:0|1:2,0:0:0:0:
55,336,102501,5,0,1:0:0:0:
210,368,102638,1,6,1:2:0:0:
76,148,102776,21,0,1:0:0:0:
154,263,102914,1,6,1:2:0:0:
230,52,103051,5,0,1:0:0:0:
210,170,103189,1,6,1:2:0:0:
398,67,103327,5,0,1:0:0:0:
313,120,103464,1,6,1:2:0:0:
502,147,103602,38,0,L|482:144,1,20,0|6,1:0|1:2,0:0:0:0:
371,185,103877,2,0,L|394:172,1,20,0|6,1:0|1:2,0:0:0:0:
500,163,104152,2,0,L|480:160,2,20,0|6|0,1:0|1:2|1:0,0:0:0:0:
398,67,104565,5,6,1:2:0:0:
381,78,104634,1,8,3:0:0:0:
365,89,104703,2,0,L|294:133,1,60,8|8,3:0|3:0,0:0:0:0:
230,52,104840,5,12,3:0:0:0:
225,81,104909,1,12,3:0:0:0:
220,111,104978,2,0,L|208:186,1,60,12|12,3:0|3:0,0:0:0:0:
76,148,105116,5,4,3:0:0:0:
98,181,105184,1,4,3:0:0:0:
120,214,105253,2,0,L|168:282,1,60,4|4,3:0|3:0,0:0:0:0:
55,336,105391,21,4,3:0:0:0:
103,346,105460,1,4,3:0:0:0:
152,357,105528,2,0,L|231:372,1,60,4|4,3:0|3:0,0:0:0:0:
245,353,105666,6,0,L|236:321,80,26.25,4|0|0|0|0|0|0|0|0|0|0|0|0|0|0|0|0|0|0|0|0|0|0|0|0|0|0|0|0|0|0|0|0|0|0|0|0|0|0|0|0|0|0|0|0|0|0|0|0|0|0|0|0|0|0|0|0|0|0|0|0|0|0|0|0|0|0|0|0|0|0|0|0|0|0|0|0|0|0|0|2,3:1|0:0|0:0|0:0|0:0|0:0|0:0|0:0|0:0|0:0|0:0|0:0|0:0|0:0|0:0|0:0|0:0|0:0|0:0|0:0|0:0|0:0|0:0|0:0|0:0|0:0|0:0|0:0|0:0|0:0|0:0|0:0|0:0|0:0|0:0|0:0|0:0|0:0|0:0|0:0|0:0|0:0|0:0|0:0|0:0|0:0|0:0|0:0|0:0|0:0|0:0|0:0|0:0|0:0|0:0|0:0|0:0|0:0|0:0|0:0|0:0|0:0|0:0|0:0|0:0|0:0|0:0|0:0|0:0|0:0|0:0|0:0|0:0|0:0|0:0|0:0|0:0|0:0|0:0|0:0|2:0,0:0:0:0:
403,308,107455,6,0,B|398:282|414:289|409:248,120,50,0|0|2|0|0|0|0|0|0|0|0|0|0|0|0|0|0|0|0|0|0|0|0|0|0|0|0|0|0|0|0|0|0|0|0|0|0|0|0|0|0|0|0|0|0|0|0|0|0|0|0|0|0|0|0|0|0|0|0|0|0|0|0|0|0|0|0|0|0|0|0|0|0|0|0|0|0|0|0|0|0|0|0|0|0|0|0|0|0|0|0|0|0|0|0|0|0|0|0|0|0|0|0|0|0|0|0|0|0|0|0|0|0|0|0|0|0|0|0|0|0,0:0|0:0|2:0|0:0|0:0|0:0|0:0|0:0|0:0|0:0|0:0|0:0|0:0|0:0|0:0|0:0|0:0|0:0|0:0|0:0|0:0|0:0|0:0|0:0|0:0|0:0|0:0|0:0|0:0|0:0|0:0|0:0|0:0|0:0|0:0|0:0|0:0|0:0|0:0|0:0|0:0|0:0|0:0|0:0|0:0|0:0|0:0|0:0|0:0|0:0|0:0|0:0|0:0|0:0|0:0|0:0|0:0|0:0|0:0|0:0|0:0|0:0|0:0|0:0|0:0|0:0|0:0|0:0|0:0|0:0|0:0|0:0|0:0|0:0|0:0|0:0|0:0|0:0|0:0|0:0|0:0|0:0|0:0|0:0|0:0|0:0|0:0|0:0|0:0|0:0|0:0|0:0|0:0|0:0|0:0|0:0|0:0|0:0|0:0|0:0|0:0|0:0|0:0|0:0|0:0|0:0|0:0|0:0|0:0|0:0|0:0|0:0|0:0|0:0|0:0|0:0|0:0|0:0|0:0|0:0|0:0,0:0:0:0:
320,326,109657,5,0,1:0:0:0:
313,289,109726,1,0,1:0:0:0:
307,252,109794,1,0,1:0:0:0:
300,215,109863,1,0,1:0:0:0:
294,178,109932,1,0,1:0:0:0:
288,142,110001,1,0,1:0:0:0:
282,105,110070,22,0,L|207:92,2,65,6|0|0,3:0|0:0|0:0,0:0:0:0:
211,185,110276,1,0,0:0:0:0:
196,182,110345,2,0,L|121:169,2,65,2|0|0,2:3|0:0|0:0,0:0:0:0:
125,262,110551,1,0,0:0:0:0:
110,259,110620,2,0,L|35:246,3,65,2|0|0|0,2:3|0:0|0:0|0:0,0:0:0:0:
141,378,110895,6,0,B|244:299|244:299|366:344,1,260,4|4,3:0|3:1,0:0:0:0:
48,117,111446,6,0,L|60:40,1,64.9999970245363,4|0,1:0|0:0,0:0:0:0:
162,37,111583,2,0,L|135:190,1,129.999994049073,4|4,3:0|3:0,0:0:0:0:
355,169,111859,6,0,L|368:92,1,64.9999970245363,4|0,1:0|0:0,0:0:0:0:
273,56,111996,2,0,L|246:209,1,129.999994049073,4|4,3:0|3:0,0:0:0:0:
114,368,112272,22,0,L|104:304,1,64.9999970245363,4|0,1:0|0:0,0:0:0:0:
195,255,112409,2,0,L|218:384,1,129.999994049073,4|4,3:0|3:0,0:0:0:0:
422,316,112685,6,0,L|411:252,1,64.9999970245363,4|0,1:0|0:0,0:0:0:0:
307,237,112822,2,0,L|329:365,1,129.999994049073,4|4,3:0|3:0,0:0:0:0:
253,134,113097,5,8,2:1:0:0:
253,134,113166,1,2,2:0:0:0:
253,134,113235,2,0,B|355:104|355:104|430:173,1,210,2|4,2:0|3:1,0:0:0:0:
0,306,113648,6,0,L|64:324,1,64.9999970245363,4|0,1:0|0:0,0:0:0:0:
171,239,113785,2,0,L|301:275,1,129.999994049073,4|4,3:0|3:0,0:0:0:0:
16,182,114060,22,0,L|80:200,1,64.9999970245363,4|0,1:0|0:0,0:0:0:0:
153,349,114198,2,0,L|282:385,1,129.999994049073,4|4,3:0|3:0,0:0:0:0:
171,239,114473,6,0,L|235:257,1,64.9999970245363,4|0,1:0|0:0,0:0:0:0:
339,181,114611,2,0,L|468:217,1,129.999994049073,4|4,3:0|3:0,0:0:0:0:
192,137,114886,6,0,L|256:155,1,64.9999970245363,4|0,1:0|0:0,0:0:0:0:
318,284,115024,2,0,L|447:320,1,129.999994049073,4|4,3:0|3:0,0:0:0:0:
465,38,115299,5,8,2:1:0:0:
465,38,115368,1,2,2:0:0:0:
465,38,115437,2,0,B|363:8|363:8|288:77,1,210,2|4,2:0|3:1,0:0:0:0:
426,257,115712,22,0,L|382:89,1,140,0|6,0:0|2:0,0:0:0:0:
170,336,116125,5,4,3:0:0:0:
191,260,116194,2,0,L|223:137,1,105,4|6,3:0|2:0,0:0:0:0:
357,384,116538,5,4,3:0:0:0:
336,308,116606,2,0,L|304:185,1,105,4|6,3:0|2:0,0:0:0:0:
88,246,116950,5,4,3:0:0:0:
109,170,117019,2,0,L|141:47,1,105,4|6,3:0|2:0,0:0:0:0:
397,22,117363,21,4,3:0:0:0:
396,32,117432,1,4,3:0:0:0:
395,42,117501,2,0,B|405:172|405:172|350:50,1,260,8|4,2:1|3:1,0:0:0:0:
102,17,118051,5,6,2:0:0:0:
99,111,118189,1,0,0:0:0:0:
111,108,118258,1,0,0:0:0:0:
123,106,118327,2,0,L|195:89,1,69.9999999999999,0|2,0:0|2:0,0:0:0:0:
99,197,118602,1,0,0:0:0:0:
111,194,118671,1,0,0:0:0:0:
123,192,118739,2,0,L|195:175,1,69.9999999999999,0|2,0:0|2:0,0:0:0:0:
99,283,119015,1,0,0:0:0:0:
111,280,119083,1,0,0:0:0:0:
123,278,119152,2,0,L|195:261,1,69.9999999999999,0|2,0:0|2:0,0:0:0:0:
99,369,119427,1,0,0:0:0:0:
111,366,119496,1,0,0:0:0:0:
123,364,119565,1,0,0:0:0:0:
451,327,119703,6,0,B|329:282|329:282|226:361,1,260,0|4,1:0|3:1,0:0:0:0:
381,52,120253,6,0,L|366:131,1,64.9999970245363,4|0,1:0|0:0,0:0:0:0:
227,211,120391,2,0,L|67:181,1,129.999994049073,4|4,3:0|3:0,0:0:0:0:
263,28,120666,22,0,L|248:107,1,64.9999970245363,4|0,1:0|0:0,0:0:0:0:
346,235,120804,2,0,L|504:264,1,129.999994049073,4|4,3:0|3:0,0:0:0:0:
214,274,121079,6,0,L|228:194,1,64.9999970245363,4|0,1:0|0:0,0:0:0:0:
369,116,121216,2,0,L|528:145,1,129.999994049073,4|4,3:0|3:0,0:0:0:0:
333,298,121492,6,0,L|347:218,1,64.9999970245363,4|0,1:0|0:0,0:0:0:0:
251,92,121629,2,0,L|91:60,1,129.999994049073,4|4,3:0|3:0,0:0:0:0:
38,297,121905,5,8,2:1:0:0:
38,297,121973,1,2,2:0:0:0:
38,297,122042,2,0,B|114:226|114:226|216:256,1,210,2|4,2:0|3:1,0:0:0:0:
196,81,122455,22,0,L|258:100,1,65,4|0,1:0|0:0,0:0:0:0:
376,37,122593,2,0,L|251:-1,1,130,4|4,3:0|3:0,0:0:0:0:
144,236,122868,6,0,L|162:173,1,65,4|0,1:0|0:0,0:0:0:0:
93,52,123005,2,0,L|54:176,1,130,4|4,3:0|3:0,0:0:0:0:
299,286,123281,6,0,L|237:266,1,65,4|0,1:0|0:0,0:0:0:0:
108,335,123418,2,0,L|232:373,1,130,4|4,3:0|3:0,0:0:0:0:
351,133,123694,6,0,L|331:195,1,65,4|0,1:0|0:0,0:0:0:0:
391,320,123831,2,0,L|429:195,1,130,4|4,3:0|3:0,0:0:0:0:
122,63,124106,21,8,2:1:0:0:
122,63,124175,1,2,2:0:0:0:
122,63,124244,2,0,B|224:93|224:93|299:24,1,210,2|4,2:0|3:1,0:0:0:0:
114,315,124519,6,0,L|158:147,1,140,0|6,0:0|2:0,0:0:0:0:
488,288,124932,5,4,3:0:0:0:
467,212,125001,2,0,L|435:89,1,105,4|6,3:0|2:0,0:0:0:0:
224,246,125345,5,4,3:0:0:0:
245,170,125414,2,0,L|277:47,1,105,4|6,3:0|2:0,0:0:0:0:
394,374,125758,21,4,3:0:0:0:
373,298,125827,2,0,L|341:175,1,105,4|6,3:0|2:0,0:0:0:0:
103,30,126171,5,4,3:0:0:0:
104,40,126239,1,4,3:0:0:0:
105,50,126308,2,0,B|95:180|95:180|150:58,1,260,8|4,2:1|3:1,0:0:0:0:
397,12,126859,5,6,2:0:0:0:
400,106,126996,1,0,0:0:0:0:
388,103,127065,1,0,0:0:0:0:
376,101,127134,2,0,L|304:84,1,69.9999999999999,0|2,0:0|2:0,0:0:0:0:
400,192,127409,1,0,0:0:0:0:
388,189,127478,1,0,0:0:0:0:
376,187,127547,2,0,L|304:170,1,69.9999999999999,0|2,0:0|2:0,0:0:0:0:
400,278,127822,1,0,0:0:0:0:
388,275,127891,1,0,0:0:0:0:
376,273,127960,2,0,L|304:256,1,69.9999999999999,0|2,0:0|2:0,0:0:0:0:
400,364,128235,1,0,0:0:0:0:
388,361,128304,1,0,0:0:0:0:
376,359,128372,1,0,0:0:0:0:
46,384,128510,6,0,B|149:305|149:305|271:350,1,260,8|4,2:1|1:0,0:0:0:0:
417,47,129060,5,10,3:0:0:0:
414,69,129128,1,10,3:0:0:0:
411,91,129197,1,10,3:0:0:0:
408,113,129266,1,10,3:0:0:0:
405,136,129336,1,10,3:0:0:0:
402,158,129404,1,10,3:0:0:0:
399,180,129473,1,10,3:0:0:0:
396,202,129542,1,10,3:0:0:0:
393,225,129611,1,10,3:0:0:0:
390,247,129680,1,10,3:0:0:0:
387,269,129749,6,0,L|374:369,2,89.9999972534181,10|10|2,3:0|3:0|2:0,0:0:0:0:
220,253,130024,1,4,3:0:0:0:
220,253,130093,1,0,0:0:0:0:
220,253,130161,2,0,L|207:353,2,89.9999972534181,4|0|2,3:0|0:0|2:0,0:0:0:0:
262,0,130574,1,4,3:0:0:0:
366,36,130712,5,8,2:1:0:0:
366,36,130781,1,0,0:0:0:0:
366,36,130849,2,0,B|289:106|289:106|187:76,1,210,0|4,0:0|1:0,0:0:0:0:
393,273,131262,37,10,3:0:0:0:
371,270,131330,1,10,3:0:0:0:
349,267,131399,1,10,3:0:0:0:
327,264,131468,1,10,3:0:0:0:
304,261,131538,1,10,3:0:0:0:
282,258,131606,1,10,3:0:0:0:
260,255,131675,1,10,3:0:0:0:
238,252,131744,1,10,3:0:0:0:
215,249,131813,1,10,3:0:0:0:
193,246,131882,1,10,3:0:0:0:
171,243,131951,38,0,L|71:230,2,89.9999972534181,10|10|2,3:0|3:0|2:0,0:0:0:0:
187,76,132226,1,4,3:0:0:0:
187,76,132295,1,0,0:0:0:0:
187,76,132363,2,0,L|87:63,2,89.9999972534181,4|0|2,3:0|0:0|2:0,0:0:0:0:
512,125,132776,1,4,3:0:0:0:
421,102,132914,5,8,2:1:0:0:
421,102,132982,1,0,0:0:0:0:
421,102,133051,2,0,B|319:72|319:72|244:141,1,210,0|4,0:0|1:0,0:0:0:0:
385,324,133327,22,0,L|341:156,1,140,0|6,0:0|2:0,0:0:0:0:
0,304,133739,5,4,3:0:0:0:
21,228,133808,2,0,L|53:105,1,105,4|6,3:0|2:0,0:0:0:0:
263,218,134152,5,4,3:0:0:0:
242,142,134221,2,0,L|210:19,1,105,4|6,3:0|2:0,0:0:0:0:
105,373,134565,5,4,3:0:0:0:
126,297,134634,2,0,L|158:174,1,105,4|6,3:0|2:0,0:0:0:0:
398,34,134978,21,4,3:0:0:0:
397,44,135047,1,4,3:0:0:0:
396,54,135116,2,0,B|406:184|406:184|351:62,1,260,8|4,2:1|3:1,0:0:0:0:
151,19,135666,5,6,2:0:0:0:
148,113,135804,1,0,0:0:0:0:
160,110,135872,1,0,0:0:0:0:
172,108,135941,2,0,L|225:95,1,55.0000016784668,0|2,0:0|2:0,0:0:0:0:
148,199,136216,1,0,0:0:0:0:
160,196,136285,1,0,0:0:0:0:
172,194,136354,2,0,L|244:177,1,55.0000016784668,0|2,0:0|2:0,0:0:0:0:
148,285,136629,1,0,0:0:0:0:
160,282,136698,1,0,0:0:0:0:
172,280,136767,2,0,L|244:263,1,55.0000016784668,0|2,0:0|2:0,0:0:0:0:
148,371,137042,1,0,0:0:0:0:
160,368,137111,1,0,0:0:0:0:
172,366,137180,1,0,0:0:0:0:
445,341,137317,6,0,B|479:249|479:249|420:171,1,195,0|0,1:0|0:0,0:0:0:0:
302,122,137593,6,0,B|249:137|249:137|181:352|181:352|57:372|57:372|-6:256|-6:256|71:150|71:150|337:212|337:212|366:290|366:290|293:371|293:371|115:256|115:256|102:86|102:86|148:44|148:44|343:25|343:25|383:78,1,1836.45006220885,4|0,3:1|0:0,0:0:0:0:
456,107,141996,22,0,L|516:89,2,55,2|0|0,2:0|0:0|0:0,0:0:0:0:
443,194,142203,1,0,0:0:0:0:
459,199,142271,2,0,L|519:213,2,55
404,267,142478,1,0,0:0:0:0:
416,279,142547,2,0,L|461:321,2,55
333,311,142753,1,0,0:0:0:0:
337,327,142822,2,0,L|354:386,2,55
249,313,143028,1,0,0:0:0:0:
245,330,143097,6,0,L|230:390,1,55
329,202,143235,1,0,0:0:0:0:
346,198,143304,1,0,0:0:0:0:
363,194,143372,2,0,L|423:179,1,55
235,222,143510,1,0,0:0:0:0:
218,218,143579,1,0,0:0:0:0:
201,214,143648,2,0,L|140:199,1,55,0|0,3:0|3:0,0:0:0:0:
329,294,143785,1,0,3:0:0:0:
333,311,143854,1,0,3:0:0:0:
337,328,143923,2,0,L|351:388,1,55,0|0,3:0|3:0,0:0:0:0:
281,129,144060,6,0,L|255:21,2,110,0|4|0,3:0|3:0|0:0,0:0:0:0:
181,107,144473,2,0,L|130:94,2,40
53,233,144749,2,0,L|218:199,1,160,2|0,2:0|0:0,0:0:0:0:
202,303,145161,1,0,0:0:0:0:
286,265,145299,2,0,L|325:273,2,40
141,241,145574,1,0,0:0:0:0:
439,298,145712,5,0,3:0:0:0:
439,298,145781,1,0,3:0:0:0:
439,298,145849,1,8,3:0:0:0:
301,384,145987,1,12,3:0:0:0:
266,116,146125,2,0,L|289:290,1,150,4|4,3:0|3:1,0:0:0:0:
