osu file format v14

[General]
AudioFilename: audio.mp3
AudioLeadIn: 0
PreviewTime: 88877
Countdown: 0
SampleSet: Soft
StackLeniency: 0.7
Mode: 0
LetterboxInBreaks: 0
WidescreenStoryboard: 1

[Editor]
Bookmarks: 5482,14290,28601,31905,49519,71538,89152,111171,128785,137593
DistanceSpacing: 0.6
BeatDivisor: 4
GridSize: 16
TimelineZoom: 3.200005

[Metadata]
Title:Destroy, Destroy, Destroy The Happy End (Cut Ver.)
TitleUnicode:Destroy, Destroy, Destroy The Happy End (Cut Ver.)
Artist:Chroma
ArtistUnicode:黒魔
Creator:Fisky
Version:JeZag's Insane
Source:
Tags:Robot & Human Diverse Direct ralkinson ak74 ak74qbz95xm8 garden ioexception deadcode ceo of osu ceo_of_osu jezag electronic instrumental featured artist fa
BeatmapID:3669469
BeatmapSetID:1160351

[Difficulty]
HPDrainRate:4
CircleSize:3
OverallDifficulty:7.5
ApproachRate:9
SliderMultiplier:1.5
SliderTickRate:1

[Events]
//Background and Video events
0,0,"bg destroy.jpg",0,0
//Break Periods
2,49719,61580
//Storyboard Layer 0 (Background)
//Storyboard Layer 1 (Fail)
//Storyboard Layer 2 (Pass)
//Storyboard Layer 3 (Foreground)
//Storyboard Layer 4 (Overlay)
//Storyboard Sound Samples

[TimingPoints]
5483,275.229357798165,4,2,0,70,1,0
5483,-62.5,4,2,0,70,0,0
5758,-100,4,2,0,70,0,0
7409,-62.5,4,2,0,70,0,0
7960,-100,4,2,0,70,0,0
9611,-62.5,4,2,0,70,0,0
10161,-100,4,2,0,70,0,0
10712,-62.5,4,2,0,70,0,0
11262,-100,4,2,0,70,0,0
11813,-62.5,4,2,0,70,0,0
12363,-100,4,2,0,70,0,0
12638,-62.5,4,2,0,70,0,0
12914,-100,4,2,0,70,0,0
13189,-166.666666666667,4,2,0,60,0,0
14016,-100,4,2,0,60,0,0
14290,-166.666666666667,4,2,0,60,0,0
31354,-100,4,2,0,60,0,0
31905,-90.9090909090909,4,2,0,80,0,0
32455,-66.6666666666667,4,2,0,80,0,0
33005,-90.9090909090909,4,2,0,80,0,0
33555,-66.6666666666667,4,2,0,80,0,0
34106,-90.9090909090909,4,2,0,80,0,0
34656,-66.6666666666667,4,2,0,80,0,0
35207,-90.9090909090909,4,2,0,80,0,0
36308,-90.9090909090909,4,2,0,80,0,0
36858,-66.6666666666667,4,2,0,80,0,0
37408,-90.9090909090909,4,2,0,80,0,0
37958,-66.6666666666667,4,2,0,80,0,0
38510,-90.9090909090909,4,2,0,80,0,0
39059,-66.6666666666667,4,2,0,80,0,0
39610,-90.9090909090909,4,2,0,80,0,0
40712,-90.9090909090909,4,2,0,80,0,0
41262,-66.6666666666667,4,2,0,80,0,0
41813,-90.9090909090909,4,2,0,80,0,0
42363,-66.6666666666667,4,2,0,80,0,0
42914,-90.9090909090909,4,2,0,80,0,0
43464,-66.6666666666667,4,2,0,80,0,0
44015,-90.9090909090909,4,2,0,80,0,0
45116,-90.9090909090909,4,2,0,80,0,0
45666,-66.6666666666667,4,2,0,80,0,0
46216,-90.9090909090909,4,2,0,80,0,0
46766,-66.6666666666667,4,2,0,80,0,0
47317,-90.9090909090909,4,2,0,80,0,0
47867,-66.6666666666667,4,2,0,80,0,0
48418,-90.9090909090909,4,2,0,80,0,0
49245,-90.9090909090909,4,2,0,35,0,0
49520,-90.9090909090909,4,2,0,60,0,0
62181,-90.9090909090909,4,2,0,50,0,0
62317,-111.111111111111,4,2,0,40,0,0
62594,-111.111111111111,4,2,0,30,0,0
62731,-250,4,2,0,50,0,0
70987,-100,4,2,0,20,0,0
71538,-66.6666666666667,4,2,0,70,0,0
71950,-100,4,2,0,70,0,0
73465,-83.3333333333333,4,2,0,35,0,0
73739,-66.6666666666667,4,2,0,70,0,0
74152,-100,4,2,0,70,0,0
75667,-83.3333333333333,4,2,0,35,0,0
75941,-66.6666666666667,4,2,0,70,0,0
76079,-66.6666666666667,4,2,0,70,0,0
76354,-100,4,2,0,70,0,0
77869,-83.3333333333333,4,2,0,35,0,0
78143,-66.6666666666667,4,2,0,70,0,0
78556,-100,4,2,0,70,0,0
80071,-83.3333333333333,4,2,0,35,0,0
80345,-66.6666666666667,4,2,0,70,0,0
80758,-100,4,2,0,70,0,0
82272,-83.3333333333333,4,2,0,35,0,0
82547,-66.6666666666667,4,2,0,70,0,0
82960,-83.3333333333333,4,2,0,70,0,0
84474,-83.3333333333333,4,2,0,35,0,0
84749,-66.6666666666667,4,2,0,70,0,0
85161,-83.3333333333333,4,2,0,70,0,0
86676,-83.3333333333333,4,2,0,35,0,0
86951,-83.3333333333333,4,2,0,70,0,0
87777,-83.3333333333333,4,2,0,40,0,0
88052,-83.3333333333333,4,2,0,50,0,0
88328,-83.3333333333333,4,2,0,60,0,0
88603,-83.3333333333333,4,2,0,70,0,0
88878,-83.3333333333333,4,2,0,35,0,0
89152,-58.8235294117647,4,2,0,80,0,0
89703,-83.3333333333333,4,2,0,80,0,0
90528,-58.8235294117647,4,2,0,80,0,0
91905,-83.3333333333333,4,2,0,80,0,0
92730,-58.8235294117647,4,2,0,80,0,0
94106,-83.3333333333333,4,2,0,80,0,0
94932,-58.8235294117647,4,2,0,80,0,0
96308,-83.3333333333333,4,2,0,80,0,0
97134,-200,4,2,0,80,0,0
97685,-90.9090909090909,4,2,0,35,0,0
97960,-66.6666666666667,4,2,0,80,0,0
98510,-64.5161290322581,4,2,0,80,0,0
98785,-66.6666666666667,4,2,0,80,0,0
99060,-62.5,4,2,0,80,0,0
99336,-66.6666666666667,4,2,0,80,0,0
99611,-58.8235294117647,4,2,0,80,0,0
99886,-66.6666666666667,4,2,0,80,0,0
100712,-62.5,4,2,0,80,0,0
101262,-58.8235294117647,4,2,0,80,0,0
101813,-55.5555555555556,4,2,0,80,0,0
102363,-66.6666666666667,4,2,0,80,0,0
105666,-66.6666666666667,4,2,0,60,0,0
105684,-90.9090909090909,4,2,0,60,0,0
105942,-90.9090909090909,4,2,0,60,0,0
106080,-90.9090909090909,4,2,0,60,0,0
106217,-90.9090909090909,4,2,0,60,0,0
107043,-90.9090909090909,4,2,0,30,0,0
107060,-90.9090909090909,4,2,0,30,0,0
107455,-52.6315789473684,4,2,0,40,0,0
109519,-100,4,2,0,40,0,0
109658,-100,4,2,0,45,0,0
109727,-100,4,2,0,50,0,0
109795,-100,4,2,0,55,0,0
109864,-100,4,2,0,60,0,0
109933,-100,4,2,0,65,0,0
110002,-100,4,2,0,70,0,0
110071,-100,4,2,0,80,0,0
110895,-76.9230769230769,4,2,0,80,0,0
111171,-90.9090909090909,4,2,0,80,0,0
111446,-62.5,4,2,0,80,0,0
113372,-90.9090909090909,4,2,0,80,0,0
113648,-62.5,4,2,0,80,0,0
115574,-90.9090909090909,4,2,0,80,0,0
115849,-62.5,4,2,0,80,0,0
117776,-90.9090909090909,4,2,0,80,0,0
118051,-142.857142857143,4,2,0,80,0,0
119703,-58.8235294117647,4,2,0,80,0,0
119978,-90.9090909090909,4,2,0,80,0,0
120253,-62.5,4,2,0,80,0,0
122180,-90.9090909090909,4,2,0,80,0,0
122455,-62.5,4,2,0,80,0,0
124382,-90.9090909090909,4,2,0,80,0,0
124657,-62.5,4,2,0,80,0,0
126583,-90.9090909090909,4,2,0,80,0,0
126859,-142.857142857143,4,2,0,60,0,0
128510,-58.8235294117647,4,2,0,60,0,0
128785,-90.9090909090909,4,2,0,90,0,0
129060,-90.9090909090909,4,2,0,90,0,0
129887,-90.9090909090909,4,2,0,80,0,0
130987,-58.8235294117647,4,2,0,90,0,0
131262,-90.9090909090909,4,2,0,90,0,0
132089,-90.9090909090909,4,2,0,80,0,0
133189,-58.8235294117647,4,2,0,80,0,0
133464,-58.8235294117647,4,2,0,80,0,0
135391,-90.9090909090909,4,2,0,80,0,0
135666,-142.857142857143,4,2,0,80,0,0
137317,-58.8235294117647,4,2,0,80,0,0
137593,-125,4,2,0,80,0,0
140346,-90.9090909090909,4,2,0,50,0,0
142548,-90.9090909090909,4,2,0,50,0,0
143098,-90.9090909090909,4,2,0,50,0,0
143649,-90.9090909090909,4,2,0,65,0,0
144199,-90.9090909090909,4,2,0,40,0,0
144473,-200,4,2,0,40,0,0
145574,-83.3333333333333,4,2,0,40,0,0
145713,-111.111111111111,4,2,0,60,0,0

[Colours]
Combo1 : 255,57,0
Combo2 : 4,173,255
Combo3 : 192,136,255
Combo4 : 245,155,255
Combo5 : 255,138,170

[HitObjects]
492,25,5483,6,0,B|437:24|437:24|386:68|386:68|281:59,1,180,4|0,3:1|0:0,0:0:0:0:
220,55,5758,6,0,B|188:45|188:45|202:2|202:2|253:18,3,112.5,2|2|2|2,1:2|2:0|2:0|2:0,0:0:0:0:
109,90,6652,2,0,B|76:97|76:97|66:53|66:53|119:41,3,112.5,2|2|2|2,2:0|1:2|2:0|1:2,0:0:0:0:
233,56,7409,6,0,B|269:69|269:69|303:161|303:161|362:168,1,180,4|0,3:1|0:0,0:0:0:0:
445,129,7684,2,0,B|426:123|426:123|313:133|313:133|294:204,1,180,4|0,3:1|0:0,0:0:0:0:
192,205,7960,6,0,B|166:203|152:167|152:167|169:137|201:139,3,112.5,2|2|2|2,1:2|2:0|2:0|2:0,0:0:0:0:
92,263,8854,2,0,B|69:274|39:249|39:249|38:215|67:201,3,112.5,2|2|2|2,2:0|1:2|2:0|1:2,0:0:0:0:
204,211,9611,22,0,B|240:224|240:224|273:329|273:329|332:340,1,180,4|0,3:1|0:0,0:0:0:0:
315,361,9886,2,0,B|360:229|360:229|412:206,1,180,4|0,3:1|0:0,0:0:0:0:
502,242,10161,6,0,B|507:267|520:295|520:295|495:284|460:287,2,112.500004291535,2|2|2,1:2|2:0|2:0,0:0:0:0:
397,212,10712,6,0,B|360:229|360:229|315:361,1,180,4|0,3:1|0:0,0:0:0:0:
280,315,10987,2,0,B|252:227|252:227|195:207|195:207|172:250,1,180,4|0,3:1|0:0,0:0:0:0:
91,279,11262,6,0,B|90:305|82:335|82:335|105:320|140:317,2,112.5,2|2|2,1:2|2:0|2:0,0:0:0:0:
182,231,11813,2,0,B|195:207|195:207|252:227|252:227|280:315,1,180,4|0,3:1|0:0,0:0:0:0:
270,333,12088,22,0,L|302:141,1,180,4|0,3:1|0:0,0:0:0:0:
383,106,12363,1,2,1:2:0:0:
383,106,12501,1,0,0:0:0:0:
182,231,12638,6,0,L|214:39,1,180,4|0,3:1|0:0,0:0:0:0:
312,16,12914,1,2,1:2:0:0:
312,16,13052,1,0,0:0:0:0:
432,185,13189,6,0,B|502:163|502:163|492:127|492:127|468:118,1,134.999995880127,4|0,3:0|0:0,0:0:0:0:
388,113,13739,2,0,L|379:73,3,22.4999993133545
445,34,14015,5,4,3:1:0:0:
464,305,14290,2,0,L|511:295,3,44.999998626709,4|0|0|0,3:1|3:0|3:0|3:0,0:0:0:0:
437,144,14840,1,10,3:0:0:0:
437,144,14978,1,0,3:0:0:0:
437,144,15116,1,0,3:0:0:0:
437,144,15253,1,0,3:0:0:0:
347,98,15391,22,0,L|337:51,3,44.999998626709,4|0|0|0,3:0|3:0|3:0|3:0,0:0:0:0:
324,268,15941,1,10,3:0:0:0:
324,268,16079,1,0,3:0:0:0:
324,268,16216,1,0,3:0:0:0:
324,268,16354,1,0,3:0:0:0:
240,208,16492,6,0,L|193:218,3,44.999998626709,4|0|0|0,3:0|3:0|3:0|3:0,0:0:0:0:
124,48,17042,1,10,3:0:0:0:
124,48,17180,1,0,3:0:0:0:
124,48,17317,1,0,3:0:0:0:
124,48,17455,1,0,3:0:0:0:
202,85,17593,6,0,L|192:129,3,44.999998626709,4|0|0|0,3:0|3:0|3:0|3:0,0:0:0:0:
40,259,18143,1,10,3:0:0:0:
40,259,18280,1,2,3:2:0:0:
40,259,18418,1,2,3:2:0:0:
40,259,18556,1,2,3:2:0:0:
32,160,18694,6,0,L|86:175,3,44.999998626709,4|0|0|0,3:0|3:0|3:0|3:0,0:0:0:0:
163,384,19244,1,10,3:0:0:0:
163,384,19381,1,0,3:0:0:0:
163,384,19519,1,0,3:0:0:0:
163,384,19657,1,0,3:0:0:0:
119,287,19794,22,0,L|133:230,3,44.999998626709,4|0|0|0,3:0|3:0|3:0|3:0,0:0:0:0:
262,103,20345,1,10,3:0:0:0:
262,103,20482,1,0,3:0:0:0:
262,103,20620,1,0,3:0:0:0:
262,103,20758,1,0,3:0:0:0:
202,167,20895,6,0,L|145:153,3,44.999998626709,4|0|0|0,3:0|3:0|3:0|3:0,0:0:0:0:
324,346,21447,1,10,3:0:0:0:
324,346,21584,1,0,3:0:0:0:
324,346,21722,1,0,3:0:0:0:
324,346,21859,1,0,3:0:0:0:
363,261,21996,6,0,L|349:204,3,44.999998626709,4|0|0|0,3:0|3:0|3:0|3:0,0:0:0:0:
437,51,22547,1,10,3:0:0:0:
512,68,22684,1,8,3:0:0:0:
495,147,22822,1,12,3:0:0:0:
419,130,22959,1,4,3:0:0:0:
339,113,23097,6,0,L|282:127,1,44.999998626709,4|0,3:1|3:0,0:0:0:0:
289,43,23372,2,0,L|232:57,1,44.999998626709,0|0,3:0|3:0,0:0:0:0:
81,113,23648,1,10,3:0:0:0:
81,113,23785,1,0,3:0:0:0:
81,113,23923,1,0,3:0:0:0:
81,113,24060,1,0,3:0:0:0:
117,196,24198,22,0,L|174:210,1,44.999998626709,4|0,3:0|3:0,0:0:0:0:
166,124,24473,2,0,L|223:138,1,44.999998626709,0|0,3:0|3:0,0:0:0:0:
377,192,24749,1,10,3:0:0:0:
377,192,24886,1,0,3:0:0:0:
377,192,25024,1,0,3:0:0:0:
377,192,25161,1,0,3:0:0:0:
338,270,25299,6,0,L|281:284,1,44.999998626709,4|0,3:0|3:0,0:0:0:0:
288,197,25574,2,0,L|231:211,1,44.999998626709,0|0,3:0|3:0,0:0:0:0:
121,272,25850,1,10,3:0:0:0:
121,272,25987,1,0,3:0:0:0:
121,272,26125,1,0,3:0:0:0:
121,272,26262,1,0,3:0:0:0:
153,359,26400,6,0,L|210:373,1,44.999998626709,4|0,3:0|3:0,0:0:0:0:
204,284,26675,2,0,L|261:298,1,44.999998626709,0|0,3:0|3:0,0:0:0:0:
371,347,26951,1,10,3:0:0:0:
371,347,27088,1,2,3:2:0:0:
371,347,27226,1,2,3:2:0:0:
371,347,27363,1,2,3:2:0:0:
456,309,27501,6,0,L|469:254,1,44.999998626709,4|0,3:0|3:0,0:0:0:0:
382,262,27776,2,0,L|395:207,1,44.999998626709,0|0,3:0|3:0,0:0:0:0:
215,260,28051,1,10,3:0:0:0:
215,260,28189,1,0,3:0:0:0:
215,260,28327,1,0,3:0:0:0:
215,260,28464,1,0,3:0:0:0:
120,211,28602,22,0,L|107:156,1,44.999998626709,4|0,3:0|3:0,0:0:0:0:
196,165,28877,2,0,L|183:110,1,44.999998626709,0|0,3:0|3:0,0:0:0:0:
361,162,29152,1,10,3:0:0:0:
361,162,29290,1,0,3:0:0:0:
361,162,29428,1,0,3:0:0:0:
361,162,29565,1,0,3:0:0:0:
283,99,29703,6,0,L|292:45,1,44.999998626709,4|0,3:0|3:0,0:0:0:0:
118,70,29978,1,0,1:0:0:0:
118,70,30116,1,0,3:0:0:0:
198,10,30253,6,0,L|207:64,1,44.999998626709,2|0,1:2|1:0,0:0:0:0:
166,146,30528,1,8,3:2:0:0:
166,146,30666,1,0,3:0:0:0:
302,114,30804,6,0,L|308:92,5,22.4999993133545,4|4|4|4|4|4,3:0|3:0|3:0|3:0|3:0|3:0,0:0:0:0:
313,149,31216,21,4,3:0:0:0:
313,149,31285,1,4,3:0:0:0:
313,149,31354,2,0,B|317:166|317:166|367:186|367:186|399:99|399:99|460:122|460:122|476:170,1,262.5,4|0,1:0|0:0,0:0:0:0:
458,172,31905,6,0,L|449:292,1,82.5000025177003,6|0,3:2|0:0,0:0:0:0:
309,258,32180,1,2,3:0:0:0:
374,311,32317,1,4,3:0:0:0:
385,122,32455,38,0,B|355:127|355:127|332:218|275:276|275:276|222:293,1,225.000008583069,10|0,1:0|0:0,0:0:0:0:
37,368,32868,37,8,3:0:0:0:
37,368,32937,1,8,3:0:0:0:
37,368,33005,1,6,3:2:0:0:
115,321,33143,2,0,L|78:229,1,82.5000025177003,6|2,3:2|3:0,0:0:0:0:
207,321,33418,1,4,3:0:0:0:
190,147,33556,22,0,B|229:149|229:149|280:209|291:280|291:280|329:318,1,225.000008583069,10|0,1:0|0:0,0:0:0:0:
474,314,33969,53,8,3:0:0:0:
474,314,34038,1,8,3:0:0:0:
474,314,34106,2,0,L|497:217,1,82.5000025177003,6|0,3:2|0:0,0:0:0:0:
371,174,34382,1,2,3:0:0:0:
367,261,34519,1,4,3:0:0:0:
416,85,34657,6,0,B|407:108|407:108|321:143|282:205|282:205|293:267,1,225.000008583069,10|0,1:0|0:0,0:0:0:0:
48,128,35070,5,8,3:0:0:0:
48,128,35138,1,8,3:0:0:0:
48,128,35207,2,0,P|79:170|80:254,2,123.75000377655,6|6|4,3:2|3:2|3:0,0:0:0:0:
194,89,35758,6,0,B|215:72|229:56|229:56,3,41.2500012588501,6|0|0|0,1:2|0:0|0:0|0:0,0:0:0:0:
118,47,36033,1,2,2:3:0:0:
118,47,36102,1,2,2:3:0:0:
118,47,36171,1,10,3:0:0:0:
118,47,36239,1,10,3:0:0:0:
118,47,36308,6,0,L|101:138,1,82.5000025177003,6|0,3:2|0:0,0:0:0:0:
200,225,36583,1,2,3:0:0:0:
200,225,36721,1,4,3:0:0:0:
0,215,36859,22,0,B|25:189|25:189|98:194|156:123|156:123|213:139,1,225.000008583069,10|0,1:0|0:0,0:0:0:0:
369,89,37271,53,8,3:0:0:0:
369,89,37340,1,8,3:0:0:0:
369,89,37409,1,6,3:2:0:0:
433,155,37547,2,0,L|470:66,1,82.5000025177003,6|2,3:2|3:0,0:0:0:0:
341,185,37822,1,4,3:0:0:0:
511,262,37960,6,0,B|478:229|478:229|410:258|347:247|347:247|313:197,1,225.000008583069,10|0,1:0|0:0,0:0:0:0:
142,316,38372,5,8,3:0:0:0:
142,316,38441,1,8,3:0:0:0:
142,316,38510,2,0,L|54:299,1,82.5000025177003,6|0,3:2|0:0,0:0:0:0:
246,261,38785,1,2,3:0:0:0:
246,261,38923,1,4,3:0:0:0:
61,218,39060,54,0,B|153:266|183:343|183:343|249:357,1,225.000008583069,10|0,1:0|0:0,0:0:0:0:
458,317,39473,21,8,3:0:0:0:
458,317,39542,1,8,3:0:0:0:
458,317,39611,2,0,P|475:264|521:198,2,123.75000377655,6|6|4,3:2|3:2|3:0,0:0:0:0:
390,240,40161,6,0,L|343:223,3,41.2500012588501,6|0|0|0,1:2|0:0|0:0|0:0,0:0:0:0:
434,157,40437,1,10,3:0:0:0:
434,157,40505,1,10,3:0:0:0:
434,157,40574,1,6,3:0:0:0:
434,157,40643,1,6,3:0:0:0:
279,39,41125,21,4,3:0:0:0:
292,123,41262,1,10,1:0:0:0:
435,54,41400,2,0,B|417:48|417:48|354:70|310:153|310:153|336:224,1,225.000008583069,6|8,3:2|3:0,0:0:0:0:
280,277,41744,53,8,3:0:0:0:
280,277,41813,1,6,3:2:0:0:
197,244,41950,2,0,L|217:144,1,82.5000025177003,6|2,3:2|3:0,0:0:0:0:
99,278,42226,1,4,3:0:0:0:
47,127,42363,6,0,B|122:99|170:167|170:167|182:230|182:230|202:248,1,225.000008583069,10|0,1:0|0:0,0:0:0:0:
370,284,42776,5,8,3:0:0:0:
370,284,42845,1,8,3:0:0:0:
370,284,42914,2,0,L|394:186,1,82.5000025177003,6|0,3:2|0:0,0:0:0:0:
272,127,43189,1,2,3:0:0:0:
294,205,43327,1,4,3:0:0:0:
505,178,43464,54,0,B|477:179|477:179|435:225|395:305|395:305|315:304,1,225.000008583069,10|0,1:0|0:0,0:0:0:0:
110,378,43877,21,8,3:0:0:0:
110,378,43946,1,8,3:0:0:0:
110,378,44015,2,0,P|90:327|18:266,2,123.75000377655,6|6|4,3:2|3:2|3:0,0:0:0:0:
240,366,44565,6,0,L|272:312,3,41.2500012588501,6|0|0|0,1:2|0:0|0:0|0:0,0:0:0:0:
180,287,44840,1,2,2:3:0:0:
180,287,44909,1,2,2:3:0:0:
180,287,44978,1,10,3:0:0:0:
180,287,45047,1,10,3:0:0:0:
180,287,45116,6,0,L|187:195,1,82.5000025177003,6|0,3:2|0:0,0:0:0:0:
112,110,45391,1,2,3:0:0:0:
44,157,45528,1,4,3:0:0:0:
87,295,45666,6,0,B|115:310|115:310|183:256|263:245|263:245|277:201,1,225.000008583069,10|0,1:0|0:0,0:0:0:0:
416,86,46079,5,8,3:0:0:0:
416,86,46148,1,8,3:0:0:0:
416,86,46216,1,6,3:2:0:0:
468,205,46354,2,0,L|496:118,1,82.5000025177003,6|2,3:2|3:0,0:0:0:0:
323,111,46629,1,4,3:0:0:0:
387,252,46767,54,0,B|373:218|373:218|255:194|177:109,1,225.000008583069,10|0,1:0|0:0,0:0:0:0:
14,207,47180,21,8,3:0:0:0:
14,207,47249,1,8,3:0:0:0:
14,207,47317,2,0,L|51:96,1,82.5000025177003,6|0,3:2|0:0,0:0:0:0:
0,44,47593,1,2,3:0:0:0:
0,44,47730,1,4,3:0:0:0:
121,186,47868,38,0,B|126:166|126:166|194:143|241:95|241:95|278:84|326:94,1,225.000008583069,10|0,1:0|0:0,0:0:0:0:
443,56,48281,2,0,P|466:95|457:120,1,56.2500021457673,8|8,3:0|3:0,0:0:0:0:
406,171,48418,38,0,P|386:155|400:129,3,41.2500012588501,8|8|4|4,3:0|3:0|3:0|3:0,0:0:0:0:
465,231,48694,2,0,P|485:215|471:189,3,41.2500012588501,8|8|4|4,3:0|3:0|3:0|3:0,0:0:0:0:
415,298,48969,1,4,3:0:0:0:
184,320,49244,5,8,2:0:0:0:
184,320,49382,1,8,2:0:0:0:
210,230,49519,1,4,3:1:0:0:
199,103,62180,21,4,3:0:0:0:
193,188,62317,1,8,3:0:0:0:
281,197,62455,1,12,3:0:0:0:
281,197,62593,1,4,3:0:0:0:
286,111,62730,1,4,3:1:0:0:
354,176,64932,6,0,L|289:163,1,60,2|0,2:0|0:0,0:0:0:0:
214,207,65482,2,0,L|149:194,1,60
73,131,66033,1,0,0:0:0:0:
2,175,66308,1,0,0:0:0:0:
0,197,66583,1,0,0:0:0:0:
88,140,66859,1,0,0:0:0:0:
168,276,67134,6,0,L|177:210,1,60,2|0,2:0|0:0,0:0:0:0:
264,256,67684,2,0,L|273:190,1,60
393,156,68235,1,0,0:0:0:0:
477,129,68510,1,0,0:0:0:0:
512,211,68785,1,0,0:0:0:0:
466,145,69060,1,0,0:0:0:0:
352,248,69336,6,0,L|288:227,1,60,2|0,2:0|0:0,0:0:0:0:
294,143,69886,2,0,L|230:122,1,60
75,200,70437,1,0,0:0:0:0:
122,283,70712,1,0,0:0:0:0:
285,250,70987,22,0,L|291:222,14,18.75
206,291,71538,6,0,B|377:247|377:247|399:247|399:247|414:276,1,225.000008583069,6|4,3:1|3:0,0:0:0:0:
485,315,71950,2,0,B|467:339|467:339|464:353|464:353|475:391,1,75,2|4,2:0|3:0,0:0:0:0:
398,202,72226,2,0,B|416:226|416:226|419:240|419:240|408:278,1,75,2|4,2:0|3:0,0:0:0:0:
379,80,72501,2,0,B|390:107|390:107|401:117|401:117|439:126,1,75,2|4,2:0|3:0,0:0:0:0:
237,98,72777,2,0,B|266:94|266:94|280:98|280:98|307:127,1,75,2|4,2:0|3:0,0:0:0:0:
113,60,73051,2,0,B|142:63|142:63|156:59|156:59|183:30,1,75,2|4,2:0|3:0,0:0:0:0:
84,143,73327,1,4,3:0:0:0:
0,120,73464,5,8,2:0:0:0:
0,120,73602,1,8,2:0:0:0:
177,37,73739,6,0,B|192:39|192:39|153:266,1,225.000008583069,6|4,3:1|3:0,0:0:0:0:
102,309,74152,2,0,B|84:312|84:312|69:251,1,75,2|4,2:0|3:0,0:0:0:0:
245,356,74427,2,0,B|248:338|248:338|187:323,1,75,2|4,2:0|3:0,0:0:0:0:
312,247,74703,2,0,B|306:264|306:264|245:250,1,75,2|4,2:0|3:0,0:0:0:0:
418,140,74978,2,0,B|403:129|403:129|362:176,1,75,2|4,2:0|3:0,0:0:0:0:
339,40,75253,2,0,B|352:52|352:52|311:100,1,75,2|4,2:0|3:0,0:0:0:0:
442,47,75528,1,4,3:0:0:0:
258,12,75666,21,8,2:0:0:0:
258,12,75804,1,8,2:0:0:0:
418,140,75941,6,0,B|391:153|391:153|245:98|245:98|218:150,1,225.000008583069,6|4,3:1|3:0,0:0:0:0:
164,69,76354,2,0,B|147:59|147:59|151:21|151:21|120:-20,1,75,2|4,2:0|3:0,0:0:0:0:
99,132,76629,2,0,B|81:138|81:138|54:111|54:111|2:107,1,75,2|4,2:0|3:0,0:0:0:0:
122,247,76905,2,0,B|122:228|122:228|157:213|157:213|180:166,1,75,2|4,2:0|3:0,0:0:0:0:
27,259,77180,2,0,B|13:246|13:246|24:210|24:210|3:162,1,75,2|4,2:0|3:0,0:0:0:0:
223,354,77455,2,0,B|206:346|206:346|206:308|206:308|172:269,1,75,2|4,2:0|3:0,0:0:0:0:
296,306,77730,1,4,3:0:0:0:
472,384,77868,5,8,2:0:0:0:
472,384,78005,1,8,2:0:0:0:
377,384,78143,6,0,B|401:268|401:268|414:255|414:255|437:157,1,225.000008583069,6|4,3:1|3:0,0:0:0:0:
414,89,78556,2,0,B|470:68|470:68|490:77,1,75,2|4,2:0|3:0,0:0:0:0:
299,104,78831,2,0,B|345:141|345:141|347:163,1,75,2|4,2:0|3:0,0:0:0:0:
173,56,79106,2,0,B|231:46|231:46|244:28,1,75,2|4,2:0|3:0,0:0:0:0:
65,100,79381,2,0,B|86:44|86:44|77:23,1,75,2|4,2:0|3:0,0:0:0:0:
83,244,79657,2,0,B|53:191|53:191|32:185,1,75,2|4,2:0|3:0,0:0:0:0:
0,281,79932,1,4,3:0:0:0:
179,217,80070,21,8,2:0:0:0:
179,217,80207,1,8,2:0:0:0:
80,328,80345,6,0,B|92:291|92:291|217:229|217:229|250:277,1,225.000008583069,6|4,3:1|3:0,0:0:0:0:
244,354,80758,2,0,B|229:372|229:372|192:346|192:346|187:315|187:315,1,75,2|4,2:0|3:0,0:0:0:0:
337,256,81033,2,0,B|355:270|355:270|329:307|329:307|298:312|298:312,1,75,2|4,2:0|3:0,0:0:0:0:
444,276,81308,2,0,B|447:298|447:298|492:295|492:295|511:270|511:270,1,75,2|4,2:0|3:0,0:0:0:0:
412,144,81583,2,0,B|389:147|389:147|392:192|392:192|417:211|417:211,1,75,2|4,2:0|3:0,0:0:0:0:
311,107,81859,2,0,B|296:125|296:125|259:99|259:99|254:68|254:68,1,75,2|4,2:0|3:0,0:0:0:0:
392,56,82134,1,4,3:0:0:0:
314,20,82271,5,8,2:0:0:0:
314,20,82409,1,8,2:0:0:0:
492,72,82547,6,0,B|452:59|452:59|305:114|305:114|302:167,1,225.000008583069,6|4,3:1|3:0,0:0:0:0:
158,63,82960,2,0,B|179:63|179:63|205:83|205:83|218:119,1,89.9999972534181,2|4,2:0|3:0,0:0:0:0:
36,73,83235,2,0,B|36:52|36:52|56:26|56:26|92:13,1,89.9999972534181,2|4,2:0|3:0,0:0:0:0:
58,201,83510,2,0,B|58:180|58:180|78:154|78:154|114:141,1,89.9999972534181,2|4,2:0|3:0,0:0:0:0:
68,323,83785,2,0,B|47:323|47:323|21:303|21:303|8:267,1,89.9999972534181,2|4,2:0|3:0,0:0:0:0:
201,332,84060,2,0,B|180:332|180:332|154:312|154:312|141:276,1,89.9999972534181,2|4,2:0|3:0,0:0:0:0:
292,293,84336,1,4,3:0:0:0:
207,195,84473,21,8,2:0:0:0:
207,195,84611,1,8,2:0:0:0:
322,383,84749,6,0,B|333:368|333:368|292:223|292:223|323:166,1,224.999993133545,6|4,3:1|3:0,0:0:0:0:
512,269,85161,2,0,B|520:270|479:264|479:264|433:298,1,89.9999972534181,2|4,2:0|3:0,0:0:0:0:
427,119,85437,2,0,B|432:112|407:145|407:145|413:202,1,89.9999972534181,2|4,2:0|3:0,0:0:0:0:
237,174,85712,2,0,B|229:177|266:159|266:159|321:174,1,89.9999972534181,2|4,2:0|3:0,0:0:0:0:
265,3,85988,2,0,B|257:-1|292:20|292:20|306:76,1,89.9999972534181,2|4,2:0|3:0,0:0:0:0:
130,47,86262,2,0,B|124:40|152:70|152:70|209:74,1,89.9999972534181,2|4,2:0|3:0,0:0:0:0:
150,163,86538,1,4,3:0:0:0:
46,79,86675,5,8,2:0:0:0:
46,79,86813,1,8,2:0:0:0:
59,209,86950,1,4,3:1:0:0:
256,192,87776,12,4,88602,3:0:0:0:
290,202,88877,5,8,2:0:0:0:
290,202,89015,1,8,2:0:0:0:
138,340,89152,22,0,B|219:256|219:256|244:279|244:279|253:346,1,191.250003647804,6|0,1:2|0:0,0:0:0:0:
328,283,89427,2,0,B|409:199|409:199|434:222|434:222|443:289,1,191.250003647804,6|0,1:2|0:0,0:0:0:0:
445,348,89703,6,0,L|401:336,9,44.999998626709,0|0|0|0|0|0|0|0|0|0,0:0|0:0|0:0|0:0|3:0|3:0|3:0|3:0|0:0|0:0,0:0:0:0:
325,384,90391,5,0,3:0:0:0:
325,384,90460,1,0,3:0:0:0:
325,384,90528,2,0,B|305:225|305:225|281:222|262:196,1,191.250003647804,6|0,1:2|0:0,0:0:0:0:
319,144,90804,1,2,2:0:0:0:
196,277,90941,2,0,B|176:118|176:118|152:115|133:89,1,191.250003647804,6|0,1:2|0:0,0:0:0:0:
195,38,91217,1,2,2:0:0:0:
72,174,91354,2,0,B|52:15|52:15|28:12|9:-14,1,191.250003647804,6|0,1:2|0:0,0:0:0:0:
10,88,91629,6,0,L|214:32,1,191.250003647804,6|0,1:2|0:0,0:0:0:0:
281,56,91905,22,0,L|293:12,9,44.999998626709,0|0|0|0|0|0|0|0|0|0,0:0|0:0|0:0|0:0|3:0|3:0|3:0|3:0|0:0|0:0,0:0:0:0:
400,40,92593,5,0,3:0:0:0:
400,40,92661,1,0,3:0:0:0:
400,40,92730,2,0,B|438:152|438:152|428:160|428:160|423:232,1,191.250003647804,6|0,1:2|0:0,0:0:0:0:
509,201,93005,1,2,2:0:0:0:
477,339,93143,2,0,B|399:250|399:250|387:254|387:254|322:223,1,191.250003647804,6|0,1:2|0:0,0:0:0:0:
345,139,93418,1,2,2:0:0:0:
227,61,93556,2,0,B|265:173|265:173|255:181|255:181|250:253,1,191.250003647804,6|0,1:2|0:0,0:0:0:0:
316,315,93831,6,0,B|119:348,1,191.250003647804,6|0,1:2|0:0,0:0:0:0:
47,375,94106,6,0,L|36:322,9,44.999998626709,0|0|0|0|0|0|0|0|0|0,0:0|0:0|0:0|0:0|3:0|3:0|3:0|3:0|0:0|0:0,0:0:0:0:
88,259,94794,1,0,3:0:0:0:
88,259,94863,1,0,3:0:0:0:
88,259,94932,22,0,B|60:119|60:119|67:92|67:92|122:109,1,191.250003647804,6|0,1:2|0:0,0:0:0:0:
155,151,95207,1,2,2:0:0:0:
261,248,95345,2,0,B|233:108|233:108|240:81|240:81|295:98,1,191.250003647804,6|0,1:2|0:0,0:0:0:0:
333,140,95620,1,2,2:0:0:0:
435,226,95758,2,0,B|407:86|407:86|414:59|414:59|469:76,1,191.250003647804,6|0,1:2|0:0,0:0:0:0:
512,102,96033,6,0,L|307:35,1,191.250003647804,6|0,1:2|0:0,0:0:0:0:
260,88,96308,6,0,L|201:99,9,44.999998626709,0|0|0|0|0|0|0|0|0|0,0:0|0:0|0:0|0:0|3:0|3:0|3:0|3:0|0:0|0:0,0:0:0:0:
137,71,96996,5,0,3:0:0:0:
137,71,97065,1,0,3:0:0:0:
137,71,97134,2,0,B|131:106|131:106|138:131|138:131|136:156|136:156|144:179|144:179|142:203,1,131.249995994568,4|0,3:0|0:0,0:0:0:0:
55,215,97684,21,8,2:0:0:0:
55,215,97822,1,8,2:0:0:0:
223,137,97960,6,0,B|329:72|329:72|392:99,1,168.750006437302,6|0,1:2|0:0,0:0:0:0:
458,79,98235,2,0,L|428:213,1,112.500004291535,2|0,1:2|0:0,0:0:0:0:
223,137,98510,6,0,B|270:118|270:118|324:67|324:67|392:99,1,174.375001330376,6|0,1:2|0:0,0:0:0:0:
458,79,98785,2,0,L|428:213,1,112.500004291535,0|0,1:0|0:0,0:0:0:0:
223,137,99060,6,0,B|280:126|280:126|319:65|319:65|392:99,1,180,6|0,1:2|0:0,0:0:0:0:
458,79,99336,2,0,L|428:213,1,112.500004291535,0|2,1:0|2:0,0:0:0:0:
223,137,99611,22,0,B|283:136|283:136|312:65|312:65|392:99,1,191.250003647804,4|0,1:2|0:0,0:0:0:0:
458,79,99886,2,0,L|428:213,1,112.500004291535,2|0,1:2|0:0,0:0:0:0:
227,249,100161,6,0,B|227:238|227:238|133:192|133:192|73:259,1,168.750006437302,4|0,1:2|0:0,0:0:0:0:
79,333,100437,1,2,1:2:0:0:
79,333,100574,1,0,0:0:0:0:
227,249,100712,6,0,B|225:235|225:235|176:225|176:225|128:185|128:185|75:263,1,180,6|0,1:2|0:0,0:0:0:0:
79,333,100988,1,0,1:0:0:0:
79,333,101125,1,0,0:0:0:0:
227,249,101262,6,0,B|227:234|227:234|167:234|167:234|121:184|121:184|79:260,1,191.250003647804,6|0,1:2|0:0,0:0:0:0:
79,333,101538,1,0,1:0:0:0:
79,333,101675,1,2,2:0:0:0:
227,249,101813,22,0,B|225:232|225:232|167:242|167:242|102:189|102:189|86:253,1,202.499993820191,4|0,1:2|0:0,0:0:0:0:
79,333,102089,1,2,1:2:0:0:
79,333,102226,1,0,0:0:0:0:
162,335,102363,6,0,L|141:214,1,112.500004291535,6|0,1:2|1:0,0:0:0:0:
256,301,102638,2,0,L|235:180,1,112.500004291535,6|0,1:2|1:0,0:0:0:0:
117,244,102914,6,0,L|96:123,1,112.500004291535,6|0,1:2|1:0,0:0:0:0:
331,187,103189,2,0,L|310:66,1,112.500004291535,6|0,1:2|1:0,0:0:0:0:
113,354,103464,6,0,L|92:233,1,112.500004291535,6|0,1:2|0:0,0:0:0:0:
442,299,103739,2,0,L|421:178,1,112.500004291535,6|0,1:2|1:0,0:0:0:0:
68,247,104015,22,0,L|47:126,1,112.500004291535,6|0,1:2|1:0,0:0:0:0:
512,163,104290,2,0,L|491:42,1,112.500004291535,6|0,1:2|1:0,0:0:0:0:
226,102,104565,6,0,L|246:163,11,56.2500021457673,6|8|8|8|12|12|12|12|0|0|0|0,1:2|3:0|3:0|3:0|3:0|3:0|3:0|3:0|0:0|0:0|0:0|0:0,0:0:0:0:
245,90,105391,5,4,3:0:0:0:
249,78,105460,1,4,3:0:0:0:
252,67,105528,1,4,3:0:0:0:
257,53,105597,1,4,3:0:0:0:
244,47,105666,6,0,L|238:2,40,28.1250010728836,4|0|0|0|0|0|0|0|0|0|0|0|0|0|0|0|0|0|0|0|0|0|0|0|0|0|0|0|0|0|0|0|0|0|0|0|0|0|0|0|2,3:1|0:0|0:0|0:0|0:0|0:0|0:0|0:0|0:0|0:0|0:0|0:0|0:0|0:0|0:0|0:0|0:0|0:0|0:0|0:0|0:0|0:0|0:0|0:0|0:0|0:0|0:0|0:0|0:0|0:0|0:0|0:0|0:0|0:0|0:0|0:0|0:0|0:0|0:0|0:0|2:0,0:0:0:0:
267,267,107455,2,0,L|271:313,74,35.6249990487099,2|0|0|0|0|0|0|0|0|0|0|0|0|0|0|0|0|0|0|0|0|0|0|0|0|0|0|0|0|0|0|0|0|0|0|0|0|0|0|0|0|0|0|0|0|0|0|0|0|0|0|0|0|0|0|0|0|0|0|0|0|0|0|0|0|0|0|0|0|0|0|0|0|0|0,2:0|0:0|0:0|0:0|0:0|0:0|0:0|0:0|0:0|0:0|0:0|0:0|0:0|0:0|0:0|0:0|0:0|0:0|0:0|0:0|0:0|0:0|0:0|0:0|0:0|0:0|0:0|0:0|0:0|0:0|0:0|0:0|0:0|0:0|0:0|0:0|0:0|0:0|0:0|0:0|0:0|0:0|0:0|0:0|0:0|0:0|0:0|0:0|0:0|0:0|0:0|0:0|0:0|0:0|0:0|0:0|0:0|0:0|0:0|0:0|0:0|0:0|1:0|0:0|1:0|0:0|1:0|0:0|1:0|0:0|1:0|0:0|1:0|0:0|1:0,0:0:0:0:
315,179,110070,21,6,3:0:0:0:
315,179,110345,1,2,2:3:0:0:
380,91,110620,1,2,2:3:0:0:
385,67,110689,1,0,0:0:0:0:
390,45,110758,1,0,0:0:0:0:
395,24,110827,1,0,0:0:0:0:
404,0,110895,6,0,B|408:14|408:14|397:98|397:98|428:151,1,146.249993305207,4|0,3:0|0:0,0:0:0:0:
479,214,111171,2,0,L|507:209,6,20.6250006294251,4|0|0|0|0|0|0,3:1|0:0|0:0|0:0|0:0|0:0|0:0,0:0:0:0:
412,308,111446,5,4,1:0:0:0:
412,308,111583,1,4,3:0:0:0:
412,308,111721,1,4,3:0:0:0:
298,157,111859,6,0,B|308:117|308:117|276:33,2,120,4|4|4,1:0|3:0|3:0,0:0:0:0:
249,357,112271,21,4,1:0:0:0:
249,357,112409,1,4,3:0:0:0:
249,357,112547,1,4,3:0:0:0:
128,224,112684,6,0,B|119:200|119:200|184:137|184:137|212:135,2,120,4|4|4,1:0|3:0|3:0,0:0:0:0:
25,342,113097,5,8,2:1:0:0:
25,342,113166,1,2,2:0:0:0:
25,342,113235,1,2,2:0:0:0:
25,342,113304,1,2,2:0:0:0:
25,342,113372,2,0,L|30:370,6,20.6250006294251,4|0|0|0|0|0|0,3:1|0:0|0:0|0:0|0:0|0:0|0:0,0:0:0:0:
40,226,113648,5,4,1:0:0:0:
40,226,113785,1,4,3:0:0:0:
40,226,113923,1,4,3:0:0:0:
200,109,114060,22,0,B|203:73|203:73|166:6|166:6|197:-49,2,120,4|4|4,1:0|3:0|3:0,0:0:0:0:
288,286,114473,5,4,1:0:0:0:
288,286,114611,1,4,3:0:0:0:
288,286,114749,1,4,3:0:0:0:
382,138,114886,6,0,B|391:120|391:120|379:52|379:52|338:58,2,120,4|4|4,1:0|3:0|3:0,0:0:0:0:
459,257,115299,5,8,2:1:0:0:
459,257,115368,1,2,2:0:0:0:
459,257,115437,1,2,2:0:0:0:
459,257,115505,1,2,2:0:0:0:
459,257,115574,2,0,L|487:252,6,20.6250006294251,4|0|0|0|0|0|0,3:1|0:0|0:0|0:0|0:0|0:0|0:0,0:0:0:0:
505,138,115849,22,0,B|344:185|344:185|371:283,1,240,6|0,2:0|0:0,0:0:0:0:
437,350,116194,5,4,3:0:0:0:
437,350,116262,2,0,B|286:255|286:255|245:324,1,240,6|0,2:0|0:0,0:0:0:0:
226,178,116606,5,4,3:0:0:0:
226,178,116675,2,0,B|65:225|65:225|92:323,1,240,6|0,2:0|0:0,0:0:0:0:
157,354,117020,5,4,3:0:0:0:
157,354,117088,2,0,B|22:275|22:275|-1:318|-1:318,1,180,6|0,2:0|0:0,0:0:0:0:
11,296,117363,2,0,L|21:206,1,60,4|4,3:0|3:0,0:0:0:0:
103,201,117501,21,8,2:1:0:0:
107,199,117570,1,0,0:0:0:0:
111,197,117639,1,0,0:0:0:0:
115,195,117707,1,0,0:0:0:0:
119,193,117776,2,0,L|124:165,6,20.6250006294251,4|0|0|0|0|0|0,3:1|0:0|0:0|0:0|0:0|0:0|0:0,0:0:0:0:
176,256,118051,5,6,2:0:0:0:
256,192,118120,12,0,119427,0:0:0:0:
232,144,119703,6,0,B|260:93|260:93|283:198|283:198|257:272,1,191.250003647804,0|0,1:0|0:0,0:0:0:0:
234,300,119978,6,0,L|239:328,6,20.6250006294251,4|0|0|0|0|0|0,3:1|0:0|0:0|0:0|0:0|0:0|0:0,0:0:0:0:
187,223,120253,21,4,1:0:0:0:
187,223,120390,1,4,3:0:0:0:
187,223,120528,1,4,3:0:0:0:
328,124,120666,6,0,B|336:102|336:102|414:88|414:88|415:88|435:151,2,120,4|4|4,1:0|3:0|3:0,0:0:0:0:
276,280,121079,5,4,1:0:0:0:
276,280,121216,1,4,3:0:0:0:
276,280,121354,1,4,3:0:0:0:
138,158,121492,6,0,B|126:137|126:137|53:141|53:141|20:115,2,120,4|4|4,1:0|3:0|3:0,0:0:0:0:
242,155,121905,21,8,2:1:0:0:
242,155,121973,1,2,2:0:0:0:
242,155,122042,1,2,2:0:0:0:
242,155,122111,1,2,2:0:0:0:
242,155,122180,2,0,L|270:150,6,20.6250006294251,4|0|0|0|0|0|0,3:1|0:0|0:0|0:0|0:0|0:0|0:0,0:0:0:0:
185,247,122455,5,4,1:0:0:0:
185,247,122592,1,4,3:0:0:0:
185,247,122730,1,4,3:0:0:0:
380,217,122868,6,0,B|400:209|400:209|448:247|448:247|454:297,2,120,4|4|4,1:0|3:0|3:0,0:0:0:0:
296,339,123281,5,4,1:0:0:0:
296,339,123418,1,4,3:0:0:0:
296,339,123556,1,4,3:0:0:0:
116,303,123694,22,0,B|84:311|84:311|64:344|64:344|94:390,2,120,4|4|4,1:0|3:0|3:0,0:0:0:0:
177,363,124106,5,8,2:1:0:0:
183,361,124175,1,2,2:0:0:0:
189,359,124243,1,2,2:0:0:0:
194,356,124312,1,2,2:0:0:0:
209,343,124382,6,0,L|204:315,6,20.6250006294251,4|0|0|0|0|0|0,3:1|0:0|0:0|0:0|0:0|0:0|0:0,0:0:0:0:
291,363,124657,6,0,B|307:282|307:282|364:248|364:248|374:299|374:299|320:282,1,240,6|0,2:0|0:0,0:0:0:0:
208,283,125001,21,4,3:0:0:0:
208,283,125070,2,0,B|192:202|192:202|135:168|135:168|124:219|124:219|179:202,1,240,6|0,2:0|0:0,0:0:0:0:
293,186,125414,5,4,3:0:0:0:
293,186,125482,2,0,B|309:105|309:105|366:71|366:71|376:122|376:122|322:105,1,240,6|0,2:0|0:0,0:0:0:0:
210,102,125827,5,4,3:0:0:0:
210,102,125896,2,0,B|194:21|194:21|137:-13|137:-13|115:45,1,180,6|0,2:0|0:0,0:0:0:0:
63,95,126171,2,0,L|134:108,1,60,4|4,3:0|3:0,0:0:0:0:
196,202,126308,5,8,2:1:0:0:
196,202,126376,1,0,0:0:0:0:
196,202,126445,1,0,0:0:0:0:
196,202,126514,1,0,0:0:0:0:
196,202,126583,2,0,L|191:230,6,20.6250006294251,4|0|0|0|0|0|0,3:1|0:0|0:0|0:0|0:0|0:0|0:0,0:0:0:0:
119,278,126859,21,6,2:0:0:0:
256,192,126927,12,0,128235,0:0:0:0:
303,286,128510,6,0,B|295:350|295:350|400:373|400:373|437:354,1,191.250003647804,8|0,2:1|0:0,0:0:0:0:
472,292,128785,6,0,L|477:264,6,20.6250006294251,4|0|0|0|0|0|0,1:0|0:0|0:0|0:0|0:0|0:0|0:0,0:0:0:0:
414,200,129060,21,10,3:0:0:0:
388,281,129198,1,10,3:0:0:0:
317,230,129336,1,10,3:0:0:0:
251,292,129473,1,10,3:0:0:0:
204,218,129611,1,10,3:0:0:0:
124,259,129749,1,10,3:0:0:0:
106,173,129886,6,0,L|104:135,4,20.6250006294251,2|0|0|0|4,2:0|0:0|0:0|0:0|3:0,0:0:0:0:
30,101,130161,1,4,3:0:0:0:
190,87,130299,6,0,L|192:49,4,20.6250006294251,2|0|0|0|4,2:0|0:0|0:0|0:0|3:0,0:0:0:0:
107,46,130574,1,4,3:0:0:0:
30,101,130712,5,8,3:1:0:0:
28,110,130781,1,0,3:0:0:0:
26,120,130849,1,0,3:0:0:0:
25,133,130918,1,0,3:0:0:0:
23,145,130987,6,0,B|44:134|44:134|126:148|126:148|114:204|114:204|142:242,1,191.250003647804,4|0,3:0|3:0,3:0:0:0:
209,185,131262,5,10,3:0:0:0:
258,256,131400,1,10,3:0:0:0:
323,199,131538,1,10,3:0:0:0:
385,258,131675,1,10,3:0:0:0:
404,171,131813,1,10,3:0:0:0:
484,205,131950,1,10,3:0:0:0:
479,119,132088,6,0,L|499:118,4,20.6250006294251,2|0|0|0|4,2:0|0:0|0:0|0:0|3:0,0:0:0:0:
394,86,132363,1,4,3:0:0:0:
317,199,132501,6,0,L|297:200,4,20.6250006294251,2|0|0|0|4,2:0|0:0|0:0|0:0|3:0,0:0:0:0:
404,171,132776,1,4,3:0:0:0:
369,271,132914,5,8,2:1:0:0:
358,274,132983,1,0,0:0:0:0:
348,277,133051,1,0,0:0:0:0:
336,281,133120,1,0,0:0:0:0:
320,286,133189,6,0,B|330:264|330:264|316:182|316:182|259:194|259:194|222:166,1,191.250003647804,4|0,1:0|0:0,0:0:0:0:
166,144,133464,22,0,B|175:123|175:123|152:49|152:49|117:36,1,127.50000243187,6|0,2:0|0:0,0:0:0:0:
341,173,133739,5,4,3:0:0:0:
341,173,133808,1,4,3:0:0:0:
341,173,133877,2,0,B|332:152|332:152|354:78|354:78|390:65,1,127.50000243187,6|0,2:0|0:0,0:0:0:0:
169,243,134152,5,4,3:0:0:0:
169,243,134221,1,4,3:0:0:0:
169,243,134290,2,0,B|178:222|178:222|155:148|155:148|120:135,1,127.50000243187,6|0,2:0|0:0,0:0:0:0:
339,284,134565,5,4,3:0:0:0:
339,284,134634,1,4,3:0:0:0:
339,284,134703,2,0,B|330:263|330:263|352:189|352:189|388:176,1,127.50000243187,6|0,2:0|0:0,0:0:0:0:
198,367,134978,22,0,L|124:380,1,63.7500012159348,4|4,3:0|3:0,0:0:0:0:
242,297,135116,5,8,2:1:0:0:
265,305,135184,1,0,0:0:0:0:
288,313,135253,1,0,0:0:0:0:
314,322,135322,1,0,0:0:0:0:
337,302,135391,6,0,L|357:301,6,20.6250006294251,4|0|0|0|0|0|0,3:1|0:0|0:0|0:0|0:0|0:0|0:0,0:0:0:0:
305,226,135666,5,6,2:0:0:0:
256,192,135735,12,0,137042,0:0:0:0:
224,191,137317,22,0,B|252:242|252:242|275:137|275:137|249:63,1,191.250003647804,0|0,1:0|0:0,0:0:0:0:
181,121,137593,6,0,B|152:99|152:99|154:58|154:58|296:33|296:33|304:23|304:23|419:-1|419:-1|438:12|438:12|508:28|508:28|525:55|525:55|487:95|487:95|492:109|492:109|468:154|468:154|432:164|432:164|358:114|358:114|351:92|351:92|398:83|398:83|437:220|437:220|449:228|449:228|344:378|344:378|308:363|308:363|321:299|321:299|325:278|340:200|340:200|354:207|354:207|358:222|358:222|469:300|469:300|478:299|478:299|496:320|496:320|475:331|475:331|221:332|221:332|205:316|205:316|29:244|29:244|4:203|4:203|-6:227|-6:227|67:349|67:349|69:367|69:367|125:361|125:361|123:345|123:345|155:234|155:234|144:214|144:214|142:197|142:197|92:179|92:179|44:117|44:117|27:118|27:118|15:50|15:50|157:26|157:26|180:-3,1,2880,4|4,3:1|3:0,0:0:0:0:
267,122,144473,6,0,L|259:168,2,37.5,0|0|2,0:0|0:0|2:0,0:0:0:0:
247,241,145024,2,0,L|284:241,1,37.5
162,243,145299,2,0,L|168:206,1,37.5
191,327,145574,1,0,0:0:0:0:
79,272,145712,5,0,3:0:0:0:
79,272,145781,1,0,3:0:0:0:
79,272,145849,2,0,B|100:315|100:315|98:354,1,67.4999979400635,8|12,3:0|3:0,0:0:0:0:
162,243,146125,1,4,3:0:0:0:
12,337,146262,21,4,3:1:0:0:
