osu file format v14

[General]
AudioFilename: audio.mp3
AudioLeadIn: 0
PreviewTime: 88877
Countdown: 0
SampleSet: Soft
StackLeniency: 0.2
Mode: 0
LetterboxInBreaks: 0
WidescreenStoryboard: 1

[Editor]
Bookmarks: 5483,14290,31905,49519,71538,89152,111171,128785,137593
DistanceSpacing: 1
BeatDivisor: 4
GridSize: 8
TimelineZoom: 4.600003

[Metadata]
Title:Destroy, Destroy, Destroy The Happy End (Cut Ver.)
TitleUnicode:Destroy, Destroy, Destroy The Happy End (Cut Ver.)
Artist:Chroma
ArtistUnicode:黒魔
Creator:Fisky
Version:Deconstruct The World
Source:
Tags:Robot & Human Diverse Direct ralkinson ak74 ak74qbz95xm8 garden ioexception deadcode ceo of osu ceo_of_osu jezag electronic instrumental featured artist fa
BeatmapID:3320181
BeatmapSetID:1160351

[Difficulty]
HPDrainRate:5
CircleSize:4.2
OverallDifficulty:9
ApproachRate:9.7
SliderMultiplier:2
SliderTickRate:1

[Events]
//Background and Video events
0,0,"bg destroy.jpg",0,0
//Break Periods
2,54123,61685
//Storyboard Layer 0 (Background)
//Storyboard Layer 1 (Fail)
//Storyboard Layer 2 (Pass)
//Storyboard Layer 3 (Foreground)
//Storyboard Layer 4 (Overlay)
//Storyboard Sound Samples

[TimingPoints]
5483,275.229357798165,4,2,0,70,1,0
5483,-333.333333333333,4,2,0,70,0,0
5758,-100,4,2,0,70,0,0
7409,-333.333333333333,4,2,0,70,0,0
7960,-100,4,2,0,70,0,0
9611,-333.333333333333,4,2,0,70,0,0
10161,-100,4,2,0,70,0,0
10712,-333.333333333333,4,2,0,70,0,0
11262,-100,4,2,0,70,0,0
11813,-333.333333333333,4,2,0,70,0,0
13189,-58.8235294117647,4,2,0,60,0,0
13206,-58.8235294117647,4,2,0,5,0,0
13464,-58.8235294117647,4,2,0,10,0,0
13601,-58.8235294117647,4,2,0,20,0,0
13739,-58.8235294117647,4,2,0,30,0,0
14015,-58.8235294117647,4,2,0,60,0,0
18418,-100,4,2,0,60,0,0
31905,-58.8235294117647,4,2,0,80,0,0
32455,-400,4,2,0,80,0,0
33005,-58.8235294117647,4,2,0,80,0,0
33556,-400,4,2,0,80,0,0
34106,-58.8235294117647,4,2,0,80,0,0
34657,-400,4,2,0,80,0,0
35207,-58.8235294117647,4,2,0,80,0,0
36859,-400,4,2,0,80,0,0
37409,-58.8235294117647,4,2,0,80,0,0
37960,-400,4,2,0,80,0,0
38510,-58.8235294117647,4,2,0,80,0,0
39060,-400,4,2,0,80,0,0
39611,-58.8235294117647,4,2,0,80,0,0
41400,-400,4,2,0,80,0,0
41813,-58.8235294117647,4,2,0,80,0,0
42363,-400,4,2,0,80,0,0
42914,-58.8235294117647,4,2,0,80,0,0
43464,-400,4,2,0,80,0,0
44015,-58.8235294117647,4,2,0,80,0,0
45666,-400,4,2,0,80,0,0
46216,-58.8235294117647,4,2,0,80,0,0
46767,-400,4,2,0,80,0,0
47317,-58.8235294117647,4,2,0,80,0,0
47868,-400,4,2,0,80,0,0
49244,-133.333333333333,4,2,0,35,0,0
49519,-224.719101123595,4,2,0,60,0,0
62180,-224.719101123595,4,2,0,50,0,0
62317,-224.719101123595,4,2,0,40,0,0
62593,-224.719101123595,4,2,0,30,0,0
62730,-666.666666666667,4,2,0,50,0,0
64932,-333.333333333333,4,2,0,50,0,0
67134,-224.719101123595,4,2,0,50,0,0
69886,-183.48623853211,4,2,0,50,0,0
70437,-134.228187919463,4,2,0,50,0,0
70987,-285.714285714286,4,2,0,20,0,0
71538,-66.6666666666667,4,2,0,70,0,0
72226,-76.9230769230769,4,2,0,70,0,0
72501,-90.9090909090909,4,2,0,70,0,0
72776,-111.111111111111,4,2,0,70,0,0
73051,-142.857142857143,4,2,0,70,0,0
73464,-142.857142857143,4,2,0,35,0,0
73739,-62.5,4,2,0,70,0,0
74427,-71.4285714285714,4,2,0,70,0,0
74703,-83.3333333333333,4,2,0,70,0,0
74978,-99.9999999999999,4,2,0,70,0,0
75253,-125,4,2,0,70,0,0
75666,-142.857142857143,4,2,0,35,0,0
75941,-55.5555555555556,4,2,0,70,0,0
76629,-62.5,4,2,0,70,0,0
76905,-71.4285714285714,4,2,0,70,0,0
77180,-83.3333333333333,4,2,0,70,0,0
77455,-100,4,2,0,70,0,0
77868,-142.857142857143,4,2,0,35,0,0
78143,-55.5555555555556,4,2,0,70,0,0
78831,-62.5,4,2,0,70,0,0
79106,-71.4285714285714,4,2,0,70,0,0
79382,-83.3333333333333,4,2,0,70,0,0
79657,-100,4,2,0,70,0,0
80070,-142.857142857143,4,2,0,35,0,0
80345,-66.6666666666667,4,2,0,70,0,0
81033,-76.9230769230769,4,2,0,70,0,0
81308,-90.9090909090909,4,2,0,70,0,0
81583,-111.111111111111,4,2,0,70,0,0
81859,-142.857142857143,4,2,0,70,0,0
82271,-142.857142857143,4,2,0,35,0,0
82547,-62.5,4,2,0,70,0,0
83235,-71.4285714285714,4,2,0,70,0,0
83510,-83.3333333333333,4,2,0,70,0,0
83785,-99.9999999999999,4,2,0,70,0,0
84060,-125,4,2,0,70,0,0
84473,-142.857142857143,4,2,0,35,0,0
84749,-55.5555555555556,4,2,0,70,0,0
85437,-62.5,4,2,0,70,0,0
85712,-71.4285714285714,4,2,0,70,0,0
85987,-83.3333333333333,4,2,0,70,0,0
86262,-100,4,2,0,70,0,0
86675,-142.857142857143,4,2,0,35,0,0
86950,-142.857142857143,4,2,0,70,0,0
87019,-142.857142857143,4,2,0,40,0,0
88051,-142.857142857143,4,2,0,50,0,0
88327,-142.857142857143,4,2,0,60,0,0
88602,-142.857142857143,4,2,0,70,0,0
88877,-142.857142857143,4,2,0,35,0,0
89152,-250,4,2,0,80,0,0
97684,-142.857142857143,4,2,0,35,0,0
97960,-100,4,2,0,80,0,0
105666,-100,4,2,0,60,0,0
105683,-100,4,2,0,5,0,0
105941,-100,4,2,0,10,0,0
106078,-100,4,2,0,20,0,0
106216,-100,4,2,0,30,0,0
107042,-333.333333333333,4,2,0,30,0,0
107059,-100,4,2,0,20,0,0
107455,-16.6666666666667,4,2,0,40,0,0
109657,-16.6666666666667,4,2,0,45,0,0
109726,-16.6666666666667,4,2,0,50,0,0
109794,-16.6666666666667,4,2,0,55,0,0
109863,-16.6666666666667,4,2,0,60,0,0
109932,-16.6666666666667,4,2,0,65,0,0
110001,-16.6666666666667,4,2,0,70,0,0
110070,-100,4,2,0,80,0,0
111171,-25.1256281407035,4,2,0,80,0,0
111446,-55.5555555555556,4,2,0,80,0,0
113372,-25.3164556962025,4,2,0,80,0,0
113648,-55.5555555555556,4,2,0,80,0,0
115849,-66.6666666666667,4,2,0,80,0,0
117776,-25.2016129032258,4,2,0,80,0,0
118189,-100,4,2,0,80,0,0
118602,-83.3333333333333,4,2,0,80,0,0
119015,-71.4285714285714,4,2,0,80,0,0
119427,-62.5,4,2,0,80,0,0
119703,-333.333333333333,4,2,0,80,0,0
119978,-25.3164556962025,4,2,0,80,0,0
120253,-55.5555555555556,4,2,0,80,0,0
122180,-25.1256281407035,4,2,0,80,0,0
122455,-55.5555555555556,4,2,0,80,0,0
124657,-66.6666666666667,4,2,0,80,0,0
126583,-25.062656641604,4,2,0,80,0,0
126859,-25.062656641604,4,2,0,60,0,0
126996,-100,4,2,0,60,0,0
127409,-83.3333333333333,4,2,0,60,0,0
127822,-71.4285714285714,4,2,0,60,0,0
128235,-62.5,4,2,0,60,0,0
128510,-333.333333333333,4,2,0,60,0,0
128785,-58.8235294117647,4,2,0,90,0,0
129060,-58.8235294117647,4,2,0,90,0,1
129886,-33.3333333333333,4,2,0,80,0,0
130299,-25,4,2,0,80,0,0
130987,-58.8235294117647,4,2,0,90,0,0
131262,-58.8235294117647,4,2,0,90,0,1
132088,-33.3333333333333,4,2,0,80,0,0
132501,-25,4,2,0,80,0,0
133464,-66.6666666666667,4,2,0,80,0,0
135391,-25.1889168765743,4,2,0,80,0,0
135804,-100,4,2,0,80,0,0
136216,-71.4285714285714,4,2,0,80,0,0
136629,-52.6315789473684,4,2,0,80,0,0
137042,-38.4615384615385,4,2,0,80,0,0
137317,-333.333333333333,4,2,0,80,0,0
137593,-200,4,2,0,80,0,0
140207,-200,4,2,0,5,0,0
140345,-100,4,2,0,50,0,0
142547,-100,4,2,0,55,0,0
143097,-100,4,2,0,60,0,0
143648,-100,4,2,0,65,0,0
144198,-200,4,2,0,40,0,0
145299,-133.333333333333,4,2,0,40,0,0
145712,-133.333333333333,4,2,0,60,0,0

[Colours]
Combo1 : 255,57,0
Combo2 : 4,173,255
Combo3 : 192,136,255
Combo4 : 245,155,255
Combo5 : 255,138,170

[HitObjects]
219,154,5483,6,0,B|217:177|217:177|238:191,1,45,4|0,3:1|2:0,2:0:0:0:
507,164,5758,6,0,L|407:181,1,100,2|0,1:2|2:0,2:0:0:0:
309,211,5964,2,0,L|407:192,1,100,2|0,2:0|2:0,2:0:0:0:
507,185,6171,2,0,L|408:202,1,100,2|0,2:0|1:0,2:0:0:0:
407,214,6377,1,2,2:0:0:0:
317,310,6652,6,0,L|415:292,1,100,2|0,2:0|2:0,2:0:0:0:
512,285,6859,2,0,L|422:303,1,100,2|0,1:2|2:0,2:0:0:0:
327,330,7065,2,0,L|424:312,1,100,2|0,2:0|2:0,2:0:0:0:
507,303,7271,2,0,L|458:312,1,50,2|0,1:2|2:0,2:0:0:0:
120,383,7409,6,0,B|118:359|118:359|139:346,1,45,4|0,3:1|2:0,2:0:0:0:
97,142,7684,2,0,B|95:165|95:165|116:179,1,45,4|0,3:1|2:0,2:0:0:0:
385,237,7960,22,0,L|285:220,1,100,2|0,1:2|2:0,2:0:0:0:
187,190,8166,2,0,L|285:209,1,100,2|0,2:0|2:0,2:0:0:0:
385,216,8372,2,0,L|286:199,1,100,2|0,2:0|1:0,2:0:0:0:
285,187,8579,1,2,2:0:0:0:
195,91,8854,6,0,L|293:109,1,100,2|0,2:0|2:0,2:0:0:0:
390,116,9060,2,0,L|300:98,1,100,2|0,1:2|2:0,2:0:0:0:
205,71,9267,2,0,L|302:89,1,100,2|0,2:0|2:0,2:0:0:0:
385,98,9473,2,0,L|336:89,1,50,2|0,1:2|2:0,2:0:0:0:
0,28,9611,6,0,B|-1:51|-1:51|19:65,1,45,4|0,3:1|2:0,2:0:0:0:
75,293,9886,2,0,B|98:294|98:294|112:274,1,45,4|0,3:1|2:0,2:0:0:0:
85,5,10161,6,0,L|102:105,1,100,2|0,1:2|2:0,2:0:0:0:
132,203,10368,2,0,L|113:104,1,100,2|0,2:0|2:0,2:0:0:0:
106,16,10574,2,0,L|116:79,1,50,2|0,2:0|2:0,2:0:0:0:
166,361,10712,22,0,B|189:362|189:362|203:342,1,45,4|0,3:1|2:0,2:0:0:0:
407,384,10987,2,0,B|383:385|383:385|370:365,1,45,4|0,3:1|2:0,2:0:0:0:
313,96,11262,6,0,L|329:196,1,100,2|0,1:2|2:0,2:0:0:0:
359,294,11469,2,0,L|340:196,1,100,2|0,2:0|2:0,2:0:0:0:
335,106,11675,2,0,L|348:183,1,50,2|0,2:0|2:0,2:0:0:0:
512,349,11813,22,0,B|488:347|488:347|475:368,1,45,4|0,3:1|2:0,2:0:0:0:
258,280,12088,2,0,B|275:255|275:255|200:287,1,105,4|0,3:1|2:0,2:0:0:0:
433,204,12638,2,0,B|415:179|415:179|491:211,1,105,4|0,3:1|2:0,2:0:0:0:
244,375,13189,54,0,L|236:354,45,21.25,4|0|0|0|0|0|0|0|0|0|0|0|0|0|0|0|0|0|0|0|0|0|0|0|0|0|0|0|0|0|0|0|0|0|0|0|0|0|0|0|0|0|0|0|0|0,3:0|2:0|2:0|2:0|2:0|2:0|2:0|2:0|2:0|2:0|2:0|2:0|2:0|2:0|2:0|2:0|2:0|2:0|2:0|2:0|2:0|2:0|2:0|2:0|2:0|2:0|2:0|2:0|2:0|2:0|2:0|2:0|2:0|2:0|2:0|2:0|2:0|2:0|2:0|2:0|2:0|2:0|2:0|2:0|2:0|2:0,2:0:0:0:
299,205,14015,1,4,3:1:0:0:
0,339,14290,37,4,3:1:0:0:
15,333,14427,1,0,3:0:0:0:
31,332,14565,1,0,3:0:0:0:
47,335,14703,1,0,3:0:0:0:
112,200,14840,5,10,3:0:0:0:
137,210,14978,1,0,3:0:0:0:
164,211,15116,1,0,3:0:0:0:
191,206,15253,1,0,3:0:0:0:
162,132,15391,5,4,3:0:0:0:
177,126,15528,1,0,3:0:0:0:
193,125,15666,1,0,3:0:0:0:
209,128,15804,1,0,3:0:0:0:
265,288,15941,5,10,3:0:0:0:
290,298,16079,1,0,3:0:0:0:
317,299,16216,1,0,3:0:0:0:
344,294,16354,1,0,3:0:0:0:
311,223,16492,21,4,3:0:0:0:
326,217,16629,1,0,3:0:0:0:
342,216,16767,1,0,3:0:0:0:
358,219,16905,1,0,3:0:0:0:
415,73,17042,5,10,3:0:0:0:
440,83,17180,1,0,3:0:0:0:
467,84,17317,1,0,3:0:0:0:
494,79,17455,1,0,3:0:0:0:
465,13,17593,5,4,3:0:0:0:
480,7,17730,1,0,3:0:0:0:
496,6,17868,1,0,3:0:0:0:
512,9,18005,1,0,3:0:0:0:
469,161,18143,5,10,3:0:0:0:
378,110,18281,1,2,3:2:0:0:
378,110,18349,1,2,3:2:0:0:
378,110,18418,2,0,P|362:158|391:232,1,100,2|2,3:2|3:2,2:0:0:0:
512,322,18694,21,4,3:0:0:0:
497,318,18831,1,0,3:0:0:0:
482,314,18969,1,0,3:0:0:0:
467,311,19106,1,0,3:0:0:0:
469,161,19244,5,10,3:0:0:0:
443,154,19382,1,0,3:0:0:0:
418,147,19519,1,0,3:0:0:0:
392,142,19657,1,0,3:0:0:0:
362,71,19794,5,4,3:0:0:0:
347,67,19932,1,0,3:0:0:0:
332,63,20070,1,0,3:0:0:0:
317,60,20207,1,0,3:0:0:0:
299,236,20345,5,10,3:0:0:0:
273,243,20482,1,0,3:0:0:0:
248,250,20620,1,0,3:0:0:0:
222,255,20758,1,0,3:0:0:0:
192,326,20895,21,4,3:0:0:0:
177,330,21033,1,0,3:0:0:0:
162,334,21171,1,0,3:0:0:0:
147,337,21308,1,0,3:0:0:0:
154,153,21446,5,10,3:0:0:0:
128,146,21583,1,0,3:0:0:0:
103,139,21721,1,0,3:0:0:0:
77,134,21859,1,0,3:0:0:0:
47,63,21996,5,4,3:0:0:0:
32,59,22134,1,0,3:0:0:0:
17,55,22271,1,0,3:0:0:0:
2,52,22409,1,0,3:0:0:0:
0,260,22547,5,10,3:0:0:0:
119,221,22684,1,8,3:0:0:0:
133,224,22753,1,0,3:0:0:0:
147,227,22822,2,0,L|253:255,1,100,12|4,3:0|3:0,2:0:0:0:
502,304,23097,21,4,3:1:0:0:
497,289,23235,1,0,3:0:0:0:
492,274,23372,1,0,3:0:0:0:
487,259,23510,1,0,3:0:0:0:
357,347,23648,5,10,3:0:0:0:
348,322,23785,1,0,3:0:0:0:
340,296,23923,1,0,3:0:0:0:
331,271,24060,1,0,3:0:0:0:
412,275,24198,5,4,3:0:0:0:
417,290,24336,1,0,3:0:0:0:
422,305,24473,1,0,3:0:0:0:
427,320,24611,1,0,3:0:0:0:
256,283,24749,5,10,3:0:0:0:
265,308,24886,1,0,3:0:0:0:
273,334,25024,1,0,3:0:0:0:
282,359,25161,1,0,3:0:0:0:
352,332,25299,21,4,3:0:0:0:
347,317,25437,1,0,3:0:0:0:
342,302,25574,1,0,3:0:0:0:
337,287,25712,1,0,3:0:0:0:
207,371,25849,5,10,3:0:0:0:
198,346,25987,1,0,3:0:0:0:
190,320,26125,1,0,3:0:0:0:
181,295,26262,1,0,3:0:0:0:
262,299,26400,5,4,3:0:0:0:
267,314,26538,1,0,3:0:0:0:
272,329,26675,1,0,3:0:0:0:
277,344,26813,1,0,3:0:0:0:
110,315,26950,5,10,3:0:0:0:
16,366,27088,1,2,3:2:0:0:
16,366,27157,1,2,3:2:0:0:
16,366,27226,2,0,P|-1:319|22:252,1,100,2|2,3:2|3:2,2:0:0:0:
201,200,27501,21,4,3:0:0:0:
215,203,27638,1,0,3:0:0:0:
230,203,27776,1,0,3:0:0:0:
244,198,27914,1,0,3:0:0:0:
347,87,28051,5,10,3:0:0:0:
370,81,28189,1,0,3:0:0:0:
396,81,28327,1,0,3:0:0:0:
420,90,28464,1,0,3:0:0:0:
441,176,28602,5,4,3:0:0:0:
397,180,28739,1,0,3:0:0:0:
353,178,28877,1,0,3:0:0:0:
311,160,29015,1,0,3:0:0:0:
170,53,29152,5,10,3:0:0:0:
97,86,29290,1,0,3:0:0:0:
236,95,29427,1,0,3:0:0:0:
35,41,29565,1,0,3:0:0:0:
300,36,29703,21,4,3:0:0:0:
166,147,29840,1,0,3:0:0:0:
125,320,29978,2,0,L|148:223,1,100,0|0,1:0|3:0,2:0:0:0:
86,169,30184,1,0,2:0:0:0:
75,182,30253,2,0,L|28:197,1,50,2|0,1:2|2:0,2:0:0:0:
225,205,30391,2,0,L|261:239,1,50,0|0,1:0|2:0,2:0:0:0:
347,364,30528,2,0,B|318:354|318:354|301:334|301:334|211:308,1,150,8|0,3:2|2:0,2:0:0:0:
166,147,30804,5,4,3:0:0:0:
183,85,30872,1,4,3:0:0:0:
244,66,30941,1,4,3:0:0:0:
299,36,31010,1,4,3:0:0:0:
355,66,31079,1,4,3:0:0:0:
416,86,31148,1,4,3:0:0:0:
435,146,31216,1,4,3:0:0:0:
465,203,31285,1,4,3:0:0:0:
435,258,31354,1,4,1:0:0:0:
80,117,31905,6,0,B|-27:14|-27:14|325:81,1,425,6|0,3:2|2:0,2:0:0:0:
372,114,32317,21,4,3:0:0:0:
298,128,32386,1,0,3:0:0:0:
224,143,32455,2,0,L|262:217,1,75,10|8,1:0|3:0,2:0:0:0:
378,321,32937,53,8,3:0:0:0:
450,353,33005,2,0,B|465:344|465:344|472:265,1,85,6|0,3:2|2:0,2:0:0:0:
470,188,33143,2,0,B|434:183|434:183|284:296|284:296|247:293,1,255,6|0,3:2|2:0,2:0:0:0:
37,223,33418,5,4,3:0:0:0:
111,237,33487,1,0,3:0:0:0:
186,247,33556,2,0,L|148:321,1,75,10|8,1:0|3:0,2:0:0:0:
26,383,34038,5,8,3:0:0:0:
2,311,34106,2,0,B|70:302|70:302|139:358|139:358|183:321|183:321|368:349|368:349|412:329,1,425,6|0,3:2|2:0,2:0:0:0:
512,292,34519,53,4,3:0:0:0:
438,278,34588,1,0,3:0:0:0:
364,263,34657,2,0,L|402:189,1,75,10|8,1:0|3:0,2:0:0:0:
472,96,35138,21,8,3:0:0:0:
410,45,35207,2,0,B|329:63|329:63|322:69|322:69|216:91,1,170,6|0,3:2|2:0,2:0:0:0:
54,111,35414,2,0,B|135:93|135:93|142:87|142:87|248:65,1,170,6|0,3:2|2:0,2:0:0:0:
288,0,35620,1,4,3:0:0:0:
57,314,35758,5,6,1:2:0:0:
36,331,35827,1,0,2:0:0:0:
17,314,35895,1,0,2:0:0:0:
36,293,35964,1,0,2:0:0:0:
83,319,36033,5,2,2:3:0:0:
44,355,36102,1,2,2:3:0:0:
0,328,36171,1,10,3:0:0:0:
11,279,36239,1,10,3:0:0:0:
61,273,36308,2,0,B|117:266|117:266|212:387|212:387|236:214|236:214|305:182,1,425.000008106232,6|0,3:2|2:0,2:0:0:0:
378,0,36721,5,4,3:0:0:0:
364,74,36790,1,0,3:0:0:0:
349,148,36859,2,0,L|275:110,1,75,10|8,1:0|3:0,2:0:0:0:
186,8,37340,5,8,3:0:0:0:
112,43,37409,2,0,B|100:56|100:56|121:133,1,85,6|0,3:2|2:0,2:0:0:0:
191,234,37547,2,0,B|171:186|171:186|19:142|19:142|-34:181,1,255,6|0,3:2|2:0,2:0:0:0:
8,378,37822,53,4,3:0:0:0:
22,304,37891,1,0,3:0:0:0:
37,230,37960,2,0,L|116:254,1,75,10|8,1:0|3:0,2:0:0:0:
188,351,38441,21,8,3:0:0:0:
88,384,38510,2,0,B|103:337|103:337|263:289|263:289|270:240|270:240|183:187|183:187|205:92,1,425.000008106232,6|0,3:2|2:0,2:0:0:0:
336,0,38923,37,4,3:0:0:0:
303,68,38992,1,0,3:0:0:0:
271,137,39060,2,0,L|353:150,1,75,10|8,1:0|3:0,2:0:0:0:
452,383,39542,37,8,3:0:0:0:
512,338,39611,2,0,B|494:257|494:257|488:250|488:250|466:144,1,170,6|0,3:2|2:0,2:0:0:0:
359,262,39817,2,0,B|377:181|377:181|383:174|383:174|405:68,1,170,6|0,3:2|2:0,2:0:0:0:
491,77,40024,1,4,3:0:0:0:
342,384,40161,6,0,P|258:297|84:263,1,255,6|0,1:2|2:0,2:0:0:0:
0,264,40437,1,10,3:0:0:0:
39,219,40505,1,10,3:0:0:0:
94,190,40574,1,6,3:0:0:0:
154,173,40643,1,6,3:0:0:0:
216,177,40712,1,2,2:3:0:0:
256,103,41262,6,0,B|293:128|293:128|302:219,1,85,10|0,1:0|2:0,2:0:0:0:
44,131,41400,2,0,B|62:112|62:112|93:108,1,50,6|8,3:2|3:0,2:0:0:0:
216,177,41744,5,8,3:0:0:0:
267,249,41813,2,0,B|239:282|239:282|186:288,1,85,6|0,3:2|2:0,2:0:0:0:
0,384,41950,2,0,B|13:348|13:348|188:313|188:313|221:350,1,255.000004863739,6|0,3:2|2:0,2:0:0:0:
451,347,42226,53,4,3:0:0:0:
379,367,42294,1,0,3:0:0:0:
305,383,42363,2,0,B|298:348|298:348|327:310,1,75,10|8,1:0|3:0,2:0:0:0:
436,258,42845,21,8,3:0:0:0:
506,209,42914,2,0,B|493:181|493:181|377:158|377:158|326:214|326:214|295:174|295:174|161:143,1,340.000006484985,6|0,3:2|2:0,2:0:0:0:
11,72,43327,37,4,3:0:0:0:
83,52,43395,1,0,3:0:0:0:
157,36,43464,2,0,B|164:71|164:71|135:109,1,75,10|8,1:0|3:0,2:0:0:0:
45,145,43946,37,8,3:0:0:0:
0,217,44015,2,0,B|107:234|107:234|127:230|127:230|220:248,1,170,6|0,3:2|2:0,2:0:0:0:
333,274,44221,2,0,B|226:257|226:257|206:261|206:261|113:243,1,170,6|0,3:2|2:0,2:0:0:0:
90,308,44427,1,4,3:0:0:0:
434,222,44565,5,6,1:2:0:0:
459,231,44634,1,0,2:0:0:0:
453,256,44703,1,0,2:0:0:0:
424,249,44771,1,0,2:0:0:0:
426,195,44840,21,2,2:3:0:0:
476,213,44909,1,2,2:3:0:0:
472,265,44978,1,10,3:0:0:0:
424,277,45047,1,10,3:0:0:0:
396,233,45116,2,0,B|391:206|391:206|505:116|505:116|494:74|494:74|331:92|331:92|314:123|314:123|326:151,1,425.000008106232,6|0,3:2|2:0,2:0:0:0:
281,355,45528,53,4,3:0:0:0:
301,283,45597,1,0,3:0:0:0:
317,209,45666,2,0,B|282:202|282:202|244:231,1,75,10|8,1:0|3:0,2:0:0:0:
176,301,46148,21,8,3:0:0:0:
153,383,46216,2,0,B|115:380|115:380|85:317,1,85,6|0,3:2|2:0,2:0:0:0:
182,70,46354,2,0,B|148:79|148:79|84:160|84:160|105:187|105:187|158:192|158:192|191:274,1,255.000004863739,6|0,3:2|2:0,2:0:0:0:
28,384,46629,37,4,3:0:0:0:
11,311,46698,1,0,3:0:0:0:
0,236,46767,2,0,B|39:232|39:232|71:264,1,75,10|8,1:0|3:0,2:0:0:0:
163,369,47249,37,8,3:0:0:0:
243,384,47317,2,0,B|270:358|270:358|225:197|225:197|341:295|341:295|356:273|356:273|424:257,1,425.000008106232,6|0,3:2|2:0,2:0:0:0:
476,249,47730,21,4,3:0:0:0:
496,177,47799,1,0,3:0:0:0:
512,103,47868,2,0,B|472:94|472:94|439:118,1,75,10|8,1:0|3:0,2:0:0:0:
108,266,48418,53,8,3:0:0:0:
119,198,48487,1,8,3:0:0:0:
131,130,48556,1,4,3:0:0:0:
171,75,48625,1,4,3:0:0:0:
147,10,48694,1,8,3:0:0:0:
128,74,48762,1,8,3:0:0:0:
170,128,48831,1,4,3:0:0:0:
185,194,48900,1,4,3:0:0:0:
199,262,48969,1,4,3:0:0:0:
199,262,49244,22,0,B|218:284|217:312|217:312|224:284|259:265,1,112.5,8|0,2:0|2:0,2:0:0:0:
400,287,49519,6,0,B|362:7|362:7|520:-13|520:-13|542:143|542:143|257:184|257:184|244:88|244:88|339:75|339:75|362:233|362:233|330:238|330:238|325:206|325:206|421:193,1,1401.75,4|0,3:1|2:0,2:0:0:0:
483,259,53923,1,4,3:1:0:0:
190,183,62180,5,4,3:0:0:0:
171,262,62317,5,8,3:0:0:0:
103,178,62455,1,12,3:0:0:0:
0,216,62593,1,4,3:0:0:0:
243,121,62730,22,0,L|253:90,7,29.9999990844727,4|0|0|0|0|0|0|0,3:1|2:0|2:0|2:0|2:0|2:0|2:0|2:0,2:0:0:0:
278,224,64932,2,0,L|307:158,7,59.9999981689454,2|0|0|0|0|0|0|0,2:0|2:0|2:0|2:0|2:0|2:0|2:0|2:0,2:0:0:0:
298,348,67134,2,0,L|350:253,7,89.0000000679016,2|0|0|0|0|0|0|0,2:0|2:0|2:0|2:0|2:0|2:0|2:0|2:0,2:0:0:0:
416,284,69336,6,0,P|440:321|444:365,1,89.0000000000002,2|0,2:0|2:0,2:0:0:0:
415,167,69886,2,0,P|460:168|516:211,1,109,0|0,2:0|2:0,2:0:0:0:
304,75,70437,2,0,P|331:40|442:30,1,149,0|0,2:0|2:0,2:0:0:0:
252,329,70987,6,0,L|251:334,28,4.375,2|0|0|0|0|0|0|0|0|0|0|0|0|0|0|0|0|0|0|0|0|0|0|0|0|0|0|0|0,2:0|2:0|2:0|2:0|2:0|2:0|2:0|2:0|2:0|2:0|2:0|2:0|2:0|2:0|2:0|2:0|2:0|2:0|2:0|2:0|2:0|2:0|2:0|2:0|2:0|2:0|2:0|2:0|2:0,2:0:0:0:
282,306,71538,6,0,B|335:336|335:336|330:315|330:315|193:234,1,225,6|0,3:1|2:0,2:0:0:0:
136,203,71813,21,4,3:0:0:0:
240,0,71950,2,0,P|196:32|167:78,1,75,2|0,2:0|2:0,2:0:0:0:
136,203,72088,1,4,3:0:0:0:
13,75,72226,2,0,P|29:126|65:167,1,65,2|0,2:0|2:0,2:0:0:0:
136,203,72363,1,4,3:0:0:0:
0,272,72501,2,0,P|55:271|64:269,1,55,2|0,2:0|2:0,2:0:0:0:
136,203,72638,1,4,3:0:0:0:
153,325,72776,2,0,P|169:272|171:263,1,45.0000000000001,2|0,2:0|2:0,2:0:0:0:
136,203,72914,1,4,3:0:0:0:
236,221,73051,2,0,P|191:189|183:184,1,35,2|0,2:0|2:0,2:0:0:0:
136,203,73189,1,4,3:0:0:0:
136,203,73327,1,4,3:0:0:0:
321,315,73464,6,0,B|338:337|335:366|335:366|347:339|377:327,1,105,8|0,2:0|2:0,2:0:0:0:
404,239,73739,6,0,B|422:278|382:316|334:321|265:279|290:174|379:125,1,240,6|0,3:1|2:0,2:0:0:0:
418,100,74015,5,4,3:0:0:0:
180,130,74152,2,0,P|228:91|292:76,1,80,2|0,2:0|2:0,2:0:0:0:
418,100,74290,1,4,3:0:0:0:
286,215,74427,2,0,P|305:166|345:127,1,70,2|0,2:0|2:0,2:0:0:0:
418,100,74565,1,4,3:0:0:0:
404,239,74703,2,0,P|397:194|410:149,1,60,2|0,2:0|2:0,2:0:0:0:
418,100,74840,1,4,3:0:0:0:
474,216,74978,2,0,P|451:187|442:149,1,50,2|0,2:0|2:0,2:0:0:0:
418,100,75116,1,4,3:0:0:0:
510,167,75253,2,0,P|482:156|461:133,1,40,2|0,2:0|2:0,2:0:0:0:
418,100,75391,1,4,3:0:0:0:
418,100,75528,1,4,3:0:0:0:
321,315,75666,22,0,B|298:323|281:345|281:345|285:317|270:294,1,105,8|0,2:0|2:0,2:0:0:0:
178,378,75941,6,0,B|195:334|195:334|98:182|98:182|124:126,1,270,6|0,3:1|2:0,2:0:0:0:
33,4,76216,5,4,3:0:0:0:
206,156,76354,2,0,L|309:134,1,89.9999999999999,2|0,2:0|2:0,2:0:0:0:
447,28,76492,1,4,3:0:0:0:
284,172,76629,2,0,L|191:152,1,80,2|0,2:0|2:0,2:0:0:0:
77,59,76767,1,4,3:0:0:0:
215,186,76905,2,0,L|298:168,1,70,2|0,2:0|2:0,2:0:0:0:
396,78,77042,1,4,3:0:0:0:
273,198,77180,2,0,L|197:181,1,60,2|0,2:0|2:0,2:0:0:0:
106,93,77317,1,4,3:0:0:0:
224,208,77455,2,0,L|291:193,1,50,2|0,2:0|2:0,2:0:0:0:
368,112,77593,1,4,3:0:0:0:
368,112,77730,1,4,3:0:0:0:
512,249,77868,6,0,B|486:263|482:290|482:290|479:262|456:240,1,105,8|0,2:0|2:0,2:0:0:0:
486,98,78143,22,0,B|447:111|447:111|394:344,1,270,6|0,3:1|2:0,2:0:0:0:
304,375,78418,5,4,3:0:0:0:
345,197,78556,2,0,L|367:94,1,89.9999999999999,2|0,2:0|2:0,2:0:0:0:
226,0,78694,1,4,3:0:0:0:
261,175,78831,2,0,L|281:268,1,80,2|0,2:0|2:0,2:0:0:0:
146,327,78969,1,4,3:0:0:0:
177,192,79106,2,0,L|195:109,1,70,2|0,2:0|2:0,2:0:0:0:
66,56,79244,1,4,3:0:0:0:
97,180,79382,2,0,L|114:256,1,60,2|0,2:0|2:0,2:0:0:0:
1,285,79519,1,4,3:0:0:0:
20,189,79657,2,0,L|35:122,1,50,2|0,2:0|2:0,2:0:0:0:
147,48,79794,1,4,3:0:0:0:
147,48,79932,1,4,3:0:0:0:
341,95,80070,6,0,B|323:114|323:142|323:142|316:113|293:100,1,105,8|0,2:0|2:0,2:0:0:0:
366,5,80345,6,0,B|254:23|254:23|247:30|247:30|113:54,1,225,6|0,3:1|2:0,2:0:0:0:
0,165,80620,21,4,3:0:0:0:
10,163,80758,2,0,L|130:175,1,75,2|0,2:0|2:0,2:0:0:0:
106,331,80895,1,4,3:0:0:0:
116,333,81033,2,0,L|236:321,1,65,2|0,2:0|2:0,2:0:0:0:
228,199,81171,1,4,3:0:0:0:
238,197,81308,2,0,L|334:206,1,55,2|0,2:0|2:0,2:0:0:0:
330,301,81446,1,4,3:0:0:0:
340,303,81583,2,0,L|392:298,1,45.0000000000001,2|0,2:0|2:0,2:0:0:0:
427,225,81721,1,4,3:0:0:0:
437,223,81859,2,0,L|489:227,1,35,2|0,2:0|2:0,2:0:0:0:
512,285,81996,5,4,3:0:0:0:
359,160,82134,1,4,3:0:0:0:
449,88,82271,2,0,B|433:109|435:137|435:137|426:108|403:97,1,105,8|0,2:0|2:0,2:0:0:0:
512,0,82547,6,0,B|358:27|358:27|336:55|336:55|247:73,1,240,6|0,3:1|2:0,2:0:0:0:
113,17,82822,5,4,3:0:0:0:
126,22,82960,2,0,L|163:146,1,80,2|0,2:0|2:0,2:0:0:0:
326,87,83097,1,4,3:0:0:0:
313,92,83235,2,0,L|276:216,1,70,2|0,2:0|2:0,2:0:0:0:
138,173,83372,1,4,3:0:0:0:
151,178,83510,2,0,L|169:240,1,60,2|0,2:0|2:0,2:0:0:0:
303,239,83648,1,4,3:0:0:0:
290,244,83785,2,0,L|271:306,1,50.0000000000001,2|0,2:0|2:0,2:0:0:0:
161,310,83923,1,4,3:0:0:0:
174,315,84060,2,0,L|192:377,1,40,2|0,2:0|2:0,2:0:0:0:
273,366,84198,21,4,3:0:0:0:
83,286,84336,1,4,3:0:0:0:
12,374,84473,2,0,B|24:349|16:321|16:321|31:349|59:357,1,105,8|0,2:0|2:0,2:0:0:0:
174,315,84749,6,0,B|192:250|160:183|103:212|66:141|91:61,1,270,6|0,3:1|2:0,2:0:0:0:
339,24,85024,5,4,3:0:0:0:
128,15,85161,2,0,L|250:-7,1,89.9999999999999,2|0,2:0|2:0,2:0:0:0:
350,126,85299,1,4,3:0:0:0:
512,73,85437,2,0,L|390:51,1,80,2|0,2:0|2:0,2:0:0:0:
300,221,85574,1,4,3:0:0:0:
189,159,85712,2,0,L|311:137,1,70,2|0,2:0|2:0,2:0:0:0:
367,287,85849,1,4,3:0:0:0:
443,216,85987,2,0,L|369:202,1,60,2|0,2:0|2:0,2:0:0:0:
340,373,86125,1,4,3:0:0:0:
233,315,86262,2,0,L|294:304,1,50,2|0,2:0|2:0,2:0:0:0:
425,354,86400,5,4,3:0:0:0:
156,292,86538,1,4,3:0:0:0:
50,351,86675,2,0,B|73:360|89:386|89:386|81:359|91:335,1,105,8|0,2:0|2:0,2:0:0:0:
27,190,86950,22,0,L|32:224,11,35,4|0|0|0|0|0|0|0|0|0|0|0,3:1|2:0|2:0|2:0|2:0|2:0|2:0|2:0|2:0|2:0|2:0|2:0,2:0:0:0:
16,170,87776,5,0,3:0:0:0:
32,163,87845,1,0,3:0:0:0:
52,157,87914,1,0,3:0:0:0:
75,151,87982,1,0,3:0:0:0:
102,146,88051,1,0,3:0:0:0:
134,143,88120,1,0,3:0:0:0:
171,144,88189,1,0,3:0:0:0:
214,151,88258,1,0,3:0:0:0:
262,166,88327,1,0,3:0:0:0:
314,192,88395,1,0,3:0:0:0:
368,234,88464,1,0,3:0:0:0:
417,296,88533,1,0,3:0:0:0:
453,380,88602,1,4,3:0:0:0:
453,380,88877,6,0,B|435:359|440:329|440:329|432:358|408:374,1,105,8|0,2:0|2:0,2:0:0:0:
260,384,89152,6,0,B|261:354|261:354|292:340,1,60,6|0,1:2|2:0,2:0:0:0:
495,187,89427,2,0,B|481:215|481:215|449:220,1,60,6|0,1:2|2:0,2:0:0:0:
319,191,89703,21,0,2:0:0:0:
301,149,89771,1,0,2:0:0:0:
327,116,89840,1,0,2:0:0:0:
370,120,89909,1,0,2:0:0:0:
393,156,89978,1,0,3:0:0:0:
379,230,90047,1,0,3:0:0:0:
321,279,90116,1,0,3:0:0:0:
249,282,90184,1,0,3:0:0:0:
189,236,90253,1,0,3:0:0:0:
171,162,90322,1,0,3:0:0:0:
209,95,90391,1,0,3:0:0:0:
277,68,90460,1,0,3:0:0:0:
348,91,90528,2,0,B|358:112|358:112|348:136,1,40,6|0,1:2|2:0,2:0:0:0:
171,162,90735,5,0,2:0:0:0:
143,153,90804,1,2,2:0:0:0:
114,145,90872,1,0,2:0:0:0:
50,191,90941,2,0,B|30:193|30:193|13:179,1,40,6|0,1:2|2:0,2:0:0:0:
189,236,91148,5,0,2:0:0:0:
192,264,91216,1,2,2:0:0:0:
195,294,91285,1,0,2:0:0:0:
138,350,91354,2,0,B|116:372|116:372|85:373,1,60,6|0,1:2|2:0,2:0:0:0:
301,249,91629,2,0,B|284:276|284:276|298:310,1,60,6|0,1:2|2:0,2:0:0:0:
391,359,91905,5,0,2:0:0:0:
434,370,91973,1,0,2:0:0:0:
477,354,92042,1,0,2:0:0:0:
499,315,92111,1,0,2:0:0:0:
491,272,92180,1,0,3:0:0:0:
438,219,92249,1,0,3:0:0:0:
363,211,92317,1,0,3:0:0:0:
301,249,92386,1,0,3:0:0:0:
276,320,92455,1,0,3:0:0:0:
223,373,92524,1,0,3:0:0:0:
148,381,92593,1,0,3:0:0:0:
86,343,92661,1,0,3:0:0:0:
61,272,92730,2,0,B|77:266|77:266|105:268,1,40,6|0,1:2|2:0,2:0:0:0:
298,172,92937,21,0,2:0:0:0:
270,163,93005,1,2,2:0:0:0:
241,155,93074,1,0,2:0:0:0:
177,201,93143,2,0,B|164:204|164:204|136:203,1,40,6|0,1:2|2:0,2:0:0:0:
6,87,93349,5,0,2:0:0:0:
34,78,93418,1,2,2:0:0:0:
63,70,93487,1,0,2:0:0:0:
127,116,93556,2,0,B|149:119|149:119|193:104,1,60,6|0,1:2|2:0,2:0:0:0:
368,42,93831,2,0,B|341:27|341:27|298:34,1,60,6|0,1:2|2:0,2:0:0:0:
416,109,94106,5,0,2:0:0:0:
397,149,94175,1,0,2:0:0:0:
356,169,94244,1,0,2:0:0:0:
311,167,94313,1,0,2:0:0:0:
272,145,94382,1,0,3:0:0:0:
248,77,94450,1,0,3:0:0:0:
182,40,94519,1,0,3:0:0:0:
106,52,94588,1,0,3:0:0:0:
62,112,94657,1,0,3:0:0:0:
68,187,94726,1,0,3:0:0:0:
118,242,94794,1,0,3:0:0:0:
121,318,94863,1,0,3:0:0:0:
68,371,94932,2,0,B|46:365|46:365|42:342,1,40,6|0,1:2|2:0,2:0:0:0:
186,272,95138,37,0,2:0:0:0:
214,281,95207,1,2,2:0:0:0:
243,289,95276,1,0,2:0:0:0:
307,243,95345,2,0,B|320:240|320:240|348:246,1,40,6|0,1:2|2:0,2:0:0:0:
488,314,95551,5,0,2:0:0:0:
460,305,95620,1,2,2:0:0:0:
431,297,95689,1,0,2:0:0:0:
367,343,95758,2,0,B|334:346|334:346|310:321,1,60,6|0,1:2|2:0,2:0:0:0:
474,156,96033,2,0,B|453:174|453:174|414:169,1,60,6|0,1:2|2:0,2:0:0:0:
284,11,96308,5,0,2:0:0:0:
326,0,96377,1,0,2:0:0:0:
366,20,96446,1,0,2:0:0:0:
377,63,96515,1,0,2:0:0:0:
361,107,96583,1,0,3:0:0:0:
287,121,96652,1,0,3:0:0:0:
213,136,96721,1,0,3:0:0:0:
140,150,96790,1,0,3:0:0:0:
66,165,96859,1,0,3:0:0:0:
15,220,96927,1,0,3:0:0:0:
9,294,96996,1,0,3:0:0:0:
60,348,97065,1,0,3:0:0:0:
135,352,97134,1,4,3:0:0:0:
135,352,97684,6,0,B|153:331|149:304|149:304|155:331|180:348,1,105,8|0,2:0|2:0,2:0:0:0:
318,384,97960,22,0,P|360:319|308:242,1,150,6|0,1:2|2:0,2:0:0:0:
259,226,98235,2,0,P|243:179|256:126,1,100,2|0,1:2|2:0,2:0:0:0:
312,78,98441,1,0,2:0:0:0:
327,77,98510,1,6,1:2:0:0:
326,174,98648,1,2,2:0:0:0:
296,0,98785,2,0,P|348:0|416:46,1,100,0|0,1:0|2:0,2:0:0:0:
496,344,99060,6,0,P|538:279|486:202,1,150,6|0,1:2|2:0,2:0:0:0:
437,186,99336,2,0,P|421:139|434:86,1,100,0|2,1:0|2:0,2:0:0:0:
490,38,99542,1,0,2:0:0:0:
505,37,99611,1,4,1:2:0:0:
504,132,99749,1,0,2:0:0:0:
390,20,99886,2,0,P|330:23|266:51,1,100,2|0,1:2|2:0,2:0:0:0:
0,226,100161,6,0,B|23:196|23:196|144:220,1,150,4|0,1:2|2:0,2:0:0:0:
168,294,100437,2,0,B|191:324|191:324|290:304,1,100,2|0,1:2|2:0,2:0:0:0:
312,266,100643,1,0,2:0:0:0:
331,262,100712,1,6,1:2:0:0:
217,237,100849,1,2,2:0:0:0:
327,346,100987,2,0,L|427:320,1,100,0|0,1:0|2:0,2:0:0:0:
512,25,101262,6,0,B|489:-5|489:-5|368:20,1,150,6|0,1:2|2:0,2:0:0:0:
344,93,101538,2,0,B|321:123|321:123|222:103,1,100,0|2,1:0|2:0,2:0:0:0:
200,65,101744,1,0,2:0:0:0:
181,61,101813,1,4,1:2:0:0:
287,35,101950,1,0,2:0:0:0:
78,42,102088,2,0,L|107:137,1,100,2|0,1:2|2:0,2:0:0:0:
326,384,102363,21,6,1:2:0:0:
330,370,102501,1,0,1:0:0:0:
181,364,102638,5,6,1:2:0:0:
187,377,102776,1,0,1:0:0:0:
361,275,102914,5,6,1:2:0:0:
367,255,103051,1,0,1:0:0:0:
143,247,103189,5,6,1:2:0:0:
150,267,103327,1,0,1:0:0:0:
392,163,103464,21,6,1:2:0:0:
397,135,103602,1,0,1:0:0:0:
110,130,103739,5,6,1:2:0:0:
118,157,103877,1,0,1:0:0:0:
418,39,104015,5,6,1:2:0:0:
426,5,104152,1,0,1:0:0:0:
71,0,104290,5,6,1:2:0:0:
82,34,104427,1,0,1:0:0:0:
397,135,104565,21,6,1:2:0:0:
386,60,104634,1,8,3:0:0:0:
325,15,104703,1,8,3:0:0:0:
250,13,104771,1,8,3:0:0:0:
193,62,104840,1,12,3:0:0:0:
183,131,104909,1,12,3:0:0:0:
212,189,104978,1,12,3:0:0:0:
264,218,105047,1,12,3:0:0:0:
287,268,105116,1,4,3:0:0:0:
283,317,105184,1,4,3:0:0:0:
254,352,105253,1,4,3:0:0:0:
214,357,105322,1,4,3:0:0:0:
182,341,105391,1,4,3:0:0:0:
170,313,105460,1,4,3:0:0:0:
177,289,105528,1,4,3:0:0:0:
192,275,105597,1,4,3:0:0:0:
209,274,105666,6,0,L|228:284,76,12.5,4|0|0|0|0|0|0|0|0|0|0|0|0|0|0|0|0|0|0|0|0|0|0|0|0|0|0|0|0|0|0|0|0|0|0|0|0|0|0|0|0|0|0|0|0|0|0|0|0|0|0|0|0|0|0|0|0|0|0|0|0|0|0|0|0|0|0|0|0|0|0|0|0|0|0|0|0,3:1|2:0|2:0|2:0|2:0|2:0|2:0|2:0|2:0|2:0|2:0|2:0|2:0|2:0|2:0|2:0|2:0|2:0|2:0|2:0|2:0|2:0|2:0|2:0|2:0|2:0|2:0|2:0|2:0|2:0|2:0|2:0|2:0|2:0|2:0|2:0|2:0|2:0|2:0|2:0|2:0|2:0|2:0|2:0|2:0|2:0|2:0|2:0|2:0|2:0|2:0|2:0|2:0|2:0|2:0|2:0|2:0|2:0|2:0|2:0|2:0|2:0|2:0|2:0|2:0|2:0|2:0|2:0|2:0|2:0|2:0|2:0|2:0|2:0|2:0|2:0|2:0,2:0:0:0:
289,242,107042,2,0,L|294:241,20,3.74999988555909,2|0|0|0|0|0|0|0|0|0|0|0|0|0|0|0|0|0|0|0|0,2:0|2:0|2:0|2:0|2:0|2:0|2:0|2:0|2:0|2:0|2:0|2:0|2:0|2:0|2:0|2:0|2:0|2:0|2:0|2:0|2:0,2:0:0:0:
338,311,107455,6,0,L|394:236,124,74.9999999999999,2|0|0|0|0|0|0|0|0|0|0|0|0|0|0|0|0|0|0|0|0|0|0|0|0|0|0|0|0|0|0|0|0|0|0|0|0|0|0|0|0|0|0|0|0|0|0|0|0|0|0|0|0|0|0|0|0|0|0|0|0|0|0|0|0|0|0|0|0|0|0|0|0|0|0|0|0|0|0|0|0|0|0|0|0|0|0|0|0|0|0|0|0|0|0|0|0|0|0|0|0|0|0|0|0|0|0|0|0|0|0|0|0|0|0|0|0|0|0|0|0|0|0|0|0,2:0|2:0|2:0|2:0|2:0|2:0|2:0|2:0|2:0|2:0|2:0|2:0|2:0|2:0|2:0|2:0|2:0|2:0|2:0|2:0|2:0|2:0|2:0|2:0|2:0|2:0|2:0|2:0|2:0|2:0|2:0|2:0|2:0|2:0|2:0|2:0|2:0|2:0|2:0|2:0|2:0|2:0|2:0|2:0|2:0|2:0|2:0|2:0|2:0|2:0|2:0|2:0|2:0|2:0|2:0|2:0|2:0|2:0|2:0|2:0|2:0|2:0|2:0|2:0|2:0|2:0|2:0|2:0|2:0|2:0|2:0|2:0|2:0|2:0|2:0|2:0|2:0|2:0|2:0|2:0|2:0|2:0|2:0|2:0|2:0|2:0|2:0|2:0|2:0|2:0|2:0|2:0|2:0|2:0|2:0|2:0|2:0|2:0|2:0|2:0|2:0|2:0|2:0|2:0|2:0|2:0|2:0|2:0|2:0|2:0|2:0|2:0|2:0|2:0|2:0|2:0|2:0|2:0|2:0|2:0|2:0|2:0|2:0|2:0|1:0,2:0:0:0:
254,355,109657,5,0,1:0:0:0:
196,338,109726,1,0,1:0:0:0:
152,297,109794,1,0,1:0:0:0:
134,239,109863,1,0,1:0:0:0:
137,178,109932,1,0,1:0:0:0:
161,123,110001,1,0,1:0:0:0:
211,89,110070,2,0,L|277:68,3,50,6|0|0|0,3:0|2:0|2:0|2:0,2:0:0:0:
285,71,110345,21,2,2:3:0:0:
294,120,110414,1,0,2:0:0:0:
303,168,110482,1,0,2:0:0:0:
314,216,110551,1,0,2:0:0:0:
379,262,110620,5,2,2:3:0:0:
396,204,110689,1,0,2:0:0:0:
413,146,110758,1,0,2:0:0:0:
431,88,110827,1,0,2:0:0:0:
512,63,110895,5,4,3:0:0:0:
102,269,111171,22,0,B|70:272|70:272|68:256|68:256|70:272|70:272|86:270|86:270|84:254|84:254|86:270|86:270|102:269|102:269|100:253|100:253|98:237|98:237|66:240|66:240|65:224|65:224|81:222|81:222|82:238|82:238|96:221|96:221|95:205|95:205|63:208|63:208|61:192|61:192|77:191|77:191|79:207|79:207|93:189|93:189|91:173|91:173|60:176|60:176|58:160|58:160|90:157|90:157|88:140|88:140|56:145|56:145|55:129|55:129|71:127|71:127|72:143|72:143|86:125|86:125,1,597,4|0,3:1|2:0,2:0:0:0:
13,27,111446,54,0,L|146:13,1,89.9999999999999,4|0,1:0|2:0,2:0:0:0:
271,0,111583,2,0,L|324:123,1,89.9999999999999,4|0,3:0|2:0,2:0:0:0:
370,37,111721,2,0,L|423:160,1,89.9999999999999,4|0,3:0|2:0,2:0:0:0:
48,109,111859,22,0,L|181:95,1,89.9999999999999,4|0,1:0|2:0,2:0:0:0:
306,82,111996,2,0,L|359:205,1,89.9999999999999,4|0,3:0|2:0,2:0:0:0:
405,119,112134,2,0,L|458:242,1,89.9999999999999,4|0,3:0|2:0,2:0:0:0:
84,192,112271,22,0,L|217:178,1,89.9999999999999,4|0,1:0|2:0,2:0:0:0:
342,165,112409,2,0,L|395:288,1,89.9999999999999,4|0,3:0|2:0,2:0:0:0:
441,202,112547,2,0,L|494:325,1,89.9999999999999,4|0,3:0|2:0,2:0:0:0:
119,274,112684,6,0,L|252:260,1,89.9999999999999,4|0,1:0|2:0,2:0:0:0:
377,247,112822,2,0,L|430:370,1,89.9999999999999,4|0,3:0|2:0,2:0:0:0:
476,284,112960,2,0,L|529:407,1,89.9999999999999,4|0,3:0|2:0,2:0:0:0:
173,182,113097,21,8,2:1:0:0:
155,122,113166,1,2,2:0:0:0:
206,84,113235,1,2,2:0:0:0:
257,121,113304,1,2,2:0:0:0:
235,182,113372,54,0,B|214:190|214:190|220:175|220:175|205:169|205:169|199:184|199:184|228:195|228:195|222:211|222:211|193:198|193:198|186:213|186:213|216:226|216:226|209:240|209:240|189:249|189:249|195:234|195:234|180:228|180:228|174:243|174:243|203:255|203:255|197:270|197:270|176:278|176:278|182:264|182:264|168:257|168:257|161:272|161:272|191:285|191:285|184:299|184:299|178:314|178:314|164:308|164:308|170:293|170:293|164:308|164:308|149:302|149:302|155:287|155:287|149:302|149:302|178:314,1,592.500000000001,4|0,3:1|2:0,2:0:0:0:
0,384,113648,22,0,L|45:273,1,89.9999999999999,4|0,1:0|2:0,2:0:0:0:
166,177,113785,2,0,L|82:142,1,89.9999999999999,4|0,3:0|2:0,2:0:0:0:
37,109,113923,2,0,L|120:143,1,89.9999999999999,4|0,3:0|2:0,2:0:0:0:
105,347,114060,6,0,L|150:236,1,89.9999999999999,4|0,1:0|2:0,2:0:0:0:
273,141,114198,2,0,L|189:106,1,89.9999999999999,4|0,3:0|2:0,2:0:0:0:
144,72,114336,2,0,L|227:106,1,89.9999999999999,4|0,3:0|2:0,2:0:0:0:
211,310,114473,6,0,L|256:199,1,89.9999999999999,4|0,1:0|2:0,2:0:0:0:
379,104,114611,2,0,L|295:69,1,89.9999999999999,4|0,3:0|2:0,2:0:0:0:
250,36,114749,2,0,L|333:70,1,89.9999999999999,4|0,3:0|2:0,2:0:0:0:
317,273,114886,22,0,L|362:162,1,89.9999999999999,4|0,1:0|2:0,2:0:0:0:
485,67,115024,2,0,L|401:32,1,89.9999999999999,4|0,3:0|2:0,2:0:0:0:
355,0,115161,2,0,L|438:34,1,89.9999999999999,4|0,3:0|2:0,2:0:0:0:
448,380,115299,5,8,2:1:0:0:
384,383,115368,1,2,2:0:0:0:
362,325,115437,1,2,2:0:0:0:
411,285,115505,1,2,2:0:0:0:
465,318,115574,1,4,3:1:0:0:
482,312,115643,1,0,2:0:0:0:
482,294,115712,1,0,2:0:0:0:
465,288,115781,1,0,2:0:0:0:
454,303,115849,2,0,B|468:278|468:278|502:36,1,225,6|0,2:0|2:0,2:0:0:0:
487,13,116125,5,4,3:0:0:0:
414,32,116194,1,4,3:0:0:0:
341,53,116262,2,0,B|355:78|355:78|389:320,1,225,6|0,2:0|2:0,2:0:0:0:
384,383,116538,5,4,3:0:0:0:
311,364,116606,1,4,3:0:0:0:
238,343,116675,2,0,B|252:318|252:318|286:76,1,225,6|0,2:0|2:0,2:0:0:0:
280,13,116950,21,4,3:0:0:0:
208,32,117019,1,4,3:0:0:0:
135,53,117088,2,0,B|149:78|149:78|183:320,1,225,6|0,2:0|2:0,2:0:0:0:
176,383,117363,5,4,3:0:0:0:
104,364,117432,1,4,3:0:0:0:
32,347,117501,1,8,2:1:0:0:
27,332,117570,1,0,2:0:0:0:
22,317,117638,1,0,2:0:0:0:
17,302,117707,1,0,2:0:0:0:
12,288,117776,38,0,B|3:257|3:257|18:252|18:252|3:257|3:257|8:272|8:272|22:267|22:267|8:272|8:272|12:288|12:288|27:283|27:283|42:278|42:278|33:248|33:248|48:243|48:243|53:258|53:258|37:263|37:263|57:273|57:273|73:269|73:269|63:238|63:238|79:234|79:234|83:249|83:249|68:253|68:253|88:264|88:264|103:259|103:259|94:229|94:229|109:224|109:224|119:255|119:255|135:250|135:250|125:219|125:219|140:214|140:214|145:230|145:230|129:235|129:235|149:245|149:245,1,595.2,4|0,3:1|2:0,2:0:0:0:
261,206,118051,37,6,2:0:0:0:
349,123,118189,2,0,L|407:140,2,50,0|0|0,2:0|2:0|2:0,2:0:0:0:
346,210,118464,5,2,2:0:0:0:
439,294,118602,2,0,L|497:277,2,60,0|0|0,2:0|2:0|2:0,2:0:0:0:
357,352,118877,21,2,2:0:0:0:
261,206,119015,2,0,L|185:183,2,70,0|0|0,2:0|2:0|2:0,2:0:0:0:
304,286,119290,5,2,2:0:0:0:
211,85,119427,2,0,L|129:62,2,80,0|0|0,2:0|2:0|2:0,2:0:0:0:
50,211,119703,6,0,L|25:259,1,45,0|0,1:0|2:0,2:0:0:0:
12,327,119978,22,0,B|-16:312|-16:312|-9:298|-9:298|-16:312|-16:312|-2:319|-2:319|4:305|4:305|-2:319|-2:319|12:327|12:327|19:312|19:312|26:298|26:298|-2:284|-2:284|4:269|4:269|18:276|18:276|11:291|11:291|33:283|33:283|40:269|40:269|11:255|11:255|18:241|18:241|32:248|32:248|25:262|25:262|47:255|47:255|54:240|54:240|25:226|25:226|32:212|32:212|61:226|61:226|68:210|68:210|39:197|39:197|46:183|46:183|60:190|60:190|53:204|53:204|75:197|75:197,1,592.500000000001,4|0,3:1|2:0,2:0:0:0:
61,36,120253,54,0,L|209:19,1,89.9999999999999,4|0,1:0|2:0,2:0:0:0:
350,0,120391,2,0,L|338:89,1,89.9999972534181,4|0,3:0|2:0,2:0:0:0:
417,122,120528,2,0,L|428:32,1,89.9999972534181,4|0,3:0|2:0,2:0:0:0:
47,121,120666,22,0,L|195:104,1,89.9999999999999,4|0,1:0|2:0,2:0:0:0:
339,89,120804,2,0,L|327:178,1,89.9999972534181,4|0,3:0|2:0,2:0:0:0:
406,211,120941,2,0,L|417:121,1,89.9999972534181,4|0,3:0|2:0,2:0:0:0:
33,206,121079,6,0,L|181:189,1,89.9999999999999,4|0,1:0|2:0,2:0:0:0:
328,178,121216,2,0,L|316:267,1,89.9999972534181,4|0,3:0|2:0,2:0:0:0:
395,300,121353,2,0,L|406:210,1,89.9999972534181,4|0,3:0|2:0,2:0:0:0:
19,291,121492,6,0,L|167:274,1,89.9999999999999,4|0,1:0|2:0,2:0:0:0:
316,262,121629,2,0,L|304:351,1,89.9999972534181,4|0,3:0|2:0,2:0:0:0:
383,384,121766,2,0,L|394:294,1,89.9999972534181,4|0,3:0|2:0,2:0:0:0:
217,73,121905,5,8,2:1:0:0:
160,46,121973,1,2,2:0:0:0:
116,89,122042,1,2,2:0:0:0:
144,146,122111,1,2,2:0:0:0:
204,133,122180,6,0,B|197:101|197:101|212:98|212:98|197:101|197:101|200:117|200:117|216:113|216:113|200:117|200:117|204:133|204:133|219:129|219:129|235:126|235:126|228:95|228:95|244:91|244:91|247:107|247:107|231:110|231:110|250:123|250:123|266:119|266:119|259:88|259:88|275:85|275:85|278:100|278:100|263:104|263:104|282:116|282:116|297:113|297:113|291:81|291:81|306:78|306:78|313:109|313:109|330:105|330:105|322:75|322:75|338:71|338:71|341:87|341:87|325:90|325:90|344:103|344:103,1,597,4|0,3:1|2:0,2:0:0:0:
436,1,122455,6,0,L|456:101,1,89.9999999999999,4|0,1:0|2:0,2:0:0:0:
486,252,122593,2,0,L|506:352,1,89.9999999999999,4|0,3:0|2:0,2:0:0:0:
396,384,122730,2,0,L|379:295,1,89.9999999999999,4|0,3:0|2:0,2:0:0:0:
357,0,122868,6,0,L|377:100,1,89.9999999999999,4|0,1:0|2:0,2:0:0:0:
408,252,123005,2,0,L|428:352,1,89.9999999999999,4|0,3:0|2:0,2:0:0:0:
318,384,123143,2,0,L|301:295,1,89.9999999999999,4|0,3:0|2:0,2:0:0:0:
280,0,123281,6,0,L|300:100,1,89.9999999999999,4|0,1:0|2:0,2:0:0:0:
331,252,123418,2,0,L|351:352,1,89.9999999999999,4|0,3:0|2:0,2:0:0:0:
241,384,123556,2,0,L|224:295,1,89.9999999999999,4|0,3:0|2:0,2:0:0:0:
203,0,123694,6,0,L|223:100,1,89.9999999999999,4|0,1:0|2:0,2:0:0:0:
254,252,123831,2,0,L|274:352,1,89.9999999999999,4|0,3:0|2:0,2:0:0:0:
164,384,123969,2,0,L|147:295,1,89.9999999999999,4|0,3:0|2:0,2:0:0:0:
111,61,124106,21,8,2:1:0:0:
89,0,124175,1,2,2:0:0:0:
28,0,124244,1,2,2:0:0:0:
10,60,124313,1,2,2:0:0:0:
59,99,124382,1,4,3:1:0:0:
59,117,124450,1,0,2:0:0:0:
42,123,124519,1,0,2:0:0:0:
31,109,124588,1,0,2:0:0:0:
41,91,124657,2,0,B|27:116|27:116|-7:358,1,225,6|0,2:0|2:0,2:0:0:0:
37,374,124932,5,4,3:0:0:0:
110,355,125001,1,4,3:0:0:0:
183,334,125070,2,0,B|169:309|169:309|135:67,1,225,6|0,2:0|2:0,2:0:0:0:
145,0,125345,5,4,3:0:0:0:
218,19,125414,1,4,3:0:0:0:
286,44,125482,2,0,B|272:69|272:69|238:311,1,225,6|0,2:0|2:0,2:0:0:0:
244,374,125758,5,4,3:0:0:0:
316,355,125827,1,4,3:0:0:0:
389,334,125895,2,0,B|375:309|375:309|341:67,1,225,6|0,2:0|2:0,2:0:0:0:
348,4,126171,21,4,3:0:0:0:
420,23,126239,1,4,3:0:0:0:
492,40,126308,1,8,2:1:0:0:
497,55,126377,1,0,2:0:0:0:
502,70,126446,1,0,2:0:0:0:
507,85,126515,1,0,2:0:0:0:
512,99,126583,54,0,B|521:129|521:129|506:134|506:134|521:129|521:129|516:114|516:114|501:119|501:119|516:114|516:114|512:99|512:99|496:103|496:103|481:108|481:108|491:139|491:139|476:144|476:144|471:129|471:129|486:124|486:124|466:113|466:113|451:118|451:118|461:149|461:149|445:154|445:154|440:138|440:138|456:133|456:133|435:123|435:123|420:128|420:128|430:159|430:159|415:164|415:164|405:133|405:133|389:139|389:139|400:168|400:168|384:173|384:173|379:158|379:158|395:153|395:153|375:143|375:143,1,598.5,4|0,3:1|2:0,2:0:0:0:
276,189,126859,21,6,2:0:0:0:
196,101,126996,2,0,L|138:118,2,50,0|0|0,2:0|2:0|2:0,2:0:0:0:
181,203,127271,5,2,2:0:0:0:
77,300,127409,2,0,L|19:283,2,60,0|0|0,2:0|2:0|2:0,2:0:0:0:
82,205,127684,5,2,2:0:0:0:
216,327,127822,2,0,L|290:305,2,70,0|0|0,2:0|2:0|2:0,2:0:0:0:
262,225,128097,21,2,2:0:0:0:
392,384,128235,2,0,L|488:355,2,80,0|0|0,2:0|2:0|2:0,2:0:0:0:
365,214,128510,6,0,L|376:164,1,45,8|0,2:1|2:0,2:0:0:0:
453,107,128785,6,0,B|408:99|408:99|385:79|385:79|285:125|285:125|263:108|263:108|201:102,1,255.000004863739,4|0,1:0|2:0,2:0:0:0:
44,95,129060,21,10,3:0:0:0:
0,157,129129,1,10,3:0:0:0:
44,219,129198,1,10,3:0:0:0:
117,196,129267,1,10,3:0:0:0:
117,119,129336,1,10,3:0:0:0:
190,96,129405,1,10,3:0:0:0:
234,158,129473,1,10,3:0:0:0:
190,220,129542,1,10,3:0:0:0:
234,282,129611,1,10,3:0:0:0:
307,259,129680,1,10,3:0:0:0:
307,182,129749,1,10,3:0:0:0:
380,159,129817,1,10,3:0:0:0:
424,221,129886,54,0,L|429:259,8,37.5,2|0|0|0|0|0|0|0|4,2:0|2:0|2:0|2:0|2:0|2:0|2:0|2:0|3:0,2:0:0:0:
234,158,130161,21,4,3:0:0:0:
327,107,130299,2,0,L|360:49,8,50,2|0|0|0|0|0|0|0|4,2:0|2:0|2:0|2:0|2:0|2:0|2:0|2:0|3:0,2:0:0:0:
234,282,130574,1,4,3:0:0:0:
173,6,130712,5,8,2:1:0:0:
230,20,130781,1,0,2:0:0:0:
234,80,130849,1,0,2:0:0:0:
177,102,130918,1,0,2:0:0:0:
139,55,130987,2,0,B|89:15|89:15|281:32,1,255,4|0,1:0|2:0,2:0:0:0:
448,159,131262,37,10,3:0:0:0:
492,221,131331,1,10,3:0:0:0:
448,283,131400,1,10,3:0:0:0:
375,260,131469,1,10,3:0:0:0:
375,183,131538,1,10,3:0:0:0:
302,160,131606,1,10,3:0:0:0:
258,222,131675,1,10,3:0:0:0:
302,284,131744,1,10,3:0:0:0:
258,346,131813,1,10,3:0:0:0:
185,323,131882,1,10,3:0:0:0:
185,246,131950,1,10,3:0:0:0:
112,223,132019,1,10,3:0:0:0:
68,285,132088,38,0,L|62:323,8,37.5,2|0|0|0|0|0|0|0|4,2:0|2:0|2:0|2:0|2:0|2:0|2:0|2:0|3:0,2:0:0:0:
258,222,132363,5,4,3:0:0:0:
165,171,132501,2,0,L|133:109,8,50,2|0|0|0|0|0|0|0|4,2:0|2:0|2:0|2:0|2:0|2:0|2:0|2:0|3:0,2:0:0:0:
258,346,132776,1,4,3:0:0:0:
284,12,132914,21,8,2:1:0:0:
231,38,132982,1,0,2:0:0:0:
238,100,133051,1,0,2:0:0:0:
300,112,133120,1,0,2:0:0:0:
330,56,133189,1,4,1:0:0:0:
342,41,133258,1,0,2:0:0:0:
360,46,133327,1,0,2:0:0:0:
358,66,133395,1,0,2:0:0:0:
337,70,133464,2,0,B|291:75|291:75|176:-5|176:-5|111:2,1,225,6|0,2:0|2:0,2:0:0:0:
34,27,133739,5,4,3:0:0:0:
53,100,133808,1,4,3:0:0:0:
74,173,133877,2,0,B|120:178|120:178|235:98|235:98|300:105,1,225,6|0,2:0|2:0,2:0:0:0:
377,130,134152,5,4,3:0:0:0:
358,203,134221,1,4,3:0:0:0:
337,276,134290,2,0,B|291:281|291:281|176:201|176:201|111:208,1,225,6|0,2:0|2:0,2:0:0:0:
34,233,134565,5,4,3:0:0:0:
53,306,134634,1,4,3:0:0:0:
74,379,134703,2,0,B|120:384|120:384|235:304|235:304|300:311,1,225,6|0,2:0|2:0,2:0:0:0:
403,383,134978,21,4,3:0:0:0:
476,362,135047,1,4,3:0:0:0:
510,295,135116,1,8,2:1:0:0:
499,275,135184,1,0,2:0:0:0:
488,255,135253,1,0,2:0:0:0:
477,235,135322,1,0,2:0:0:0:
466,214,135391,54,0,B|451:185|451:185|437:192|437:192|451:185|451:185|458:199|458:199|444:206|444:206|458:199|458:199|466:214|466:214|451:221|451:221|437:228|437:228|423:199|423:199|408:206|408:206|415:220|415:220|430:213|430:213|422:235|422:235|408:242|408:242|394:213|394:213|380:220|380:220|387:234|387:234|401:227|401:227|394:249|394:249|379:256|379:256|365:227|365:227|351:234|351:234|365:263|365:263|349:270|349:270|336:241|336:241|322:248|322:248|329:262|329:262|343:255|343:255|336:277|336:277,1,595.5,4|0,3:1|2:0,2:0:0:0:
225,317,135666,21,6,2:0:0:0:
144,249,135804,2,0,L|91:284,2,50,0|0|0,2:0|2:0|2:0,2:0:0:0:
225,317,136079,5,2,2:0:0:0:
131,169,136216,2,0,L|61:192,2,70,0|0|0,2:0|2:0|2:0,2:0:0:0:
225,317,136492,5,2,2:0:0:0:
145,89,136629,2,0,L|34:96,2,95,0|0|0,2:0|2:0|2:0,2:0:0:0:
225,317,136905,21,2,2:0:0:0:
183,15,137042,2,0,L|35:-12,2,130,0|0|0,2:0|2:0|2:0,2:0:0:0:
468,61,137317,6,0,L|458:108,1,45,0|0,1:0|2:0,2:0:0:0:
368,174,137593,6,0,B|426:169|426:169|448:133|495:131|495:131|279:151|279:151|254:183|254:183|247:229|281:263|289:239|329:273|318:322|318:322|293:355|293:355|78:375|78:375|124:372|146:337|146:337|211:331,1,950,4|0,3:1|2:0,2:0:0:0:
397,328,140345,6,0,L|464:350,5,66.6666666666667,2|0|0|0|0|0,2:0|2:0|2:0|2:0|2:0|2:0,2:0:0:0:
457,268,140895,2,0,L|525:291,5,66.6666666666667,0|0|0|0|0|0,2:0|2:0|2:0|2:0|2:0|2:0,2:0:0:0:
509,213,141446,21,0,2:0:0:0:
469,193,141538,5,0,2:0:0:0:
420,198,141629,5,0,2:0:0:0:
385,241,141721,5,0,2:0:0:0:
326,260,141813,21,0,2:0:0:0:
262,236,141905,5,0,2:0:0:0:
297,165,141996,5,2,2:0:0:0:
287,160,142065,1,0,2:0:0:0:
275,157,142134,1,0,2:0:0:0:
262,155,142203,1,0,2:0:0:0:
248,156,142271,1,0,2:0:0:0:
234,160,142340,1,0,2:0:0:0:
219,166,142409,1,0,2:0:0:0:
206,176,142478,1,0,2:0:0:0:
194,190,142547,1,0,2:0:0:0:
185,207,142616,1,0,2:0:0:0:
180,227,142684,1,0,2:0:0:0:
181,249,142753,1,0,2:0:0:0:
189,271,142822,1,0,2:0:0:0:
203,291,142891,1,0,2:0:0:0:
225,307,142960,1,0,2:0:0:0:
252,314,143028,1,0,2:0:0:0:
283,311,143097,1,0,2:0:0:0:
311,296,143166,1,0,2:0:0:0:
332,268,143235,1,0,2:0:0:0:
343,233,143304,1,0,2:0:0:0:
366,201,143372,1,0,2:0:0:0:
404,184,143441,1,0,2:0:0:0:
448,190,143510,1,0,2:0:0:0:
484,221,143579,1,0,2:0:0:0:
495,270,143648,1,0,3:0:0:0:
473,319,143716,1,0,3:0:0:0:
421,342,143785,1,0,3:0:0:0:
362,324,143854,1,0,3:0:0:0:
298,308,143923,1,0,3:0:0:0:
228,319,143992,1,0,3:0:0:0:
161,356,144060,1,0,3:0:0:0:
82,371,144129,1,0,3:0:0:0:
0,346,144198,6,0,L|6:268,3,50,4|0|0|0,3:0|2:0|2:0|2:0,2:0:0:0:
144,250,144749,2,0,L|126:146,1,100,2|0,2:0|2:0,2:0:0:0:
118,73,145161,1,0,2:0:0:0:
186,27,145299,2,0,L|236:65,1,37.5000000000001,0|0,2:0|2:0,2:0:0:0:
262,122,145437,2,0,L|246:49,1,75.0000000000002,0|0,2:0|2:0,2:0:0:0:
216,282,145712,21,0,3:0:0:0:
263,300,145781,1,0,3:0:0:0:
309,317,145849,1,8,3:0:0:0:
429,185,145987,1,12,3:0:0:0:
494,279,146125,1,4,3:0:0:0:
213,186,146262,1,4,3:1:0:0:
