osu file format v14

[General]
AudioFilename: audio.mp3
AudioLeadIn: 0
PreviewTime: 73763
Countdown: 0
SampleSet: Drum
StackLeniency: 0.7
Mode: 0
LetterboxInBreaks: 0
WidescreenStoryboard: 1

[Editor]
DistanceSpacing: 0.1
BeatDivisor: 8
GridSize: 32
TimelineZoom: 5.199997

[Metadata]
Title:Destroy, Destroy, Destroy The Happy End
TitleUnicode:Destroy, Destroy, Destroy The Happy End
Artist:Chroma
ArtistUnicode:黒魔
Creator:Ancelysia
Version:atlas' Extreme
Source:
Tags:ancel atlas atlas- aeniko ryokazuka silver silverboxer robot & and human electronic instrumental featured artist fa dddthe
BeatmapID:3548715
BeatmapSetID:1730072

[Difficulty]
HPDrainRate:4.1
CircleSize:3.9
OverallDifficulty:9
ApproachRate:9.6
SliderMultiplier:2
SliderTickRate:0.5

[Events]
//Background and Video events
0,0,"28563722_p0.jpg",0,0
//Break Periods
2,67341,68832
2,168625,176172
//Storyboard Layer 0 (Background)
//Storyboard Layer 1 (Fail)
//Storyboard Layer 2 (Pass)
//Storyboard Layer 3 (Foreground)
//Storyboard Layer 4 (Overlay)
//Storyboard Sound Samples

[TimingPoints]
5489,550.45871559633,4,2,0,60,1,0
5489,-153.846153846154,4,2,0,60,0,0
13883,-153.846153846154,4,3,0,90,0,0
14296,-188.679245283019,4,2,0,60,0,0
22553,-181.818181818182,4,2,0,30,0,0
22587,-181.818181818182,4,2,0,15,0,0
23103,275.229357798165,4,3,1,100,1,0
23103,-44.4444444444445,4,3,1,100,0,0
23104,-44.4444444444445,4,3,1,100,0,0
23378,-133.333333333333,4,3,1,100,0,0
25029,-50,4,3,1,100,0,0
25580,-133.333333333333,4,3,1,100,0,0
27231,-44.4444444444445,4,3,1,100,0,0
27781,-133.333333333333,4,3,1,100,0,0
28332,-44.4444444444445,4,3,1,100,0,0
28882,-133.333333333333,4,3,1,100,0,0
29433,-44.4444444444445,4,3,1,100,0,0
29983,-133.333333333333,4,3,1,100,0,0
30258,-44.4444444444445,4,3,1,100,0,0
30809,-133.333333333333,4,2,1,30,0,0
30826,-133.333333333333,4,2,1,15,0,0
31635,-133.333333333333,4,2,0,100,0,0
31910,-333.333333333333,4,2,0,100,0,0
32186,275.229357798165,4,2,1,90,1,0
32186,-50,4,2,1,90,0,0
32187,-50,4,2,1,90,0,0
32254,-50,4,2,1,15,0,0
32323,-50,4,2,1,90,0,0
32391,-50,4,2,1,15,0,0
32461,-50,4,2,1,90,0,0
32529,-50,4,2,1,15,0,0
32598,-50,4,2,1,90,0,0
32666,-50,4,2,1,15,0,0
32736,-50,4,2,1,90,0,0
32804,-50,4,2,1,15,0,0
32874,-50,4,2,1,90,0,0
32942,-50,4,2,1,15,0,0
33011,-50,4,2,1,90,0,0
33079,-50,4,2,1,15,0,0
33149,-50,4,2,1,90,0,0
33217,-50,4,2,1,15,0,0
33286,-50,4,2,1,90,0,0
33493,-50,4,2,1,15,0,0
33562,-50,4,2,1,90,0,0
33630,-50,4,2,1,15,0,0
33699,-50,4,2,1,90,0,0
34043,-50,4,2,1,15,0,0
34112,-50,4,2,1,90,0,0
34455,-50,4,2,1,15,0,0
34524,-50,4,2,1,90,0,0
34592,-50,4,2,1,15,0,0
34662,-50,4,2,1,90,0,0
34730,-50,4,2,1,15,0,0
34799,-50,4,2,1,90,0,0
34867,-50,4,2,1,15,0,0
34937,-50,4,2,1,90,0,0
35005,-50,4,2,1,15,0,0
35075,-50,4,2,1,90,0,0
35144,-50,4,2,1,15,0,0
35213,-50,4,2,1,90,0,0
35280,-50,4,2,1,15,0,0
35350,-50,4,2,1,90,0,0
35418,-50,4,2,1,15,0,0
35487,-50,4,2,1,90,0,0
35694,-50,4,2,1,15,0,0
35763,-50,4,2,1,90,0,0
35831,-50,4,2,1,15,0,0
35900,-50,4,2,1,90,0,0
36039,-44.4444444444445,4,2,1,90,0,0
36244,-44.4444444444445,4,2,1,15,0,0
36314,-50,4,2,1,90,0,0
36589,-57.1428571428571,4,2,1,90,0,0
37002,-57.1428571428571,4,2,1,90,0,0
37277,-66.6666666666667,4,2,1,90,0,0
37828,-57.1428571428571,4,2,1,90,0,0
38241,-44.4444444444445,4,2,1,90,0,0
38516,-133.333333333333,4,2,1,90,0,0
40442,-100,4,2,1,90,0,0
40718,-40,4,2,1,90,0,0
41062,-40,4,2,1,15,0,0
41130,-40,4,2,1,90,0,0
41199,-40,4,2,1,15,0,0
41268,-57.1428571428571,4,2,1,90,0,0
41337,-57.1428571428571,4,2,1,15,0,0
41406,-57.1428571428571,4,2,1,90,0,0
41474,-57.1428571428571,4,2,1,15,0,0
41543,-57.1428571428571,4,2,1,90,0,0
41612,-57.1428571428571,4,2,1,15,0,0
41681,-57.1428571428571,4,2,1,90,0,0
41750,-57.1428571428571,4,2,1,15,0,0
41819,-57.1428571428571,4,2,1,90,0,0
41887,-57.1428571428571,4,2,1,15,0,0
41956,-57.1428571428571,4,2,1,90,0,0
42025,-57.1428571428571,4,2,1,15,0,0
42094,-57.1428571428571,4,2,1,90,0,0
42300,-57.1428571428571,4,2,1,15,0,0
42369,-57.1428571428571,4,2,1,90,0,0
42438,-57.1428571428571,4,2,1,15,0,0
42507,-57.1428571428571,4,2,1,90,0,0
42644,-44.4444444444445,4,2,1,90,0,0
42851,-44.4444444444445,4,2,1,15,0,0
42919,-44.4444444444445,4,2,1,90,0,0
43264,-44.4444444444445,4,2,1,15,0,0
43332,-44.4444444444445,4,2,1,90,0,0
43401,-44.4444444444445,4,2,1,15,0,0
43470,-57.1428571428571,4,2,1,90,0,0
43539,-57.1428571428571,4,2,1,15,0,0
43608,-57.1428571428571,4,2,1,90,0,0
43676,-57.1428571428571,4,2,1,15,0,0
43745,-57.1428571428571,4,2,1,90,0,0
43814,-57.1428571428571,4,2,1,15,0,0
43883,-57.1428571428571,4,2,1,90,0,0
43952,-57.1428571428571,4,2,1,15,0,0
44021,-57.1428571428571,4,2,1,90,0,0
44089,-57.1428571428571,4,2,1,15,0,0
44158,-57.1428571428571,4,2,1,90,0,0
44227,-57.1428571428571,4,2,1,15,0,0
44296,-57.1428571428571,4,2,1,90,0,0
44502,-57.1428571428571,4,2,1,15,0,0
44571,-57.1428571428571,4,2,1,90,0,0
44640,-57.1428571428571,4,2,1,15,0,0
44709,-57.1428571428571,4,2,1,90,0,0
44846,-45.4545454545455,4,2,1,90,0,0
45053,-45.4545454545455,4,2,1,15,0,0
45121,-45.4545454545455,4,2,1,90,0,0
45397,-55.5555555555556,4,2,1,90,0,0
47048,-44.4444444444445,4,2,1,90,0,0
49250,-80,4,2,1,90,0,0
49525,-44.4444444444445,4,2,2,90,0,0
49800,-44.4444444444445,4,1,1,90,0,0
49938,-80,4,1,1,90,0,0
50075,-66.6666666666667,4,1,1,90,0,0
50351,-57.1428571428571,4,1,1,90,0,0
51727,-57.1428571428571,4,1,3,90,0,0
51933,-57.1428571428571,4,1,3,40,0,0
52002,-57.1428571428571,4,1,1,90,0,0
52140,-80,4,1,1,90,0,0
52277,-66.6666666666667,4,1,1,90,0,0
52552,-66.6666666666667,4,1,1,90,0,0
53653,-57.1428571428571,4,1,3,90,0,0
53929,-57.1428571428571,4,1,3,90,0,0
54204,-57.1428571428571,4,2,1,90,0,0
55856,-44.4444444444445,4,2,1,90,0,0
56130,-44.4444444444445,4,2,3,90,0,0
56406,-44.4444444444445,4,2,1,90,0,0
58057,-44.4444444444445,4,1,3,90,0,0
58332,-57.1428571428571,4,1,3,90,0,0
58608,-66.6666666666667,4,1,1,90,0,0
60259,-66.6666666666667,4,1,3,90,0,0
60809,-66.6666666666667,4,1,1,90,0,0
62461,-66.6666666666667,4,1,3,90,0,0
63011,-66.6666666666667,4,2,1,90,0,0
64663,-50,4,2,1,90,0,0
64938,-100,4,2,3,90,0,0
65626,-100,4,2,1,90,0,0
66864,-100,4,1,1,90,0,0
67141,275.229357798165,4,2,0,80,1,0
67141,-100,4,2,0,80,0,0
67142,-100,4,2,0,80,0,0
73608,-100,4,2,0,20,0,0
73677,-100,4,3,0,60,0,0
73780,-100,4,3,0,60,0,0
73815,-100,4,3,0,60,0,0
75260,-100,4,3,0,90,0,0
75948,-133.333333333333,4,3,1,80,0,0
84342,-133.333333333333,4,3,1,80,0,0
84755,-133.333333333333,4,3,1,80,0,0
85306,-200,4,3,1,80,0,0
85856,-133.333333333333,4,3,1,80,0,0
86407,-200,4,3,1,80,0,0
86957,-133.333333333333,4,3,1,80,0,0
87507,-200,4,3,1,80,0,0
88058,-133.333333333333,4,3,1,80,0,0
88608,-200,4,3,1,80,0,0
89159,-133.333333333333,4,3,1,80,0,0
89847,-200,4,3,1,80,0,0
90260,-133.333333333333,4,3,1,80,0,0
90948,-200,4,3,1,80,0,0
91636,-133.333333333333,4,3,1,80,0,0
93011,-133.333333333333,4,3,3,80,0,0
93563,-200,4,3,3,80,0,0
94113,-66.6666666666667,4,3,3,80,0,0
94526,-66.6666666666667,4,3,1,80,0,0
94801,-200,4,3,1,80,0,0
94939,-200,4,3,3,80,0,0
95214,-66.6666666666667,4,3,3,80,0,0
95489,-66.6666666666667,4,3,1,80,0,0
95764,-200,4,3,1,80,0,0
96040,-200,4,3,3,80,0,0
96315,-66.6666666666667,4,3,3,80,0,0
96590,-66.6666666666667,4,3,1,80,0,0
97416,-133.333333333333,4,3,3,80,0,0
97829,-100,4,3,3,80,0,0
97966,-200,4,3,3,80,0,0
98517,-66.6666666666667,4,3,3,80,0,0
98928,-66.6666666666667,4,3,1,80,0,0
99205,-200,4,3,1,80,0,0
99341,-200,4,3,3,80,0,0
99618,-66.6666666666667,4,3,3,80,0,0
99892,-66.6666666666667,4,3,1,80,0,0
100168,-200,4,3,1,80,0,0
100442,-200,4,3,3,80,0,0
100718,-66.6666666666667,4,3,3,80,0,0
100993,-66.6666666666667,4,3,1,80,0,0
101818,-66.6666666666667,4,3,0,80,0,0
102576,-66.6666666666667,4,2,3,80,0,0
102713,-66.6666666666667,4,3,3,40,0,0
102781,-66.6666666666667,4,3,3,80,0,0
103608,-200,4,3,3,80,0,0
104021,-66.6666666666667,4,3,3,80,0,0
104433,-66.6666666666667,4,3,1,80,0,0
104572,-200,4,3,3,80,0,0
105122,-66.6666666666667,4,3,3,80,0,0
105534,-66.6666666666667,4,3,1,80,0,0
106222,-66.6666666666667,4,3,3,80,0,0
106774,-200,4,3,3,80,0,0
107186,-66.6666666666667,4,3,3,80,0,0
108012,-200,4,3,3,80,0,0
108425,-66.6666666666667,4,3,3,80,0,0
108975,-200,4,3,3,80,0,0
109526,-66.6666666666667,4,3,3,80,0,0
110076,-200,4,3,3,80,0,0
110902,-50,4,3,3,80,0,0
111177,-60.6060606060606,4,2,1,80,0,0
111728,-133.333333333333,4,3,1,80,0,0
112553,-66.6666666666667,4,2,1,80,0,0
113929,-133.333333333333,4,3,1,80,0,0
114755,-66.6666666666667,4,3,1,80,0,0
116131,-133.333333333333,4,3,1,80,0,0
116957,-66.6666666666667,4,3,1,80,0,0
118333,-133.333333333333,4,3,1,80,0,0
119159,-80,4,3,0,80,0,0
119709,-50,4,3,0,80,0,0
119985,-66.6666666666667,4,3,1,80,0,0
125489,-80,4,3,1,80,0,0
126865,-100,4,3,1,80,0,0
127278,-133.333333333333,4,3,1,80,0,0
127416,-200,4,3,1,80,0,0
127691,-40,4,2,1,30,0,0
127725,-40,4,2,1,15,0,0
128515,-25,4,2,0,100,0,0
128792,-52.6315789473684,4,2,0,100,0,0
137049,-400,4,2,0,100,0,0
137324,-133.333333333333,4,2,0,100,0,0
137341,-133.333333333333,4,2,0,5,0,0
137668,-133.333333333333,4,2,0,5,0,0
137685,-133.333333333333,4,2,0,15,0,0
137702,-133.333333333333,4,2,0,25,0,0
137719,-133.333333333333,4,2,0,35,0,0
137737,-133.333333333333,4,2,0,45,0,0
137754,-133.333333333333,4,2,0,55,0,0
137771,-133.333333333333,4,2,0,65,0,0
137788,-133.333333333333,4,2,0,75,0,0
137805,-133.333333333333,4,2,0,85,0,0
137823,-133.333333333333,4,2,0,95,0,0
137874,-52.6315789473684,4,2,0,100,0,0
145029,-52.6315789473684,4,2,1,100,0,0
145306,-125,4,2,1,100,0,0
146407,-200,4,3,3,80,0,0
146957,-66.6666666666667,4,3,3,80,0,0
147298,-66.6666666666667,4,3,1,80,0,0
147507,-66.6666666666667,4,3,3,80,0,0
147645,-200,4,3,3,80,0,0
148058,-66.6666666666667,4,3,3,80,0,0
148401,-66.6666666666667,4,3,1,80,0,0
148605,-66.6666666666667,4,3,3,80,0,0
148608,-200,4,3,3,80,0,0
149159,-66.6666666666667,4,3,3,80,0,0
150260,-133.333333333333,4,3,3,80,0,0
150673,-100,4,3,3,80,0,0
150810,-200,4,3,3,80,0,0
151361,-66.6666666666667,4,3,3,80,0,0
152049,-200,4,3,3,80,0,0
152462,-66.6666666666667,4,3,3,80,0,0
153012,-200,4,3,3,80,0,0
153562,-66.6666666666667,4,3,3,80,0,0
155558,-66.6666666666667,4,3,3,40,0,0
155627,-66.6666666666667,4,3,3,80,0,0
156452,-200,4,3,3,80,0,0
156865,-66.6666666666667,4,3,3,80,0,0
157140,-66.6666666666667,4,3,1,80,0,0
157416,-200,4,3,3,80,0,0
157966,-66.6666666666667,4,3,3,80,0,0
159618,-200,4,3,3,80,0,0
160030,-66.6666666666667,4,3,3,80,0,0
160856,-200,4,3,3,80,0,0
161269,-66.6666666666667,4,3,3,80,0,0
161819,-200,4,3,3,80,0,0
162370,-66.6666666666667,4,3,3,80,0,0
162920,-200,4,3,3,80,0,0
163746,-50,4,3,3,80,0,0
166636,-217.391304347826,4,3,3,80,0,0
185489,-50,4,2,3,30,0,0
185524,-50,4,2,3,15,0,0
186040,-50,4,2,0,80,0,0
186246,-50,4,2,0,20,0,0
186315,-66.6666666666667,4,2,0,80,0,0
186521,-66.6666666666667,4,2,0,20,0,0
186590,-66.6666666666667,4,2,0,80,0,0
186796,-66.6666666666667,4,2,0,20,0,0
186865,-66.6666666666667,4,2,0,80,0,0
187072,-66.6666666666667,4,2,0,20,0,0
187140,-66.6666666666667,4,2,0,80,0,0
187347,-66.6666666666667,4,2,0,20,0,0
187416,-66.6666666666667,4,2,0,80,0,0
187622,-66.6666666666667,4,2,0,20,0,0
187691,-66.6666666666667,4,2,0,80,0,0
187966,-50,4,2,0,80,0,0
188241,-66.6666666666667,4,2,0,80,0,0
188447,-66.6666666666667,4,2,0,20,0,0
188516,-66.6666666666667,4,2,0,80,0,0
188722,-66.6666666666667,4,2,0,20,0,0
188791,-66.6666666666667,4,2,0,80,0,0
188997,-66.6666666666667,4,2,0,20,0,0
189066,-66.6666666666667,4,2,0,80,0,0
189273,-66.6666666666667,4,2,0,20,0,0
189341,-66.6666666666667,4,2,0,80,0,0
189548,-66.6666666666667,4,2,0,20,0,0
189617,-66.6666666666667,4,2,0,80,0,0
189823,-66.6666666666667,4,2,0,20,0,0
189892,-66.6666666666667,4,2,0,80,0,0
190168,-50,4,2,0,80,0,0
190443,-66.6666666666667,4,2,0,80,0,0
190649,-66.6666666666667,4,2,0,20,0,0
190718,-66.6666666666667,4,2,0,80,0,0
190924,-66.6666666666667,4,2,0,20,0,0
190993,-66.6666666666667,4,2,0,80,0,0
191199,-66.6666666666667,4,2,0,20,0,0
191268,-66.6666666666667,4,2,0,80,0,0
191475,-66.6666666666667,4,2,0,20,0,0
191543,-66.6666666666667,4,2,0,80,0,0
191750,-66.6666666666667,4,2,0,20,0,0
191819,-66.6666666666667,4,2,0,80,0,0
192025,-66.6666666666667,4,2,0,20,0,0
192094,-66.6666666666667,4,2,0,80,0,0
192370,-50,4,2,0,80,0,0
192645,-66.6666666666667,4,2,0,80,0,0
192851,-66.6666666666667,4,2,0,20,0,0
192920,-66.6666666666667,4,2,0,80,0,0
193126,-66.6666666666667,4,2,0,20,0,0
193195,-66.6666666666667,4,2,0,80,0,0
193401,-66.6666666666667,4,2,0,20,0,0
193470,-66.6666666666667,4,2,0,80,0,0
193677,-66.6666666666667,4,2,0,20,0,0
193745,-66.6666666666667,4,2,0,80,0,0
193952,-66.6666666666667,4,2,0,20,0,0
194021,-66.6666666666667,4,2,0,80,0,0
194227,-66.6666666666667,4,2,0,20,0,0
194296,-66.6666666666667,4,2,0,80,0,0
194572,-50,4,2,0,80,0,0
194847,-66.6666666666667,4,2,0,80,0,0
195053,-66.6666666666667,4,2,0,20,0,0
195122,-66.6666666666667,4,2,0,80,0,0
195328,-66.6666666666667,4,2,0,20,0,0
195397,-66.6666666666667,4,2,0,80,0,0
195603,-66.6666666666667,4,2,0,20,0,0
195672,-66.6666666666667,4,2,0,80,0,0
195879,-66.6666666666667,4,2,0,20,0,0
195947,-66.6666666666667,4,2,0,80,0,0
196154,-66.6666666666667,4,2,0,20,0,0
196223,-66.6666666666667,4,2,0,80,0,0
196429,-66.6666666666667,4,2,0,20,0,0
196498,-66.6666666666667,4,2,0,80,0,0
196774,-50,4,2,0,80,0,0
197049,-66.6666666666667,4,2,0,80,0,0
197255,-66.6666666666667,4,2,0,20,0,0
197324,-66.6666666666667,4,2,0,80,0,0
197529,-66.6666666666667,4,2,0,20,0,0
197598,-66.6666666666667,4,2,0,80,0,0
197804,-66.6666666666667,4,2,0,20,0,0
197873,-66.6666666666667,4,2,0,80,0,0
198080,-66.6666666666667,4,2,0,20,0,0
198148,-66.6666666666667,4,2,0,80,0,0
198355,-66.6666666666667,4,2,0,20,0,0
198424,-66.6666666666667,4,2,0,80,0,0
198630,-66.6666666666667,4,2,0,20,0,0
198699,-66.6666666666667,4,2,0,80,0,0
198975,-50,4,2,0,80,0,0
199251,-66.6666666666667,4,2,0,80,0,0
199456,-66.6666666666667,4,2,0,20,0,0
199526,-66.6666666666667,4,2,0,80,0,0
199731,-66.6666666666667,4,2,0,20,0,0
199800,-66.6666666666667,4,2,0,80,0,0
200006,-66.6666666666667,4,2,0,20,0,0
200075,-66.6666666666667,4,2,0,80,0,0
200282,-66.6666666666667,4,2,0,20,0,0
200350,-66.6666666666667,4,2,0,80,0,0
200557,-66.6666666666667,4,2,0,20,0,0
200626,-66.6666666666667,4,2,0,80,0,0
200832,-66.6666666666667,4,2,0,20,0,0
200902,-66.6666666666667,4,2,0,80,0,0
201177,-50,4,2,0,80,0,0
201452,-200,4,2,0,80,0,0
203104,-200,4,3,1,80,0,0
203379,-50,4,3,1,80,0,0
203654,-50,4,3,1,80,0,0
204342,-100,4,3,1,80,0,0
205030,-50,4,3,1,80,0,0
206407,-100,4,3,1,80,0,0
207232,-50,4,3,1,80,0,0
208746,-100,4,3,1,80,0,0
209434,-50,4,3,1,80,0,0
210810,-100,4,3,1,80,0,0
211636,-66.6666666666667,4,3,0,80,0,0
212186,-50,4,3,1,80,0,0
212462,-133.333333333333,4,1,1,80,0,0
217416,-100,4,1,1,80,0,0
217966,-80,4,1,1,80,0,0
218517,-66.6666666666667,4,1,1,80,0,0
219893,-200,4,1,1,80,0,0
220168,-50,4,2,0,40,0,0
221475,-66.6666666666667,4,2,0,40,0,0
221888,-33.3333333333333,4,2,0,40,0,0
221957,-33.3333333333333,4,2,1,40,0,0
224090,-33.3333333333333,4,1,0,60,0,0
224159,-100,4,1,0,60,0,0
224228,-100,4,1,0,80,0,0
224365,-100,4,1,0,100,0,0
224572,-100,4,3,0,100,0,0
225397,-50,4,3,0,80,0,0
225948,275.229357798165,4,2,1,90,1,0
225948,-50,4,2,1,90,0,1
230351,-66.6666666666667,4,2,1,90,0,1
231934,-100,4,2,1,90,0,1
232278,-50,4,2,1,90,0,1
232553,-50,4,2,1,90,0,0
232622,-50,4,3,0,90,0,0
232691,-100,4,3,0,90,0,0
233654,-100,4,3,1,90,0,0
234204,-66.6666666666667,4,2,1,90,0,0
234480,-50,4,2,1,90,0,0
234755,-50,4,2,1,90,0,1
240810,-100,4,2,1,90,0,1
241085,-50,4,2,1,90,0,1
241360,-50,4,2,0,90,0,0
242461,-50,4,2,1,90,0,0
243012,-200,4,1,3,90,0,0
243287,-50,4,1,3,90,0,0
243562,-50,4,1,1,90,0,1
245214,-100,4,1,3,90,0,1
245489,-50,4,1,3,90,0,1
245764,-50,4,1,1,90,0,1
247415,-100,4,1,3,90,0,1
247691,-50,4,1,3,90,0,1
247966,-50,4,1,1,90,0,0
249480,-100,4,1,1,90,0,0
249892,-50,4,1,3,90,0,0
250168,-100,4,2,0,90,0,0
251819,-100,4,1,3,90,0,0
252094,-50,4,1,3,90,0,0
252370,-50,4,1,1,90,0,1
254021,-100,4,1,3,90,0,1
254296,-50,4,1,3,90,0,1
254571,-50,4,1,1,90,0,1
256223,-100,4,1,3,90,0,1
256498,-50,4,1,3,90,0,1
256773,-50,4,2,1,90,0,0
258425,-50,4,1,1,90,0,0
258700,-50,4,1,3,90,0,0
258975,-50,4,2,0,90,0,0
259113,-100,4,2,0,90,0,0
259801,-100,4,2,0,100,0,0
260626,-100,4,1,1,100,0,0
260902,275.229357798165,4,2,0,100,1,0
260902,-217.391304347826,4,2,0,100,0,0
260970,-217.391304347826,4,2,0,60,0,0
267369,-217.391304347826,4,2,0,20,0,0
267438,-217.391304347826,4,3,0,60,0,0
269021,-217.391304347826,4,3,0,90,0,0
269571,-344.827586206897,4,3,0,100,0,1
269640,-217.391304347826,4,3,0,100,0,0
275145,-1000,4,3,0,60,0,0

[Colours]
Combo1 : 99,137,133
Combo2 : 141,173,175
Combo3 : 95,224,202
Combo4 : 73,150,190
SliderBorder : 255,255,255

[HitObjects]
256,192,2186,12,0,5351,0:0:0:0:
178,208,5489,6,0,B|492:153|492:153|520:-13|328:-43|247:21|247:21|361:48|416:203|373:328|269:353|269:353|275:218|75:133|-26:218|-26:218|69:263|42:384|42:384|197:376|191:271,1,1917.49991222382,4|0,1:0|0:0,0:0:0:0:
190,270,13745,5,0,1:0:0:0:
62,14,13883,5,8,0:0:0:0:
8,76,14020,1,8,0:0:0:0:
86,96,14158,1,4,0:0:0:0:
0,344,14296,6,0,B|27:220|134:250|134:250|116:299|157:333|157:333|168:271|257:241|257:241|240:163|153:139|153:139|259:134|297:255|268:353|268:353|289:258|409:266|409:266|330:236|342:148|342:148|460:257|526:149|526:149|426:151|409:66,1,1576.75000240593,4|0,1:2|0:0,0:0:0:0:
368,6,22553,6,0,L|360:8,15,6.87500020980836,2|0|0|0|0|0|0|0|0|0|0|0|0|0|0|0,0:0|0:0|0:0|0:0|0:0|0:0|0:0|0:0|0:0|0:0|0:0|0:0|0:0|0:0|0:0|0:0,0:0:0:0:
212,0,23103,6,0,B|231:189|231:189|255:197|255:197|272:376,1,393.750015020371,12|0,1:0|0:0,0:0:0:0:
421,384,23378,2,0,P|435:349|416:296,1,93.7500035762788,2|0,0:0|0:0,0:0:0:0:
401,302,23584,6,0,P|386:267|346:251,1,75.0000028610231,2|2,0:2|0:2,0:0:0:0:
277,289,23791,2,0,P|241:275|180:326,1,112.500004291535,0|2,0:0|0:2,0:0:0:0:
23,367,24272,2,0,L|15:263,1,93.7500035762788,2|0,0:2|0:0,0:0:0:0:
29,266,24479,6,0,L|37:188,1,75.0000028610231,2|0,0:0|0:0,0:0:0:0:
14,113,24685,2,0,L|-1:-4,1,112.500004291535,2|2,0:2|0:0,0:0:0:0:
157,46,25029,6,0,B|316:71|316:71|322:93|322:93|532:130,1,350,12|0,1:0|0:0,0:0:0:0:
512,18,25304,6,0,B|353:43|353:43|347:65|347:65|137:102,1,350,12|0,1:0|0:0,0:0:0:0:
36,191,25580,2,0,B|71:221|71:221|119:206,1,93.7500035762788,2|0,0:0|0:0,0:0:0:0:
129,195,25786,6,0,B|163:169|163:169|203:178,1,75.0000028610231,2|2,0:2|0:2,0:0:0:0:
232,257,25992,2,0,B|285:271|285:271|330:228,1,112.500004291535,2|2,0:2|0:2,0:0:0:0:
418,45,26474,2,0,B|414:108|445:72|441:146,1,93.7500035762788,2|0,0:0|0:0,0:0:0:0:
428,144,26680,6,0,B|428:187|401:171|402:219,1,75.0000028610231,2|0,0:0|0:0,0:0:0:0:
475,259,26887,2,0,B|471:322|514:296|509:375,1,112.500004291535,2|2,0:2|0:0,0:0:0:0:
258,384,27231,6,0,B|244:193|244:193|253:192|253:192|238:-12,1,393.750015020371,12|0,1:0|0:0,0:0:0:0:
260,0,27506,6,0,B|245:192|245:192|254:193|254:193|240:384,1,393.750015020371,12|0,1:0|0:0,0:0:0:0:
197,193,27781,6,0,L|318:176,2,112.500004291535,2|2|2,0:0|0:0|0:2,0:0:0:0:
63,176,28332,6,0,B|254:190|254:190|255:181|255:181|448:196,1,393.750015020371,12|0,1:0|0:0,0:0:0:0:
448,174,28607,6,0,B|256:189|256:189|255:180|255:180|64:194,1,393.750015020371,12|0,1:0|0:0,0:0:0:0:
261,243,28882,6,0,L|244:122,2,112.500004291535,2|2|2,0:0|0:0|0:2,0:0:0:0:
188,348,29433,6,0,B|269:285|269:285|239:89|239:89|329:26,1,393.750015020371,12|0,1:0|0:0,0:0:0:0:
103,124,29708,2,0,B|204:111|204:111|322:271|322:271|430:251,1,393.750015020371,12|0,1:0|0:0,0:0:0:0:
450,186,29983,5,2,0:0:0:0:
315,35,30258,6,0,B|239:89|239:89|269:285|269:285|188:348,1,393.750015020371,12|0,1:0|0:0,0:0:0:0:
31,301,30534,2,0,B|40:350|122:361|147:274|90:238|52:257|52:257|7:280|-52:223|0:149|64:171|72:213,1,393.750015020371,2|0,0:0|0:0,0:0:0:0:
77,213,30809,6,0,L|86:215,48,9.37500035762788,2|0|0|2|0|0|0|0|0|0|0|0|0|0|0|0|0|0|0|0|0|0|0|0|0|0|0|0|0|0|0|0|0|0|0|0|0|0|0|0|0|0|0|0|0|0|0|0|6,1:2|0:0|0:0|0:2|0:0|0:0|0:0|0:0|0:0|0:0|0:0|0:0|0:0|0:0|0:0|0:0|0:0|0:0|0:0|0:0|0:0|0:0|0:0|0:0|0:0|0:0|0:0|0:0|0:0|0:0|0:0|0:0|0:0|0:0|0:0|0:0|0:0|0:0|0:0|0:0|0:0|0:0|0:0|0:0|0:0|0:0|0:0|0:0|3:2,0:0:0:0:
508,3,31910,6,2,L|457:11,1,52.4999983978272,6|0,1:3|0:0,1:0:0:0:
361,86,32186,6,0,P|319:120|322:173,1,100,6|0,1:2|0:0,0:0:0:0:
364,75,32323,2,0,P|310:69|274:108,1,100,6|0,1:2|0:0,0:0:0:0:
369,70,32461,2,0,P|334:28|282:31,1,100,6|0,1:2|0:0,0:0:0:0:
71,144,32598,6,0,P|127:98|123:26,1,100,6|0,1:2|0:0,0:0:0:0:
73,170,32735,2,0,P|145:177|193:124,1,100,6|0,1:2|0:0,0:0:0:0:
54,197,32873,2,0,P|99:253|171:249,1,100,6|0,1:2|0:0,0:0:0:0:
496,303,33011,5,6,1:2:0:0:
386,325,33149,1,6,1:2:0:0:
283,346,33286,1,2,1:3:0:0:
424,195,33424,5,2,1:2:0:0:
464,375,33562,1,2,1:2:0:0:
325,246,33699,1,2,1:3:0:0:
430,82,33837,6,0,B|229:113|229:113|285:116|320:170,1,300,4|0,3:0|0:0,1:0:0:0:
192,334,34112,6,2,B|239:260|171:199|153:218|134:231|41:175|98:84,1,300,4|0,1:3|0:0,1:2:0:0:
143,9,34387,6,0,L|24:30,1,100,6|0,1:2|0:0,0:0:0:0:
150,16,34525,2,0,L|80:114,1,100,6|0,1:2|0:0,0:0:0:0:
154,7,34663,2,0,L|174:125,1,100,6|0,1:2|0:0,0:0:0:0:
269,315,34800,6,0,L|150:294,1,100,6|0,1:2|0:0,0:0:0:0:
298,299,34938,2,0,L|228:201,1,100,6|0,1:2|0:0,0:0:0:0:
327,307,35076,2,0,L|347:189,1,100,6|0,1:2|0:0,0:0:0:0:
437,22,35213,5,6,1:2:0:0:
455,112,35351,1,6,1:2:0:0:
471,210,35488,1,2,1:3:0:0:
363,11,35626,5,2,1:2:0:0:
512,53,35763,1,2,1:2:0:0:
274,121,35901,1,2,1:3:0:0:
471,210,36039,6,0,B|522:333|522:333|248:253,1,393.750015020371,4|0,3:0|0:0,1:0:0:0:
0,327,36314,6,2,B|-8:271|51:225|115:251|133:304|116:343|116:343|144:319|188:325|211:359|207:392,1,350,4|0,1:3|0:0,1:2:0:0:
272,260,36589,6,0,L|302:-22,1,262.500002503395,4|0,1:3|0:0,0:0:0:0:
405,240,36864,5,8,3:0:0:0:
405,240,36933,1,8,3:0:0:0:
405,240,37002,2,0,L|298:-5,1,262.500002503395,4|0,1:3|0:0,0:0:0:0:
508,83,37277,5,8,3:0:0:0:
508,83,37346,1,8,3:0:0:0:
508,83,37415,2,0,L|295:-3,1,225.000008583069,4|0,1:3|0:0,0:0:0:0:
228,252,37690,5,8,3:0:0:0:
228,252,37759,1,8,3:0:0:0:
228,252,37828,2,0,L|301:-6,1,262.500002503395,4|0,1:3|0:0,0:0:0:0:
301,2,38103,5,8,3:0:0:0:
301,2,38172,1,8,3:0:0:0:
301,2,38241,6,0,B|325:160|325:160|340:166|340:166|364:337,1,337.500012874604,4|0,3:0|0:0,1:0:0:0:
447,300,38516,6,0,P|461:250|423:205,1,112.500004291535,6|0,1:3|0:0,1:0:0:0:
362,325,38791,5,4,1:2:0:0:
256,192,38808,12,2,40167,0:0:0:0:
32,113,40442,6,0,B|37:79|10:75|7:55|5:39|21:23|38:34|41:52|43:73|15:80|36:113,1,150,4|0,3:0|0:0,1:0:0:0:
112,142,40718,6,2,B|98:183|19:208|19:208|279:122,1,375,4|0,1:3|0:0,1:2:0:0:
375,47,40993,5,6,1:2:0:0:
337,240,41130,1,6,1:2:0:0:
381,50,41268,6,0,L|504:24,1,87.500000834465,6|0,1:2|0:0,0:0:0:0:
330,245,41406,2,0,L|207:219,1,87.500000834465,6|0,1:2|0:0,0:0:0:0:
386,52,41543,5,6,1:2:0:0:
325,250,41681,1,6,1:2:0:0:
449,179,41819,6,0,P|403:179|375:149,1,87.500000834465,6|0,1:2|0:0,0:0:0:0:
295,148,41956,2,0,P|262:115|263:74,1,87.500000834465,6|0,1:2|0:0,0:0:0:0:
175,86,42094,2,0,P|175:40|205:12,1,87.500000834465,2|0,1:3|0:0,0:0:0:0:
375,150,42231,6,0,P|417:148|448:178,1,87.500000834465,2|0,1:2|0:0,0:0:0:0:
405,252,42369,2,0,P|436:281|436:323,1,87.500000834465,2|0,1:2|0:0,0:0:0:0:
334,310,42507,2,0,P|335:352|305:383,1,87.500000834465,2|0,1:3|0:0,0:0:0:0:
146,366,42644,6,0,B|165:332|86:303|70:331|70:331|56:244|155:205|209:249|215:283|194:331,1,337.500012874604,4|0,1:3|2:0,1:0:0:0:
202,301,42919,6,2,B|218:243|218:243|31:144|31:144|54:60,1,337.500012874604,4|0,1:3|0:0,1:2:0:0:
110,25,43195,5,6,1:2:0:0:
367,87,43332,1,6,1:2:0:0:
117,30,43470,6,0,B|154:3|154:3|196:19,1,87.500000834465,6|0,1:2|0:0,0:0:0:0:
357,89,43608,2,0,B|320:116|320:116|278:100,1,87.500000834465,6|0,1:2|0:0,0:0:0:0:
124,36,43745,5,6,1:2:0:0:
349,91,43883,1,6,1:2:0:0:
71,189,44020,6,0,B|98:185|98:185|121:152|121:152|140:150,1,87.500000834465,6|0,1:2|0:0,0:0:0:0:
179,213,44158,2,0,B|201:230|201:230|240:223|240:223|255:235,1,87.500000834465,6|0,1:2|0:0,0:0:0:0:
223,304,44296,2,0,B|226:331|226:331|259:354|259:354|261:373,1,87.500000834465,2|0,1:3|0:0,0:0:0:0:
179,213,44433,6,0,B|201:195|201:195|240:202|240:202|255:190,1,87.500000834465,2|0,1:2|0:0,0:0:0:0:
331,253,44571,2,0,B|334:225|334:225|367:202|367:202|369:183,1,87.500000834465,2|0,1:2|0:0,0:0:0:0:
463,204,44708,2,0,B|445:181|445:181|452:142|452:142|440:127,1,87.500000834465,2|0,1:3|0:0,0:0:0:0:
112,122,44846,6,0,B|179:119|191:-3|191:-3|192:122|260:140,1,330.000010070801,4|0,1:3|2:0,1:0:0:0:
360,175,45121,6,2,B|2:212|2:212,1,330.000010070801,4|0,1:3|0:0,1:2:0:0:
32,209,45397,6,0,B|125:184|141:272|126:276|109:281|158:364|232:324,1,269.999991760254,4|0,1:3|0:0,0:0:0:0:
288,270,45672,5,8,3:0:0:0:
288,270,45741,1,8,3:0:0:0:
288,270,45809,2,0,P|238:230|88:338,1,269.999991760254,4|0,1:3|0:0,0:0:0:0:
168,384,46085,5,8,3:0:0:0:
168,384,46153,1,8,3:0:0:0:
168,384,46222,2,0,P|168:281|187:95,1,269.999991760254,4|0,1:3|0:0,0:0:0:0:
244,53,46497,5,8,3:0:0:0:
244,53,46566,1,8,3:0:0:0:
244,53,46635,2,0,B|316:59|382:149|382:149|397:77|329:60,1,269.999991760254,4|0,1:3|0:0,0:0:0:0:
2,59,46910,5,8,3:0:0:0:
0,66,46979,5,8,3:0:0:0:
6,63,47048,6,0,B|127:34|127:34|49:237,1,337.500012874604,4|0,1:3|2:0,1:0:0:0:
10,330,47323,6,0,P|217:296|468:265,1,450.000017166138,4|4,1:3|1:2,1:0:0:0:
256,192,47633,12,0,49181,0:0:0:0:
334,175,49250,6,0,B|252:188|252:188|249:186|249:186|144:203,1,187.5,4|0,1:3|2:0,1:0:0:0:
220,359,49525,6,2,B|244:194|244:194|251:188|251:188|276:24,1,337.500012874604,14|0,1:0|2:0,1:2:0:0:
154,25,49800,5,4,0:2:0:0:
154,25,49869,1,0,0:0:0:0:
154,25,49938,2,0,P|161:53|209:75,1,62.5,4|0,0:2|0:0,0:0:0:0:
168,158,50075,5,0,0:0:0:0:
168,158,50144,1,0,0:0:0:0:
168,158,50213,2,0,P|194:173|254:143,1,75.0000028610231,4|0,0:2|0:0,0:0:0:0:
271,253,50351,6,0,P|299:245|323:177,3,87.500000834465,4|0|0|0,0:2|0:0|0:0|0:0,0:0:0:0:
307,98,50626,6,0,L|296:27,2,43.7500004172325,2|0|0,0:0|0:0|0:0,0:0:0:0:
385,78,50763,1,4,0:3:0:0:
501,194,50901,1,4,0:3:0:0:
186,74,51039,6,0,L|197:3,2,43.7500004172325,2|0|0,0:0|0:0|0:0,0:0:0:0:
20,33,51176,1,4,0:3:0:0:
20,33,51314,1,4,0:3:0:0:
193,286,51452,6,0,B|234:324|288:314|306:254|296:248|283:243|319:184|374:172|406:248,1,262.500002503395,2|2,0:2|0:2,0:0:0:0:
363,351,51727,6,0,P|300:245|132:223,1,262.500002503395,14|0,0:0|2:0,0:0:0:0:
0,384,52002,5,4,0:2:0:0:
0,384,52071,1,0,0:0:0:0:
0,384,52140,2,0,P|7:356|55:334,1,62.5,4|0,0:2|0:0,0:0:0:0:
14,251,52277,5,0,0:0:0:0:
14,251,52346,1,0,0:0:0:0:
14,251,52415,2,0,P|40:236|100:266,1,75.0000028610231,4|0,0:2|0:0,0:0:0:0:
118,167,52552,6,0,P|146:175|170:239,3,75.0000028610231,4|0|0|0,0:2|0:0|0:0|0:0,0:0:0:0:
240,298,52828,6,0,L|247:348,2,37.5000014305115,2|0|0,0:0|0:0|0:0,0:0:0:0:
424,263,52965,1,4,1:3:0:0:
361,215,53103,1,4,1:3:0:0:
282,9,53241,6,0,L|274:49,2,37.5000014305115,2|0|0,0:0|0:0|0:0,0:0:0:0:
363,97,53378,1,4,1:3:0:0:
363,97,53516,1,4,1:3:0:0:
67,287,53653,6,0,B|92:149|92:149|99:147|99:147|122:24,1,262.500002503395,2|2,0:2|0:2,0:0:0:0:
33,69,53929,6,0,B|0:125|79:190|118:122|170:160|183:203|166:249,1,262.500002503395,14|0,0:0|2:0,0:0:0:0:
4,364,54204,6,0,L|281:387,1,262.500002503395,4|0,1:3|0:0,0:0:0:0:
512,273,54479,5,8,3:0:0:0:
512,273,54548,1,8,3:0:0:0:
512,273,54617,2,0,L|235:296,1,262.500002503395,4|0,1:3|0:0,0:0:0:0:
0,188,54892,5,8,3:0:0:0:
0,188,54961,1,8,3:0:0:0:
0,188,55030,2,0,L|277:211,1,262.500002503395,4|0,1:3|0:0,0:0:0:0:
512,102,55305,5,8,3:0:0:0:
512,102,55374,1,8,3:0:0:0:
512,102,55443,2,0,L|235:125,1,262.500002503395,4|0,1:3|0:0,0:0:0:0:
0,0,55718,5,8,3:0:0:0:
0,0,55787,1,8,3:0:0:0:
0,0,55856,2,0,L|346:22,1,337.500012874604,4|0,1:3|0:0,1:0:0:0:
336,21,56130,5,14,1:0:0:0:
379,252,56268,1,0,0:0:0:0:
336,21,56406,5,6,1:2:0:0:
256,192,56474,12,0,57988,0:0:0:0:
382,354,58057,6,0,B|412:309|467:331|467:331|467:258|410:221|362:241|339:291|354:305|372:327|303:352,1,337.500012874604,2|2,0:2|0:2,0:0:0:0:
16,246,58332,6,0,B|270:281|25:239|277:276,1,262.500002503395,14|0,0:0|2:0,0:0:0:0:
294,187,58608,6,0,L|275:101,3,75.0000028610231,4|0|4|0,0:2|0:0|0:2|0:0,0:0:0:0:
406,99,58883,2,0,L|331:51,3,75.0000028610231,0|0|4|0,0:0|0:0|0:2|0:0,0:0:0:0:
166,85,59158,2,0,L|229:44,3,75.0000028610231,4|0|0|0,0:2|0:0|0:0|0:0,0:0:0:0:
437,11,59433,5,2,0:0:0:0:
437,11,59502,1,0,0:0:0:0:
437,11,59571,2,0,P|496:47|499:64,1,75.0000028610231,4|0,1:3|0:0,0:0:0:0:
482,58,59708,2,0,P|498:125|488:139,1,75.0000028610231,4|0,1:3|0:0,0:0:0:0:
342,58,59846,5,2,0:0:0:0:
342,58,59915,1,0,0:0:0:0:
342,58,59984,2,0,P|358:125|348:139,1,75.0000028610231,4|0,1:3|0:0,0:0:0:0:
340,123,60121,2,0,P|303:182|286:185,1,75.0000028610231,4|0,1:3|0:0,0:0:0:0:
102,142,60259,6,0,P|126:262|141:388,1,225.000008583069,2|2,0:2|0:2,0:0:0:0:
30,194,60534,6,0,B|47:256|113:285|127:235|185:239|208:314,1,225.000008583069,14|0,0:0|2:0,0:0:0:0:
281,160,60809,6,0,L|262:246,3,75.0000028610231,4|0|4|0,0:2|0:0|0:2|0:0,0:0:0:0:
388,255,61084,2,0,L|313:303,3,75.0000028610231,0|0|4|0,0:0|0:0|0:2|0:0,0:0:0:0:
141,261,61359,2,0,L|204:302,3,75.0000028610231,4|0|0|0,0:2|0:0|0:0|0:0,0:0:0:0:
419,343,61634,5,2,0:0:0:0:
419,343,61703,1,0,0:0:0:0:
419,343,61772,2,0,P|478:307|481:290,1,75.0000028610231,4|0,0:3|0:0,0:0:0:0:
464,296,61909,2,0,P|480:229|470:215,1,75.0000028610231,4|0,0:3|0:0,0:0:0:0:
324,296,62047,5,2,0:0:0:0:
324,296,62116,1,0,0:0:0:0:
324,296,62185,2,0,P|340:229|330:215,1,75.0000028610231,4|0,0:3|0:0,0:0:0:0:
322,231,62322,2,0,P|285:172|268:169,1,75.0000028610231,4|0,0:3|0:0,0:0:0:0:
16,90,62461,6,0,B|129:72|129:72|131:64|131:64|244:51,1,225.000008583069,2|2,0:2|0:2,0:0:0:0:
182,133,62736,6,0,B|141:127|141:127|92:6|92:6|9:-3,1,225.000008583069,14|0,0:0|2:0,0:0:0:0:
509,6,63011,5,4,1:3:0:0:
496,367,63286,5,8,3:0:0:0:
489,359,63355,1,8,3:0:0:0:
488,348,63424,1,4,1:3:0:0:
341,6,63699,5,8,3:0:0:0:
334,14,63768,1,8,3:0:0:0:
333,25,63837,1,4,1:3:0:0:
175,381,64112,5,8,3:0:0:0:
168,373,64181,1,8,3:0:0:0:
167,362,64250,1,4,1:3:0:0:
62,8,64525,5,8,3:0:0:0:
55,16,64594,1,8,3:0:0:0:
54,29,64663,2,0,P|197:53|364:85,1,300.000011444092,4|0,1:3|0:0,1:0:0:0:
420,121,64938,6,0,B|448:144|442:170|442:170|435:147|411:129,1,100,14|0,1:0|0:0,0:0:0:0:
349,82,65213,5,6,1:2:0:0:
256,192,65247,12,0,66796,0:0:0:0:
256,96,66864,6,0,L|256:256,1,150,4|2,0:3|0:2,0:0:0:0:
256,352,67141,5,4,1:2:0:0:
256,192,69341,12,0,73470,0:0:0:0:
6,374,73746,6,0,L|36:366,1,25,2|0,1:0|0:0,0:0:0:0:
61,265,73883,5,0,0:0:0:0:
79,270,74020,1,0,0:0:0:0:
89,288,74158,1,0,0:0:0:0:
177,244,74295,5,2,0:2:0:0:
189,265,74434,1,0,0:0:0:0:
181,292,74572,1,0,0:0:0:0:
284,306,74708,5,0,0:0:0:0:
263,189,74846,1,0,0:0:0:0:
263,189,74915,1,0,0:0:0:0:
263,189,74985,1,0,0:0:0:0:
224,369,75121,1,0,0:0:0:0:
418,364,75259,5,8,0:0:0:0:
423,358,75328,5,8,0:0:0:0:
414,355,75396,5,8,0:0:0:0:
308,278,75534,5,8,0:0:0:0:
199,245,75672,5,4,0:0:0:0:
112,241,75809,5,2,0:2:0:0:
39,67,75948,6,0,L|141:49,1,75.0000028610231,4|0,1:2|0:0,0:0:0:0:
191,40,76222,1,0,0:0:0:0:
191,40,76360,1,0,0:0:0:0:
241,120,76497,5,2,1:2:0:0:
289,127,76635,1,0,0:0:0:0:
337,133,76773,1,0,0:0:0:0:
385,139,76910,1,0,0:0:0:0:
460,150,77048,5,0,1:0:0:0:
425,154,77186,1,0,0:0:0:0:
391,159,77324,1,0,0:0:0:0:
357,163,77461,1,0,0:0:0:0:
242,196,77598,5,2,1:2:0:0:
194,203,77736,1,0,0:0:0:0:
146,209,77874,1,0,0:0:0:0:
98,215,78011,1,0,0:0:0:0:
23,226,78149,5,0,1:0:0:0:
58,230,78287,1,0,0:0:0:0:
92,235,78425,1,0,0:0:0:0:
126,239,78562,1,0,0:0:0:0:
293,283,78699,5,2,1:2:0:0:
341,290,78837,1,0,0:0:0:0:
389,296,78975,1,0,0:0:0:0:
437,302,79112,1,0,0:0:0:0:
512,313,79250,5,2,1:2:0:0:
477,317,79388,1,0,0:0:0:0:
443,322,79526,1,0,0:0:0:0:
409,326,79663,1,0,0:0:0:0:
224,341,79800,5,2,1:2:0:0:
176,348,79938,1,0,0:0:0:0:
128,354,80076,1,0,0:0:0:0:
80,360,80213,1,0,0:0:0:0:
5,371,80351,5,0,1:0:0:0:
40,375,80489,1,0,0:0:0:0:
74,380,80627,1,0,0:0:0:0:
108,384,80764,1,0,0:0:0:0:
293,283,80901,5,2,1:2:0:0:
341,290,81039,1,0,0:0:0:0:
389,296,81177,1,0,0:0:0:0:
437,302,81315,1,0,0:0:0:0:
512,313,81452,5,0,1:0:0:0:
477,317,81590,1,0,0:0:0:0:
443,322,81728,1,0,0:0:0:0:
409,326,81865,1,0,0:0:0:0:
242,196,82002,5,2,1:2:0:0:
194,203,82140,1,0,0:0:0:0:
146,209,82278,1,0,0:0:0:0:
98,215,82415,1,0,0:0:0:0:
23,226,82553,5,0,1:0:0:0:
58,230,82691,1,0,0:0:0:0:
92,235,82829,1,0,0:0:0:0:
126,239,82966,1,0,0:0:0:0:
241,120,83103,5,2,1:2:0:0:
289,127,83241,1,0,0:0:0:0:
337,133,83379,1,0,0:0:0:0:
385,139,83516,1,0,0:0:0:0:
460,150,83654,5,0,1:0:0:0:
425,154,83792,1,0,0:0:0:0:
391,159,83928,1,0,0:0:0:0:
357,163,84067,1,0,0:0:0:0:
102,135,84205,6,0,P|124:99|139:92,1,37.5000014305115,2|0,0:2|2:0,0:0:0:0:
142,28,84342,6,0,P|183:18|198:23,1,37.5000014305115,2|0,0:2|2:0,0:0:0:0:
293,8,84480,6,0,P|329:29|336:45,1,37.5000014305115
469,101,84618,6,0,P|478:142|473:157,1,37.5000014305115
402,374,84755,6,0,L|409:279,1,75.0000028610231,4|0,1:2|0:0,0:0:0:0:
475,258,85029,1,0,0:0:0:0:
475,258,85167,1,0,0:0:0:0:
275,384,85306,5,2,1:2:0:0:
267,340,85443,1,0,0:0:0:0:
259,295,85581,1,0,0:0:0:0:
252,247,85718,1,0,0:0:0:0:
333,180,85856,6,0,L|407:175,1,75.0000028610231,0|0,1:0|0:0,0:0:0:0:
452,109,86131,1,0,0:0:0:0:
452,109,86269,1,0,0:0:0:0:
257,116,86407,5,2,1:2:0:0:
213,108,86544,1,0,0:0:0:0:
168,100,86682,1,0,0:0:0:0:
120,93,86819,1,0,0:0:0:0:
29,141,86957,6,0,P|13:182|23:215,1,75.0000028610231,0|0,1:0|0:0,0:0:0:0:
97,222,87232,1,0,0:0:0:0:
97,222,87370,1,0,0:0:0:0:
21,321,87507,5,2,1:2:0:0:
71,308,87645,1,0,0:0:0:0:
119,318,87783,1,0,0:0:0:0:
153,358,87920,1,0,0:0:0:0:
247,301,88058,6,0,P|288:317|324:306,1,75.0000028610231,2|0,1:2|0:0,0:0:0:0:
336,234,88333,1,0,0:0:0:0:
336,234,88471,1,0,0:0:0:0:
269,102,88608,5,2,1:2:0:0:
235,126,88746,1,0,0:0:0:0:
229,172,88884,1,0,0:0:0:0:
250,205,89021,1,0,0:0:0:0:
486,364,89159,5,0,1:0:0:0:
481,350,89296,1,0,0:0:0:0:
471,342,89434,1,0,0:0:0:0:
458,337,89572,1,0,0:0:0:0:
429,252,89709,5,2,1:2:0:0:
402,257,89847,1,0,0:0:0:0:
380,280,89985,1,0,0:0:0:0:
369,310,90122,1,0,0:0:0:0:
294,363,90260,5,2,1:2:0:0:
236,339,90397,1,0,0:0:0:0:
172,323,90535,1,0,0:0:0:0:
109,317,90673,1,0,0:0:0:0:
40,248,90810,5,2,1:2:0:0:
53,136,90948,1,0,0:0:0:0:
40,248,91085,1,2,0:0:0:0:
72,49,91222,5,2,0:2:0:0:
72,49,91291,1,0,0:0:0:0:
72,49,91360,2,0,L|113:56,1,25,0|0,1:0|0:0,0:0:0:0:
157,100,91497,2,0,L|198:93,1,25,2|0,0:2|0:0,0:0:0:0:
254,128,91636,2,0,P|241:170|209:192,1,75.0000028610231,2|2,0:0|0:2,0:0:0:0:
152,231,91841,1,2,0:0:0:0:
152,231,91910,6,0,P|165:275|167:286,1,37.5000014305115,2|0,1:2|0:0,0:0:0:0:
117,329,92048,2,0,P|157:350|166:357,1,37.5000014305115
233,305,92185,2,0,P|273:283|308:264,1,75.0000028610231,2|0,0:0|0:0,0:0:0:0:
298,268,92461,6,0,L|363:283,3,37.5000014305115,0|0|0|0,1:0|1:0|1:0|1:0,0:0:0:0:
348,267,92736,6,0,L|412:281,3,37.5000014305115,0|0|0|0,1:0|1:0|1:0|1:0,0:0:0:0:
478,148,93011,6,0,L|190:195,1,262.500010013581,8|0,1:0|0:0,0:0:0:0:
65,215,93563,6,0,L|76:121,1,75,4|0,1:2|0:0,0:0:0:0:
176,114,93837,1,2,0:0:0:0:
176,114,93974,1,0,1:0:0:0:
96,304,94113,6,8,L|71:1,1,300.000011444092,10|0,1:0|0:0,0:0:0:0:
71,5,94525,5,2,1:3:0:0:
71,5,94594,1,0,1:0:0:0:
71,5,94662,1,4,1:2:0:0:
176,114,94801,6,0,P|220:115|257:94,1,75,4|0,1:2|0:0,0:2:0:0:
271,30,95075,1,0,1:0:0:0:
73,140,95214,6,8,P|186:133|376:200,1,300.000011444092,10|0,1:0|0:0,0:0:0:0:
373,281,95626,5,2,1:3:0:0:
381,279,95695,1,0,1:0:0:0:
376,274,95764,6,0,B|352:283|352:283|342:303|342:303|308:314,1,75,4|0,1:2|0:0,0:0:0:0:
244,334,96039,1,2,0:0:0:0:
244,334,96176,1,0,1:0:0:0:
430,347,96315,6,8,B|373:359|373:359|265:216|265:216|163:234,1,300.000011444092,10|0,1:0|0:0,0:0:0:0:
121,235,96728,5,2,1:3:0:0:
121,235,96796,1,0,1:0:0:0:
121,235,96865,6,0,P|107:123|90:15,1,150.000005722046,4|0,1:2|0:0,0:0:0:0:
220,148,97072,6,0,P|234:36|251:-72,1,150.000005722046,4|0,1:2|0:0,0:0:0:0:
239,0,97278,6,0,P|273:40|260:77,1,75.0000028610231,0|0,1:0|0:0,0:0:0:0:
321,131,97416,6,0,L|375:117,3,37.5000014305115,8|0|0|0,1:0|0:0|0:0|0:0,0:0:0:0:
411,62,97691,1,2,0:1:0:0:
411,62,97760,1,2,0:2:0:0:
411,62,97829,2,0,L|477:73,1,50,2|2,0:2|0:2,0:0:0:0:
474,150,97966,6,0,B|478:194|444:174|448:225,1,75,4|0,1:2|0:0,0:0:0:0:
431,296,98241,1,2,0:0:0:0:
431,296,98379,1,0,1:0:0:0:
411,62,98517,6,8,B|380:242|538:153|504:346,1,300.000011444092,10|0,1:0|0:0,0:0:0:0:
435,381,98929,5,2,1:3:0:0:
435,381,98998,1,0,1:0:0:0:
435,381,99067,1,4,1:2:0:0:
283,303,99205,6,0,P|282:253|275:211,1,75,4|0,1:2|0:0,0:0:0:0:
333,177,99480,1,0,1:0:0:0:
292,384,99618,6,8,P|293:334|324:45,1,300.000011444092,10|0,1:0|0:0,0:0:0:0:
240,63,100030,5,2,1:3:0:0:
240,63,100099,1,0,1:0:0:0:
240,63,100168,2,0,B|182:74|182:74|190:75|198:82,1,75,4|0,1:2|0:0,0:0:0:0:
169,154,100443,5,2,0:0:0:0:
169,154,100581,1,0,1:0:0:0:
317,85,100718,6,8,B|84:37|84:37|116:32|147:5,1,300.000011444092,10|0,1:0|0:0,0:0:0:0:
371,11,101131,5,2,1:3:0:0:
371,11,101200,1,0,1:0:0:0:
371,11,101269,6,0,P|430:56|411:128,1,150.000005722046,4|0,1:2|0:0,0:0:0:0:
260,239,101475,6,0,P|317:177|383:205,1,150.000005722046,4|0,1:2|0:0,0:0:0:0:
452,227,101682,6,0,P|435:283|435:308,1,75.0000028610231,0|0,1:0|0:0,0:0:0:0:
375,361,101819,5,4,1:3:0:0:
369,360,101888,1,0,0:0:0:0:
359,361,101957,2,0,L|346:286,1,75.0000028610231
370,369,102095,5,8,1:3:0:0:
364,368,102164,1,2,0:2:0:0:
354,369,102233,2,0,L|341:294,1,75.0000028610231,2|2,0:2|0:2,0:0:0:0:
65,56,102645,6,0,L|204:29,1,112.500004291535
168,11,102783,2,0,L|122:71,1,75.0000028610231,2|0,1:0|2:0,2:0:0:0:
127,77,102920,6,0,L|108:-4,1,75.0000028610231,8|0,1:0|0:0,0:0:0:0:
15,235,103058,6,0,B|78:256|117:191|105:184|94:178|139:120|206:156,1,225.000008583069,10|0,1:0|0:0,0:0:0:0:
271,179,103333,5,2,1:3:0:0:
278,177,103402,1,0,1:0:0:0:
276,183,103471,1,4,1:2:0:0:
372,131,103608,6,0,L|363:212,1,75,4|0,1:2|0:0,0:0:0:0:
444,182,103884,1,0,1:0:0:0:
351,21,104021,6,8,L|380:326,1,300.000011444092,10|0,1:0|0:0,0:0:0:0:
293,289,104434,5,2,1:3:0:0:
293,289,104503,1,0,1:0:0:0:
293,289,104572,2,0,B|269:291|252:275|252:275|270:281|290:273,1,75,4|0,1:2|0:0,0:0:0:0:
379,319,104847,5,2,0:0:0:0:
379,319,104985,1,0,1:0:0:0:
192,314,105122,6,8,B|228:331|232:364|232:364|304:313|286:198|186:192,1,300.000011444092,10|0,1:0|0:0,0:0:0:0:
77,301,105535,5,0,1:0:0:0:
77,301,105604,1,0,1:0:0:0:
77,301,105673,2,0,B|69:211|69:211|74:209|74:209|66:114,1,187.500007152558,4|0,1:2|0:0,0:0:0:0:
114,57,105879,6,0,B|237:53|157:124|297:125,1,187.500007152558,4|0,1:2|0:0,0:0:0:0:
349,92,106085,6,0,P|330:51|286:45,1,75.0000028610231,0|0,1:0|0:0,0:0:0:0:
364,176,106223,6,0,P|432:159|453:158,3,75.0000028610231,8|0|0|0,1:0|0:0|0:0|0:0,0:0:0:0:
512,205,106498,1,2,0:1:0:0:
512,205,106567,1,2,0:2:0:0:
512,205,106636,2,0,P|501:243|495:285,1,75.0000028610231,2|2,0:2|0:2,0:0:0:0:
403,303,106774,6,0,B|411:296|410:285|410:285|351:301,1,75,4|0,1:2|0:0,0:0:0:0:
313,372,107049,5,2,0:0:0:0:
313,372,107186,1,0,1:0:0:0:
419,382,107324,6,8,B|465:355|453:302|453:302|240:252,1,300.000011444092,10|0,1:0|0:0,0:0:0:0:
165,264,107737,5,0,1:0:0:0:
167,257,107806,1,0,1:0:0:0:
173,263,107874,1,4,1:2:0:0:
83,372,108012,6,0,P|81:330|57:309,1,75,4|0,1:2|0:0,0:0:0:0:
1,367,108287,1,0,1:0:0:0:
89,377,108425,6,8,P|86:271|254:203,1,300.000011444092,10|0,1:0|0:0,0:0:0:0:
325,151,108838,5,2,1:3:0:0:
325,151,108907,1,0,1:0:0:0:
325,151,108975,2,0,P|326:186|334:232,1,75,4|0,1:2|0:0,0:0:0:0:
263,286,109251,5,2,0:0:0:0:
263,286,109388,1,0,1:0:0:0:
327,329,109526,6,8,P|326:294|288:16,1,300.000011444092,10|0,1:0|0:0,0:0:0:0:
399,13,109939,5,2,0:2:0:0:
399,13,110007,1,2,0:2:0:0:
399,13,110076,6,0,L|425:7,3,25,8|8|8|8,0:0|0:0|0:0|0:0,0:0:0:0:
431,12,110352,6,0,L|457:6,3,25,8|8|8|8,0:0|0:0|0:0|0:0,0:0:0:0:
425,27,110627,5,4,0:0:0:0:
13,311,110902,6,0,P|58:315|63:367,1,100,0|0,0:0|2:0,0:0:0:0:
62,371,111040,1,0,0:0:0:0:
211,292,111177,6,0,B|287:330|343:255|318:242|292:234|364:136|449:213,1,288.750002753735,6|0,1:0|0:0,0:0:0:0:
438,204,111452,2,0,P|378:224|328:127,1,165.000001573563,6|0,1:0|0:0,0:0:0:0:
282,30,111728,5,2,0:2:0:0:
282,30,111796,1,0,0:2:0:0:
282,30,111865,2,0,P|279:63|276:74,1,37.5000014305115,2|0,0:2|0:2,0:0:0:0:
210,102,112003,6,0,P|184:123|174:128,3,37.5000014305115,2|0|2|0,0:2|0:2|0:2|0:2,0:2:0:0:
99,42,112278,5,2,0:2:0:0:
99,42,112346,1,0,0:2:0:0:
99,42,112415,2,0,P|66:39|55:36,1,37.5000014305115,2|0,0:2|0:2,0:2:0:0:
0,161,112553,6,0,B|25:188|25:188|76:174,1,75.0000028610231,6|0,1:0|0:0,0:0:0:0:
77,256,112691,2,0,B|113:257|113:257|139:211,1,75.0000028610231
0,159,112829,1,2,0:3:0:0:
127,343,112966,6,0,B|163:344|163:344|189:298,1,75.0000028610231,6|0,1:0|0:0,0:0:0:0:
248,355,113104,2,0,B|275:329|275:329|261:278,1,75.0000028610231
127,343,113241,1,2,0:3:0:0:
419,92,113379,6,0,B|314:101|314:101|313:97|313:97|174:110,1,225.000008583069,6|0,1:0|0:0,0:0:0:0:
198,107,113654,2,0,B|241:98|241:98|251:31|251:31|307:21,1,150.000005722046,6|0,1:0|0:0,0:0:0:0:
481,154,113929,5,2,0:2:0:0:
481,154,113998,1,0,0:2:0:0:
481,154,114067,2,0,P|493:187|491:199,1,37.5000014305115,2|0,0:2|0:2,0:0:0:0:
421,224,114205,5,2,0:2:0:0:
421,224,114274,1,0,0:2:0:0:
421,224,114343,2,0,P|406:255|396:262,1,37.5000014305115,2|0,0:2|0:2,0:0:0:0:
319,213,114480,6,0,P|290:197|285:184,3,37.5000014305115,2|0|2|0,0:2|0:2|0:2|0:2,0:0:0:0:
242,370,114755,6,0,P|271:362|319:352,1,75.0000028610231,6|0,1:0|0:0,0:0:0:0:
389,361,114893,2,0,P|414:353|465:347,1,75.0000028610231
242,370,115030,1,2,0:3:0:0:
241,281,115168,6,0,P|212:288|165:298,1,75.0000028610231,6|0,1:0|0:0,0:0:0:0:
91,289,115306,2,0,P|65:296|15:303,1,75.0000028610231
241,281,115443,1,2,0:3:0:0:
87,172,115581,6,0,P|72:80|166:105,1,225.000008583069,6|0,1:0|0:0,0:0:0:0:
165,104,115856,2,0,P|109:75|22:57,1,150.000005722046,6|0,1:0|0:0,0:0:0:0:
272,187,116131,5,2,0:2:0:0:
272,187,116200,1,0,0:2:0:0:
272,187,116269,2,0,L|265:135,1,37.5000014305115,2|0,0:2|0:2,0:0:0:0:
313,82,116407,6,0,L|354:94,3,37.5000014305115,2|0|2|0,0:2|0:2|0:2|0:2,0:2:0:0:
421,53,116682,5,2,0:2:0:0:
421,53,116751,1,0,0:2:0:0:
421,53,116820,2,0,L|428:1,1,37.5000014305115,2|0,0:2|0:2,0:2:0:0:
487,151,116957,6,0,P|477:206|458:215,1,75.0000028610231,6|0,1:0|0:0,0:0:0:0:
473,291,117095,2,0,P|418:281|409:262,1,75.0000028610231
487,151,117232,1,2,0:3:0:0:
305,384,117370,6,0,P|295:329|276:320,1,75.0000028610231,6|0,1:0|0:0,0:0:0:0:
291,244,117508,2,0,P|236:254|227:273,1,75.0000028610231
305,384,117645,1,2,0:3:0:0:
56,351,117783,6,0,P|51:268|26:97,1,225.000008583069,6|0,1:0|0:0,0:0:0:0:
32,128,118058,2,0,B|125:129|69:181|178:186,1,150.000005722046,6|0,1:0|0:0,0:0:0:0:
224,128,118333,5,2,0:2:0:0:
224,128,118402,1,0,0:2:0:0:
224,128,118471,2,0,B|232:115|232:115|219:79,1,37.5000014305115,2|0,0:2|0:2,0:0:0:0:
270,35,118608,5,2,0:2:0:0:
270,35,118677,1,0,0:2:0:0:
270,35,118746,2,0,B|284:31|284:31|301:-3,1,37.5000014305115,2|0,0:2|0:2,0:0:0:0:
375,42,118884,6,0,B|388:49|388:49|424:36,3,37.5000014305115,2|0|2|0,0:2|0:2|0:2|0:2,0:0:0:0:
496,156,119159,6,2,B|398:143|400:199|404:211|413:231|366:289|261:275|268:182|293:112|373:129|394:164,1,375,6|0,1:3|0:0,2:0:0:0:
499,311,119709,6,0,P|454:315|449:367,1,100,0|0,0:0|2:0,0:0:0:0:
450,371,119847,1,0,0:0:0:0:
321,358,119985,5,4,1:2:0:0:
206,335,120122,1,0,0:0:0:0:
327,354,120260,5,2,1:3:0:0:
212,331,120397,1,0,0:0:0:0:
79,373,120535,5,4,1:2:0:0:
102,258,120672,1,2,1:2:0:0:
83,379,120810,5,2,0:3:0:0:
106,264,120947,1,0,1:0:0:0:
71,148,121085,5,6,1:2:0:0:
186,171,121222,1,0,0:0:0:0:
65,152,121360,5,2,1:3:0:0:
180,175,121497,1,2,1:2:0:0:
300,146,121636,5,4,1:2:0:0:
277,261,121773,1,0,1:0:0:0:
296,140,121911,5,2,1:3:0:0:
273,255,122048,1,0,0:0:0:0:
493,278,122186,5,4,1:2:0:0:
483,188,122324,1,0,0:0:0:0:
385,200,122462,1,2,1:3:0:0:
395,290,122600,1,0,0:0:0:0:
310,56,122737,5,4,1:2:0:0:
300,146,122875,1,2,1:2:0:0:
202,134,123013,1,2,0:3:0:0:
212,44,123151,1,0,1:0:0:0:
134,292,123287,5,4,1:2:0:0:
124,202,123425,1,0,0:0:0:0:
26,214,123563,1,2,1:3:0:0:
36,304,123701,1,2,1:2:0:0:
315,288,123838,5,4,1:2:0:0:
305,378,123976,1,0,1:0:0:0:
207,366,124114,1,2,1:3:0:0:
217,276,124252,1,0,0:0:0:0:
387,211,124388,5,4,1:2:0:0:
396,219,124526,2,0,P|420:265|427:296,1,75.0000028610231,2|0,1:3|0:0,0:0:0:0:
365,119,124663,5,4,1:2:0:0:
377,118,124801,2,0,P|426:133|453:150,1,75.0000028610231,2|0,1:3|0:0,0:0:0:0:
290,61,124939,5,4,1:2:0:0:
297,51,125077,2,0,P|342:27|374:20,1,75.0000028610231,2|0,1:3|0:0,0:0:0:0:
182,86,125214,5,4,1:2:0:0:
179,73,125352,2,0,P|194:23|211:-3,1,75.0000028610231,2|0,1:3|0:0,0:0:0:0:
234,204,125489,5,4,1:2:0:0:
240,197,125627,2,0,P|258:161|263:138,1,62.5,2|0,1:2|0:0,0:0:0:0:
251,288,125764,5,4,1:2:0:0:
260,288,125902,2,0,P|297:276|318:263,1,62.5,2|0,1:2|0:0,0:0:0:0:
183,349,126040,5,0,1:0:0:0:
188,356,126178,2,0,P|223:374|246:379,1,62.5,2|0,1:2|0:0,0:0:0:0:
88,311,126315,5,2,3:2:0:0:
86,321,126453,2,0,P|97:358|110:379,1,62.5,2|2,3:2|3:2,0:0:0:0:
120,224,126590,6,0,L|56:211,1,62.5,0|0,1:0|1:0,0:0:0:0:
65,227,126728,2,0,L|1:214,1,62.5,0|0,1:0|1:0,0:0:0:0:
173,154,126865,6,0,L|237:141,1,50,0|0,1:0|1:0,0:0:0:0:
228,157,127003,2,0,L|292:144,1,50,0|0,1:0|1:0,0:0:0:0:
83,117,127140,5,0,1:0:0:0:
97,100,127209,1,0,1:0:0:0:
98,73,127278,1,0,1:0:0:0:
83,62,127347,1,0,1:0:0:0:
76,63,127416,1,0,1:0:0:0:
74,68,127485,1,0,1:0:0:0:
74,73,127553,1,0,1:0:0:0:
77,74,127622,1,0,1:0:0:0:
84,74,127691,6,0,L|150:65,22,62.5,2|0|0|0|0|0|0|0|0|0|0|0|0|0|0|0|0|0|0|0|0|0|0,1:2|0:0|0:0|0:0|0:0|0:0|0:0|0:0|0:0|0:0|0:0|0:0|0:0|0:0|0:0|0:0|0:0|0:0|0:0|0:0|0:0|0:0|0:0,0:0:0:0:
223,58,128517,5,6,3:2:0:0:
318,239,128792,6,0,P|421:265|361:153,1,284.999992389679,6|0,1:3|0:0,1:0:0:0:
312,248,129067,6,0,P|366:339|403:217,1,284.999992389679,6|0,1:3|0:0,1:0:0:0:
299,248,129342,6,0,P|273:351|385:290,1,284.999992389679,6|0,1:3|0:0,1:0:0:0:
295,240,129618,6,0,P|203:294|325:331,1,284.999992389679,6|0,1:3|0:0,1:0:0:0:
295,232,129893,6,0,P|191:206|252:318,1,284.999992389679,6|0,1:3|0:0,1:0:0:0:
303,226,130168,6,0,P|248:134|211:256,1,284.999992389679,6|0,1:3|0:0,1:0:0:0:
181,384,130443,6,0,P|117:356|-7:330,2,189.999994926453,6|6|2,1:3|1:3|1:2,0:0:0:0:
429,356,130994,6,0,L|446:254,1,94.9999974632264,6|0,1:3|0:0,0:0:0:0:
460,184,131131,2,0,L|477:82,1,94.9999974632264,6|0,1:3|0:0,0:0:0:0:
312,17,131269,6,0,L|349:323,1,284.999992389679,6|0,1:3|0:0,0:0:0:0:
246,363,131544,6,0,L|261:244,1,94.9999974632264,6|0,1:3|0:0,0:0:0:0:
318,19,131682,6,0,L|355:325,1,284.999992389679,6|0,1:3|0:0,0:0:0:0:
255,269,131957,5,0,1:0:0:0:
255,269,132026,1,0,1:0:0:0:
261,276,132095,2,0,P|178:215|240:62,1,284.999992389679,6|0,1:3|0:0,1:0:0:0:
410,49,132370,2,0,P|493:110|431:263,1,284.999992389679,6|0,1:3|0:0,0:0:0:0:
352,301,132645,6,0,L|328:101,2,189.999994926453,6|6|2,1:3|1:3|1:2,0:0:0:0:
219,147,133196,6,0,B|318:170|358:34|228:-39|175:12|213:86,1,284.999992389679,6|0,1:3|0:0,0:0:0:0:
229,157,133471,6,0,B|315:103|247:-21|103:19|101:91|182:117,1,284.999992389679,6|0,1:3|0:0,0:0:0:0:
237,167,133746,6,0,B|260:67|123:28|50:157|101:210|176:172,1,284.999992389679,6|0,1:3|0:0,0:0:0:0:
241,177,134021,6,0,B|187:90|62:158|102:302|175:304|201:223,1,284.999992389679,6|0,1:3|0:0,0:0:0:0:
247,188,134296,6,0,B|147:164|107:301|237:374|290:323|252:248,1,284.999992389679,6|0,1:3|0:0,0:0:0:0:
257,190,134572,6,0,B|170:243|238:368|382:328|384:255|303:229,1,284.999992389679,6|0,1:3|0:0,0:0:0:0:
330,29,134847,6,0,P|437:54|528:94,2,189.999994926453,6|6|2,1:3|1:3|1:2,0:0:0:0:
29,370,135397,6,0,P|23:308|14:259,1,94.9999974632264,6|0,1:3|0:0,0:0:0:0:
114,231,135535,2,0,P|122:300|129:342,1,94.9999974632264,6|0,1:3|0:0,0:0:0:0:
4,163,135673,2,0,P|106:142|300:89,1,284.999992389679,6|0,1:3|0:0,0:0:0:0:
347,141,135948,6,0,P|331:192|285:208,1,94.9999974632264,6|0,1:3|0:0,0:0:0:0:
1,157,136085,2,0,P|103:136|297:83,1,284.999992389679,6|0,1:3|0:0,0:0:0:0:
341,32,136361,5,0,1:0:0:0:
341,32,136429,1,0,1:0:0:0:
341,32,136498,6,0,L|427:40,1,63.3333316421509,6|0,1:3|0:0,0:0:0:0:
430,132,136682,6,0,L|493:126,1,63.3333316421509,6|0,1:3|0:0,0:0:0:0:
426,233,136865,6,0,L|489:238,1,63.3333316421509,6|0,1:3|0:0,0:0:0:0:
411,314,137049,6,0,L|407:315,14,3.125,6|0|0|0|0|0|0|0|0|0|0|0|0|0|0,1:3|0:0|0:0|0:0|0:0|0:0|0:0|0:0|0:0|0:0|0:0|0:0|0:0|0:0|0:0,0:0:0:0:
349,369,137324,6,0,L|339:366,29,9.37500035762788,2|0|0|0|0|0|0|0|2|0|0|0|0|0|0|0|0|0|0|0|0|0|0|0|0|0|0|0|0|0,1:2|0:0|0:0|0:0|0:0|0:0|0:0|0:0|0:0|0:0|0:0|0:0|0:0|0:0|0:0|0:0|0:0|0:0|0:0|0:0|0:0|0:0|0:0|0:0|0:0|0:0|0:0|0:0|0:0|0:0,0:0:0:0:
305,294,137874,6,0,L|16:338,1,284.999992389679,4|0,1:0|0:0,0:0:0:0:
198,262,138150,6,0,L|487:306,1,284.999992389679,6|0,1:3|0:3,0:3:0:0:
299,220,138425,6,0,L|10:264,1,284.999992389679,6|0,1:3|0:0,0:0:0:0:
207,188,138700,6,0,L|496:232,1,284.999992389679,6|0,1:3|0:0,0:0:0:0:
304,146,138975,6,0,L|15:190,1,284.999992389679,6|0,1:3|0:0,0:0:0:0:
370,83,139251,6,0,P|455:95|460:7,2,189.999994926453,6|6|2,1:3|1:3|1:2,0:3:0:0:
49,17,139801,6,0,P|107:72|95:120,1,94.9999974632264,6|0,1:3|0:0,0:0:0:0:
185,45,139939,2,0,P|187:124|144:150,1,94.9999974632264,6|0,1:3|0:0,0:0:0:0:
0,351,140076,6,0,P|-10:274|200:268,1,284.999992389679,6|0,1:3|0:0,0:0:0:0:
222,230,140352,6,0,P|215:286|153:298,1,94.9999974632264,6|0,1:3|0:0,0:0:0:0:
0,351,140489,6,0,P|47:289|200:433,1,284.999992389679,6|0,1:3|0:0,0:0:0:0:
300,371,140764,5,0,1:0:0:0:
300,371,140833,1,0,1:0:0:0:
300,371,140902,2,0,P|300:262|450:251,1,284.999992389679,6|0,1:3|0:0,0:0:0:0:
469,322,141177,2,0,P|391:320|352:127,1,284.999992389679,6|0,1:3|0:0,0:0:0:0:
346,3,141452,6,0,B|404:14|404:14|421:93|421:93|490:105,2,189.999994926453,6|6|2,1:3|1:3|1:2,0:0:0:0:
24,9,142003,6,0,L|57:297,1,284.999992389679,6|0,1:3|0:0,0:0:0:0:
103,0,142278,2,0,L|136:288,1,284.999992389679,6|0,1:3|0:0,0:0:0:0:
199,373,142553,6,0,L|232:85,1,284.999992389679,6|0,1:3|0:0,0:0:0:0:
278,382,142828,2,0,L|311:94,1,284.999992389679,6|0,1:3|0:0,0:0:0:0:
374,9,143104,6,0,L|407:297,1,284.999992389679,6|0,1:3|0:0,0:0:0:0:
453,0,143379,2,0,L|486:288,1,284.999992389679,6|0,1:3|0:0,0:0:0:0:
406,292,143654,6,0,B|355:318|323:267|329:261|337:258|302:215|239:248,2,189.999994926453,6|6|2,1:3|1:3|1:2,0:3:0:0:
75,19,144205,6,0,B|43:38|43:38|39:104,1,94.9999974632264,6|0,1:3|0:0,0:0:0:0:
122,145,144342,2,0,B|154:126|154:126|158:60,1,94.9999974632264,6|0,1:3|0:0,0:0:0:0:
0,206,144480,2,0,B|73:219|73:219|86:230|86:230|104:222|104:222|198:238,1,189.999994926453,6|0,1:3|0:0,0:0:0:0:
287,102,144755,6,0,L|273:1,1,94.9999974632264,6|0,1:3|0:0,0:0:0:0:
470,132,144893,6,0,B|397:119|397:119|384:108|384:108|366:116|366:116|272:100,1,189.999994926453,6|2,3:3|3:3,3:0:0:0:
289,334,145168,5,0,1:0:0:0:
289,334,145237,1,0,1:0:0:0:
289,334,145306,6,0,B|370:356|385:281|376:279|371:276|409:198|483:246,1,240,0|0,1:0|0:0,0:0:0:0:
479,250,145787,6,0,L|475:230,16,20,0|0|0|0|0|0|2|0|0|0|0|0|0|0|0|0|0,0:0|0:0|0:0|0:0|0:0|0:0|0:0|0:0|0:0|0:0|0:0|0:0|0:0|0:0|0:0|0:0|0:0,0:0:0:0:
71,169,146407,6,0,L|82:263,1,75,6|0,1:2|0:0,0:0:0:0:
176,270,146682,1,2,0:0:0:0:
176,270,146819,1,0,1:0:0:0:
96,80,146957,6,0,L|71:383,1,300.000011444092,10|0,1:0|0:0,0:0:0:0:
71,379,147370,5,2,1:3:0:0:
71,379,147439,1,2,1:2:0:0:
71,379,147507,1,4,1:2:0:0:
176,270,147645,6,0,P|220:269|257:290,1,75,4|0,1:2|2:0,0:0:0:0:
271,354,147920,1,0,1:0:0:0:
73,244,148058,6,0,P|186:251|376:184,1,300.000011444092,10|0,1:0|0:0,0:0:0:0:
373,103,148471,5,2,1:0:0:0:
381,105,148540,1,2,1:2:0:0:
376,110,148608,6,0,B|352:101|352:101|342:81|342:81|308:70,1,75,4|0,1:2|0:0,0:0:0:0:
244,50,148884,1,2,0:0:0:0:
244,50,149021,1,0,1:0:0:0:
430,37,149159,6,0,B|373:25|373:25|265:168|265:168|163:150,1,300.000011444092,10|0,1:0|0:0,0:0:0:0:
121,149,149572,5,0,1:0:0:0:
121,149,149640,1,0,1:2:0:0:
121,149,149709,6,0,P|107:261|90:369,1,150.000005722046,4|0,1:2|0:0,0:0:0:0:
220,236,149916,6,0,P|234:348|251:456,1,150.000005722046,4|0,1:2|0:0,0:0:0:0:
239,384,150122,6,0,P|273:344|260:307,1,75.0000028610231,0|0,1:0|0:0,0:0:0:0:
321,253,150260,6,0,L|375:267,3,37.5000014305115,10|0|0|0,1:0|0:0|0:0|0:0,0:0:0:0:
411,322,150535,1,2,0:1:0:0:
411,322,150604,1,2,0:2:0:0:
411,322,150673,2,0,L|477:311,1,50,2|2,0:2|0:2,0:0:0:0:
474,234,150810,6,0,B|478:190|444:210|448:159,1,75,6|0,1:2|0:0,0:0:0:0:
431,88,151085,1,2,0:0:0:0:
431,88,151223,1,0,1:0:0:0:
411,322,151361,6,0,B|380:142|538:231|504:38,1,300.000011444092,10|0,1:0|0:0,0:0:0:0:
435,3,151773,5,0,1:0:0:0:
435,3,151842,1,0,1:2:0:0:
435,3,151911,1,4,1:2:0:0:
283,81,152049,6,0,P|282:131|275:173,1,75,4|0,1:2|2:0,0:0:0:0:
333,207,152324,1,0,1:0:0:0:
292,0,152462,6,0,P|293:50|324:339,1,300.000011444092,10|0,1:0|0:0,0:0:0:0:
240,321,152874,5,0,1:0:0:0:
240,321,152943,1,0,1:2:0:0:
240,321,153012,2,0,B|182:310|182:310|190:309|198:302,1,75,4|0,1:2|0:0,0:0:0:0:
169,230,153287,5,2,0:0:0:0:
169,230,153425,1,0,1:0:0:0:
317,299,153562,6,0,B|84:347|84:347|116:352|147:379,1,300.000011444092,10|0,1:0|0:0,0:0:0:0:
371,373,153975,5,0,1:0:0:0:
371,373,154044,1,0,1:2:0:0:
371,373,154113,6,0,P|430:328|411:256,1,150.000005722046,4|0,1:2|0:0,0:0:0:0:
260,145,154319,6,0,P|317:207|383:179,1,150.000005722046,4|0,1:2|0:0,0:0:0:0:
452,157,154526,6,0,P|435:101|435:76,1,75.0000028610231,0|0,1:0|0:0,0:0:0:0:
375,23,154663,5,8,1:0:0:0:
369,24,154732,1,0,0:0:0:0:
359,23,154801,2,0,L|346:98,1,75.0000028610231
370,15,154939,5,8,1:3:0:0:
364,16,155008,1,2,0:2:0:0:
354,15,155077,2,0,L|341:90,1,75.0000028610231,2|2,0:2|0:2,0:0:0:0:
65,328,155489,6,0,L|204:355,1,112.500004291535
168,373,155627,2,0,L|122:313,1,75.0000028610231,2|0,1:3|2:0,2:0:0:0:
127,307,155764,6,0,L|108:388,1,75.0000028610231,8|0,1:0|0:0,0:0:0:0:
15,149,155902,6,0,B|78:128|117:193|105:200|94:206|139:264|206:228,1,225.000008583069,10|0,1:0|0:0,0:0:0:0:
271,205,156177,5,2,1:3:0:0:
278,207,156246,1,0,1:0:0:0:
276,201,156315,1,4,1:2:0:0:
372,253,156452,6,0,L|363:172,1,75,4|0,1:2|0:0,0:0:0:0:
444,202,156728,1,0,0:0:0:0:
351,363,156865,6,0,L|380:58,1,300.000011444092,10|0,1:0|0:0,0:0:0:0:
293,95,157278,5,2,1:3:0:0:
293,95,157347,1,2,1:2:0:0:
293,95,157416,2,0,B|269:93|252:109|252:109|270:103|290:111,1,75,4|0,1:2|0:0,0:0:0:0:
379,65,157691,5,2,0:0:0:0:
379,65,157829,1,0,1:0:0:0:
221,37,157966,6,0,B|257:20|261:-13|261:-13|333:38|315:153|215:159,1,300.000011444092,10|0,1:0|0:0,0:0:0:0:
77,83,158379,5,0,1:0:0:0:
77,83,158448,1,0,1:2:0:0:
77,83,158517,2,0,B|69:173|69:173|74:175|74:175|66:270,1,187.500007152558,4|0,1:2|0:0,0:0:0:0:
114,327,158723,6,0,B|237:331|157:260|297:259,1,187.500007152558,4|0,1:2|0:0,0:0:0:0:
349,292,158929,6,0,P|330:333|286:339,1,75.0000028610231
364,208,159067,6,0,P|432:225|453:226,3,75.0000028610231,10|0|0|0,1:0|0:0|0:0|0:0,0:0:0:0:
512,179,159342,1,2,0:1:0:0:
512,179,159411,1,2,0:2:0:0:
512,179,159480,2,0,P|501:141|495:99,1,75.0000028610231,2|2,0:2|0:2,0:0:0:0:
403,81,159618,6,0,B|411:88|410:99|410:99|351:83,1,75,4|0,1:2|0:0,0:0:0:0:
313,12,159893,5,2,0:0:0:0:
313,12,160030,1,0,0:0:0:0:
419,2,160168,6,0,B|465:29|453:82|453:82|240:132,1,300.000011444092,10|0,1:0|0:0,0:0:0:0:
165,120,160581,5,2,1:2:0:0:
167,127,160650,1,2,1:2:0:0:
173,121,160718,1,4,1:2:0:0:
83,12,160856,6,0,P|81:54|57:75,1,75,4|0,1:2|0:0,0:0:0:0:
1,17,161131,1,0,0:0:0:0:
89,7,161269,6,0,P|86:113|254:181,1,300.000011444092,10|0,1:0|0:0,0:0:0:0:
325,233,161682,5,2,1:2:0:0:
325,233,161751,1,2,1:2:0:0:
325,233,161819,2,0,P|326:198|334:152,1,75,4|0,1:2|0:0,0:0:0:0:
263,98,162095,5,2,0:0:0:0:
263,98,162232,1,0,0:0:0:0:
327,55,162370,6,0,P|326:90|288:368,1,300.000011444092,10|0,1:0|0:0,0:0:0:0:
399,371,162783,5,2,0:2:0:0:
399,371,162851,1,2,0:2:0:0:
399,371,162920,6,0,L|425:377,3,25,8|8|8|8,0:0|0:0|0:0|0:0,0:0:0:0:
431,372,163196,6,0,L|457:378,3,25,8|8|8|8,0:0|0:0|0:0|0:0,0:0:0:0:
425,357,163471,5,4,0:0:0:0:
13,73,163746,6,0,P|58:69|63:17,1,100,0|0,0:0|2:0,0:0:0:0:
62,13,163884,1,0,0:0:0:0:
35,187,164021,5,4,1:2:0:0:
512,116,166636,6,2,B|368:13|208:211|387:192|200:423|65:286,1,574.999980697633,2|0,2:0|0:0,2:0:0:0:
53,209,168425,5,4,1:0:0:0:
254,378,176681,5,0,1:0:0:0:
231,183,176818,5,8,0:0:0:0:
155,209,176956,1,8,0:0:0:0:
133,132,177094,1,4,0:0:0:0:
345,268,177233,5,4,0:2:0:0:
364,271,177508,1,0,0:0:0:0:
384,274,177783,1,0,0:0:0:0:
404,277,178058,1,0,0:0:0:0:
423,281,178333,1,0,0:0:0:0:
443,284,178609,1,0,0:0:0:0:
463,287,178884,1,0,1:0:0:0:
483,290,179159,1,0,0:0:0:0:
107,319,179434,5,2,2:0:0:0:
94,321,179710,1,0,0:0:0:0:
82,323,179985,1,0,0:0:0:0:
69,325,180260,1,0,0:0:0:0:
57,327,180535,1,0,0:0:0:0:
44,329,180811,1,0,0:0:0:0:
32,331,181086,1,0,1:0:0:0:
19,333,181361,1,0,0:0:0:0:
364,171,181636,5,2,0:2:0:0:
366,158,181911,1,0,0:0:0:0:
368,146,182186,1,0,1:0:0:0:
370,133,182461,1,0,0:0:0:0:
372,121,182736,1,2,0:2:0:0:
374,108,183012,1,2,0:2:0:0:
376,96,183287,1,0,1:0:0:0:
378,83,183563,1,0,0:0:0:0:
153,187,183837,5,2,0:2:0:0:
149,164,184112,1,2,0:2:0:0:
145,143,184387,1,0,1:0:0:0:
142,120,184662,1,2,0:2:0:0:
138,99,184939,1,2,1:2:0:0:
135,76,185213,1,2,1:2:0:0:
132,50,185489,6,0,L|201:59,14,50,2|0|0|0|0|0|0|0|0|0|0|0|0|0|0,0:0|0:0|0:0|0:0|0:0|0:0|0:0|0:0|0:0|0:0|0:0|0:0|0:0|0:0|0:0,0:0:0:0:
278,155,186040,6,2,B|356:140|350:43|350:43|356:140|464:137,1,300,4|0,1:2|0:0,2:0:0:0:
447,136,186314,1,0,1:0:0:0:
348,238,186452,6,0,P|364:305|341:332,1,75.0000028610231,2|0,3:0|0:0,0:0:0:0:
287,293,186589,1,0,1:0:0:0:
278,291,186728,2,0,P|241:349|206:352,1,75.0000028610231,2|0,3:0|0:0,0:0:0:0:
188,287,186864,1,0,1:0:0:0:
183,279,187003,2,0,P|116:295|89:272,1,75.0000028610231,2|0,3:0|0:0,0:0:0:0:
132,217,187139,1,0,1:0:0:0:
134,207,187278,2,0,P|75:170|72:135,1,75.0000028610231,2|0,3:0|0:0,0:0:0:0:
139,124,187415,1,0,1:0:0:0:
147,118,187553,2,0,P|131:50|154:23,1,75.0000028610231,2|0,3:0|0:0,0:0:0:0:
209,63,187691,1,0,1:0:0:0:
218,64,187829,2,0,P|254:5|289:2,1,75.0000028610231,0|0,1:0|0:0,0:0:0:0:
499,73,187966,6,0,P|454:69|449:17,1,100,2|0,3:2|0:0,2:0:0:0:
450,13,188104,1,2,3:2:0:0:
338,204,188241,6,2,B|373:267|310:309|302:290|296:281|231:320|261:384,1,225.000008583069,2|0,1:2|0:0,2:0:0:0:
260,383,188517,1,0,1:0:0:0:
447,254,188654,6,0,P|440:197|437:172,1,75.0000028610231,2|0,3:0|0:0,0:0:0:0:
394,118,188792,1,0,1:0:0:0:
388,122,188929,2,0,P|344:86|324:71,1,75.0000028610231,2|0,3:0|0:0,0:0:0:0:
257,48,189067,1,0,1:0:0:0:
256,55,189204,2,0,P|200:62|175:65,1,75.0000028610231,2|0,3:0|0:0,0:0:0:0:
103,69,189342,1,0,1:0:0:0:
108,74,189479,2,0,P|74:118|59:138,1,75.0000028610231,2|0,3:0|0:0,0:0:0:0:
6,189,189618,1,0,1:0:0:0:
13,189,189755,2,0,P|21:245|25:269,1,75.0000028610231,2|2,3:0|0:0,0:0:0:0:
0,340,189893,1,0,1:0:0:0:
6,334,190030,2,0,P|52:367|72:382,1,75.0000028610231,0|0,1:0|0:0,0:0:0:0:
499,311,190168,6,0,P|454:315|449:367,1,100,2|0,3:2|0:0,2:0:0:0:
450,371,190306,1,2,3:2:0:0:
162,222,190443,6,2,B|165:169|165:169|53:116|53:116|57:58,1,225.000008583069,2|0,1:2|0:0,2:1:0:0:
56,68,190718,1,0,1:0:0:0:
244,28,190856,6,2,P|239:81|269:104,1,75.0000028610231,2|0,3:0|0:0,2:1:0:0:
331,136,190994,1,0,1:0:0:0:
364,4,191131,6,2,P|322:37|327:75,1,75.0000028610231,2|0,3:0|0:0,2:1:0:0:
337,141,191269,1,0,1:0:0:0:
460,76,191407,6,2,P|407:70|384:101,1,75.0000028610231,2|0,3:0|0:0,2:1:0:0:
338,148,191545,1,0,1:0:0:0:
474,194,191682,6,2,P|440:152|402:157,1,75.0000028610231,2|0,3:0|0:0,2:1:0:0:
335,156,191820,1,0,1:0:0:0:
401,285,191957,6,2,P|406:232|376:209,1,75.0000028610231,2|0,3:0|0:0,2:1:0:0:
329,159,192095,1,0,1:0:0:0:
283,298,192232,6,0,P|324:264|319:226,1,75.0000028610231,0|0,1:0|0:0,0:0:0:0:
13,73,192370,6,0,P|58:69|63:17,1,100,2|0,3:2|0:0,2:0:0:0:
62,13,192508,1,2,3:2:0:0:
0,246,192645,6,2,B|-19:327|64:358|64:358|77:320|131:313,1,225.000008583069,2|0,1:2|0:0,2:1:0:0:
126,313,192920,1,0,1:0:0:0:
26,43,193058,6,2,P|76:33|114:24,1,75.0000028610231,2|0,3:0|0:0,2:1:0:0:
167,63,193196,1,0,1:0:0:0:
52,169,193333,6,2,P|80:126|100:93,1,75.0000028610231,2|0,3:0|0:0,2:1:0:0:
162,74,193471,1,0,1:0:0:0:
168,233,193608,6,2,P|158:183|149:145,1,75.0000028610231,2|0,3:0|0:0,2:1:0:0:
167,81,193746,1,0,1:0:0:0:
290,174,193884,6,2,P|247:145|214:125,1,75.0000028610231,2|0,3:0|0:0,2:1:0:0:
175,73,194022,1,0,1:0:0:0:
324,40,194159,6,2,P|274:50|236:59,1,75.0000028610231,2|0,3:0|0:0,2:1:0:0:
167,63,194297,1,0,1:0:0:0:
26,43,194434,6,0,P|54:85|74:118,1,75.0000028610231,0|0,1:0|0:0,0:0:0:0:
13,311,194572,6,0,P|58:315|63:367,1,100,2|0,3:2|0:0,2:0:0:0:
62,371,194710,1,2,3:2:0:0:
288,267,194847,6,2,P|313:188|445:204,1,225.000008583069,4|0,1:2|0:0,2:0:0:0:
436,193,195122,1,0,1:0:0:0:
503,296,195260,6,0,L|425:315,1,75.0000028610231,2|0,3:0|0:0,0:0:0:0:
404,384,195397,1,0,1:0:0:0:
215,249,195535,6,0,L|293:268,1,75.0000028610231,2|0,3:0|0:0,0:0:0:0:
316,343,195672,1,0,1:0:0:0:
465,157,195810,6,0,L|387:176,1,75.0000028610231,2|0,3:0|0:0,0:0:0:0:
366,245,195947,1,0,1:0:0:0:
205,73,196085,6,0,L|283:92,1,75.0000028610231,2|0,3:0|0:0,0:0:0:0:
306,167,196222,1,0,1:0:0:0:
459,5,196361,6,0,L|381:24,1,75.0000028610231,2|0,3:0|0:0,0:0:0:0:
358,99,196498,1,0,1:0:0:0:
307,0,196636,1,0,1:0:0:0:
0,0,196774,6,0,P|45:4|50:56,1,100,2|0,3:2|0:0,2:0:0:0:
49,60,196912,1,2,3:2:0:0:
88,366,197049,6,2,B|73:304|127:274|135:281|145:285|206:263|186:173,1,225.000008583069,4|0,1:2|0:0,2:0:0:0:
188,187,197324,1,0,1:0:0:0:
297,277,197462,6,0,P|348:309|355:341,1,75.0000028610231,2|0,3:0|0:0,0:0:0:0:
287,368,197599,1,0,1:0:0:0:
343,205,197737,6,0,P|390:168|422:172,1,75.0000028610231,2|0,3:0|0:0,0:0:0:0:
425,245,197874,1,0,1:0:0:0:
156,59,198012,6,0,P|124:110|92:117,1,75.0000028610231,2|0,3:0|0:0,0:0:0:0:
65,49,198149,1,0,1:0:0:0:
228,105,198287,6,0,P|264:152|260:184,1,75.0000028610231,2|0,3:0|0:0,0:0:0:0:
188,227,198424,1,0,1:0:0:0:
291,44,198563,6,0,P|338:7|370:11,1,75.0000028610231,2|0,3:0|0:0,0:0:0:0:
373,84,198700,1,0,1:0:0:0:
402,167,198838,1,0,1:0:0:0:
499,311,198975,6,0,P|454:315|449:367,1,100,2|0,3:2|0:0,2:0:0:0:
450,371,199113,1,2,3:2:0:0:
188,227,199251,6,2,B|168:189|168:189|35:160|35:160|20:116,1,225.000008583069,2|0,1:2|0:0,2:1:0:0:
20,116,199526,1,0,1:0:0:0:
195,7,199663,6,2,B|231:1|231:1|268:35,1,75.0000028610231,2|0,3:0|0:0,0:1:0:0:
127,60,199801,1,0,1:0:0:0:
347,121,199939,6,2,B|318:147|318:147|282:141,1,75.0000028610231,2|0,3:0|0:0,0:1:0:0:
206,96,200077,1,0,1:0:0:0:
389,0,200214,6,2,B|415:28|415:28|409:64,1,75.0000028610231,2|0,3:0|0:0,0:1:0:0:
282,141,200352,1,0,1:0:0:0:
202,224,200489,6,2,B|167:206|167:206|161:170,1,75.0000028610231,2|0,3:0|0:0,0:1:0:0:
259,27,200627,1,0,1:0:0:0:
84,356,200764,6,2,B|118:338|118:338|124:302,1,75.0000028610231,2|2,3:0|0:0,0:1:0:0:
80,127,200902,1,0,1:0:0:0:
4,166,201040,1,0,1:0:0:0:
286,361,201177,6,0,P|241:357|236:305,1,100,2|0,3:2|0:0,2:0:0:0:
237,301,201315,1,2,3:2:0:0:
260,53,201452,6,0,P|254:1|248:52,1,150,6|0,1:3|0:0,2:0:0:0:
173,107,202003,5,0,3:0:0:0:
166,113,202072,1,0,3:0:0:0:
154,114,202140,1,0,3:0:0:0:
136,108,202209,1,0,3:0:0:0:
126,93,202278,1,4,3:1:0:0:
114,76,202347,1,0,3:0:0:0:
97,63,202416,1,0,3:0:0:0:
71,58,202485,1,0,3:0:0:0:
43,68,202553,6,0,L|49:103,1,25,0|0,3:0|3:0,0:0:0:0:
76,165,202691,6,0,L|70:200,1,25,0|0,3:0|3:0,0:0:0:0:
6,265,202829,6,0,L|10:289,1,25,2|2,3:2|3:2,0:0:0:0:
90,360,202966,6,0,L|85:384,1,25,2|2,3:2|3:2,0:0:0:0:
256,192,203104,5,0,1:0:0:0:
256,192,203379,6,0,P|211:196|206:248,1,100,0|0,0:0|2:0,0:0:0:0:
207,252,203517,1,0,0:0:0:0:
410,45,203654,6,0,L|93:108,1,300,6|0,1:0|2:0,0:0:0:0:
117,96,203929,6,0,L|411:37,1,300,6|0,1:0|2:0,0:0:0:0:
489,78,204205,5,2,0:2:0:0:
489,78,204274,1,0,0:0:0:0:
489,78,204342,2,0,P|478:136|477:156,1,50,2|0,0:2|0:0,0:0:0:0:
428,188,204480,5,2,0:2:0:0:
428,188,204549,1,0,0:0:0:0:
428,188,204617,2,0,P|461:236|474:251,1,50,2|0,0:2|0:0,0:0:0:0:
483,310,204755,5,2,0:2:0:0:
461,327,204824,1,0,0:0:0:0:
440,353,204893,1,2,0:2:0:0:
426,382,204962,1,0,0:0:0:0:
359,337,205030,6,0,P|325:299|332:252,1,100,6|0,1:0|0:0,0:0:0:0:
242,252,205168,2,0,P|244:201|283:172,1,100
213,117,205306,2,0,P|251:83|298:89,1,100,2|0,0:3|0:0,0:0:0:0:
241,362,205443,5,6,1:0:0:0:
231,359,205512,1,0,0:0:0:0:
223,358,205581,1,0,0:0:0:0:
217,357,205650,1,0,0:0:0:0:
208,354,205718,1,2,0:3:0:0:
31,61,205856,6,0,L|94:378,1,300,6|0,1:0|0:0,0:0:0:0:
82,354,206131,6,0,L|23:60,1,300,6|0,1:0|0:0,0:0:0:0:
97,9,206407,5,2,0:2:0:0:
97,9,206475,1,0,0:0:0:0:
97,9,206544,2,0,L|162:22,1,50,2|0,0:2|0:0,0:0:0:0:
228,2,206682,5,2,0:2:0:0:
228,2,206750,1,0,0:0:0:0:
228,2,206819,2,0,L|293:15,1,50,2|0,0:2|0:0,0:0:0:0:
369,11,206957,5,2,0:2:0:0:
348,38,207026,1,0,0:0:0:0:
336,76,207095,1,2,0:2:0:0:
336,115,207163,1,0,0:0:0:0:
324,198,207232,6,0,B|356:162|356:162|331:105,1,100,6|0,1:0|0:0,0:0:0:0:
232,105,207370,2,0,B|200:141|200:141|225:198,1,100
332,203,207507,2,0,B|364:167|364:167|339:110,1,100,2|0,0:3|0:0,0:0:0:0:
262,313,207645,5,6,1:0:0:0:
270,315,207714,1,0,0:0:0:0:
275,320,207783,1,0,0:0:0:0:
277,325,207852,1,0,0:0:0:0:
278,331,207920,1,2,0:3:0:0:
47,318,208058,6,0,P|195:334|341:368,1,300,6|0,1:0|0:0,0:0:0:0:
44,325,208333,2,0,P|193:341|339:376,1,300,6|0,1:0|0:0,0:0:0:0:
420,339,208608,5,2,0:2:0:0:
424,333,208677,1,0,0:0:0:0:
428,327,208746,2,0,B|433:301|433:301|412:273,1,50,2|0,0:2|0:0,0:0:0:0:
502,251,208884,5,2,0:2:0:0:
500,243,208953,1,0,0:0:0:0:
499,236,209022,2,0,B|484:214|484:214|449:209,1,50,2|0,0:2|0:0,0:0:0:0:
405,157,209159,5,2,0:2:0:0:
407,125,209228,1,0,0:0:0:0:
424,92,209296,1,2,0:2:0:0:
455,77,209365,1,0,0:0:0:0:
482,65,209434,6,0,P|371:43|354:37,1,100,6|0,1:0|0:0,0:0:0:0:
332,109,209572,2,0,P|221:131|204:137,1,100
231,47,209709,2,0,P|120:25|103:19,1,100,2|0,0:3|0:0,0:0:0:0:
74,85,209847,5,6,1:0:0:0:
76,93,209916,1,0,0:0:0:0:
77,98,209985,1,0,0:0:0:0:
77,107,210053,1,0,0:0:0:0:
77,115,210122,1,2,0:3:0:0:
431,360,210260,6,0,P|447:212|481:66,1,300,6|0,1:0|2:0,0:0:0:0:
438,363,210535,2,0,P|454:214|489:68,1,300,6|0,1:0|2:0,0:0:0:0:
413,28,210810,5,2,0:2:0:0:
413,28,210879,1,0,0:0:0:0:
413,28,210948,2,0,P|378:37|359:38,1,50,2|0,0:2|0:0,0:0:0:0:
327,106,211085,5,2,0:2:0:0:
327,106,211154,1,0,0:0:0:0:
327,106,211223,2,0,P|292:97|273:96,1,50,2|0,0:2|0:0,0:0:0:0:
203,53,211361,6,0,P|199:29|194:-2,3,50,2|0|2|0,0:2|0:0|0:2|0:0,0:0:0:0:
91,80,211636,6,0,B|82:115|-6:105|-6:105|220:152|220:152|200:154|191:187|191:187|122:249|39:190,1,525.000020027161,6|0,1:3|0:0,0:0:0:0:
0,245,212186,6,0,P|-9:289|38:309,1,100,0|0,0:0|2:0,0:0:0:0:
43,309,212324,1,0,0:0:0:0:
262,374,212462,5,4,0:2:0:0:
277,255,212599,1,0,0:0:0:0:
204,306,212737,5,2,0:3:0:0:
128,325,212874,1,0,0:0:0:0:
411,304,213012,5,4,0:2:0:0:
426,185,213149,1,2,0:2:0:0:
353,236,213287,5,2,0:3:0:0:
277,255,213424,1,0,0:0:0:0:
186,194,213563,5,6,0:2:0:0:
171,75,213700,1,0,0:0:0:0:
244,126,213838,5,2,0:3:0:0:
320,145,213975,1,0,0:0:0:0:
37,124,214113,5,4,0:2:0:0:
22,5,214250,1,0,0:0:0:0:
95,56,214388,5,2,0:3:0:0:
171,75,214525,1,0,0:0:0:0:
393,13,214663,5,4,0:2:0:0:
413,137,214801,1,0,0:0:0:0:
495,173,214939,5,2,0:3:0:0:
479,250,215076,1,0,0:0:0:0:
296,87,215214,5,4,0:2:0:0:
316,211,215352,1,2,0:2:0:0:
398,247,215490,5,2,0:3:0:0:
382,324,215627,1,0,0:0:0:0:
119,371,215764,5,6,0:2:0:0:
99,247,215902,1,0,0:0:0:0:
17,211,216040,5,2,0:3:0:0:
33,134,216177,1,0,0:0:0:0:
216,297,216315,5,4,0:2:0:0:
196,173,216453,1,0,0:0:0:0:
114,137,216591,5,2,0:3:0:0:
130,60,216728,1,0,0:0:0:0:
259,11,216865,5,4,0:2:0:0:
259,11,217003,2,0,L|302:17,1,37.5000014305115,2|0,0:3|0:0,0:0:0:0:
360,68,217140,5,4,1:2:0:0:
360,68,217278,2,0,L|403:62,1,37.5000014305115,2|0,1:3|0:0,0:0:0:0:
465,107,217416,5,4,1:2:0:0:
465,107,217554,2,0,L|458:160,1,50,2|0,1:3|0:0,0:0:0:0:
369,196,217691,5,4,1:2:0:0:
369,196,217829,2,0,L|376:249,1,50,2|0,1:3|0:0,0:0:0:0:
406,346,217966,5,4,1:2:0:0:
406,346,218104,2,0,L|307:326,1,62.5,2|0,1:2|0:0,0:0:0:0:
242,276,218241,5,4,1:2:0:0:
242,276,218379,2,0,L|143:296,1,62.5,2|0,1:2|0:0,0:0:0:0:
81,339,218517,5,0,1:0:0:0:
81,339,218654,2,0,L|65:224,1,75.0000028610231,2|0,1:2|0:0,0:0:0:0:
193,169,218792,5,2,3:2:0:0:
193,169,218929,2,0,L|209:54,1,75.0000028610231,2|2,3:2|3:2,0:0:0:0:
252,23,219067,5,0,1:0:0:0:
273,13,219136,1,0,0:0:0:0:
300,15,219205,1,0,0:0:0:0:
323,32,219274,1,0,0:0:0:0:
330,52,219342,1,0,0:0:0:0:
321,62,219411,1,0,0:0:0:0:
313,62,219480,1,0,0:0:0:0:
308,56,219549,1,0,0:0:0:0:
317,45,219618,6,0,L|403:58,3,75.0000028610231
427,128,219893,5,0,0:0:0:0:
421,129,219962,1,0,0:0:0:0:
415,130,220030,2,0,P|419:166|419:172,1,25
394,284,220168,6,0,L|461:269,37,50,2|0|0|0|0|0|0|0|0|0|0|0|0|0|0|0|0|0|0|0|0|0|0|0|0|0|0|0|0|0|0|0|0|0|0|0|0|0,0:2|0:0|0:0|0:0|0:0|0:0|0:0|0:0|0:0|0:0|0:0|0:0|0:0|0:0|0:0|0:0|3:0|0:0|0:0|0:0|0:0|0:0|0:0|0:0|0:0|0:0|0:0|0:0|0:0|0:0|0:0|0:0|3:0|0:0|0:0|0:0|0:0|0:0,0:0:0:0:
372,269,221475,6,0,L|364:233,11,37.5000014305115,0|0|0|0|0|0|0|0|0|0|0|0,0:0|0:0|0:0|0:0|0:0|0:0|0:0|0:0|0:0|0:0|3:0|0:0,0:0:0:0:
336,374,221888,6,0,B|314:363|314:363|305:331|305:331|267:316,64,75.0000028610231,0|0|2|0|0|0|0|0|0|0|0|0|0|0|0|0|0|0|0|0|0|0|0|0|0|0|0|0|0|0|0|0|0|0|0|0|0|0|0|0|0|0|0|0|0|0|0|0|0|0|0|0|0|0|0|0|0|0|0|0|0|0|0|0|2,0:0|0:0|0:0|0:0|0:0|0:0|0:0|0:0|0:0|0:0|0:0|0:0|0:0|0:0|3:0|0:0|0:0|0:0|0:0|0:0|0:0|0:0|0:0|0:0|0:0|0:0|0:0|0:0|0:0|0:0|3:0|0:0|0:0|0:0|0:0|0:0|0:0|0:0|0:0|0:0|0:0|0:0|0:0|0:0|0:0|0:0|3:0|0:0|0:0|0:0|0:0|0:0|0:0|0:0|0:0|0:0|0:0|0:0|0:0|0:0|0:0|0:0|3:0|0:0|0:3,0:0:0:0:
203,278,224159,6,0,L|144:293,5,50,2|2|2|2|2|2,0:3|0:3|0:3|0:3|0:3|0:3,0:0:0:0:
83,251,224572,5,2,1:2:0:0:
76,246,224640,1,0,0:0:0:0:
70,243,224709,2,0,L|62:185,1,50
97,123,224847,6,0,P|127:146|130:163,3,50,2|0|2|2,1:2|0:0|0:2|0:2,0:0:0:0:
204,146,225122,2,0,P|208:183|199:197,3,50,2|2|2|2,1:2|0:2|0:2|0:2,0:0:0:0:
24,23,225397,6,0,P|162:43|363:71,1,300,4|0,1:2|2:0,0:0:0:0:
475,68,225673,6,2,B|488:156|428:192|412:181|391:170|306:211|338:307,1,300,6|0,1:3|2:0,0:1:0:0:
282,372,225948,6,0,P|238:349|230:280,1,100,4|0,1:2|0:0,0:0:0:0:
204,146,226085,2,0,P|250:161|272:204,1,100,0|0,1:0|0:0,0:0:0:0:
111,347,226223,2,0,P|96:299|139:245,1,100,0|0,1:0|0:0,0:0:0:0:
204,146,226360,6,0,P|161:139|103:116,1,100,4|0,1:0|0:0,0:0:0:0:
223,303,226498,2,0,P|269:284|318:275,1,100,0|0,1:0|0:0,0:0:0:0:
211,144,226636,2,0,P|185:108|160:51,1,100,0|0,1:0|0:0,0:0:0:0:
399,147,226773,6,0,P|419:313|430:366,2,200,4|0|2,1:0|1:0|1:3,0:0:0:0:
30,116,227186,5,2,1:2:0:0:
14,251,227325,1,2,1:2:0:0:
4,374,227461,1,2,1:3:0:0:
276,53,227599,5,12,1:3:0:0:
273,45,227668,1,2,1:2:0:0:
272,38,227737,1,2,1:2:0:0:
271,29,227806,1,2,1:2:0:0:
270,20,227874,6,2,B|326:-6|326:-6|411:28|411:28|338:85|338:85|284:77,1,300,6|0,1:0|2:0,0:1:0:0:
39,217,228149,6,0,B|78:245|78:245|131:221,1,100,4|0,1:0|0:0,0:0:0:0:
144,305,228287,2,0,B|191:297|191:297|211:242,1,100,0|0,1:0|0:0,0:0:0:0:
280,290,228426,2,0,B|308:250|308:250|284:197,1,100,0|0,1:0|0:0,0:0:0:0:
32,117,228562,6,0,P|75:68|130:80,1,100,4|0,1:0|0:0,0:0:0:0:
286,203,228700,2,0,P|238:194|212:153,1,100,0|0,1:0|0:0,0:0:0:0:
182,2,228838,2,0,P|247:-2|277:45,1,100,0|0,1:0|0:0,0:0:0:0:
507,58,228975,6,0,P|394:86|283:102,2,200,4|0|2,1:0|1:0|1:3,0:0:0:0:
486,344,229388,5,2,1:2:0:0:
340,315,229526,1,2,1:2:0:0:
189,284,229663,1,2,1:3:0:0:
29,363,229801,5,12,1:3:0:0:
39,348,229870,1,2,1:2:0:0:
41,333,229939,1,2,1:2:0:0:
37,322,230008,1,2,1:2:0:0:
28,315,230076,6,0,B|33:269|-4:243|-4:243|15:-7,1,300,6|0,1:0|1:2,0:0:0:0:
84,3,230351,6,0,P|189:23|317:44,1,225.000008583069,4|0,1:3|0:0,0:0:0:0:
406,105,230626,5,8,3:0:0:0:
406,105,230694,1,8,3:0:0:0:
406,105,230763,2,0,P|301:125|173:146,1,225.000008583069,4|0,1:3|0:0,0:0:0:0:
82,208,231039,5,8,3:0:0:0:
82,208,231108,1,8,3:0:0:0:
82,208,231176,2,0,P|187:228|315:249,1,225.000008583069,4|0,1:3|0:0,0:0:0:0:
439,301,231451,5,8,3:0:0:0:
439,301,231521,1,8,3:0:0:0:
439,301,231589,2,0,P|334:321|206:342,1,225.000008583069,4|0,1:3|0:0,0:0:0:0:
135,348,231865,5,8,3:0:0:0:
135,348,231934,1,8,3:0:0:0:
135,348,232002,6,0,L|76:338,1,50,12|2,1:3|1:2,0:0:0:0:
75,346,232140,2,0,L|16:356,1,50,2|2,1:2|1:2,0:0:0:0:
46,265,232278,6,2,B|123:246|123:246|147:97|147:97|229:81,1,300,6|0,1:0|2:0,0:1:0:0:
290,72,232553,5,2,1:0:0:0:
365,17,232691,2,0,P|385:44|383:63,2,50,2|2|2,0:2|0:2|0:0,0:0:0:0:
347,140,232966,5,2,3:1:0:0:
438,154,233103,2,0,P|433:187|418:199,2,50,2|2|2,0:2|0:2|0:0,0:0:0:0:
332,234,233379,5,2,3:1:0:0:
386,308,233516,2,0,P|359:328|340:326,2,50,2|2|2,0:2|0:2|0:0,0:0:0:0:
254,283,233792,5,2,3:1:0:0:
239,373,233929,2,0,P|205:368|193:353,2,50,2|2|2,0:2|0:2|0:0,0:0:0:0:
0,195,234204,6,0,B|62:160|98:226|86:232|73:239|109:306|176:276,1,225.000008583069,4|0,1:3|0:0,0:0:0:0:
384,173,234480,6,2,B|175:127|175:127|229:140|228:196,1,300,6|0,1:0|2:0,0:1:0:0:
227,186,234755,6,0,P|238:125|255:75,1,100,4|0,1:0|0:0,0:0:0:0:
87,117,234892,2,0,P|76:55|59:5,1,100,0|0,1:0|0:0,0:0:0:0:
234,189,235030,2,0,P|244:127|261:77,1,100,0|0,1:0|0:0,0:0:0:0:
319,360,235168,6,0,P|308:298|291:248,1,100,4|0,1:0|0:0,0:0:0:0:
460,291,235305,2,0,P|470:229|487:179,1,100,0|0,1:0|0:0,0:0:0:0:
313,363,235443,2,0,P|302:301|285:251,1,100,0|0,1:0|0:0,0:0:0:0:
335,8,235581,6,0,P|426:26|417:144,2,200,4|0|2,1:0|1:0|1:3,0:0:0:0:
21,152,235993,5,2,1:2:0:0:
129,119,236131,1,2,1:2:0:0:
247,101,236269,1,2,1:3:0:0:
375,294,236406,5,4,1:3:0:0:
377,302,236475,1,2,1:0:0:0:
378,309,236544,1,2,1:0:0:0:
378,316,236613,1,2,1:0:0:0:
379,331,236681,6,2,B|456:299|527:302|527:302|455:288|412:212,1,300,6|0,1:0|2:0,0:1:0:0:
225,361,236957,6,0,P|153:358|133:316,1,100,4|0,1:0|0:0,0:0:0:0:
134,210,237094,2,0,P|62:213|42:255,1,100,0|0,1:0|0:0,0:0:0:0:
225,352,237232,2,0,P|153:349|133:307,1,100,0|0,1:0|0:0,0:0:0:0:
406,41,237370,6,0,P|334:44|314:86,1,100,4|0,1:0|0:0,0:0:0:0:
310,207,237507,2,0,P|238:204|218:162,1,100,0|0,1:0|0:0,0:0:0:0:
406,50,237645,2,0,P|334:53|314:95,1,100,0|0,1:0|0:0,0:0:0:0:
114,29,237782,6,0,P|23:47|32:165,2,200,4|0|2,1:0|1:0|1:3,0:0:0:0:
372,384,238195,5,2,1:2:0:0:
399,255,238333,1,2,1:2:0:0:
441,129,238470,1,2,1:3:0:0:
320,70,238608,5,4,1:3:0:0:
319,61,238677,1,2,1:0:0:0:
318,51,238746,1,2,1:0:0:0:
317,40,238814,1,2,1:0:0:0:
315,29,238883,2,0,B|295:8|263:11|263:11|225:44|174:34|174:34|225:43|245:90|245:90|266:110|303:97,1,300,6|0,1:0|1:2,0:0:0:0:
443,10,239159,6,0,B|454:150|454:150|459:152|459:152|476:313,1,300,4|0,1:3|0:0,0:0:0:0:
336,358,239434,5,8,3:0:0:0:
336,358,239503,1,8,3:0:0:0:
336,358,239571,2,0,B|347:217|347:217|352:215|352:215|369:54,1,300,4|0,1:3|0:0,0:0:0:0:
216,20,239847,5,8,3:0:0:0:
216,20,239916,1,8,3:0:0:0:
216,20,239984,2,0,B|227:160|227:160|232:162|232:162|249:323,1,300,4|0,1:3|0:0,0:0:0:0:
89,357,240259,5,8,3:0:0:0:
89,357,240328,1,8,3:0:0:0:
89,357,240396,2,0,B|100:216|100:216|105:214|105:214|122:53,1,300,4|0,1:3|0:0,0:0:0:0:
18,16,240672,5,8,3:0:0:0:
18,16,240741,1,8,3:0:0:0:
18,16,240810,6,0,L|32:74,1,50,12|2,1:3|1:2,0:0:0:0:
16,73,240948,2,0,L|2:131,1,50,2|2,1:2|1:2,0:0:0:0:
92,182,241085,6,2,P|234:156|403:137,1,300,6|0,1:0|2:0,0:1:0:0:
388,138,241360,5,2,1:0:0:0:
256,192,241395,12,0,242943,0:0:0:0:
483,74,243012,6,0,P|466:39|429:41,1,75,4|0,0:3|0:0,0:0:0:0:
362,54,243287,6,2,L|386:358,1,300,14|0,1:0|2:0,0:1:0:0:
311,374,243562,5,6,0:2:0:0:
311,374,243631,1,2,0:2:0:0:
311,374,243700,2,0,B|282:334|282:334|300:271,1,100,6|2,0:2|0:2,0:0:0:0:
467,291,243837,5,2,0:2:0:0:
467,291,243906,1,2,0:2:0:0:
467,291,243975,2,0,B|496:251|496:251|478:188,1,100,6|2,0:2|0:2,0:0:0:0:
343,150,244113,5,6,0:2:0:0:
334,153,244181,1,2,0:2:0:0:
326,156,244250,1,2,0:2:0:0:
318,159,244319,1,2,0:2:0:0:
311,162,244388,6,0,L|90:129,2,200,2|4|4,0:0|1:3|1:3,0:0:0:0:
363,250,244801,6,0,L|286:267,2,50,2|0|0,0:0|0:0|0:0,0:0:0:0:
246,301,244938,6,0,L|169:318,2,50,4|0|0,1:3|0:0|2:0,0:0:0:0:
141,365,245076,5,4,1:3:0:0:
113,132,245214,6,0,P|168:158|164:249,1,150,2|2,0:3|0:2,0:0:0:0:
99,301,245489,6,0,P|93:182|63:-10,1,300,14|0,0:0|2:0,0:0:0:0:
149,2,245764,5,6,0:2:0:0:
149,2,245833,1,2,0:2:0:0:
149,2,245902,2,0,P|197:42|189:78,1,100,6|2,0:2|0:2,0:0:0:0:
49,199,246039,5,2,0:2:0:0:
49,199,246108,1,2,0:2:0:0:
49,199,246177,2,0,P|1:159|9:123,1,100,6|2,0:2|0:2,0:0:0:0:
219,191,246314,5,6,0:2:0:0:
228,194,246383,1,2,0:2:0:0:
237,196,246452,1,2,0:2:0:0:
246,199,246521,1,2,0:2:0:0:
257,202,246590,6,0,L|285:-18,2,200,2|4|4,0:0|1:3|1:3,0:0:0:0:
381,240,247003,6,0,L|372:158,2,50,2|0|0,0:0|0:0|0:0,0:0:0:0:
406,122,247140,6,0,L|397:40,2,50,4|0|0,1:3|0:0|2:0,0:0:0:0:
435,3,247278,5,4,1:3:0:0:
503,302,247415,6,0,P|414:321|342:347,1,150,2|2,0:3|0:2,0:0:0:0:
287,375,247691,6,0,P|194:337|-44:303,1,300,14|0,0:0|2:0,0:0:0:0:
41,214,247966,5,4,1:3:0:0:
494,193,248241,5,8,3:0:0:0:
479,198,248310,1,8,3:0:0:0:
466,202,248379,1,4,1:3:0:0:
2,118,248654,5,8,3:0:0:0:
17,123,248723,1,8,3:0:0:0:
30,127,248792,1,4,1:3:0:0:
499,49,249067,5,8,3:0:0:0:
484,54,249136,1,8,3:0:0:0:
471,58,249205,1,4,1:3:0:0:
9,0,249480,5,8,3:0:0:0:
24,5,249549,1,8,3:0:0:0:
36,10,249617,6,0,P|72:28|81:52,1,50,4|0,1:3|0:0,0:0:0:0:
149,3,249754,2,0,P|161:41|151:64,1,50,0|0,0:0|2:0,0:0:0:0:
224,237,249892,6,0,B|215:148|294:152|291:142|296:160|339:162|356:64|315:12|192:61|221:125|264:137,1,300,14|0,0:0|2:0,0:0:0:0:
62,279,250168,5,4,1:2:0:0:
14,200,250306,2,0,P|41:180|60:182,2,50,2|2|2,3:2|0:0|0:3,0:0:0:0:
130,222,250581,5,2,3:2:0:0:
120,127,250718,2,0,P|153:132|165:147,2,50,2|2|2,3:2|0:0|0:3,0:0:0:0:
224,237,250994,5,2,3:2:0:0:
295,184,251131,2,0,P|315:211|313:230,2,50,2|2|2,3:2|0:0|0:3,0:0:0:0:
273,315,251407,5,2,3:2:0:0:
366,318,251544,2,0,P|361:352|346:364,2,50,2|2|2,3:2|0:0|0:3,0:0:0:0:
418,76,251819,6,0,L|238:54,1,150,4|0,1:3|0:0,0:0:0:0:
494,53,252094,6,0,L|116:92,1,300,14|0,0:0|2:0,0:0:0:0:
120,140,252370,5,6,0:2:0:0:
116,146,252438,1,2,0:2:0:0:
117,153,252507,2,0,P|166:179|208:168,1,100,6|2,0:2|0:2,0:0:0:0:
205,258,252645,5,2,0:2:0:0:
206,265,252713,1,2,0:2:0:0:
212,269,252782,2,0,P|265:252|286:215,1,100,6|2,0:2|0:2,0:0:0:0:
324,144,252920,5,6,0:2:0:0:
335,148,252989,1,2,0:2:0:0:
346,153,253058,1,2,0:2:0:0:
356,159,253126,1,2,0:2:0:0:
430,148,253195,6,0,P|426:55|335:73,2,200,2|4|4,0:0|1:3|1:3,0:0:0:0:
378,252,253608,6,0,B|403:260|403:260|444:232,2,50,2|0|0,0:0|0:0|0:0,0:0:0:0:
462,317,253746,6,0,B|482:331|482:331|507:323,2,50,4|0|0,0:3|0:0|0:0,0:0:0:0:
512,232,253883,5,4,0:3:0:0:
232,308,254021,6,0,L|254:128,1,150,2|2,0:3|0:2,0:0:0:0:
255,384,254296,6,0,L|216:6,1,300,14|0,0:0|2:0,0:0:0:0:
209,2,254571,5,6,0:2:0:0:
209,2,254640,1,2,0:2:0:0:
209,2,254709,2,0,P|142:19|99:23,1,100,6|2,0:2|0:2,0:0:0:0:
97,108,254847,5,2,0:2:0:0:
97,108,254916,1,2,0:2:0:0:
97,108,254985,2,0,P|30:91|-13:87,1,100,6|2,0:2|0:2,0:0:0:0:
150,190,255122,5,6,0:2:0:0:
159,200,255191,1,2,0:2:0:0:
171,205,255259,1,2,0:2:0:0:
183,204,255328,1,2,0:2:0:0:
250,159,255397,6,0,P|346:178|299:265,2,200,2|4|4,0:0|1:3|1:3,0:0:0:0:
162,295,255810,6,0,B|137:303|137:303|96:275,2,50,2|0|0,0:0|0:0|0:0,0:0:0:0:
77,360,255948,6,0,B|58:374|58:374|33:366,2,50,4|0|0,1:3|0:0|2:0,0:0:0:0:
28,275,256085,5,4,1:3:0:0:
289,347,256223,6,0,L|469:369,1,150,2|2,0:3|0:2,0:0:0:0:
213,370,256498,6,0,L|591:331,1,300,14|0,0:0|2:0,0:0:0:0:
508,260,256773,5,4,1:3:0:0:
22,10,257048,5,8,3:0:0:0:
24,20,257117,1,8,3:0:0:0:
27,29,257186,1,4,1:3:0:0:
213,370,257461,5,8,3:0:0:0:
215,360,257530,1,8,3:0:0:0:
218,351,257599,1,4,1:3:0:0:
296,10,257874,5,8,3:0:0:0:
298,20,257943,1,8,3:0:0:0:
301,29,258012,1,4,1:3:0:0:
468,368,258287,5,8,3:0:0:0:
470,358,258356,1,8,3:0:0:0:
472,348,258425,5,4,1:3:0:0:
459,324,258493,1,0,0:0:0:0:
412,287,258562,1,0,0:0:0:0:
332,272,258631,1,0,2:0:0:0:
251,312,258700,6,0,B|51:360|51:360|104:348|128:301,1,300,14|0,0:0|2:0,0:0:0:0:
178,244,258975,5,4,1:2:0:0:
256,192,259044,12,0,260558,0:0:0:0:
287,28,260626,5,4,0:3:0:0:
294,26,260695,1,2,0:2:0:0:
301,23,260764,1,2,0:2:0:0:
307,21,260833,1,2,0:2:0:0:
315,19,260902,1,0,0:0:0:0:
256,192,260919,12,0,265236,0:0:0:0:
106,76,265305,6,0,L|102:54,3,22.9999992279053
116,90,265580,6,0,L|110:119,3,22.9999992279053
186,45,265856,6,0,L|180:16,3,22.9999992279053
204,123,266131,6,0,L|198:152,3,22.9999992279053
272,22,266406,6,0,L|266:-7,3,22.9999992279053
290,172,266681,6,0,L|284:201,3,22.9999992279053
433,0,266957,5,0,0:0:0:0:
442,10,267025,1,0,0:0:0:0:
441,22,267094,1,0,0:0:0:0:
434,30,267163,1,0,0:0:0:0:
421,37,267232,1,0,0:0:0:0:
395,52,267301,1,0,0:0:0:0:
374,75,267369,1,0,0:0:0:0:
373,114,267438,1,0,0:0:0:0:
391,144,267507,6,0,L|366:152,1,22.9999992279053,2|0,1:0|0:0,0:0:0:0:
414,256,267644,5,0,0:0:0:0:
376,259,267781,1,0,0:0:0:0:
355,236,267919,1,0,0:0:0:0:
255,254,268056,5,2,0:2:0:0:
237,205,268195,1,0,0:0:0:0:
266,167,268333,1,0,0:0:0:0:
112,185,268469,5,0,0:0:0:0:
168,318,268607,1,0,0:0:0:0:
168,318,268676,1,0,0:0:0:0:
168,318,268746,1,0,0:0:0:0:
198,86,268882,1,0,0:0:0:0:
42,369,269021,5,8,0:0:0:0:
30,360,269090,1,8,0:0:0:0:
47,355,269158,5,8,0:0:0:0:
20,221,269296,1,8,0:0:0:0:
9,78,269434,1,4,0:0:0:0:
392,360,269571,6,0,B|297:316|297:316|289:309|289:309|234:125|234:125|272:112|272:112|428:205|428:205|439:199|439:199|504:45|504:45|498:9|498:9|367:37|367:37|365:44|365:44|422:343,1,1189.0000362854,4|0,1:0|0:0,0:0:0:0:
