osu file format v14

[General]
AudioFilename: audio.mp3
AudioLeadIn: 0
PreviewTime: 73763
Countdown: 0
SampleSet: Soft
StackLeniency: 0.5
Mode: 0
LetterboxInBreaks: 0
WidescreenStoryboard: 1

[Editor]
Bookmarks: 5489,23103,32186,49800,67141,75948,93563,111177,128792,146407,164021,186040,212462,220856,225948,243562
DistanceSpacing: 0.1
BeatDivisor: 4
GridSize: 32
TimelineZoom: 2.7

[Metadata]
Title:Destroy, Destroy, Destroy The Happy End
TitleUnicode:Destroy, Destroy, Destroy The Happy End
Artist:Chroma
ArtistUnicode:黒魔
Creator:Ancelysia
Version:Ryo's Expert
Source:
Tags:ancel atlas atlas- aeniko ryokazuka silver silverboxer robot & and human electronic instrumental featured artist fa dddthe
BeatmapID:3598494
BeatmapSetID:1730072

[Difficulty]
HPDrainRate:5
CircleSize:3.5
OverallDifficulty:8.2
ApproachRate:9.5
SliderMultiplier:1.85
SliderTickRate:1

[Events]
//Background and Video events
0,0,"28563722_p0.jpg",0,0
//Break Periods
2,56606,57532
2,65413,66339
2,67341,68817
2,168625,176157
2,177432,185489
2,261102,262578
//Storyboard Layer 0 (Background)
//Storyboard Layer 1 (Fail)
//Storyboard Layer 2 (Pass)
//Storyboard Layer 3 (Foreground)
//Storyboard Layer 4 (Overlay)
//Storyboard Sound Samples

[TimingPoints]
5489,550.45871559633,4,2,0,60,1,0
5489,-222.222222222222,4,2,0,60,0,0
13883,-222.222222222222,4,3,0,90,0,0
14296,-222.222222222222,4,2,0,60,0,0
22553,-500,4,2,0,30,0,0
23103,275.229357798165,4,3,1,100,1,0
23103,-83.3333333333333,4,3,1,100,0,0
23378,-153.846153846154,4,3,1,100,0,0
25029,-83.3333333333333,4,3,1,100,0,0
25580,-153.846153846154,4,3,1,100,0,0
27231,-83.3333333333333,4,3,1,100,0,0
27781,-153.846153846154,4,3,1,100,0,0
28194,-76.9230769230769,4,3,1,100,0,0
28332,-83.3333333333333,4,3,1,100,0,0
28882,-153.846153846154,4,3,1,100,0,0
29295,-76.9230769230769,4,3,1,100,0,0
29433,-83.3333333333333,4,3,1,100,0,0
30809,-142.857142857143,4,2,1,60,0,0
31635,-83.3333333333333,4,2,0,100,0,0
31910,-333.333333333333,4,2,0,100,0,0
32117,-333.333333333333,4,2,0,5,0,0
32186,275.229357798165,4,2,1,90,1,0
32186,-71.4285714285714,4,2,1,90,0,1
32254,-71.4285714285714,4,2,1,5,0,0
32323,-71.4285714285714,4,2,1,90,0,0
32391,-71.4285714285714,4,2,1,5,0,0
32461,-71.4285714285714,4,2,1,90,0,0
32529,-71.4285714285714,4,2,1,5,0,0
32598,-71.4285714285714,4,2,1,90,0,0
32666,-71.4285714285714,4,2,1,5,0,0
32736,-71.4285714285714,4,2,1,90,0,0
32804,-71.4285714285714,4,2,1,5,0,0
32874,-71.4285714285714,4,2,1,90,0,0
32942,-71.4285714285714,4,2,1,5,0,0
33011,-71.4285714285714,4,2,1,90,0,0
33080,-71.4285714285714,4,2,1,5,0,0
33149,-71.4285714285714,4,2,1,90,0,0
33218,-71.4285714285714,4,2,1,5,0,0
33286,-71.4285714285714,4,2,1,90,0,0
33424,-71.4285714285714,4,2,1,90,0,0
33493,-71.4285714285714,4,2,1,5,0,0
33562,-71.4285714285714,4,2,1,90,0,0
33630,-71.4285714285714,4,2,1,5,0,0
33699,-71.4285714285714,4,2,1,90,0,0
33837,-83.3333333333333,4,2,1,90,0,0
34112,-333.333333333333,4,2,1,90,0,0
34387,-71.4285714285714,4,2,1,90,0,0
34455,-71.4285714285714,4,2,1,5,0,0
34524,-71.4285714285714,4,2,1,90,0,0
34592,-71.4285714285714,4,2,1,5,0,0
34662,-71.4285714285714,4,2,1,90,0,0
34730,-71.4285714285714,4,2,1,5,0,0
34799,-71.4285714285714,4,2,1,90,0,0
34867,-71.4285714285714,4,2,1,5,0,0
34937,-71.4285714285714,4,2,1,90,0,0
35005,-71.4285714285714,4,2,1,5,0,0
35075,-71.4285714285714,4,2,1,90,0,0
35144,-71.4285714285714,4,2,1,5,0,0
35213,-71.4285714285714,4,2,1,90,0,0
35282,-71.4285714285714,4,2,1,5,0,0
35351,-71.4285714285714,4,2,1,90,0,0
35419,-71.4285714285714,4,2,1,5,0,0
35488,-71.4285714285714,4,2,1,90,0,0
35626,-71.4285714285714,4,2,1,90,0,0
35695,-71.4285714285714,4,2,1,5,0,0
35763,-71.4285714285714,4,2,1,90,0,0
35832,-71.4285714285714,4,2,1,5,0,0
35901,-71.4285714285714,4,2,1,90,0,0
36039,-83.3333333333333,4,2,1,90,0,0
36314,-333.333333333333,4,2,1,90,0,0
36520,-333.333333333333,4,2,1,5,0,0
36589,-71.4285714285714,4,2,1,90,0,0
38241,-83.3333333333333,4,2,1,90,0,0
38516,-333.333333333333,4,2,1,90,0,0
38791,-142.857142857143,4,2,1,90,0,0
40442,-83.3333333333333,4,2,1,90,0,0
40718,-333.333333333333,4,2,1,90,0,0
40924,-333.333333333333,4,2,1,5,0,0
40993,-71.4285714285714,4,2,1,90,0,1
41062,-71.4285714285714,4,2,1,5,0,0
41130,-71.4285714285714,4,2,1,90,0,0
41199,-71.4285714285714,4,2,1,5,0,0
41268,-66.6666666666667,4,2,1,90,0,0
41337,-66.6666666666667,4,2,1,5,0,0
41406,-66.6666666666667,4,2,1,90,0,0
41474,-66.6666666666667,4,2,1,5,0,0
41543,-62.5,4,2,1,90,0,0
41612,-62.5,4,2,1,5,0,0
41681,-62.5,4,2,1,90,0,0
41750,-62.5,4,2,1,5,0,0
41819,-58.8235294117647,4,2,1,90,0,0
41887,-58.8235294117647,4,2,1,5,0,0
41956,-58.8235294117647,4,2,1,90,0,0
42025,-58.8235294117647,4,2,1,5,0,0
42094,-71.4285714285714,4,2,1,90,0,0
42300,-71.4285714285714,4,2,1,5,0,0
42369,-71.4285714285714,4,2,1,90,0,0
42438,-71.4285714285714,4,2,1,5,0,0
42507,-71.4285714285714,4,2,1,90,0,0
42644,-83.3333333333333,4,2,1,90,0,0
42919,-333.333333333333,4,2,1,90,0,0
43126,-333.333333333333,4,2,1,5,0,0
43195,-71.4285714285714,4,2,1,90,0,0
43264,-71.4285714285714,4,2,1,5,0,0
43332,-71.4285714285714,4,2,1,90,0,0
43401,-71.4285714285714,4,2,1,5,0,0
43470,-66.6666666666667,4,2,1,90,0,0
43539,-66.6666666666667,4,2,1,5,0,0
43608,-66.6666666666667,4,2,1,90,0,0
43676,-66.6666666666667,4,2,1,5,0,0
43745,-62.5,4,2,1,90,0,0
43814,-62.5,4,2,1,5,0,0
43883,-62.5,4,2,1,90,0,0
43952,-62.5,4,2,1,5,0,0
44020,-58.8235294117647,4,2,1,90,0,0
44089,-58.8235294117647,4,2,1,5,0,0
44158,-58.8235294117647,4,2,1,90,0,0
44227,-58.8235294117647,4,2,1,5,0,0
44296,-71.4285714285714,4,2,1,90,0,0
44502,-71.4285714285714,4,2,1,5,0,0
44571,-71.4285714285714,4,2,1,90,0,0
44640,-71.4285714285714,4,2,1,5,0,0
44709,-71.4285714285714,4,2,1,90,0,0
44846,-83.3333333333333,4,2,1,90,0,0
45121,-333.333333333333,4,2,1,90,0,0
45328,-333.333333333333,4,2,1,5,0,0
45397,-71.4285714285714,4,2,1,90,0,0
47048,-83.3333333333333,4,2,1,90,0,0
47323,-333.333333333333,4,2,1,90,0,0
47530,-333.333333333333,4,2,1,5,0,0
47598,-142.857142857143,4,2,1,90,0,0
49250,-83.3333333333333,4,2,1,90,0,0
49525,-333.333333333333,4,2,3,90,0,0
49731,-333.333333333333,4,2,3,5,0,0
49800,-80,4,1,1,90,0,1
50626,-80,4,1,1,90,0,0
51452,-83.3333333333333,4,1,1,90,0,0
51727,-333.333333333333,4,1,3,90,0,0
51933,-333.333333333333,4,1,3,5,0,0
52002,-80,4,1,1,90,0,1
52828,-80,4,1,1,90,0,0
53653,-83.3333333333333,4,1,1,90,0,0
53929,-333.333333333333,4,1,3,90,0,0
54135,-333.333333333333,4,1,3,5,0,0
54204,-71.4285714285714,4,2,1,90,0,0
55855,-83.3333333333333,4,2,1,90,0,0
56130,-333.333333333333,4,2,3,90,0,0
56337,-333.333333333333,4,2,3,5,0,0
56406,-100,4,2,1,90,0,0
58057,-83.3333333333333,4,1,3,90,0,0
58332,-333.333333333333,4,1,3,90,0,0
58539,-333.333333333333,4,1,3,5,0,0
58608,-80,4,1,1,90,0,1
59433,-80,4,1,1,90,0,0
60259,-83.3333333333333,4,1,3,90,0,0
60534,-333.333333333333,4,1,3,90,0,0
60741,-333.333333333333,4,1,3,5,0,0
60809,-80,4,1,1,90,0,1
61635,-80,4,1,1,90,0,0
62461,-83.3333333333333,4,1,3,90,0,0
62736,-333.333333333333,4,1,3,90,0,0
62942,-333.333333333333,4,1,3,5,0,0
63011,-71.4285714285714,4,2,1,90,0,0
64663,-83.3333333333333,4,2,1,90,0,0
64938,-333.333333333333,4,2,3,90,0,0
65144,-333.333333333333,4,2,3,5,0,0
65213,-100,4,2,3,90,0,0
66864,-83.3333333333333,4,1,1,90,0,0
67141,275.229357798165,4,2,0,80,1,0
67141,-100,4,2,0,80,0,0
67142,-100,4,2,0,80,0,0
69342,-100,4,2,0,10,0,0
69480,-100,4,2,0,13,0,0
69618,-100,4,2,0,16,0,0
69755,-100,4,2,0,19,0,0
69893,-100,4,2,0,22,0,0
70030,-100,4,2,0,25,0,0
70168,-100,4,2,0,28,0,0
70306,-100,4,2,0,31,0,0
70443,-100,4,2,0,34,0,0
70581,-100,4,2,0,37,0,0
70718,-100,4,2,0,40,0,0
70856,-100,4,2,0,43,0,0
70994,-100,4,2,0,46,0,0
71131,-100,4,2,0,49,0,0
71269,-100,4,2,0,52,0,0
71407,-100,4,2,0,55,0,0
71544,-100,4,2,0,58,0,0
71682,-100,4,2,0,61,0,0
71819,-100,4,2,0,64,0,0
71957,-100,4,2,0,67,0,0
72095,-100,4,2,0,70,0,0
72232,-100,4,2,0,73,0,0
72370,-100,4,2,0,76,0,0
72507,-100,4,2,0,79,0,0
72645,-100,4,2,0,82,0,0
72783,-100,4,2,0,85,0,0
72920,-100,4,2,0,88,0,0
73058,-100,4,2,0,91,0,0
73196,-100,4,2,0,92,0,0
73333,-100,4,2,0,93,0,0
73471,-100,4,2,0,94,0,0
73608,-100,4,2,0,95,0,0
73677,-100,4,3,0,20,0,0
73746,-100,4,3,0,60,0,0
75260,-100,4,3,0,90,0,0
75948,-142.857142857143,4,3,0,80,0,1
76498,-80,4,3,0,80,0,1
77049,-142.857142857143,4,3,0,80,0,1
77599,-80,4,3,0,80,0,1
78150,-142.857142857143,4,3,0,80,0,1
78700,-80,4,3,0,80,0,1
79251,-142.857142857143,4,3,0,80,0,1
79801,-80,4,3,0,80,0,1
80352,-142.857142857143,4,3,0,80,0,1
80902,-80,4,3,0,80,0,1
81452,-142.857142857143,4,3,0,80,0,1
82003,-80,4,3,0,80,0,1
82553,-142.857142857143,4,3,0,80,0,1
83104,-80,4,3,0,80,0,1
83654,-142.857142857143,4,3,0,80,0,1
84204,-80,4,3,0,80,0,1
84755,-142.857142857143,4,3,0,80,0,1
85305,-80,4,3,0,80,0,1
85856,-142.857142857143,4,3,0,80,0,1
86406,-80,4,3,0,80,0,1
86957,-142.857142857143,4,3,0,80,0,1
87507,-80,4,3,0,80,0,1
88058,-142.857142857143,4,3,0,80,0,1
88608,-80,4,3,0,80,0,1
89159,-142.857142857143,4,3,0,80,0,1
89709,-80,4,3,0,80,0,1
90260,-142.857142857143,4,3,0,80,0,1
90810,-80,4,3,1,80,0,1
91361,-142.857142857143,4,3,1,80,0,1
91911,-80,4,3,1,80,0,1
92462,-100,4,3,1,80,0,0
93011,-66.6666666666667,4,3,3,80,0,0
93563,-142.857142857143,4,3,3,80,0,0
94113,-333.333333333333,4,3,3,80,0,0
94801,-142.857142857143,4,3,1,80,0,0
95214,-333.333333333333,4,3,3,80,0,0
95764,-142.857142857143,4,3,1,80,0,0
96315,-333.333333333333,4,3,3,80,0,0
97416,-100,4,3,3,80,0,0
97966,-142.857142857143,4,3,3,80,0,0
98517,-333.333333333333,4,3,3,80,0,0
99205,-142.857142857143,4,3,1,80,0,0
99618,-333.333333333333,4,3,3,80,0,0
100168,-142.857142857143,4,3,1,80,0,0
100718,-333.333333333333,4,3,3,80,0,0
101818,-100,4,3,0,80,0,0
102576,-200,4,2,3,80,0,0
102713,-200,4,3,3,40,0,0
102781,-83.3333333333333,4,3,3,80,0,0
103058,-333.333333333333,4,3,3,80,0,0
103608,-142.857142857143,4,3,3,80,0,0
104021,-333.333333333333,4,3,3,80,0,0
104572,-142.857142857143,4,3,3,80,0,0
105122,-333.333333333333,4,3,3,80,0,0
106222,-100,4,3,3,80,0,0
106774,-142.857142857143,4,3,3,80,0,0
107324,-333.333333333333,4,3,3,80,0,0
108012,-142.857142857143,4,3,3,80,0,0
108425,-333.333333333333,4,3,3,80,0,0
108975,-142.857142857143,4,3,3,80,0,0
109526,-333.333333333333,4,3,3,80,0,0
110076,-100,4,3,3,80,0,0
110902,-200,4,3,3,80,0,0
110971,-200,4,3,3,5,0,0
111040,-200,4,3,3,80,0,0
111108,-200,4,3,3,5,0,0
111177,-71.4285714285714,4,2,1,80,0,1
111246,-71.4285714285714,4,2,1,80,0,0
111452,-71.4285714285714,4,2,1,80,0,1
111521,-71.4285714285714,4,2,1,80,0,0
111728,-100,4,3,1,80,0,0
112553,-90.9090909090909,4,3,1,80,0,0
113379,-71.4285714285714,4,3,1,80,0,1
113448,-71.4285714285714,4,3,1,80,0,0
113654,-71.4285714285714,4,3,1,80,0,1
113723,-71.4285714285714,4,3,1,80,0,0
113929,-100,4,3,1,80,0,0
114755,-90.9090909090909,4,3,1,80,0,0
115581,-71.4285714285714,4,3,1,80,0,1
115650,-71.4285714285714,4,3,1,80,0,0
115856,-71.4285714285714,4,3,1,80,0,1
115925,-71.4285714285714,4,3,1,80,0,0
116131,-100,4,3,1,80,0,0
116957,-90.9090909090909,4,3,1,80,0,0
117783,-71.4285714285714,4,3,1,80,0,1
117852,-71.4285714285714,4,3,1,80,0,0
118058,-71.4285714285714,4,3,1,80,0,1
118127,-71.4285714285714,4,3,1,80,0,0
118333,-100,4,3,1,80,0,0
119159,-83.3333333333333,4,3,0,80,0,0
119640,-83.3333333333333,4,3,0,5,0,0
119709,-200,4,3,0,80,0,0
119778,-200,4,3,0,5,0,0
119847,-200,4,3,0,80,0,0
119916,-200,4,3,0,5,0,0
119985,-100,4,3,1,80,0,0
124388,-250,4,3,1,80,0,0
124939,-166.666666666667,4,3,1,80,0,0
125489,-125,4,3,1,80,0,0
126040,-100,4,3,1,80,0,0
127691,-142.857142857143,4,2,1,60,0,0
128515,-83.3333333333333,4,2,0,100,0,0
128792,-80,4,2,0,100,0,1
128861,-80,4,2,0,100,0,0
130443,-71.4285714285714,4,2,0,100,0,0
131269,-80,4,2,0,100,0,0
131544,-71.4285714285714,4,2,0,100,0,0
131682,-80,4,2,0,100,0,0
132645,-71.4285714285714,4,2,0,100,0,0
133196,-80,4,2,0,100,0,0
134847,-71.4285714285714,4,2,0,100,0,0
135673,-80,4,2,0,100,0,0
135948,-71.4285714285714,4,2,0,100,0,0
136085,-80,4,2,0,100,0,0
136498,-71.4285714285714,4,2,0,100,0,0
137049,-105.263157894737,4,2,0,100,0,0
137324,-100,4,2,0,100,0,0
137874,-80,4,2,0,100,0,1
137943,-80,4,2,0,100,0,0
139251,-71.4285714285714,4,2,0,100,0,0
140076,-80,4,2,0,100,0,0
140352,-71.4285714285714,4,2,0,100,0,0
140489,-80,4,2,0,100,0,0
141452,-71.4285714285714,4,2,0,100,0,0
142003,-80,4,2,0,100,0,0
143654,-71.4285714285714,4,2,0,100,0,0
144480,-80,4,2,0,100,0,0
144755,-71.4285714285714,4,2,0,100,0,0
144893,-80,4,2,0,100,0,0
145306,-142.857142857143,4,2,1,100,0,0
146407,-142.857142857143,4,3,3,80,0,0
146957,-333.333333333333,4,3,3,80,0,0
147645,-142.857142857143,4,3,3,80,0,0
148058,-333.333333333333,4,3,3,80,0,0
148608,-142.857142857143,4,3,3,80,0,0
149159,-333.333333333333,4,3,3,80,0,0
150260,-100,4,3,3,80,0,0
150810,-142.857142857143,4,3,3,80,0,0
151361,-333.333333333333,4,3,3,80,0,0
152049,-142.857142857143,4,3,3,80,0,0
152462,-333.333333333333,4,3,3,80,0,0
153012,-142.857142857143,4,3,3,80,0,0
153562,-333.333333333333,4,3,3,80,0,0
154663,-100,4,3,3,80,0,0
155420,-200,4,3,3,80,0,0
155558,-200,4,3,3,40,0,0
155627,-83.3333333333333,4,3,3,80,0,0
155902,-333.333333333333,4,3,3,80,0,0
156452,-142.857142857143,4,3,3,80,0,0
156865,-333.333333333333,4,3,3,80,0,0
157416,-142.857142857143,4,3,3,80,0,0
157966,-333.333333333333,4,3,3,80,0,0
159067,-100,4,3,3,80,0,0
159618,-142.857142857143,4,3,3,80,0,0
160168,-333.333333333333,4,3,3,80,0,0
160856,-142.857142857143,4,3,3,80,0,0
161269,-333.333333333333,4,3,3,80,0,0
161819,-142.857142857143,4,3,3,80,0,0
162370,-333.333333333333,4,3,3,80,0,0
162920,-100,4,3,3,80,0,0
163746,-200,4,3,3,80,0,0
163815,-200,4,3,3,5,0,0
163884,-200,4,3,3,80,0,0
163952,-200,4,3,3,5,0,0
164021,-100,4,3,3,80,0,0
186040,-90.9090909090909,4,2,0,80,0,1
186246,-90.9090909090909,4,2,0,5,0,1
186315,-111.111111111111,4,2,0,80,0,0
187966,-200,4,2,0,80,0,0
188035,-200,4,2,0,5,0,0
188104,-200,4,2,0,80,0,0
188173,-200,4,2,0,5,0,0
188241,-83.3333333333333,4,2,0,80,0,1
188448,-83.3333333333333,4,2,0,5,0,1
188517,-100,4,2,0,80,0,0
190168,-200,4,2,0,80,0,0
190237,-200,4,2,0,5,0,0
190306,-200,4,2,0,80,0,0
190375,-200,4,2,0,5,0,0
190443,-76.9230769230769,4,2,0,80,0,1
190650,-76.9230769230769,4,2,0,5,0,1
190718,-90.9090909090909,4,2,0,80,0,0
192370,-200,4,2,0,80,0,0
192439,-200,4,2,0,5,0,0
192508,-200,4,2,0,80,0,0
192577,-200,4,2,0,5,0,0
192645,-71.4285714285714,4,2,0,80,0,1
192852,-71.4285714285714,4,2,0,5,0,1
192920,-83.3333333333333,4,2,0,80,0,0
194572,-200,4,2,0,80,0,0
194640,-200,4,2,0,5,0,0
194709,-200,4,2,0,80,0,0
194778,-200,4,2,0,5,0,0
194847,-90.9090909090909,4,2,0,80,0,1
195053,-90.9090909090909,4,2,0,5,0,1
195122,-111.111111111111,4,2,0,80,0,0
196774,-200,4,2,0,80,0,0
196842,-200,4,2,0,5,0,0
196911,-200,4,2,0,80,0,0
196980,-200,4,2,0,5,0,0
197049,-83.3333333333333,4,2,0,80,0,1
197255,-83.3333333333333,4,2,0,5,0,1
197324,-100,4,2,0,80,0,0
198975,-200,4,2,0,80,0,0
199044,-200,4,2,0,5,0,0
199113,-200,4,2,0,80,0,0
199182,-200,4,2,0,5,0,0
199251,-76.9230769230769,4,2,0,80,0,1
199456,-76.9230769230769,4,2,0,5,0,1
199526,-90.9090909090909,4,2,0,80,0,0
201177,-200,4,2,0,80,0,0
201246,-200,4,2,0,5,0,0
201315,-200,4,2,0,80,0,0
201384,-200,4,2,0,5,0,0
201452,-125,4,2,0,80,0,0
202003,-166.666666666667,4,2,0,80,0,0
202278,-111.111111111111,4,2,0,80,0,0
202553,-83.3333333333333,4,2,0,80,0,0
203104,-100,4,3,1,80,0,0
203379,-200,4,3,1,80,0,0
203448,-200,4,3,1,5,0,0
203517,-200,4,3,1,80,0,0
203585,-200,4,3,1,5,0,0
203654,-71.4285714285714,4,2,1,80,0,1
203723,-71.4285714285714,4,2,1,80,0,0
203929,-71.4285714285714,4,2,1,80,0,1
203998,-71.4285714285714,4,2,1,80,0,0
204205,-100,4,3,1,80,0,0
205030,-90.9090909090909,4,3,1,80,0,0
205856,-71.4285714285714,4,3,1,80,0,1
205925,-71.4285714285714,4,3,1,80,0,0
206131,-71.4285714285714,4,3,1,80,0,1
206200,-71.4285714285714,4,3,1,80,0,0
206406,-100,4,3,1,80,0,0
207232,-90.9090909090909,4,3,1,80,0,0
208058,-71.4285714285714,4,3,1,80,0,1
208127,-71.4285714285714,4,3,1,80,0,0
208333,-71.4285714285714,4,3,1,80,0,1
208402,-71.4285714285714,4,3,1,80,0,0
208608,-100,4,3,1,80,0,0
209434,-90.9090909090909,4,3,1,80,0,0
210260,-71.4285714285714,4,3,1,80,0,1
210329,-71.4285714285714,4,3,1,80,0,0
210535,-71.4285714285714,4,3,1,80,0,1
210604,-71.4285714285714,4,3,1,80,0,0
210810,-100,4,3,1,80,0,0
211636,-83.3333333333333,4,3,0,80,0,0
212117,-83.3333333333333,4,3,0,5,0,0
212186,-200,4,3,0,80,0,0
212255,-200,4,3,0,5,0,0
212324,-200,4,3,0,80,0,0
212393,-200,4,3,0,5,0,0
212462,-100,4,3,1,80,0,0
216865,-250,4,3,1,80,0,0
217416,-166.666666666667,4,1,1,80,0,0
217966,-125,4,1,1,80,0,0
218517,-100,4,1,1,80,0,0
220168,-142.857142857143,4,2,0,40,0,0
221957,-142.857142857143,4,2,1,40,0,0
224090,-100,4,1,0,60,0,0
224159,-100,4,1,0,60,0,0
224228,-100,4,1,0,80,0,0
224365,-100,4,1,0,100,0,0
224572,-200,4,3,0,100,0,0
225397,-83.3333333333333,4,3,0,80,0,0
225535,-83.3333333333333,4,3,0,5,0,0
225673,-200,4,3,0,80,0,0
225879,-200,4,3,0,5,0,0
225948,275.229357798165,4,2,1,90,1,0
225948,-66.6666666666667,4,2,1,90,0,1
227874,-200,4,2,1,90,0,1
228149,-66.6666666666667,4,2,1,90,0,1
232003,-83.3333333333333,4,2,1,90,0,1
232278,-200,4,2,1,90,0,1
232484,-200,4,2,1,5,0,1
232553,-125,4,3,0,90,0,0
233654,-125,4,3,1,90,0,0
234204,-83.3333333333333,4,2,1,90,0,0
234480,-200,4,2,1,90,0,0
234755,-66.6666666666667,4,2,1,90,0,1
236681,-200,4,2,1,90,0,1
236957,-66.6666666666667,4,2,1,90,0,1
240810,-83.3333333333333,4,2,1,90,0,1
241085,-200,4,2,1,90,0,1
241292,-200,4,2,1,5,0,1
241360,-125,4,2,0,90,0,0
242461,-125,4,2,1,90,0,0
243012,-83.3333333333333,4,1,1,90,0,0
243287,-200,4,1,3,90,0,0
243493,-200,4,1,3,5,0,0
243562,-76.9230769230769,4,1,1,90,0,1
245214,-100,4,1,3,90,0,1
245489,-200,4,1,3,90,0,1
245695,-200,4,1,3,5,0,1
245764,-76.9230769230769,4,1,1,90,0,1
247415,-100,4,1,3,90,0,1
247691,-200,4,1,3,90,0,1
247897,-200,4,1,3,5,0,1
247966,-66.6666666666667,4,1,1,90,0,1
249617,-83.3333333333333,4,1,1,90,0,1
249892,-200,4,1,3,90,0,1
250099,-200,4,1,3,5,0,1
250168,-125,4,2,0,90,0,0
251819,-83.3333333333333,4,1,1,90,0,0
252094,-200,4,1,3,90,0,0
252301,-200,4,1,3,5,0,0
252370,-76.9230769230769,4,1,1,90,0,1
254021,-100,4,1,3,90,0,1
254296,-200,4,1,3,90,0,1
254503,-200,4,1,3,5,0,1
254571,-76.9230769230769,4,1,1,90,0,1
256223,-100,4,1,3,90,0,1
256498,-200,4,1,3,90,0,1
256704,-200,4,1,3,5,0,1
256773,-66.6666666666667,4,2,1,90,0,1
258425,-83.3333333333333,4,1,1,90,0,1
258700,-200,4,1,3,90,0,1
258906,-200,4,1,3,5,0,1
258975,-125,4,2,0,90,0,0
259801,-125,4,2,0,100,0,0
260626,-83.3333333333333,4,1,1,100,0,0
260902,275.229357798165,4,2,0,100,1,0
260902,-100,4,2,0,100,0,0
263103,-100,4,2,0,10,0,0
263241,-100,4,2,0,13,0,0
263379,-100,4,2,0,16,0,0
263516,-100,4,2,0,19,0,0
263654,-100,4,2,0,22,0,0
263791,-100,4,2,0,25,0,0
263929,-100,4,2,0,28,0,0
264067,-100,4,2,0,31,0,0
264204,-100,4,2,0,34,0,0
264342,-100,4,2,0,37,0,0
264479,-100,4,2,0,40,0,0
264617,-100,4,2,0,43,0,0
264755,-100,4,2,0,46,0,0
264892,-100,4,2,0,49,0,0
265030,-100,4,2,0,52,0,0
265168,-100,4,2,0,55,0,0
265305,-100,4,2,0,58,0,0
265443,-100,4,2,0,61,0,0
265580,-100,4,2,0,64,0,0
265718,-100,4,2,0,67,0,0
265856,-100,4,2,0,70,0,0
265993,-100,4,2,0,73,0,0
266131,-100,4,2,0,76,0,0
266268,-100,4,2,0,79,0,0
266406,-100,4,2,0,82,0,0
266544,-100,4,2,0,85,0,0
266681,-100,4,2,0,88,0,0
266819,-100,4,2,0,91,0,0
266957,-100,4,2,0,92,0,0
267094,-100,4,2,0,93,0,0
267232,-100,4,2,0,94,0,0
267369,-100,4,2,0,95,0,0
267438,-100,4,3,0,20,0,0
267507,-100,4,3,0,60,0,0
269021,-100,4,3,0,90,0,0
269571,-400,4,3,0,100,0,1
269640,-400,4,3,5,5,0,0
275213,-400,4,1,0,100,0,0

[Colours]
Combo1 : 99,137,133
Combo2 : 141,173,175
Combo3 : 95,224,202
Combo4 : 73,150,190
SliderBorder : 255,255,255

[HitObjects]
193,139,5489,6,0,B|251:76|251:76|149:41|149:41|41:71|41:71|142:208|142:208|217:233|217:233|296:151|296:151|370:175|370:175|472:312|472:312|363:342|363:342|261:307|261:307|323:242,1,1227.93746252632,4|0,1:0|0:0,0:0:0:0:
328,253,13745,5,0,1:0:0:0:
397,331,13883,1,8,0:0:0:0:
396,342,14021,1,8,0:0:0:0:
395,353,14159,1,4,0:0:0:0:
111,76,14296,6,0,B|153:44|153:44|391:93|391:93|412:174|412:174|262:348|262:348|181:325|181:325|128:170|128:170|176:126|176:126|324:156|324:156|322:164|322:164|241:257|241:257|236:256|236:256|217:204,1,1248.74996189118,4|2,1:2|0:0,0:0:0:0:
94,70,23103,6,0,B|148:30|148:30|291:59,1,166.499994918823,12|0,1:0|2:0,0:0:0:0:
307,114,23378,6,0,B|311:143|311:143|294:175,1,60.1249972476961,2|0,0:0|0:0,0:0:0:0:
290,183,23584,1,2,0:2:0:0:
362,236,23791,2,0,B|366:265|366:265|349:297,1,60.1249972476961,0|2,0:0|0:0,0:0:0:0:
345,305,23997,1,2,0:2:0:0:
74,315,24272,6,0,B|103:310|103:310|135:326,1,60.1249972476961,2|2,0:2|0:2,0:0:0:0:
143,330,24478,1,2,0:0:0:0:
194,256,24685,2,0,B|223:251|223:251|255:267,1,60.1249972476961,2|2,0:2|0:2,0:0:0:0:
263,270,24891,1,2,0:0:0:0:
404,362,25029,6,0,B|374:382|343:368|343:368|314:302|387:264,1,166.499994918823,12|0,1:0|2:0,0:0:0:0:
448,231,25304,2,0,B|409:242|409:242|284:187,1,166.499994918823,12|0,1:0|2:0,0:0:0:0:
246,112,25580,6,0,B|247:80|247:80|275:45,1,60.1249972476961,2|0,0:0|0:0,0:0:0:0:
277,50,25786,1,2,0:2:0:0:
153,114,25992,2,0,B|125:97|125:97|109:55,1,60.1249972476961,2|2,0:2|0:0,0:0:0:0:
114,56,26198,1,2,0:2:0:0:
249,271,26474,6,0,B|276:287|276:287|292:329,1,60.1249972476961,2|2,0:0|0:2,0:0:0:0:
288,329,26680,1,2,0:0:0:0:
156,273,26887,2,0,B|155:305|155:305|127:340,1,60.1249972476961,2|2,0:2|0:2,0:0:0:0:
125,335,27093,1,2,0:0:0:0:
55,183,27231,6,0,B|95:168|107:123|107:123|139:158|182:151,1,166.499994918823,12|0,1:0|2:0,0:0:0:0:
273,70,27506,2,0,B|301:42|301:42|176:61,1,166.499994918823,12|0,1:0|2:0,0:0:0:0:
199,249,27781,6,0,L|279:237,1,60.1249972476961,2|2,0:0|0:2,0:0:0:0:
270,249,27988,1,2,0:0:0:0:
376,321,28194,6,0,L|456:309,1,60.1249972476961,2|2,0:2|0:2,0:0:0:0:
472,217,28332,6,0,B|433:194|443:141|443:141|461:64,1,166.499994918823,12|0,1:0|2:0,0:0:0:0:
383,0,28607,2,0,B|369:46|369:46|251:65,1,166.499994918823,12|0,1:0|2:0,0:0:0:0:
90,43,28882,6,0,L|169:28,1,60.1249972476961,2|2,0:0|0:2,0:0:0:0:
161,40,29089,1,2,0:0:0:0:
250,158,29295,6,0,L|329:143,1,60.1249972476961,2|2,0:2|0:2,0:0:0:0:
227,256,29433,6,0,P|163:207|159:127,1,166.499994918823,12|0,1:0|2:0,0:0:0:0:
322,237,29708,2,0,B|305:367|305:367|257:379,1,166.499994918823,12|0,1:0|2:0,0:0:0:0:
252,381,29983,1,2,0:0:0:0:
190,147,30258,6,0,B|206:17|206:17|255:5,1,166.499994918823,12|0,1:0|2:0,0:0:0:0:
260,3,30533,1,2,0:0:0:0:
422,169,30809,6,0,B|394:147|394:147|287:152|287:152|225:232|225:232|118:237|118:237|79:208,1,388.499988143921,2|6,1:2|3:2,0:0:0:0:
159,27,31910,6,0,L|154:75,1,41.6249987297059,6|0,1:3|0:0,0:0:0:0:
60,147,32186,6,0,L|56:35,1,64.7499980239869,6|0,1:2|0:0,0:0:0:0:
55,4,32323,2,0,L|56:68,1,64.7499980239869,6|0,1:2|0:0,0:0:0:0:
235,163,32461,6,0,L|257:53,1,64.7499980239869,6|0,1:2|0:0,0:0:0:0:
264,22,32598,2,0,L|250:85,1,64.7499980239869,6|0,1:2|0:0,0:0:0:0:
72,258,32736,6,0,B|23:245|23:245|6:221,1,64.7499980239869,6|0,1:2|0:0,0:0:0:0:
39,155,32874,2,0,B|87:167|87:167|104:191,1,64.7499980239869,6|0,1:2|0:0,0:0:0:0:
204,269,33011,6,0,B|253:265|253:265|274:244,1,64.7499980239869,6|0,1:2|0:0,0:0:0:0:
254,173,33149,2,0,B|204:176|204:176|183:197,1,64.7499980239869,6|0,1:2|0:0,0:0:0:0:
131,346,33286,5,2,1:3:0:0:
151,108,33424,2,0,P|135:78|102:55,1,64.7499980239869,2|0,1:2|0:0,0:0:0:0:
151,108,33562,2,0,P|171:81|207:64,1,64.7499980239869,2|0,1:2|0:0,0:0:0:0:
132,330,33699,1,2,1:3:0:0:
347,200,33837,6,0,L|331:90,1,110.999996612549,4|0,3:0|0:0,0:0:0:0:
474,251,34112,6,0,L|468:292,1,41.6249987297059,4|0,1:3|0:0,0:0:0:0:
386,326,34387,6,0,P|358:343|327:349,1,64.7499980239869,6|0,1:2|0:0,0:0:0:0:
247,332,34525,2,0,P|275:346|307:350,1,64.7499980239869,6|0,1:2|0:0,0:0:0:0:
405,195,34663,6,0,P|383:170|355:156,1,64.7499980239869,6|0,1:2|0:0,0:0:0:0:
272,152,34801,2,0,P|303:145|335:151,1,64.7499980239869,6|0,1:2|0:0,0:0:0:0:
217,309,34938,6,0,B|220:331|220:331|199:396,1,64.7499980239869,6|0,1:2|0:0,0:0:0:0:
143,279,35075,2,0,B|126:295|126:295|105:359,1,64.7499980239869,6|0,1:2|0:0,0:0:0:0:
237,165,35213,6,0,B|246:144|246:144|244:76,1,64.7499980239869,6|0,1:2|0:0,0:0:0:0:
158,174,35350,2,0,B|146:153|146:153|144:85,1,64.7499980239869,6|0,1:2|0:0,0:0:0:0:
314,249,35488,5,2,1:3:0:0:
69,215,35626,2,0,P|33:218|8:230,1,64.7499980239869,2|0,1:2|0:0,0:0:0:0:
69,215,35763,2,0,P|36:201|14:183,1,64.7499980239869,2|0,1:2|0:0,0:0:0:0:
217,309,35901,1,2,1:3:0:0:
237,165,36039,6,0,L|251:39,1,110.999996612549,4|0,3:0|0:0,0:0:0:0:
57,17,36314,6,0,L|64:70,1,41.6249987297059,4|0,1:3|0:0,0:0:0:0:
25,150,36589,6,0,B|56:133|56:133|161:160,1,129.499996047974,4|2,1:3|0:0,0:0:0:0:
12,251,36864,1,8,3:0:0:0:
12,251,36933,1,8,3:0:0:0:
12,251,37002,2,0,B|38:274|38:274|147:273,1,129.499996047974,4|2,1:3|0:0,0:0:0:0:
208,62,37277,5,8,3:0:0:0:
208,62,37346,1,8,3:0:0:0:
208,62,37415,2,0,B|243:136|243:136|226:195,1,129.499996047974,4|2,1:3|0:0,0:0:0:0:
169,380,37690,1,8,3:0:0:0:
169,380,37759,1,8,3:0:0:0:
169,379,37828,2,0,B|221:315|221:315|219:255,1,129.499996047974,4|2,1:3|0:0,0:0:0:0:
424,191,38103,1,8,3:0:0:0:
424,191,38172,1,8,3:0:0:0:
424,191,38241,6,0,L|294:157,1,110.999996612549,4|0,3:0|0:0,0:0:0:0:
410,308,38516,6,0,L|357:308,1,41.6249987297059,6|0,1:3|0:0,0:0:0:0:
289,356,38791,6,0,P|275:312|283:274,1,64.7499980239869,4|0,1:2|0:0,0:0:0:0:
133,335,39066,2,0,P|178:344|207:370,1,64.7499980239869,2|2,0:0|0:0,0:0:0:0:
229,210,39341,2,0,P|197:244|160:256,1,64.7499980239869,2|2,3:2|0:0,0:0:0:0:
86,252,39617,1,2,0:0:0:0:
86,252,39754,1,2,0:3:0:0:
38,168,39892,6,0,L|17:125,2,32.3749990119934,2|0|2,0:3|0:0|0:0,0:0:0:0:
37,335,40167,1,2,0:0:0:0:
182,252,40305,1,2,0:3:0:0:
355,371,40442,6,0,L|494:360,1,110.999996612549,4|0,3:0|0:0,0:0:0:0:
401,217,40718,6,0,L|396:262,1,41.6249987297059,4|0,1:3|0:0,0:0:0:0:
273,115,40993,6,0,P|303:105|335:106,1,64.7499980239869,6|0,1:2|0:0,0:0:0:0:
341,125,41130,2,0,P|311:135|278:133,1,64.7499980239869,6|0,1:2|0:0,0:0:0:0:
237,212,41268,6,0,P|267:218|306:248,1,69.3750026464463,6|0,1:2|0:0,0:0:0:0:
291,256,41406,2,0,P|260:249|221:219,1,69.3750026464463,6|0,1:2|0:0,0:0:0:0:
160,281,41543,6,0,P|183:301|204:357,1,74,6|0,1:2|0:0,0:0:0:0:
187,351,41681,2,0,P|160:325|145:292,1,74,6|0,1:2|0:0,0:0:0:0:
53,306,41819,6,0,P|62:334|51:400,1,78.6250014996529,6|0,1:2|0:0,0:0:0:0:
43,384,41956,2,0,P|31:346|36:307,1,78.6250014996529,6|0,1:2|0:0,0:0:0:0:
81,102,42094,5,2,1:3:0:0:
158,207,42231,2,0,P|181:224|223:231,1,64.7499980239869,2|0,1:2|0:0,0:0:0:0:
158,207,42369,2,0,P|174:230|181:273,1,64.7499980239869,2|0,1:2|0:0,0:0:0:0:
27,35,42507,1,2,1:3:0:0:
227,48,42644,6,0,L|356:35,1,110.999996612549,4|0,1:3|0:0,0:0:0:0:
503,79,42919,6,0,L|461:83,1,41.6249987297059,4|0,1:3|0:0,0:0:0:0:
372,131,43195,6,0,L|382:245,1,64.7499980239869,6|0,1:2|0:0,0:0:0:0:
394,216,43332,2,0,L|388:151,1,64.7499980239869,6|0,1:2|0:0,0:0:0:0:
281,42,43470,6,0,L|270:157,1,69.3750026464463,6|0,1:2|0:0,0:0:0:0:
254,128,43608,2,0,L|260:58,1,69.3750026464463,6|0,1:2|0:0,0:0:0:0:
145,169,43745,6,0,L|155:287,1,74,6|0,1:2|0:0,0:0:0:0:
167,263,43883,2,0,L|160:189,1,74,6|0,1:2|0:0,0:0:0:0:
55,53,44020,6,0,L|42:177,1,78.6250014996529,6|0,1:2|0:0,0:0:0:0:
27,143,44158,2,0,L|35:65,1,78.6250014996529,6|0,1:2|0:0,0:0:0:0:
262,229,44296,5,2,1:3:0:0:
64,293,44433,6,0,P|34:277|8:239,1,64.7499980239869,2|0,1:2|0:0,0:0:0:0:
64,293,44571,2,0,P|31:291|-10:311,1,64.7499980239869,2|0,1:2|0:0,0:0:0:0:
295,318,44708,1,2,1:3:0:0:
170,79,44846,6,0,L|159:200,1,110.999996612549,4|0,1:3|0:0,0:0:0:0:
353,245,45121,6,0,L|356:203,1,41.6249987297059,4|0,1:3|0:0,0:0:0:0:
414,81,45397,6,0,P|336:74|283:119,1,129.499996047974,4|2,1:3|0:0,0:0:0:0:
436,166,45672,1,8,3:0:0:0:
436,166,45741,1,8,3:0:0:0:
436,166,45809,2,0,P|372:210|303:198,1,129.499996047974,4|2,1:3|0:0,0:0:0:0:
247,16,46085,5,8,3:0:0:0:
247,16,46153,1,8,3:0:0:0:
247,16,46222,2,0,P|203:69|209:145,1,129.499996047974,4|2,1:3|0:0,0:0:0:0:
324,304,46497,1,8,3:0:0:0:
324,304,46565,1,8,3:0:0:0:
324,304,46634,2,0,P|259:279|226:211,1,129.499996047974,4|2,1:3|0:0,0:0:0:0:
12,174,46910,1,8,3:0:0:0:
12,174,46979,1,8,3:0:0:0:
12,174,47048,2,0,P|71:155|125:125,1,110.999996612549,4|0,1:3|0:0,0:0:0:0:
42,286,47323,6,0,P|82:276|92:274,1,41.6249987297059,4|0,1:3|0:0,0:0:0:0:
169,297,47598,6,0,L|160:371,1,64.7499980239869,4|0,1:2|0:0,0:0:0:0:
263,285,47874,2,0,L|254:359,1,64.7499980239869,2|2,0:0|0:0,0:0:0:0:
357,273,48149,2,0,L|348:347,1,64.7499980239869,2|2,0:0|0:0,0:0:0:0:
206,210,48424,1,2,0:0:0:0:
206,210,48562,1,2,0:3:0:0:
300,198,48699,6,0,L|358:191,2,32.3749990119934,2|0|2,0:3|0:0|0:0,0:0:0:0:
112,222,48974,1,2,0:0:0:0:
263,285,49112,1,2,0:3:0:0:
243,123,49250,6,0,L|257:12,1,110.999996612549,4|0,1:3|0:0,0:0:0:0:
471,166,49525,6,0,L|476:207,1,41.6249987297059,14|0,1:0|2:0,0:0:0:0:
429,267,49800,5,4,0:2:0:0:
416,274,49868,1,0,0:0:0:0:
403,280,49937,1,4,0:2:0:0:
389,284,50006,1,0,0:0:0:0:
375,287,50075,1,0,0:0:0:0:
361,287,50144,1,0,0:0:0:0:
346,286,50213,1,4,0:2:0:0:
332,283,50281,1,0,0:0:0:0:
319,278,50350,1,4,0:2:0:0:
306,271,50419,1,0,0:0:0:0:
294,263,50488,1,0,0:0:0:0:
283,253,50556,1,0,0:0:0:0:
274,242,50626,6,0,L|239:248,4,28.90625,2|0|0|0|4,0:0|0:0|0:0|0:0|0:3,0:0:0:0:
337,175,50901,1,4,0:3:0:0:
229,155,51039,6,0,L|194:161,4,28.90625,2|0|0|0|4,0:0|0:0|0:0|0:0|0:3,0:0:0:0:
400,108,51314,1,4,0:3:0:0:
184,68,51452,6,0,L|74:88,1,110.999996612549,2|2,0:2|0:2,0:0:0:0:
143,308,51727,6,0,L|184:316,1,41.6249987297059,14|0,0:0|2:0,0:0:0:0:
249,354,52002,5,4,0:2:0:0:
261,347,52070,1,0,0:0:0:0:
273,339,52139,1,4,0:2:0:0:
284,329,52208,1,0,0:0:0:0:
293,318,52277,1,0,0:0:0:0:
301,305,52346,1,0,0:0:0:0:
306,292,52414,1,4,0:2:0:0:
310,278,52483,1,0,0:0:0:0:
312,264,52552,1,4,0:2:0:0:
313,250,52621,1,0,0:0:0:0:
311,235,52690,1,0,0:0:0:0:
307,221,52758,1,0,0:0:0:0:
301,208,52828,6,0,L|340:212,4,28.90625,2|0|0|0|4,0:0|0:0|0:0|0:0|1:3,0:0:0:0:
227,146,53103,1,4,1:3:0:0:
342,120,53241,6,0,L|381:124,4,28.90625,2|0|0|0|4,0:0|0:0|0:0|0:0|1:3,0:0:0:0:
153,84,53516,1,4,1:3:0:0:
383,32,53653,6,0,L|517:44,1,110.999996612549,2|2,0:2|0:2,0:0:0:0:
303,233,53929,6,0,L|259:237,1,41.6249987297059,14|0,0:0|2:0,0:0:0:0:
167,333,54204,6,0,P|180:306|156:188,1,129.499996047974,4|2,1:3|0:0,0:0:0:0:
283,365,54479,1,8,3:0:0:0:
283,365,54548,1,8,3:0:0:0:
283,365,54617,2,0,P|285:335|368:248,1,129.499996047974,4|2,1:3|0:0,0:0:0:0:
114,147,54892,5,8,3:0:0:0:
114,147,54961,1,8,3:0:0:0:
114,147,55030,2,0,P|185:166|265:125,1,129.499996047974,4|2,1:3|0:0,0:0:0:0:
425,237,55305,1,8,3:0:0:0:
425,237,55374,1,8,3:0:0:0:
425,237,55443,2,0,P|354:215|307:137,1,129.499996047974,4|2,1:3|0:0,0:0:0:0:
143,8,55718,1,8,3:0:0:0:
143,8,55786,1,8,3:0:0:0:
143,8,55855,6,0,P|213:29|250:83,1,110.999996612549,4|0,1:3|0:0,0:0:0:0:
475,104,56130,6,0,P|435:99|424:102,1,41.6249987297059,14|0,1:0|2:0,0:0:0:0:
319,174,56406,5,6,1:2:0:0:
208,237,58057,6,0,L|357:223,1,110.999996612549,2|2,0:2|0:2,0:0:0:0:
483,361,58332,6,0,L|429:356,1,41.6249987297059,14|0,0:0|2:0,0:0:0:0:
376,318,58608,5,4,0:2:0:0:
365,308,58676,1,0,0:0:0:0:
355,297,58745,1,4,0:2:0:0:
348,285,58814,1,0,0:0:0:0:
342,272,58883,1,0,0:0:0:0:
338,258,58952,1,0,0:0:0:0:
336,243,59020,1,4,0:2:0:0:
335,229,59089,1,0,0:0:0:0:
337,215,59158,1,4,0:2:0:0:
341,201,59227,1,0,0:0:0:0:
347,188,59296,1,0,0:0:0:0:
355,175,59364,1,0,0:0:0:0:
364,164,59433,6,0,L|402:166,4,28.90625,2|0|0|0|4,0:0|0:0|0:0|0:0|1:3,0:0:0:0:
291,98,59708,1,4,1:3:0:0:
399,72,59846,6,0,L|437:74,4,28.90625,2|0|0|0|4,0:0|0:0|0:0|0:0|1:3,0:0:0:0:
218,32,60121,1,4,1:3:0:0:
483,160,60259,6,0,L|476:275,1,110.999996612549,2|2,0:2|0:2,0:0:0:0:
271,369,60534,6,0,L|268:327,1,41.6249987297059,14|0,0:0|2:0,0:0:0:0:
232,260,60809,5,4,0:2:0:0:
220,268,60877,1,0,0:0:0:0:
207,274,60946,1,4,0:2:0:0:
193,279,61015,1,0,0:0:0:0:
179,282,61084,1,0,0:0:0:0:
165,283,61153,1,0,0:0:0:0:
150,282,61221,1,4,0:2:0:0:
136,278,61290,1,0,0:0:0:0:
123,273,61359,1,4,0:2:0:0:
110,266,61428,1,0,0:0:0:0:
99,257,61497,1,0,0:0:0:0:
89,247,61565,1,0,0:0:0:0:
80,235,61635,6,0,L|25:242,4,28.90625,2|0|0|0|4,0:0|0:0|0:0|0:0|0:3,0:0:0:0:
167,175,61910,1,4,0:3:0:0:
54,148,62048,6,0,L|-1:155,4,28.90625,2|0|0|0|4,0:0|0:0|0:0|0:0|0:3,0:0:0:0:
254,115,62323,1,4,0:3:0:0:
115,330,62461,6,0,L|-4:348,1,110.999996612549,2|2,0:2|0:2,0:0:0:0:
214,210,62736,6,0,L|210:256,1,41.6249987297059,14|0,0:0|2:0,0:0:0:0:
84,209,63011,6,0,B|109:179|140:184|140:184|220:199,1,129.499996047974,4|2,1:3|0:0,0:0:0:0:
112,61,63286,1,8,3:0:0:0:
112,61,63355,1,8,3:0:0:0:
112,61,63424,2,0,B|124:98|155:105|155:105|234:120,1,129.499996047974,4|2,1:3|0:0,0:0:0:0:
233,329,63699,5,8,3:0:0:0:
233,329,63768,1,8,3:0:0:0:
233,329,63837,2,0,P|273:293|284:210,1,129.499996047974,4|2,1:3|0:0,0:0:0:0:
296,5,64112,1,8,3:0:0:0:
296,5,64181,1,8,3:0:0:0:
296,5,64250,2,0,P|320:53|299:134,1,129.499996047974,4|2,1:3|0:0,0:0:0:0:
503,156,64525,1,8,3:0:0:0:
503,156,64594,1,8,3:0:0:0:
503,156,64663,6,0,P|460:125|393:122,1,110.999996612549,4|0,1:3|0:0,0:0:0:0:
482,268,64938,6,0,P|457:278|437:279,1,41.6249987297059,14|0,1:0|2:0,0:0:0:0:
315,235,65213,5,6,1:2:0:0:
126,262,66864,6,0,L|141:381,1,110.999996612549,4|2,0:3|0:2,0:0:0:0:
256,192,67141,1,4,1:2:0:0:
256,192,69342,12,0,73677,0:0:0:0:
297,150,73746,5,2,1:0:0:0:
370,192,73884,1,0,0:0:0:0:
297,233,74022,1,0,0:0:0:0:
298,237,74090,1,0,0:0:0:0:
298,241,74159,1,0,0:0:0:0:
256,306,74296,1,2,0:2:0:0:
214,233,74434,1,0,0:0:0:0:
142,192,74572,1,0,0:0:0:0:
214,150,74709,1,0,0:0:0:0:
256,78,74848,1,0,0:0:0:0:
256,74,74917,1,0,0:0:0:0:
255,70,74985,1,0,0:0:0:0:
297,150,75122,1,0,0:0:0:0:
142,192,75260,5,8,0:0:0:0:
127,192,75329,1,8,0:0:0:0:
112,192,75397,1,8,0:0:0:0:
370,192,75535,1,8,0:0:0:0:
197,279,75673,1,4,0:0:0:0:
315,279,75810,1,2,0:2:0:0:
206,51,75948,5,4,1:2:0:0:
191,63,76085,2,0,L|199:130,2,64.7499980239869
316,24,76498,5,2,1:2:0:0:
387,84,76636,2,0,L|402:205,2,115.625,0|0|0,0:0|0:0|0:0,0:0:0:0:
273,295,77049,5,0,1:0:0:0:
259,308,77186,2,0,L|172:299,2,64.7499980239869,0|0|0,0:0|0:0|0:0,0:0:0:0:
401,199,77599,5,2,1:2:0:0:
323,149,77737,2,0,L|184:135,2,115.625,0|0|0,0:0|0:0|0:0,0:0:0:0:
180,313,78150,5,0,1:0:0:0:
165,325,78287,2,0,P|138:295|136:248,2,64.7499980239869,0|0|0,0:0|0:0|0:0,0:0:0:0:
321,274,78700,5,2,1:2:0:0:
228,254,78838,2,0,P|225:188|255:130,2,115.625,0|0|0,0:0|0:0|0:0,0:0:0:0:
58,175,79251,5,2,1:2:0:0:
52,193,79388,2,0,P|89:207|134:192,2,64.7499980239869,0|0|0,0:0|0:0|0:0,0:0:0:0:
43,29,79801,5,2,1:2:0:0:
95,109,79939,2,0,P|157:88|201:39,2,115.625,0|0|0,0:0|0:0|0:0,0:0:0:0:
227,275,80352,5,0,1:0:0:0:
213,263,80489,2,0,L|218:193,2,64.7499980239869,0|0|0,0:0|0:0|0:0,0:0:0:0:
295,144,80902,5,2,1:2:0:0:
325,232,81040,2,0,L|315:357,2,115.625,0|0|0,0:0|0:0|0:0,0:0:0:0:
152,127,81452,5,0,1:0:0:0:
142,142,81589,2,0,L|72:150,2,64.7499980239869,0|0|0,0:0|0:0|0:0,0:0:0:0:
9,84,82002,5,2,1:2:0:0:
91,38,82140,2,0,L|216:23,2,115.625,0|0|0,0:0|0:0|0:0,0:0:0:0:
238,178,82553,5,0,1:0:0:0:
251,165,82691,2,0,P|264:119|251:81,2,64.7499980239869,0|0|0,0:0|0:0|0:0,0:0:0:0:
278,320,83104,5,2,1:2:0:0:
202,267,83241,2,0,P|140:266|82:311,2,115.625,0|0|0,0:0|0:0|0:0,0:0:0:0:
281,101,83654,5,0,1:0:0:0:
262,103,83792,2,0,P|217:86|194:53,2,64.7499980239869,0|0|0,0:0|0:0|0:0,0:0:0:0:
372,216,84205,5,2,0:2:0:0:
374,124,84342,1,2,0:2:0:0:
430,66,84480,1,0,0:0:0:0:
501,58,84618,1,0,0:0:0:0:
450,295,84755,5,4,1:2:0:0:
436,309,84893,2,0,B|419:320|419:320|353:314,2,64.7499980239869,0|0|0,0:0|0:0|0:0,0:0:0:0:
234,356,85306,5,2,1:2:0:0:
183,279,85443,2,0,B|211:261|211:261|293:270,2,115.625,0|0|0,0:0|0:0|0:0,0:0:0:0:
461,193,85856,5,0,1:0:0:0:
449,175,85994,2,0,B|434:160|434:160|368:152,2,64.7499980239869,0|2|0,0:0|0:0|0:0,0:0:0:0:
261,86,86407,5,2,1:2:0:0:
195,152,86544,2,0,B|218:175|218:175|300:183,2,115.625,0|0|0,0:0|0:0|0:0,0:0:0:0:
75,285,86957,5,0,1:0:0:0:
85,303,87095,2,0,L|91:378,2,64.7499980239869,0|0|0,0:0|0:0|0:0,0:0:0:0:
195,152,87507,5,2,1:2:0:0:
239,233,87645,2,0,B|181:246|181:246|113:210,2,115.625,0|0|0,0:0|0:0|0:0,0:0:0:0:
372,353,88058,5,2,1:2:0:0:
390,343,88196,2,0,L|465:337,2,64.7499980239869,0|0|0,0:0|0:0|0:0,0:0:0:0:
239,233,88608,5,2,1:2:0:0:
320,189,88746,2,0,B|333:247|333:247|297:315,2,115.625,0|0|0,0:0|0:0|0:0,0:0:0:0:
369,23,89159,5,0,1:0:0:0:
380,40,89296,2,0,P|409:54|450:52,2,64.7499980239869,0|0|0,0:0|0:0|0:0,0:0:0:0:
228,176,89709,5,2,1:2:0:0:
320,189,89847,2,0,L|297:49,2,115.625,0|0|0,0:0|0:0|0:0,0:0:0:0:
167,86,90260,5,2,1:2:0:0:
149,75,90397,2,0,P|133:46|133:5,2,64.7499980239869,0|0|0,0:0|0:0|0:0,0:0:0:0:
21,234,90810,5,2,1:2:0:0:
4,143,90948,2,0,L|145:158,2,115.625,0|2|2,0:0|0:0|0:2,0:0:0:0:
163,299,91361,5,0,1:0:0:0:
178,311,91498,2,0,L|257:301,2,64.7499980239869,2|2|2,0:2|0:0|0:2,0:0:0:0:
302,197,91911,5,2,1:2:0:0:
341,281,92049,2,0,B|330:334|330:334|321:372|284:383,2,115.625,0|2|0,0:0|0:0|0:0,0:0:0:0:
187,40,92462,5,0,1:0:0:0:
189,61,92530,1,0,1:0:0:0:
192,83,92599,1,0,1:0:0:0:
194,104,92668,1,0,1:0:0:0:
197,126,92737,1,0,1:0:0:0:
199,147,92806,1,0,1:0:0:0:
202,169,92874,1,0,1:0:0:0:
204,190,92943,1,0,1:0:0:0:
207,212,93012,6,2,B|142:174|90:247|109:325|238:345|298:277|298:277|351:222|405:210|477:242,1,485.625018525124,8|0,1:0|0:0,2:0:0:0:
503,352,93563,6,0,L|368:338,1,129.499996047974,4|2,1:2|0:0,0:0:0:0:
364,347,93975,1,0,1:0:0:0:
50,122,94113,6,0,P|46:73|41:30,1,83.2499974594117,10|2,1:0|1:3,0:0:0:0:
42,39,94595,1,0,1:0:0:0:
42,39,94663,5,4,1:2:0:0:
151,168,94801,2,0,P|69:169|24:217,1,129.499996047974,4|0,1:2|1:0,0:0:0:0:
467,350,95214,6,0,P|469:309|475:268,1,83.2499974594117,10|2,1:0|1:3,0:0:0:0:
472,263,95696,1,0,1:0:0:0:
468,258,95764,6,0,P|466:204|451:101,1,129.499996047974,4|2,1:2|0:0,0:0:0:0:
465,119,96177,1,0,1:0:0:0:
108,366,96315,6,0,L|21:354,1,83.2499974594117,10|2,1:0|1:3,0:0:0:0:
25,354,96796,1,0,1:0:0:0:
25,354,96865,5,4,1:2:0:0:
176,275,97072,1,4,1:2:0:0:
301,384,97278,1,0,1:0:0:0:
483,71,97416,6,0,L|488:18,3,46.25,10|0|0|0,1:0|0:0|0:0|0:0,0:0:0:0:
379,110,97691,1,2,0:1:0:0:
334,114,97759,1,2,0:2:0:0:
291,98,97828,1,2,0:2:0:0:
259,65,97897,1,2,0:2:0:0:
245,23,97966,6,0,P|172:20|107:13,1,129.499996047974,4|2,1:2|0:0,0:0:0:0:
104,19,98379,1,0,1:0:0:0:
15,374,98517,6,0,P|58:368|103:365,1,83.2499974594117,10|2,1:0|1:3,0:0:0:0:
97,365,98998,1,0,1:0:0:0:
97,365,99067,5,4,1:2:0:0:
187,262,99205,2,0,P|123:223|63:239,1,129.499996047974,4|0,1:2|1:0,0:0:0:0:
468,19,99618,6,0,L|460:107,1,83.2499974594117,10|2,1:0|1:3,0:0:0:0:
463,107,100099,1,0,1:0:0:0:
465,112,100168,6,0,L|453:267,1,129.499996047974,4|2,1:2|0:0,0:0:0:0:
464,250,100581,1,0,1:0:0:0:
65,102,100718,6,0,L|58:19,1,83.2499974594117,10|2,1:0|1:3,0:0:0:0:
58,19,101200,1,0,1:0:0:0:
58,19,101269,5,4,1:2:0:0:
181,137,101475,1,4,1:2:0:0:
17,184,101682,1,0,1:0:0:0:
408,360,101819,6,0,L|477:365,3,46.25,4|0|0|0,1:3|0:0|0:0|0:0,0:0:0:0:
337,298,102095,1,8,1:3:0:0:
292,288,102163,1,2,0:2:0:0:
249,304,102232,1,2,0:2:0:0:
219,339,102301,1,2,0:2:0:0:
219,339,102576,6,0,L|200:341,4,11.5625,2|0|0|0|0,3:0|0:0|0:0|0:0|2:0,0:0:0:0:
135,367,102783,6,0,L|71:358,1,55.4999983062745,2|0,1:0|2:0,0:0:0:0:
18,299,102920,1,8,1:0:0:0:
120,88,103058,6,0,L|112:24,1,55.4999983062745,10|2,1:0|1:3,0:0:0:0:
113,32,103402,1,0,1:0:0:0:
113,32,103471,5,4,1:2:0:0:
80,171,103608,2,0,P|142:177|206:117,1,129.499996047974,4|0,1:2|1:0,0:0:0:0:
480,364,104021,6,0,L|394:354,1,83.2499974594117,10|2,1:0|1:3,0:0:0:0:
392,357,104503,1,0,1:0:0:0:
386,360,104572,6,0,P|316:354|242:343,1,129.499996047974,4|2,1:2|0:0,0:0:0:0:
246,352,104985,1,0,1:0:0:0:
449,21,105122,6,0,L|460:109,1,83.2499974594117,10|0,1:0|1:0,0:0:0:0:
459,103,105604,1,0,1:0:0:0:
459,103,105673,5,4,1:2:0:0:
318,185,105879,1,4,1:2:0:0:
218,51,106085,1,0,1:0:0:0:
44,324,106223,6,0,L|51:381,3,46.25,8|0|0|0,1:0|0:0|0:0|0:0,0:0:0:0:
103,247,106498,1,2,0:1:0:0:
112,202,106566,1,2,0:2:0:0:
105,156,106635,1,2,0:2:0:0:
81,117,106704,1,2,0:2:0:0:
45,90,106774,6,0,L|176:80,1,129.499996047974,4|2,1:2|0:0,0:0:0:0:
182,69,107186,1,0,1:0:0:0:
480,349,107324,6,0,L|396:354,1,83.2499974594117,10|0,1:0|1:0,0:0:0:0:
396,354,107806,1,0,1:0:0:0:
396,354,107874,5,4,1:2:0:0:
306,382,108012,2,0,P|268:349|270:247,1,129.499996047974,4|0,1:2|1:0,0:0:0:0:
480,21,108425,6,0,P|474:81|473:112,1,83.2499974594117,10|2,1:0|1:3,0:0:0:0:
478,107,108907,1,0,1:0:0:0:
482,110,108975,6,0,P|488:170|489:254,1,129.499996047974,4|2,1:2|0:0,0:0:0:0:
480,248,109388,1,0,1:0:0:0:
113,355,109526,6,0,P|63:354|24:347,1,83.2499974594117,10|2,1:0|0:2,0:0:0:0:
30,348,110007,1,2,0:2:0:0:
37,356,110076,6,0,L|27:283,3,46.25,8|8|8|8,0:0|0:0|0:0|0:0,0:0:0:0:
83,233,110352,2,0,L|73:160,3,46.25,8|8|8|8,0:0|0:0|0:0|0:0,0:0:0:0:
129,110,110627,1,4,0:0:0:0:
436,187,110902,6,0,L|429:224,1,23.125,0|0,0:0|2:0,0:0:0:0:
429,232,111040,2,0,L|432:209,1,23.125,0|0,0:0|2:0,0:0:0:0:
326,111,111177,6,0,B|357:167|435:146|435:146|502:128,1,194.249994071961,6|0,1:0|0:0,0:0:0:0:
469,8,111452,2,0,B|403:25|403:25|325:46|326:110,1,194.249994071961,6|0,1:0|0:0,0:0:0:0:
335,205,111728,5,2,0:2:0:0:
336,216,111796,1,0,0:2:0:0:
338,227,111865,1,2,0:2:0:0:
340,239,111934,1,0,0:2:0:0:
342,250,112003,1,2,0:2:0:0:
344,262,112072,1,0,0:2:0:0:
346,273,112140,1,2,0:2:0:0:
348,284,112209,1,0,0:2:0:0:
349,296,112278,1,2,0:2:0:0:
351,307,112347,1,0,0:2:0:0:
353,319,112416,1,2,0:2:0:0:
355,330,112484,1,0,0:2:0:0:
357,341,112553,6,0,L|424:348,3,50.8750015525818,6|0|0|0,1:0|0:0|0:0|0:0,0:0:0:0:
468,285,112829,2,0,L|457:215,1,50.8750015525818,2|0,0:3|0:0,0:0:0:0:
235,135,112966,6,0,L|168:142,3,50.8750015525818,6|0|0|0,1:0|0:0|0:0|0:0,0:0:0:0:
124,79,113242,2,0,L|135:9,1,50.8750015525818,2|0,0:3|0:0,0:0:0:0:
330,89,113379,6,0,B|388:131|388:131|368:252,1,194.249994071961,6|0,1:0|0:0,0:0:0:0:
243,233,113654,2,0,B|262:112|262:112|330:89,1,194.249994071961,6|0,1:0|0:0,0:0:0:0:
405,144,113929,5,2,0:2:0:0:
403,155,113997,1,0,0:2:0:0:
401,166,114066,1,2,0:2:0:0:
399,178,114135,1,0,0:2:0:0:
397,189,114204,1,2,0:2:0:0:
395,201,114273,1,0,0:2:0:0:
394,212,114341,1,2,0:2:0:0:
392,223,114410,1,0,0:2:0:0:
390,235,114479,1,2,0:2:0:0:
388,246,114548,1,0,0:2:0:0:
386,258,114617,1,2,0:2:0:0:
385,269,114685,1,0,0:0:0:0:
383,281,114755,6,0,L|308:287,3,50.8750015525818,6|0|0|0,1:0|0:0|0:0|0:0,0:0:0:0:
246,289,115030,2,0,L|252:364,1,50.8750015525818,2|0,0:3|0:0,0:0:0:0:
266,95,115168,6,0,L|260:20,3,50.8750015525818,6|0|0|0,1:0|0:0|0:0|0:0,0:0:0:0:
179,98,115443,2,0,L|129:103,1,50.8750015525818,2|0,0:3|0:0,0:0:0:0:
20,247,115581,6,0,P|69:327|162:341,1,194.249994071961,6|0,1:0|0:0,0:0:0:0:
189,219,115856,2,0,P|98:194|20:247,1,194.249994071961,6|0,1:0|0:0,0:0:0:0:
57,332,116131,5,2,0:2:0:0:
68,331,116199,1,0,0:2:0:0:
80,330,116268,1,2,0:2:0:0:
91,329,116337,1,0,0:2:0:0:
103,329,116406,1,2,0:2:0:0:
114,328,116475,1,0,0:2:0:0:
126,327,116543,1,2,0:2:0:0:
137,327,116612,1,0,0:2:0:0:
149,326,116681,1,2,0:2:0:0:
160,325,116750,1,0,0:2:0:0:
172,324,116819,1,2,0:2:0:0:
183,324,116887,1,0,0:2:0:0:
195,323,116957,6,0,L|191:377,3,50.8750015525818,6|0|0|0,1:0|0:0|0:0|0:0,0:0:0:0:
283,361,117232,2,0,L|286:310,1,50.8750015525818,2|0,0:3|0:0,0:0:0:0:
433,131,117370,6,0,L|437:185,3,50.8750015525818,6|0|0|0,1:0|0:0|0:0|0:0,0:0:0:0:
345,169,117645,2,0,L|341:118,1,50.8750015525818,2|0,0:3|0:0,0:0:0:0:
100,164,117783,6,0,B|135:223|135:223|222:245|222:245|256:235,1,194.249994071961,6|0,1:0|0:0,0:0:0:0:
261,104,118058,2,0,B|228:92|228:92|139:107|139:107|100:164,1,194.249994071961,6|0,1:0|0:0,0:0:0:0:
154,239,118333,5,2,0:2:0:0:
155,250,118401,1,0,0:2:0:0:
156,261,118470,1,2,0:2:0:0:
158,273,118539,1,0,0:2:0:0:
159,284,118608,1,2,0:2:0:0:
161,296,118677,1,0,0:2:0:0:
162,307,118745,1,2,0:2:0:0:
163,319,118814,1,0,0:2:0:0:
165,330,118883,1,2,0:2:0:0:
166,342,118952,1,0,0:2:0:0:
168,353,119021,1,2,0:2:0:0:
169,365,119089,1,0,0:2:0:0:
170,375,119159,6,0,B|258:365|258:365|277:282|277:282|322:277|322:277|314:322|314:322|458:305,1,388.499988143921,6|0,1:3|0:0,0:0:0:0:
310,196,119709,6,0,L|287:198,1,23.125,0|0,0:0|2:0,0:0:0:0:
265,201,119847,2,0,L|300:196,1,23.125,0|0,0:0|2:0,0:0:0:0:
437,308,119985,5,4,1:2:0:0:
497,228,120122,1,0,0:0:0:0:
403,102,120260,2,0,L|285:114,1,92.5,2|0,1:3|0:0,0:0:0:0:
310,111,120466,1,0,0:0:0:0:
310,111,120535,1,4,1:2:0:0:
160,245,120673,5,2,1:2:0:0:
123,154,120810,2,0,L|241:166,1,92.5,2|0,0:3|1:0,0:0:0:0:
216,163,121016,1,0,0:0:0:0:
216,163,121085,1,6,1:2:0:0:
364,300,121224,5,0,0:0:0:0:
401,209,121361,2,0,L|283:221,1,92.5,2|2,1:3|1:2,0:0:0:0:
308,218,121567,1,0,0:0:0:0:
308,218,121636,1,4,1:2:0:0:
160,351,121774,5,0,1:0:0:0:
123,260,121911,2,0,L|241:272,1,92.5,2|0,1:3|0:0,0:0:0:0:
366,49,122186,5,4,1:2:0:0:
280,2,122324,1,0,0:0:0:0:
158,88,122462,2,0,L|179:203,1,92.5,2|0,1:3|0:0,0:0:0:0:
174,178,122668,1,0,0:0:0:0:
174,178,122737,1,4,1:2:0:0:
395,233,122874,5,2,1:2:0:0:
369,136,123012,2,0,L|254:157,1,92.5,2|0,0:3|1:0,0:0:0:0:
278,152,123218,1,0,0:0:0:0:
278,152,123287,1,4,1:2:0:0:
224,373,123425,5,0,0:0:0:0:
321,347,123563,2,0,L|300:231,1,92.5,2|2,1:3|1:2,0:0:0:0:
305,256,123769,1,0,0:0:0:0:
305,256,123838,1,4,1:2:0:0:
84,202,123975,5,0,1:0:0:0:
110,299,124113,2,0,L|226:278,1,92.5,2|0,1:3|0:0,0:0:0:0:
362,28,124388,6,0,P|338:30|320:37,1,37,4|2,1:2|1:3,0:0:0:0:
150,28,124663,2,0,P|174:30|192:37,1,37,4|2,1:2|1:3,0:0:0:0:
407,147,124939,6,0,P|360:115|343:115,1,55.4999983062745,4|2,1:2|1:3,0:0:0:0:
105,147,125214,2,0,P|152:115|169:115,1,55.4999983062745,4|2,1:2|1:3,0:0:0:0:
369,280,125489,6,0,P|358:232|336:203,1,74,4|2,1:2|1:2,0:0:0:0:
143,280,125764,2,0,P|154:232|176:203,1,74,4|2,1:2|1:2,0:0:0:0:
356,379,126040,6,0,P|401:377|446:339,1,92.5,0|2,1:0|1:2,0:0:0:0:
156,379,126315,2,0,P|111:377|66:339,1,92.5,2|2,3:2|3:2,0:0:0:0:
40,196,126590,6,0,L|46:151,3,46.25,0|0|0|0,1:0|1:0|1:0|1:0,0:0:0:0:
31,52,126865,2,0,L|36:6,3,46.25,0|0|0|0,1:0|1:0|1:0|1:0,0:0:0:0:
118,96,127140,1,0,1:0:0:0:
134,103,127208,1,0,1:0:0:0:
151,108,127277,1,0,1:0:0:0:
168,109,127346,1,0,1:0:0:0:
185,107,127415,1,0,1:0:0:0:
202,102,127484,1,0,1:0:0:0:
217,94,127552,1,0,1:0:0:0:
231,83,127621,1,0,1:0:0:0:
243,71,127691,6,2,B|209:55|209:55|217:137|217:137|251:158|251:158|260:226|260:226|294:246|294:246|303:329|303:329|258:308,1,388.499988143921,2|6,1:2|3:2,2:0:0:0:
348,134,128792,6,0,B|470:150|470:150|417:162,1,173.4375,6|0,1:3|0:0,0:0:0:0:
328,127,129067,2,0,B|280:13|280:13|317:53,1,173.4375,6|0,1:3|0:0,0:0:0:0:
332,148,129342,2,0,B|257:245|257:245|273:193,1,173.4375,6|0,1:3|0:0,0:0:0:0:
340,124,129618,6,0,B|414:27|414:27|400:75,1,173.4375,6|0,1:3|0:0,0:0:0:0:
344,145,129893,2,0,B|391:259|391:259|356:222,1,173.4375,6|0,1:3|0:0,0:0:0:0:
323,138,130168,2,0,B|201:122|201:122|254:110,1,173.4375,6|0,1:3|0:0,0:0:0:0:
400,76,130443,6,0,L|430:148,1,64.7499980239869,6|0,1:3|0:0,0:0:0:0:
357,223,130581,2,0,L|279:212,1,64.7499980239869,6|0,1:3|0:0,0:0:0:0:
250,111,130718,1,2,1:2:0:0:
121,328,130994,6,0,P|99:350|68:358,1,64.7499980239869,6|0,1:3|0:0,0:0:0:0:
14,167,131131,2,0,P|6:137|15:106,1,64.7499980239869,6|0,1:3|0:0,0:0:0:0:
109,225,131269,6,0,B|60:281|60:281|-1:280|-1:280|23:242,1,173.4375,6|0,1:3|0:0,0:0:0:0:
207,155,131544,6,0,P|237:163|260:186,1,64.7499980239869,6|0,1:3|0:0,0:0:0:0:
110,208,131682,6,0,B|85:138|85:138|117:85|117:85|136:125,1,173.4375,6|0,1:3|0:0,0:0:0:0:
118,226,131957,1,0,1:0:0:0:
118,226,132026,1,0,1:0:0:0:
118,226,132095,2,0,B|143:296|143:296|111:349|111:349|90:309,1,173.4375,6|0,1:3|0:0,0:0:0:0:
120,208,132370,2,0,B|168:151|168:151|230:153|230:153|206:191,1,173.4375,6|0,1:3|0:0,0:0:0:0:
104,216,132645,6,0,L|11:197,1,64.7499980239869,6|0,1:3|0:0,0:0:0:0:
263,254,132783,2,0,L|326:266,1,64.7499980239869,6|0,1:3|0:0,0:0:0:0:
102,331,132920,1,2,1:2:0:0:
340,117,133196,6,0,B|368:123|368:123|375:144|375:144|240:118,1,173.4375,6|0,1:3|0:0,0:0:0:0:
201,195,133471,2,0,B|181:216|181:216|159:211|159:211|249:108,1,173.4375,6|0,1:3|0:0,0:0:0:0:
203,36,133746,2,0,B|194:8|194:8|209:-8|209:-8|253:121,1,173.4375,6|0,1:3|0:0,0:0:0:0:
293,196,134021,6,0,B|301:223|301:223|286:240|286:240|242:110,1,173.4375,6|0,1:3|0:0,0:0:0:0:
156,114,134296,2,0,B|127:108|127:108|121:86|121:86|255:113,1,173.4375,6|0,1:3|0:0,0:0:0:0:
294,37,134571,2,0,B|314:15|314:15|336:20|336:20|246:123,1,173.4375,6|0,1:3|0:0,0:0:0:0:
181,196,134847,6,0,L|103:180,1,64.7499980239869,6|0,1:3|0:0,0:0:0:0:
351,134,134985,2,0,L|375:205,1,64.7499980239869,6|0,1:3|0:0,0:0:0:0:
213,18,135122,1,2,1:2:0:0:
485,287,135397,6,0,P|459:318|418:346,1,64.7499980239869,6|0,1:3|0:0,0:0:0:0:
220,342,135535,2,0,P|205:304|202:255,1,64.7499980239869,6|0,1:3|0:0,0:0:0:0:
235,179,135673,6,0,B|288:148|348:176|348:176|357:208|340:228,1,173.4375,6|0,1:3|0:0,0:0:0:0:
306,85,135948,6,0,P|346:91|390:112,1,64.7499980239869,6|0,1:3|0:0,0:0:0:0:
337,356,136085,6,0,B|284:325|278:259|278:259|301:235|327:240,1,173.4375,6|0,1:3|0:0,0:0:0:0:
439,179,136361,1,0,1:0:0:0:
439,179,136429,1,0,1:0:0:0:
439,179,136498,2,0,B|438:240|384:278|384:278|352:270|343:245,2,172.666661397298,6|6|6,1:3|1:3|1:3,0:0:0:0:
233,179,137049,6,0,B|288:148|348:176|348:176|357:208|340:228,1,175.749995306969,6|2,1:3|1:2,0:0:0:0:
59,326,137874,6,0,B|37:208|37:208|90:260,1,173.4375,4|0,1:0|0:0,0:0:0:0:
230,272,138150,2,0,B|138:350|138:350|157:278,1,173.4375,6|0,1:3|0:3,0:0:0:0:
98,151,138425,2,0,B|211:190|211:190|139:210,1,173.4375,6|0,1:3|0:0,0:0:0:0:
59,326,138700,6,0,B|14:307|14:307|3:252|3:252|-5:201|53:173,1,173.4375,6|0,1:3|0:0,0:0:0:0:
230,272,138975,2,0,B|236:320|236:320|193:357|193:357|153:389|100:353,1,173.4375,6|0,1:3|0:0,0:0:0:0:
98,151,139251,6,0,P|147:125|179:129,1,64.7499980239869,6|0,1:3|0:3,0:0:0:0:
59,326,139388,2,0,P|11:296|0:266,1,64.7499980239869,6|0,1:3|0:3,0:0:0:0:
230,272,139526,1,2,1:2:0:0:
417,24,139801,6,0,L|345:8,1,64.7499980239869,6|0,1:3|0:0,0:0:0:0:
232,134,139939,2,0,L|254:204,1,64.7499980239869,6|0,1:3|0:0,0:0:0:0:
483,69,140076,6,0,B|375:45|375:45|326:95,1,173.4375,6|0,1:3|0:0,0:0:0:0:
420,240,140352,6,0,L|469:185,1,64.7499980239869,6|0,1:3|0:0,0:0:0:0:
237,54,140489,6,0,B|270:159|270:159|338:176,1,173.4375,6|0,1:3|0:0,0:0:0:0:
348,274,140764,1,0,1:0:0:0:
348,274,140833,1,0,1:0:0:0:
348,274,140902,2,0,B|422:192|422:192|403:125,1,173.4375,6|0,1:3|0:0,0:0:0:0:
483,69,141177,2,0,B|375:45|375:45|326:95,1,173.4375,6|0,1:3|0:0,0:0:0:0:
427,224,141452,6,0,L|503:242,1,64.7499980239869,6|0,1:3|0:0,0:0:0:0:
302,188,141590,2,0,L|238:173,1,64.7499980239869,6|0,1:3|0:0,0:0:0:0:
393,361,141728,1,2,1:2:0:0:
34,355,142003,6,0,B|0:318|22:268|22:268|35:239|35:239|55:206|98:212,1,173.4375,6|0,1:3|0:0,0:0:0:0:
241,267,142278,2,0,B|225:314|171:320|171:320|140:324|140:324|101:323|85:283,1,173.4375,6|0,1:3|0:0,0:0:0:0:
62,132,142553,2,0,B|111:121|143:165|143:165|161:190|161:190|180:224|153:258,1,173.4375,6|0,1:3|0:0,0:0:0:0:
34,355,142829,6,0,B|-2:295|32:229|32:229|61:229|83:217,1,173.4375,6|0,1:3|0:0,0:0:0:0:
241,267,143104,2,0,B|207:328|132:331|132:331|118:306|96:293,1,173.4375,6|0,1:3|0:0,0:0:0:0:
62,132,143379,2,0,B|131:130|172:193|172:193|157:218|157:243,1,173.4375,6|0,1:3|0:0,0:0:0:0:
4,257,143654,6,0,P|-4:221|14:173,1,64.7499980239869,6|0,1:3|0:3,0:0:0:0:
172,343,143792,2,0,P|144:367|94:376,1,64.7499980239869,6|0,1:3|0:3,0:0:0:0:
163,154,143929,1,2,1:2:0:0:
442,294,144205,6,0,L|505:307,1,64.7499980239869,6|0,1:3|0:0,0:0:0:0:
333,330,144342,2,0,L|289:377,1,64.7499980239869,6|0,1:3|0:0,0:0:0:0:
459,220,144480,6,0,B|478:251|478:251|456:349|456:349|426:369,1,173.4375,6|0,1:3|0:0,0:0:0:0:
356,217,144755,2,0,L|336:155,1,64.7499980239869,6|0,1:3|0:0,0:0:0:0:
388,381,144893,6,0,B|352:383|352:383|278:315|278:315|277:279,1,173.4375,6|0,3:3|3:0,0:0:0:0:
356,217,145168,1,0,1:0:0:0:
356,217,145237,1,0,1:0:0:0:
356,217,145306,6,0,B|336:155|336:155|277:136|277:136|228:183|228:183|125:199|125:199|81:130|81:130|201:112,1,485.624985179902,0|0,1:0|0:0,0:0:0:0:
225,208,146407,6,0,L|213:342,1,129.499996047974,6|2,1:2|0:0,0:0:0:0:
203,346,146819,1,0,1:0:0:0:
17,48,146957,6,0,L|108:33,1,83.2499974594117,10|2,1:0|1:3,0:0:0:0:
99,34,147439,1,2,1:2:0:0:
99,34,147507,5,4,1:2:0:0:
220,170,147645,2,0,P|169:180|99:125,1,129.499996047974,4|0,1:2|1:0,0:0:0:0:
400,363,148058,6,0,P|439:355|490:353,1,83.2499974594117,10|2,1:0|1:0,0:0:0:0:
487,350,148540,1,2,1:2:0:0:
492,347,148608,2,0,L|468:197,1,129.499996047974,4|2,1:2|0:0,0:0:0:0:
461,213,149021,1,0,1:0:0:0:
112,363,149159,6,0,P|73:355|22:353,1,83.2499974594117,10|0,1:0|1:0,0:0:0:0:
29,352,149640,1,0,1:2:0:0:
29,352,149709,5,4,1:2:0:0:
201,327,149916,1,4,1:2:0:0:
270,176,150122,1,0,1:0:0:0:
19,19,150260,6,0,L|26:108,3,46.25,10|0|0|0,1:0|0:0|0:0|0:0,0:0:0:0:
84,132,150535,1,2,0:1:0:0:
128,141,150603,1,2,0:2:0:0:
173,129,150672,1,2,0:2:0:0:
207,99,150741,1,2,0:2:0:0:
224,56,150810,6,0,L|360:45,1,129.499996047974,6|2,1:2|0:0,0:0:0:0:
366,44,151223,1,0,1:0:0:0:
489,340,151361,6,0,L|406:333,1,83.2499974594117,10|0,1:0|1:0,0:0:0:0:
406,333,151842,1,0,1:2:0:0:
406,333,151911,5,4,1:2:0:0:
273,210,152049,2,0,P|325:200|396:257,1,129.499996047974,4|0,1:2|1:0,0:0:0:0:
47,367,152462,6,0,P|38:317|29:274,1,83.2499974594117,10|0,1:0|1:0,0:0:0:0:
33,279,152943,1,0,1:2:0:0:
34,273,153012,6,0,P|114:278|167:285,1,129.499996047974,4|2,1:2|0:0,0:0:0:0:
175,287,153425,1,0,1:0:0:0:
497,37,153563,6,0,P|455:41|413:42,1,83.2499974594117,10|0,1:0|1:0,0:0:0:0:
413,42,154044,1,0,1:2:0:0:
413,42,154113,5,4,1:2:0:0:
272,122,154319,1,4,1:2:0:0:
417,210,154526,1,0,1:0:0:0:
51,298,154663,6,0,L|-10:302,3,46.25,8|0|0|0,1:0|0:0|0:0|0:0,0:0:0:0:
122,232,154939,1,8,1:3:0:0:
127,186,155007,1,2,0:2:0:0:
108,145,155076,1,2,0:2:0:0:
70,120,155145,1,2,0:2:0:0:
70,120,155420,6,0,L|51:121,4,11.5625,2|0|0|0|0,0:0|0:0|0:0|0:0|2:0,0:0:0:0:
147,71,155627,6,0,L|140:8,1,55.4999983062745,2|0,1:3|2:0,0:0:0:0:
56,1,155764,1,8,1:0:0:0:
26,291,155902,6,0,L|32:346,1,55.4999983062745,10|2,1:0|1:3,0:0:0:0:
32,346,156246,1,0,1:0:0:0:
32,346,156315,5,4,1:2:0:0:
171,230,156452,2,0,P|111:235|38:175,1,129.499996047974,4|0,1:2|0:0,0:0:0:0:
378,35,156865,6,0,L|464:30,1,83.2499974594117,10|2,1:0|1:3,0:0:0:0:
465,34,157347,1,2,1:2:0:0:
469,38,157416,6,0,P|460:96|457:183,1,129.499996047974,4|2,1:2|0:0,0:0:0:0:
462,178,157829,1,0,1:0:0:0:
50,91,157966,6,0,P|47:26|42:1,1,83.2499974594117,10|0,1:0|1:0,0:0:0:0:
44,8,158448,1,0,1:2:0:0:
44,8,158517,5,4,1:2:0:0:
186,116,158723,1,4,1:2:0:0:
71,237,158929,1,0,0:0:0:0:
442,365,159067,6,0,L|511:369,3,46.25,10|0|0|0,1:0|0:0|0:0|0:0,0:0:0:0:
365,299,159342,1,2,0:1:0:0:
321,284,159410,1,2,0:2:0:0:
276,293,159479,1,2,0:2:0:0:
241,323,159548,1,2,0:2:0:0:
226,366,159618,6,0,L|92:356,1,129.499996047974,4|2,1:2|0:0,0:0:0:0:
88,349,160030,1,0,0:0:0:0:
422,13,160168,6,0,L|431:101,1,83.2499974594117,10|2,1:0|1:2,0:0:0:0:
430,95,160650,1,2,1:2:0:0:
430,95,160718,5,4,1:2:0:0:
324,193,160856,2,0,P|380:184|451:237,1,129.499996047974,4|0,1:2|0:0,0:0:0:0:
114,27,161269,6,0,P|76:33|26:35,1,83.2499974594117,10|2,1:0|1:2,0:0:0:0:
29,40,161751,1,2,1:2:0:0:
27,45,161819,6,0,P|44:132|51:198,1,129.499996047974,4|2,1:2|0:0,0:0:0:0:
43,185,162232,1,0,0:0:0:0:
397,350,162370,6,0,P|398:305|404:264,1,83.2499974594117,10|2,1:0|0:2,0:0:0:0:
404,267,162852,1,2,0:2:0:0:
411,275,162920,6,0,L|472:280,3,46.25,8|8|8|8,0:0|0:0|0:0|0:0,0:0:0:0:
378,178,163196,2,0,L|439:183,3,46.25,8|8|8|8,0:0|0:0|0:0|0:0,0:0:0:0:
345,81,163471,1,4,0:0:0:0:
101,275,163746,6,0,L|63:279,1,23.125,0|0,0:0|2:0,0:0:0:0:
55,280,163884,2,0,L|77:277,1,23.125,0|0,0:0|2:0,0:0:0:0:
167,81,164021,1,4,1:2:0:0:
256,192,164090,12,4,168425,1:0:0:0:
256,127,176682,5,0,1:0:0:0:
384,274,176819,1,8,0:0:0:0:
382,286,176957,1,8,0:0:0:0:
380,298,177095,1,4,0:0:0:0:
256,41,177232,5,4,0:2:0:0:
204,23,186040,6,2,L|370:36,1,152.625004657746,4|0,1:2|0:0,0:1:0:0:
370,54,186315,1,0,1:0:0:0:
274,242,186452,6,0,P|237:261|196:260,1,83.2499974594117,2|0,3:0|1:0,0:0:0:0:
174,166,186728,2,0,P|210:147|251:148,1,83.2499974594117,2|0,3:0|1:0,0:0:0:0:
262,253,187003,6,0,P|221:261|182:250,1,83.2499974594117,2|0,3:0|1:0,0:0:0:0:
186,154,187279,2,0,P|226:145|265:156,1,83.2499974594117,2|0,3:0|1:0,0:0:0:0:
248,261,187553,6,0,P|206:259|171:237,1,83.2499974594117,2|0,3:0|1:0,0:0:0:0:
200,146,187829,1,0,1:0:0:0:
374,242,187966,6,0,L|376:272,1,23.125,2|0,3:2|0:0,0:0:0:0:
377,288,188104,2,0,L|376:266,1,23.125,2|0,3:2|0:0,0:0:0:0:
218,53,188241,6,2,B|173:45|142:70|142:70|109:97|60:88,1,166.499994918823,2|0,1:2|0:0,0:1:0:0:
37,81,188517,1,0,1:0:0:0:
245,248,188654,6,0,B|249:200|249:200|231:160,1,92.5,2|0,3:0|1:0,0:0:0:0:
138,174,188929,2,0,B|132:218|132:218|151:261,1,92.5,2|0,3:0|1:0,0:0:0:0:
252,232,189205,6,0,B|244:185|244:185|215:150,1,92.5,2|0,3:0|1:0,0:0:0:0:
130,189,189480,2,0,B|136:233|136:233|166:270,1,92.5,2|0,3:0|1:0,0:0:0:0:
256,215,189755,6,0,B|236:171|236:171|199:145,1,92.5,2|0,3:0|1:0,0:0:0:0:
126,205,190030,1,0,1:0:0:0:
266,346,190168,6,0,L|306:342,1,23.125,2|0,3:2|0:0,0:0:0:0:
312,342,190306,2,0,L|288:344,1,23.125,2|0,3:2|0:0,0:0:0:0:
464,269,190443,6,2,B|497:226|497:226|463:83,1,180.374991743088,2|0,1:2|0:0,0:1:0:0:
461,79,190718,1,0,1:0:0:0:
275,225,190856,6,0,B|301:232|301:232|346:222|346:222|367:203,1,101.750003105164,2|0,3:0|1:0,0:0:0:0:
345,114,191131,2,0,B|318:106|318:106|273:116|273:116|252:135,1,101.750003105164,2|0,3:0|1:0,0:0:0:0:
289,231,191407,6,0,B|316:231|316:231|357:209|357:209|372:186,1,101.750003105164,2|0,3:0|1:0,0:0:0:0:
330,106,191682,2,0,B|302:105|302:105|261:126|261:126|246:150,1,101.750003105164,2|0,3:0|1:0,0:0:0:0:
307,235,191957,6,0,B|334:228|334:228|367:196|367:196|376:170,1,101.750003105164,2|0,3:0|1:0,0:0:0:0:
313,103,192232,1,0,1:0:0:0:
177,287,192370,6,0,L|180:326,1,23.125,2|0,3:2|0:0,0:0:0:0:
180,333,192507,2,0,L|179:310,1,23.125,2|0,3:2|0:0,0:0:0:0:
23,106,192645,6,2,B|75:119|96:165|96:165|125:126|181:126,1,194.249994071961,2|0,1:2|0:0,0:1:0:0:
204,140,192920,1,0,1:0:0:0:
434,323,193058,6,0,B|409:337|409:337|382:340|382:340|355:333|355:333|331:313,1,110.999996612549,2|0,3:0|1:0,0:0:0:0:
340,223,193333,2,0,B|363:208|363:208|391:205|391:205|417:212|417:212|439:230,1,110.999996612549,2|0,3:0|1:0,0:0:0:0:
419,332,193608,6,0,B|392:339|392:339|364:335|364:335|340:321|340:321|322:296,1,110.999996612549,2|0,3:0|1:0,0:0:0:0:
354,213,193883,2,0,B|379:205|379:205|408:209|408:209|431:223|431:223|448:245,1,110.999996612549,2|0,3:0|1:0,0:0:0:0:
402,338,194159,6,0,B|373:338|373:338|348:327|348:327|328:307|328:307|317:278,1,110.999996612549,2|0,3:0|1:0,0:0:0:0:
370,207,194434,1,0,1:0:0:0:
195,35,194572,6,0,L|160:38,1,23.125,2|0,3:2|0:0,0:0:0:0:
149,39,194709,2,0,L|172:37,1,23.125,2|0,3:2|0:0,0:0:0:0:
279,200,194847,6,2,B|222:205|222:205|195:231|195:231|136:237,1,152.625004657746,4|0,1:2|0:0,0:1:0:0:
116,240,195122,1,0,1:0:0:0:
439,50,195260,6,0,P|445:91|432:130,1,83.2499974594117,2|0,3:0|1:0,0:0:0:0:
335,122,195536,2,0,P|328:81|342:42,1,83.2499974594117,2|0,3:0|1:0,0:0:0:0:
444,64,195810,6,0,P|439:105|416:140,1,83.2499974594117,2|0,3:0|1:0,0:0:0:0:
328,107,196085,2,0,P|331:66|355:32,1,83.2499974594117,2|0,3:0|1:0,0:0:0:0:
448,81,196361,6,0,P|433:119|402:146,1,83.2499974594117,2|0,3:0|1:0,0:0:0:0:
323,90,196637,1,0,1:0:0:0:
156,258,196774,6,0,L|159:295,1,23.125,2|0,3:2|0:0,0:0:0:0:
159,304,196911,2,0,L|158:281,1,23.125,2|0,3:2|0:0,0:0:0:0:
205,122,197049,6,2,B|152:85|99:103|99:103|86:143|37:158,1,166.499994918823,4|0,1:2|0:0,0:1:0:0:
43,149,197324,1,0,1:0:0:0:
380,331,197462,6,0,B|405:290|405:290|407:246,1,92.5,2|0,3:0|1:0,0:0:0:0:
318,216,197737,2,0,B|292:252|292:252|290:299,1,92.5,2|0,3:0|1:0,0:0:0:0:
393,319,198013,6,0,B|407:273|407:273|397:229,1,92.5,2|0,3:0|1:0,0:0:0:0:
304,226,198288,2,0,B|289:267|289:267|299:314,1,92.5,2|0,3:0|1:0,0:0:0:0:
404,306,198563,6,0,B|406:257|406:257|384:217,1,92.5,2|0,3:0|1:0,0:0:0:0:
293,238,198838,1,0,1:0:0:0:
407,72,198975,6,0,L|448:74,1,23.125,2|0,3:2|0:0,0:0:0:0:
453,74,199113,2,0,L|430:73,1,23.125,2|0,3:2|0:0,0:0:0:0:
185,98,199251,6,2,B|154:120|154:120|312:129,1,180.374991743088,2|0,1:2|0:0,0:1:0:0:
321,130,199526,1,0,1:0:0:0:
166,365,199663,6,0,B|145:348|145:348|126:305|126:305|129:277,1,101.750003105164,2|0,3:0|1:0,0:0:0:0:
214,243,199938,2,0,B|236:260|236:260|254:302|254:302|251:330,1,101.750003105164,2|0,3:0|1:0,0:0:0:0:
152,357,200214,6,0,B|136:335|136:335|129:289|129:289|139:263,1,101.750003105164,2|0,3:0|1:0,0:0:0:0:
229,250,200489,2,0,B|246:272|246:272|253:317|253:317|242:343,1,101.750003105164,2|0,3:0|1:0,0:0:0:0:
139,344,200764,6,0,B|128:318|128:318|135:272|135:272|151:249,1,101.750003105164,2|0,3:0|1:0,0:0:0:0:
242,262,201039,1,0,1:0:0:0:
146,76,201177,6,0,L|114:78,1,23.125,2|0,3:2|0:0,0:0:0:0:
100,79,201315,2,0,L|123:77,1,23.125,2|0,3:2|0:0,0:0:0:0:
381,123,201452,6,0,B|329:144|319:230|319:230|329:144|284:111,1,259,6|2,1:3|3:2,0:0:0:0:
238,179,202003,6,0,P|210:178|192:184,3,27.7499991531372,0|0|0|0,3:0|3:0|3:0|3:0,0:0:0:0:
410,200,202278,6,0,P|436:206|454:217,3,41.6249987297059,4|0|0|0,3:1|3:0|3:0|3:0,0:0:0:0:
340,57,202553,6,0,L|347:-3,3,55.4999983062745,0|0|0|0,3:0|3:0|3:0|3:0,0:0:0:0:
329,149,202829,5,2,3:2:0:0:
325,177,202897,1,2,3:2:0:0:
322,204,202966,1,2,3:2:0:0:
319,232,203035,1,2,3:2:0:0:
315,260,203104,5,0,1:0:0:0:
30,61,203379,6,0,L|73:57,1,23.125,0|0,0:0|2:0,0:0:0:0:
77,57,203517,2,0,L|53:59,1,23.125,0|0,0:0|2:0,0:0:0:0:
129,297,203654,6,0,B|177:270|177:270|197:187|157:136,1,194.249994071961,6|0,1:0|2:0,0:0:0:0:
33,166,203929,2,0,B|19:229|74:294|74:294|129:297,1,194.249994071961,6|0,1:0|2:0,0:0:0:0:
218,269,204205,5,2,0:2:0:0:
229,269,204273,1,0,0:0:0:0:
241,270,204342,1,2,0:2:0:0:
252,271,204411,1,0,0:0:0:0:
264,271,204480,1,2,0:2:0:0:
275,272,204549,1,0,0:0:0:0:
287,273,204617,1,2,0:2:0:0:
298,273,204686,1,0,0:0:0:0:
310,274,204755,1,2,0:2:0:0:
321,275,204824,1,0,0:0:0:0:
333,275,204893,1,2,0:2:0:0:
344,276,204961,1,0,0:0:0:0:
356,277,205030,6,0,L|365:341,3,50.8750015525818,6|0|0|0,1:0|0:0|0:0|0:0,0:0:0:0:
286,369,205306,2,0,L|210:365,1,50.8750015525818,2|0,0:3|0:0,0:0:0:0:
426,202,205443,6,0,L|476:204,3,50.8750015525818,6|0|0|0,1:0|0:0|0:0|0:0,0:0:0:0:
336,154,205718,2,0,L|328:103,1,50.8750015525818,2|0,0:3|0:0,0:0:0:0:
104,76,205856,6,0,P|132:162|223:170,1,194.249994071961,6|0,1:0|0:0,0:0:0:0:
253,39,206131,2,0,P|166:9|104:77,1,194.249994071961,6|0,1:0|0:0,0:0:0:0:
117,169,206407,5,2,0:2:0:0:
119,180,206475,1,0,0:0:0:0:
121,191,206544,1,2,0:2:0:0:
123,203,206613,1,0,0:0:0:0:
125,214,206682,1,2,0:2:0:0:
127,225,206751,1,0,0:0:0:0:
129,237,206819,1,2,0:2:0:0:
131,248,206888,1,0,0:0:0:0:
133,260,206957,1,2,0:2:0:0:
135,271,207026,1,0,0:0:0:0:
137,282,207095,1,2,0:2:0:0:
139,294,207163,1,0,0:0:0:0:
141,305,207232,6,0,L|63:300,3,50.8750015525818,6|0|0|0,1:0|0:0|0:0|0:0,0:0:0:0:
228,311,207507,2,0,L|279:315,1,50.8750015525818,2|0,0:3|0:0,0:0:0:0:
207,122,207645,6,0,L|156:125,3,50.8750015525818,6|0|0|0,1:0|0:0|0:0|0:0,0:0:0:0:
295,116,207920,2,0,L|373:111,1,50.8750015525818,2|0,0:3|0:0,0:0:0:0:
344,375,208058,6,0,B|319:362|319:362|290:302|290:302|296:233|296:233|315:209,1,194.249994071961,6|0,1:0|0:0,0:0:0:0:
434,233,208333,2,0,B|442:261|442:261|422:329|422:329|372:373|372:373|345:375,1,194.249994071961,6|0,1:0|0:0,0:0:0:0:
261,334,208608,5,2,0:2:0:0:
249,334,208676,1,0,0:0:0:0:
237,335,208745,1,2,0:2:0:0:
226,335,208814,1,0,0:0:0:0:
214,336,208883,1,2,0:2:0:0:
203,336,208952,1,0,0:0:0:0:
191,337,209020,1,2,0:2:0:0:
180,338,209089,1,0,0:0:0:0:
168,338,209158,1,2,0:2:0:0:
157,339,209227,1,0,0:0:0:0:
145,339,209296,1,2,0:2:0:0:
133,340,209364,1,0,0:0:0:0:
122,341,209434,6,0,L|63:344,3,50.8750015525818,6|0|0|0,1:0|0:0|0:0|0:0,0:0:0:0:
31,256,209709,2,0,L|81:253,1,50.8750015525818,2|0,0:3|0:0,0:0:0:0:
210,82,209847,6,0,L|159:79,3,50.8750015525818,6|0|0|0,1:0|0:0|0:0|0:0,0:0:0:0:
181,172,210122,2,0,L|231:174,1,50.8750015525818,2|0,0:3|0:0,0:0:0:0:
496,94,210260,6,0,B|472:42|472:42|447:28|447:28|336:23,1,194.249994071961,6|0,1:0|2:0,0:0:0:0:
335,154,210535,2,0,B|444:157|444:157|469:145|469:145|496:94,1,194.249994071961,6|0,1:0|2:0,0:0:0:0:
441,17,210810,5,2,0:2:0:0:
429,17,210878,1,0,0:0:0:0:
417,16,210947,1,2,0:2:0:0:
406,15,211016,1,0,0:0:0:0:
394,14,211085,1,2,0:2:0:0:
383,13,211154,1,0,0:0:0:0:
371,14,211222,1,2,0:2:0:0:
360,13,211291,1,0,0:0:0:0:
348,12,211360,1,2,0:2:0:0:
337,11,211429,1,0,0:0:0:0:
325,10,211498,1,2,0:2:0:0:
314,11,211566,1,0,0:0:0:0:
302,10,211636,6,0,B|311:72|311:72|300:100|300:100|306:144|306:144|351:173|351:173|364:262|364:262|298:220|298:220|238:229,1,388.499988143921,6|0,1:3|0:0,0:0:0:0:
125,348,212186,6,0,L|102:351,1,23.125,0|0,0:0|2:0,0:0:0:0:
79,355,212324,2,0,L|118:348,1,23.125,0|0,0:0|2:0,0:0:0:0:
269,224,212462,5,4,0:2:0:0:
196,153,212599,1,0,0:0:0:0:
333,64,212737,2,0,P|351:106|340:151,1,92.5,2|0,0:3|0:0,0:0:0:0:
340,150,212943,1,0,0:0:0:0:
340,150,213012,1,4,0:2:0:0:
269,224,213150,5,2,0:2:0:0:
109,160,213287,2,0,P|151:142|196:153,1,92.5,2|0,0:3|0:0,0:0:0:0:
195,152,213493,1,0,0:0:0:0:
195,152,213562,1,6,0:2:0:0:
269,224,213700,5,0,0:0:0:0:
205,384,213838,2,0,P|187:342|198:297,1,92.5,2|0,0:3|0:0,0:0:0:0:
197,297,214044,1,0,0:0:0:0:
197,297,214113,1,4,0:2:0:0:
269,224,214251,5,0,0:0:0:0:
429,288,214388,2,0,P|387:306|342:295,1,92.5,2|0,0:3|0:0,0:0:0:0:
304,124,214663,5,4,0:2:0:0:
508,148,214801,1,0,0:0:0:0:
395,44,214939,2,0,L|407:153,1,92.5,2|0,0:3|0:0,0:0:0:0:
405,135,215145,1,0,0:0:0:0:
405,135,215214,1,4,0:2:0:0:
202,112,215352,5,2,0:2:0:0:
294,32,215489,2,0,L|306:141,1,92.5,2|0,0:3|0:0,0:0:0:0:
304,123,215695,1,0,0:0:0:0:
304,123,215764,1,6,0:2:0:0:
101,100,215902,5,0,0:0:0:0:
192,20,216039,2,0,L|202:111,1,92.5,2|0,0:3|0:0,0:0:0:0:
202,111,216245,1,0,0:0:0:0:
202,111,216314,1,4,0:2:0:0:
0,89,216452,5,0,0:0:0:0:
91,8,216589,2,0,L|101:99,1,92.5,2|0,0:3|0:0,0:0:0:0:
142,348,216865,6,0,P|160:348|178:344,1,37,4|2,0:2|0:3,0:0:0:0:
370,348,217140,2,0,P|351:348|333:344,1,37,4|2,1:2|1:3,0:0:0:0:
96,240,217416,6,0,P|131:252|164:249,1,55.4999983062745,4|2,1:2|1:3,0:0:0:0:
416,240,217691,2,0,P|381:252|348:249,1,55.4999983062745,4|2,1:2|1:3,0:0:0:0:
141,165,217966,6,0,P|137:138|166:85,1,74,4|2,1:2|1:2,0:0:0:0:
357,95,218241,2,0,P|373:128|371:165,1,74,4|2,1:2|1:2,0:0:0:0:
98,15,218517,6,0,P|158:-2|210:13,1,92.5,0|2,1:0|1:2,0:0:0:0:
414,15,218792,2,0,P|354:-2|302:13,1,92.5,2|2,3:2|3:2,0:0:0:0:
426,263,219067,6,0,L|491:269,3,46.25,0|0|0|0,1:0|0:0|0:0|0:0,0:0:0:0:
394,355,219342,2,0,L|459:361,3,46.25,0|0|0|0,0:0|0:0|0:0|0:0,0:0:0:0:
298,339,219618,5,0,0:0:0:0:
304,322,219686,1,0,0:0:0:0:
310,306,219755,1,0,0:0:0:0:
316,290,219824,1,0,0:0:0:0:
322,274,219893,1,0,0:0:0:0:
328,257,219962,1,0,0:0:0:0:
334,241,220030,1,0,0:0:0:0:
340,225,220099,1,0,0:0:0:0:
347,209,220168,6,2,B|357:174|357:174|350:164|350:164|273:176|273:176|231:102|231:102|215:106|215:106|297:279|297:279|282:283|282:283|239:209|239:209|163:221|163:221|156:211|156:211|166:173,1,647.499980239869,2|0,0:2|0:0,0:0:0:0:
448,36,221957,6,0,L|478:39,58,16.1874995059967,2|0|0|0|0|0|0|0|0|0|0|0|0|0|0|0|0|0|0|0|0|0|0|0|0|0|0|0|0|0|0|0|0|0|0|0|0|0|0|0|0|0|0|0|0|0|0|0|0|0|0|0|0|0|0|0|0|0|0,0:0|0:0|0:0|0:0|0:0|0:0|0:0|0:0|0:0|0:0|0:0|0:0|3:0|0:0|0:0|0:0|0:0|0:0|0:0|0:0|0:0|0:0|0:0|0:0|0:0|0:0|0:0|0:0|3:0|0:0|0:0|0:0|0:0|0:0|0:0|0:0|0:0|0:0|0:0|0:0|0:0|0:0|0:0|0:0|3:0|0:0|0:0|0:0|0:0|0:0|0:0|0:0|0:0|0:0|0:0|0:0|0:0|0:0|0:0,0:0:0:0:
377,74,224021,5,0,3:0:0:0:
379,88,224090,1,2,0:3:0:0:
382,107,224159,1,2,0:3:0:0:
385,129,224228,1,2,0:3:0:0:
389,152,224296,1,2,0:3:0:0:
393,179,224365,1,2,0:3:0:0:
398,215,224434,1,2,0:3:0:0:
405,258,224503,1,2,0:3:0:0:
414,309,224572,6,0,L|418:339,3,23.125,2|0|0|0,1:2|0:0|0:0|0:0,0:0:0:0:
333,357,224847,2,0,L|337:387,3,23.125,2|0|2|2,1:2|0:0|0:2|0:2,0:0:0:0:
250,310,225122,5,2,1:2:0:0:
230,297,225190,1,2,0:2:0:0:
208,291,225259,1,2,0:2:0:0:
185,291,225328,1,2,0:2:0:0:
163,299,225397,6,0,P|112:322|37:301,1,110.999996612549,4|0,1:2|0:0,0:0:0:0:
256,25,225673,6,0,L|257:106,1,69.375,6|0,1:3|2:0,0:0:0:0:
256,200,225948,6,0,L|257:281,1,69.3750026464463,4|0,1:2|0:0,0:0:0:0:
249,188,226085,2,0,P|224:167|173:165,1,69.3750026464463,0|0,1:0|0:0,0:0:0:0:
262,188,226223,2,0,P|288:167|339:165,1,69.3750026464463,0|0,1:0|0:0,0:0:0:0:
434,187,226360,6,0,P|464:201|487:247,1,69.3750026464463,4|0,1:0|0:0,0:0:0:0:
399,330,226498,2,0,P|414:299|412:265,1,69.3750026464463,0|0,1:0|0:0,0:0:0:0:
319,346,226636,2,0,L|408:341,1,69.3750026464463,0|0,1:0|0:0,0:0:0:0:
193,346,226773,6,0,L|104:341,1,69.3750026464463,4|0,1:0|0:0,0:0:0:0:
100,264,226911,2,0,P|97:299|112:330,1,69.3750026464463,0|0,1:0|0:0,0:0:0:0:
28,230,227048,2,0,P|47:202|78:187,1,69.3750026464463,2|0,1:3|0:0,0:0:0:0:
331,149,227186,6,0,P|343:181|340:216,1,69.3750026464463,2|0,1:2|0:0,0:0:0:0:
172,216,227324,2,0,P|168:181|180:149,1,69.3750026464463,2|0,1:2|0:0,0:0:0:0:
256,266,227461,2,0,L|256:344,1,69.3750026464463,2|0,1:3|0:0,0:0:0:0:
256,94,227599,5,12,1:3:0:0:
256,83,227668,1,2,1:2:0:0:
256,72,227736,1,2,1:2:0:0:
256,61,227805,1,2,1:2:0:0:
256,50,227874,6,0,L|335:40,1,69.375,6|0,1:0|2:0,0:0:0:0:
402,92,228149,6,0,B|411:104|411:104|403:186,1,69.3750026464463,4|0,1:0|0:0,0:0:0:0:
326,172,228287,2,0,L|395:163,1,69.3750026464463,0|0,1:0|0:0,0:0:0:0:
404,170,228425,2,0,L|397:239,1,69.3750026464463,0|0,1:0|0:0,0:0:0:0:
256,294,228562,6,0,L|255:224,1,69.3750026464463,4|0,1:0|0:0,0:0:0:0:
186,172,228700,2,0,B|196:157|196:157|246:148,1,69.3750026464463,0|0,1:0|0:0,0:0:0:0:
326,172,228837,2,0,B|316:157|316:157|265:148,1,69.3750026464463,0|0,1:0|0:0,0:0:0:0:
110,92,228975,6,0,B|101:104|101:104|109:186,1,69.3750026464463,4|0,1:0|0:0,0:0:0:0:
186,172,229113,2,0,L|117:163,1,69.3750026464463,0|0,1:0|0:0,0:0:0:0:
108,170,229251,2,0,L|115:239,1,69.3750026464463,2|0,0:3|0:0,0:0:0:0:
91,345,229388,6,0,P|131:348|176:326,1,69.3750026464463,2|0,1:2|0:0,0:0:0:0:
223,249,229525,2,0,P|256:257|289:248,1,69.3750026464463,2|0,1:2|0:0,0:0:0:0:
353,338,229663,2,0,P|386:348|421:345,1,69.3750026464463,2|0,1:3|0:0,0:0:0:0:
485,189,229801,5,12,1:3:0:0:
483,178,229870,1,2,1:2:0:0:
481,167,229938,1,2,1:2:0:0:
479,156,230007,1,2,1:2:0:0:
477,145,230075,1,6,1:0:0:0:
372,105,230214,5,0,1:2:0:0:
372,105,230282,1,0,1:2:0:0:
372,105,230351,2,0,B|338:88|338:88|233:117,1,138.750005292893,4|2,1:3|0:0,0:0:0:0:
388,199,230626,1,8,3:0:0:0:
388,199,230694,1,8,3:0:0:0:
388,199,230763,2,0,B|362:225|362:225|253:234,1,138.750005292893,4|2,1:3|0:0,0:0:0:0:
226,4,231039,5,8,3:0:0:0:
226,4,231108,1,8,3:0:0:0:
226,4,231177,2,0,P|197:64|220:128,1,138.750005292893,4|2,1:3|0:0,0:0:0:0:
285,342,231452,1,8,3:0:0:0:
285,342,231521,1,8,3:0:0:0:
285,342,231590,2,0,P|237:294|237:227,1,138.750005292893,4|2,1:3|0:0,0:0:0:0:
39,125,231865,1,8,3:0:0:0:
39,125,231934,1,8,3:0:0:0:
39,125,232003,6,0,L|160:87,1,110.999996612549,12|2,1:3|1:2,0:0:0:0:
69,294,232278,6,0,L|152:292,1,69.375,6|0,1:0|2:0,0:0:0:0:
199,357,232553,5,2,1:0:0:0:
283,317,232691,2,0,L|319:316,2,37,2|2|2,0:2|0:2|0:0,0:0:0:0:
200,342,232966,5,2,3:1:0:0:
207,249,233104,2,0,L|224:216,2,37,2|2|2,0:2|0:2|0:0,0:0:0:0:
187,333,233378,5,2,3:1:0:0:
110,281,233516,2,0,L|90:249,2,37,2|2|2,0:2|0:2|0:0,0:0:0:0:
173,340,233791,5,2,3:1:0:0:
90,381,233929,2,0,L|53:381,2,37,2|2|2,0:2|0:2|0:0,0:0:0:0:
224,216,234204,6,0,L|209:82,1,110.999996612549,4|0,1:3|0:0,0:0:0:0:
457,273,234480,6,0,L|449:341,1,69.375,6|0,1:0|2:0,0:0:0:0:
352,379,234755,6,0,B|325:356|325:356|312:322,1,69.3750026464463,4|0,1:0|0:0,0:0:0:0:
387,246,234892,2,0,B|400:237|400:237|476:254,1,69.3750026464463,0|0,1:0|0:0,0:0:0:0:
302,236,235030,2,0,B|309:201|309:201|341:169,1,69.3750026464463,0|0,1:0|0:0,0:0:0:0:
179,177,235168,6,0,B|203:201|203:201|210:236,1,69.3750026464463,4|0,1:0|0:0,0:0:0:0:
199,324,235305,2,0,B|187:356|187:356|160:379,1,69.3750026464463,0|0,1:0|0:0,0:0:0:0:
59,248,235443,2,0,B|112:237|112:237|125:246,1,69.3750026464463,0|0,1:0|0:0,0:0:0:0:
189,164,235581,6,0,L|177:77,1,69.3750026464463,4|0,1:0|0:0,0:0:0:0:
89,105,235718,2,0,P|64:102|90:99,1,69.3750026464463,0|0,1:0|0:0,0:0:0:0:
168,17,235856,2,0,L|177:85,1,69.3750026464463,2|0,1:3|0:0,0:0:0:0:
323,164,235993,6,0,L|335:77,1,69.3750026464463,2|0,1:2|0:0,0:0:0:0:
423,105,236130,2,0,P|448:102|422:99,1,69.3750026464463,2|0,1:2|0:0,0:0:0:0:
344,17,236268,2,0,L|334:85,1,69.3750026464463,2|0,1:3|0:0,0:0:0:0:
414,236,236406,5,4,1:3:0:0:
425,234,236475,1,2,1:0:0:0:
436,233,236544,1,2,1:0:0:0:
447,232,236613,1,2,1:0:0:0:
458,231,236681,2,0,L|468:299,1,69.3750026464463,6|0,1:0|2:0,0:0:0:0:
371,374,236957,6,0,P|339:376|296:349,1,69.3750026464463,4|0,1:0|0:0,0:0:0:0:
354,291,237094,2,0,P|336:264|338:213,1,69.3750026464463,0|0,1:0|0:0,0:0:0:0:
363,151,237232,2,0,B|352:144|352:144|280:154,1,69.3750026464463,0|0,1:0|0:0,0:0:0:0:
141,374,237370,6,0,P|173:376|216:349,1,69.3750026464463,4|0,1:0|0:0,0:0:0:0:
158,291,237507,2,0,P|175:264|173:213,1,69.3750026464463,0|0,1:0|0:0,0:0:0:0:
149,151,237645,2,0,B|160:144|160:144|232:154,1,69.3750026464463,0|0,1:0|0:0,0:0:0:0:
45,196,237782,6,0,P|34:157|20:117,1,69.3750026464463,4|0,1:0|0:0,0:0:0:0:
128,131,237920,2,0,L|97:35,1,69.3750026464463,0|0,1:0|0:0,0:0:0:0:
211,73,238058,2,0,P|199:36|189:-9,1,69.3750026464463,2|0,1:3|0:0,0:0:0:0:
301,73,238195,6,0,P|313:36|323:-9,1,69.3750026464463,2|0,1:2|0:0,0:0:0:0:
384,131,238333,2,0,L|415:35,1,69.3750026464463,2|0,1:2|0:0,0:0:0:0:
467,196,238470,2,0,P|478:157|492:117,1,69.3750026464463,2|0,1:3|0:0,0:0:0:0:
256,181,238608,5,4,1:3:0:0:
256,192,238677,1,2,1:0:0:0:
256,203,238746,1,2,1:0:0:0:
256,214,238814,1,2,1:0:0:0:
256,225,238883,1,6,1:0:0:0:
139,154,239021,5,0,1:2:0:0:
139,154,239090,1,0,1:2:0:0:
139,154,239159,2,0,P|108:107|142:-5,1,138.750005292893,4|2,1:3|0:0,0:0:0:0:
253,123,239434,1,8,3:0:0:0:
253,123,239503,1,8,3:0:0:0:
253,123,239571,2,0,P|257:68|174:-16,1,138.750005292893,4|2,1:3|0:0,0:0:0:0:
174,241,239847,5,8,3:0:0:0:
174,241,239915,1,8,3:0:0:0:
174,241,239984,2,0,P|121:246|39:176,1,138.750005292893,4|2,1:3|0:0,0:0:0:0:
263,219,240259,1,8,3:0:0:0:
263,219,240328,1,8,3:0:0:0:
263,219,240397,2,0,P|311:199|351:99,1,138.750005292893,4|2,1:3|0:0,0:0:0:0:
172,333,240672,1,8,3:0:0:0:
172,333,240741,1,8,3:0:0:0:
172,333,240810,6,0,P|116:338|72:391,1,110.999996612549,12|2,1:3|1:2,0:0:0:0:
308,299,241085,6,0,P|353:287|384:297,1,69.375,6|0,1:0|2:0,0:0:0:0:
444,347,241360,5,2,1:0:0:0:
495,269,241498,2,0,L|501:218,2,37,2|2|2,0:0|0:0|3:0,0:0:0:0:
368,280,241773,5,2,3:1:0:0:
419,202,241911,2,0,L|425:151,2,37,2|2|2,0:0|0:0|3:0,0:0:0:0:
292,213,242186,5,2,3:1:0:0:
343,135,242324,2,0,L|349:84,2,37,2|2|2,0:0|0:0|3:0,0:0:0:0:
216,146,242598,5,2,3:2:0:0:
267,68,242736,2,0,L|273:17,2,37,2|0|2,3:2|0:0|3:0,0:0:0:0:
33,129,243012,6,0,L|21:1,1,110.999996612549,4|0,0:3|0:0,0:0:0:0:
230,165,243287,6,0,L|222:234,1,69.375,14|0,1:0|2:0,0:0:0:0:
158,274,243562,5,6,0:2:0:0:
175,264,243630,1,2,0:2:0:0:
194,257,243699,1,6,0:2:0:0:
214,253,243768,1,2,0:2:0:0:
233,251,243837,1,2,0:2:0:0:
253,253,243906,1,2,0:2:0:0:
273,257,243974,1,6,0:2:0:0:
292,264,244043,1,2,0:2:0:0:
310,273,244112,1,6,0:2:0:0:
326,285,244181,1,2,0:2:0:0:
340,298,244250,1,2,0:2:0:0:
353,314,244318,1,2,0:2:0:0:
363,331,244388,6,0,L|417:336,4,30.062498623848,2|0|0|0|4,0:0|0:0|0:0|0:0|1:3,0:0:0:0:
481,270,244663,1,4,1:3:0:0:
372,212,244801,6,0,L|426:217,4,30.062498623848,2|0|0|0|4,0:0|0:0|0:0|0:0|1:3,0:0:0:0:
490,151,245076,1,4,1:3:0:0:
258,70,245214,5,2,0:3:0:0:
261,92,245282,1,2,0:3:0:0:
265,115,245351,1,2,0:3:0:0:
268,138,245420,1,2,0:2:0:0:
272,160,245489,6,0,L|285:245,1,69.375,14|0,0:0|2:0,0:0:0:0:
262,301,245764,5,6,0:2:0:0:
245,311,245832,1,2,0:2:0:0:
226,319,245901,1,6,0:2:0:0:
207,323,245970,1,2,0:2:0:0:
187,324,246039,1,2,0:2:0:0:
167,322,246108,1,2,0:2:0:0:
147,317,246176,1,6,0:2:0:0:
129,308,246245,1,2,0:2:0:0:
113,297,246314,1,6,0:2:0:0:
99,282,246383,1,2,0:2:0:0:
87,266,246452,1,2,0:2:0:0:
79,248,246520,1,2,0:2:0:0:
73,229,246590,6,0,L|21:236,4,30.062498623848,2|0|0|0|4,0:0|0:0|0:0|0:0|1:3,0:0:0:0:
146,160,246865,1,4,1:3:0:0:
36,142,247003,6,0,L|-16:149,4,30.062498623848,2|0|0|0|4,0:0|0:0|0:0|0:0|1:3,0:0:0:0:
219,91,247278,1,4,1:3:0:0:
352,200,247415,5,2,0:3:0:0:
350,222,247483,1,2,0:3:0:0:
348,245,247552,1,2,0:3:0:0:
347,268,247621,1,2,0:2:0:0:
345,291,247691,6,0,L|339:362,1,69.375,14|0,0:0|2:0,0:0:0:0:
238,316,247966,6,0,B|207:294|207:294|109:328,1,138.750005292893,4|2,1:3|2:0,0:0:0:0:
345,291,248241,1,8,3:0:0:0:
345,291,248310,1,8,3:0:0:0:
345,291,248379,2,0,B|363:258|363:258|465:245,1,138.750005292893,4|2,1:3|2:0,0:0:0:0:
218,204,248654,5,8,3:0:0:0:
218,204,248723,1,8,3:0:0:0:
218,204,248792,2,0,B|201:169|201:169|99:150,1,138.750005292893,4|2,1:3|2:0,0:0:0:0:
313,182,249067,1,8,3:0:0:0:
313,182,249136,1,8,3:0:0:0:
313,182,249204,2,0,B|311:144|311:144|394:82,1,138.750005292893,4|2,1:3|2:0,0:0:0:0:
163,76,249480,1,8,3:0:0:0:
163,76,249548,1,8,3:0:0:0:
163,76,249617,6,0,L|37:54,1,110.999996612549,4|0,1:3|0:0,0:0:0:0:
307,43,249892,6,0,L|374:-5,1,69.375,14|0,0:0|2:0,0:0:0:0:
452,18,250168,5,4,1:2:0:0:
392,112,250305,2,0,L|358:136,2,37,2|2|2,3:2|0:0|0:3,0:0:0:0:
450,205,250581,5,2,3:2:0:0:
341,229,250718,2,0,L|300:222,2,37,2|2|2,3:2|0:0|0:3,0:0:0:0:
316,335,250994,5,2,3:2:0:0:
222,275,251131,2,0,L|197:241,2,37,2|2|2,3:2|0:0|0:3,0:0:0:0:
129,332,251407,5,2,3:2:0:0:
105,223,251544,2,0,L|111:182,2,37,2|2|2,3:2|0:0|0:3,0:0:0:0:
377,130,251819,6,0,L|357:9,1,110.999996612549,4|0,1:3|0:0,0:0:0:0:
197,245,252094,6,0,L|186:313,1,69.375,14|0,0:0|2:0,0:0:0:0:
247,359,252370,5,6,0:2:0:0:
265,366,252438,1,2,0:2:0:0:
284,371,252507,1,6,0:2:0:0:
304,373,252576,1,2,0:2:0:0:
324,373,252645,1,2,0:2:0:0:
344,369,252714,1,2,0:2:0:0:
363,363,252782,1,6,0:2:0:0:
381,354,252851,1,2,0:2:0:0:
398,343,252920,1,6,0:2:0:0:
412,329,252989,1,2,0:2:0:0:
425,314,253058,1,2,0:2:0:0:
436,297,253126,1,2,0:2:0:0:
443,278,253195,6,0,L|451:234,4,30.062498623848,2|0|0|0|4,0:0|0:0|0:0|0:0|1:3,0:0:0:0:
342,250,253470,1,4,1:3:0:0:
419,167,253608,6,0,L|427:123,4,30.062498623848,2|0|0|0|4,0:0|0:0|0:0|0:0|0:3,0:0:0:0:
241,222,253883,1,4,0:3:0:0:
101,32,254021,5,2,0:3:0:0:
123,30,254089,1,2,0:3:0:0:
146,28,254158,1,2,0:3:0:0:
168,26,254227,1,2,0:2:0:0:
191,24,254296,6,0,L|262:18,1,69.375,14|0,0:0|2:0,0:0:0:0:
322,61,254571,5,6,0:2:0:0:
330,79,254639,1,2,0:2:0:0:
336,98,254708,1,6,0:2:0:0:
338,118,254777,1,2,0:2:0:0:
338,138,254846,1,2,0:2:0:0:
334,157,254915,1,2,0:2:0:0:
327,176,254983,1,6,0:2:0:0:
317,193,255052,1,2,0:2:0:0:
304,209,255121,1,6,0:2:0:0:
289,222,255190,1,2,0:2:0:0:
272,233,255259,1,2,0:2:0:0:
254,241,255327,1,2,0:2:0:0:
235,246,255397,6,0,L|182:241,4,30.062498623848,2|0|0|0|4,0:0|0:0|0:0|0:0|1:3,0:0:0:0:
316,301,255672,1,4,1:3:0:0:
196,332,255810,6,0,L|143:327,4,30.062498623848,2|0|0|0|4,0:0|0:0|0:0|0:0|1:3,0:0:0:0:
397,356,256085,1,4,1:3:0:0:
274,160,256223,5,2,0:3:0:0:
251,158,256291,1,2,0:3:0:0:
228,156,256360,1,2,0:3:0:0:
206,155,256429,1,2,0:2:0:0:
183,153,256498,6,0,L|111:147,1,69.375,14|0,0:0|2:0,0:0:0:0:
36,232,256773,6,0,B|15:259|24:296|24:296|46:364,1,138.750005292893,4|2,1:3|0:0,0:0:0:0:
27,133,257048,1,8,3:0:0:0:
27,133,257117,1,8,3:0:0:0:
27,133,257186,2,0,B|1:109|4:71|4:71|14:1,1,138.750005292893,4|2,1:3|0:0,0:0:0:0:
109,278,257461,5,8,3:0:0:0:
109,278,257530,1,8,3:0:0:0:
109,278,257599,2,0,P|170:301|249:278,1,138.750005292893,4|2,1:3|0:0,0:0:0:0:
91,75,257874,1,8,3:0:0:0:
91,75,257943,1,8,3:0:0:0:
91,75,258012,2,0,P|147:40|229:49,1,138.750005292893,4|2,1:3|0:0,0:0:0:0:
326,300,258287,1,8,3:0:0:0:
326,300,258356,1,8,3:0:0:0:
326,300,258425,6,0,P|312:232|260:200,1,110.999996612549,4|0,1:3|0:0,0:0:0:0:
301,15,258700,6,0,P|306:48|294:93,1,69.375,14|0,0:0|2:0,0:0:0:0:
225,133,258975,5,4,1:2:0:0:
149,77,259113,2,0,L|142:26,2,37,2|2|2,3:2|3:2|3:0,0:0:0:0:
220,140,259388,5,2,3:2:0:0:
143,194,259526,2,0,L|92:184,2,37,2|2|2,3:2|3:2|3:0,0:0:0:0:
225,146,259800,5,2,3:2:0:0:
252,236,259938,2,0,L|226:281,2,37,2|2|2,3:2|3:2|3:0,0:0:0:0:
232,143,260213,5,2,3:2:0:0:
326,145,260351,2,0,L|361:183,2,37,2|2|2,3:2|3:2|3:0,0:0:0:0:
149,77,260626,6,0,L|11:84,1,110.999996612549,4|2,0:3|0:2,0:0:0:0:
262,46,260902,1,4,1:2:0:0:
256,192,263103,12,0,267438,0:0:0:0:
314,191,267507,5,2,1:0:0:0:
336,272,267645,1,0,0:0:0:0:
256,249,267783,1,0,0:0:0:0:
256,254,267851,1,0,0:0:0:0:
256,258,267920,1,0,0:0:0:0:
175,272,268057,1,2,0:2:0:0:
197,191,268195,1,0,0:0:0:0:
175,111,268333,1,0,0:0:0:0:
256,132,268470,1,0,0:0:0:0:
336,111,268608,1,0,0:0:0:0:
336,107,268677,1,0,0:0:0:0:
336,102,268745,1,0,0:0:0:0:
314,191,268883,1,0,0:0:0:0:
116,192,269021,5,8,0:0:0:0:
100,192,269090,1,8,0:0:0:0:
84,192,269158,1,8,0:0:0:0:
256,52,269296,1,8,0:0:0:0:
396,192,269434,1,4,0:0:0:0:
240,352,269571,6,0,B|224:352|224:352|176:304|176:304|176:256|176:256|224:208|224:208|240:208|240:208|328:120|328:120|328:104|328:104|240:16|240:16|224:16|224:16|184:56|184:56|184:72|184:72|328:216|328:216|328:232|328:232|288:272|288:272|288:320|288:320|288:336|288:336|272:352|272:352|256:352,1,948.125,4|6,1:0|0:2,0:0:0:0:
