osu file format v14

[General]
AudioFilename: audio.mp3
AudioLeadIn: 0
PreviewTime: 73763
Countdown: 0
SampleSet: Soft
StackLeniency: 0.5
Mode: 0
LetterboxInBreaks: 0
WidescreenStoryboard: 1

[Editor]
DistanceSpacing: 0.8
BeatDivisor: 8
GridSize: 32
TimelineZoom: 6.899996

[Metadata]
Title:Destroy, Destroy, Destroy The Happy End
TitleUnicode:Destroy, Destroy, Destroy The Happy End
Artist:Chroma
ArtistUnicode:黒魔
Creator:Ancelysia
Version:Extra
Source:
Tags:ancel atlas atlas- aeniko ryokazuka silver silverboxer robot & and human electronic instrumental featured artist fa dddthe
BeatmapID:3600668
BeatmapSetID:1730072

[Difficulty]
HPDrainRate:5
CircleSize:3.7
OverallDifficulty:8
ApproachRate:9.2
SliderMultiplier:1.85
SliderTickRate:1

[Events]
//Background and Video events
0,0,"28563722_p0.jpg",0,0
//Break Periods
2,56606,57487
2,65413,66294
2,164221,166066
2,168624,176112
//Storyboard Layer 0 (Background)
//Storyboard Layer 1 (Fail)
//Storyboard Layer 2 (Pass)
//Storyboard Layer 3 (Foreground)
//Storyboard Layer 4 (Overlay)
//Storyboard Sound Samples

[TimingPoints]
5489,550.45871559633,4,2,0,60,1,0
5489,-246.913580246914,4,2,0,60,0,0
13883,-246.913580246914,4,3,0,90,0,0
14296,-140.845070422535,4,2,0,60,0,0
22553,-250,4,2,0,30,0,0
22587,-250,4,2,0,15,0,0
23103,275.229357798165,4,3,1,100,1,0
23103,-50,4,3,1,100,0,0
23378,-100,4,3,1,100,0,0
25029,-50,4,3,1,100,0,0
25580,-100,4,3,1,100,0,0
27231,-50,4,3,1,100,0,0
27781,-100,4,3,1,100,0,0
28332,-50,4,3,1,100,0,0
28882,-100,4,3,1,100,0,0
29433,-50,4,3,1,100,0,0
30809,-500,4,2,1,30,0,0
30843,-500,4,2,1,15,0,0
31635,-200,4,2,0,100,0,0
31910,-57.4712643678161,4,2,0,100,0,0
32186,275.229357798165,4,2,1,90,1,0
32186,-66.6666666666667,4,2,1,90,0,0
32254,-66.6666666666667,4,2,1,15,0,0
32324,-66.6666666666667,4,2,1,90,0,0
32392,-66.6666666666667,4,2,1,15,0,0
32462,-66.6666666666667,4,2,1,90,0,0
32530,-66.6666666666667,4,2,1,15,0,0
32599,-66.6666666666667,4,2,1,90,0,0
32667,-66.6666666666667,4,2,1,15,0,0
32737,-66.6666666666667,4,2,1,90,0,0
32805,-66.6666666666667,4,2,1,15,0,0
32874,-66.6666666666667,4,2,1,90,0,0
32942,-66.6666666666667,4,2,1,15,0,0
33012,-66.6666666666667,4,2,1,90,0,0
33080,-66.6666666666667,4,2,1,15,0,0
33150,-66.6666666666667,4,2,1,90,0,0
33218,-66.6666666666667,4,2,1,15,0,0
33287,-66.6666666666667,4,2,1,90,0,0
33355,-66.6666666666667,4,2,1,80,0,0
33425,-66.6666666666667,4,2,1,90,0,0
33493,-66.6666666666667,4,2,1,15,0,0
33562,-66.6666666666667,4,2,1,90,0,0
33630,-66.6666666666667,4,2,1,15,0,0
33700,-66.6666666666667,4,2,1,90,0,0
33768,-66.6666666666667,4,2,1,80,0,0
33837,-66.6666666666667,4,2,1,90,0,0
34043,-66.6666666666667,4,2,1,15,0,0
34112,-66.6666666666667,4,2,1,90,0,0
34455,-66.6666666666667,4,2,1,15,0,0
34525,-66.6666666666667,4,2,1,90,0,0
34593,-66.6666666666667,4,2,1,15,0,0
34663,-66.6666666666667,4,2,1,90,0,0
34731,-66.6666666666667,4,2,1,15,0,0
34800,-66.6666666666667,4,2,1,90,0,0
34868,-66.6666666666667,4,2,1,15,0,0
34938,-66.6666666666667,4,2,1,90,0,0
35006,-66.6666666666667,4,2,1,15,0,0
35075,-66.6666666666667,4,2,1,90,0,0
35143,-66.6666666666667,4,2,1,15,0,0
35213,-66.6666666666667,4,2,1,90,0,0
35281,-66.6666666666667,4,2,1,15,0,0
35351,-66.6666666666667,4,2,1,90,0,0
35419,-66.6666666666667,4,2,1,15,0,0
35488,-66.6666666666667,4,2,1,90,0,0
35556,-66.6666666666667,4,2,1,80,0,0
35626,-66.6666666666667,4,2,1,90,0,0
35694,-66.6666666666667,4,2,1,15,0,0
35763,-66.6666666666667,4,2,1,90,0,0
35831,-66.6666666666667,4,2,1,15,0,0
35901,-66.6666666666667,4,2,1,90,0,0
35969,-66.6666666666667,4,2,1,80,0,0
36039,-66.6666666666667,4,2,1,90,0,0
36245,-66.6666666666667,4,2,1,15,0,0
36314,-66.6666666666667,4,2,1,90,0,0
39066,-100,4,2,1,90,0,0
39754,-133.333333333333,4,2,1,80,0,0
39823,-133.333333333333,4,2,1,90,0,0
40442,-66.6666666666667,4,2,1,90,0,0
41061,-66.6666666666667,4,2,1,15,0,0
41130,-66.6666666666667,4,2,1,90,0,0
41198,-66.6666666666667,4,2,1,15,0,0
41268,-66.6666666666667,4,2,1,90,0,0
41336,-66.6666666666667,4,2,1,15,0,0
41406,-66.6666666666667,4,2,1,90,0,0
41474,-66.6666666666667,4,2,1,15,0,0
41543,-66.6666666666667,4,2,1,90,0,0
41611,-66.6666666666667,4,2,1,15,0,0
41681,-66.6666666666667,4,2,1,90,0,0
41749,-66.6666666666667,4,2,1,15,0,0
41819,-66.6666666666667,4,2,1,90,0,0
41887,-66.6666666666667,4,2,1,15,0,0
41956,-66.6666666666667,4,2,1,90,0,0
42024,-66.6666666666667,4,2,1,15,0,0
42094,-66.6666666666667,4,2,1,90,0,0
42162,-66.6666666666667,4,2,1,80,0,0
42231,-66.6666666666667,4,2,1,90,0,0
42299,-66.6666666666667,4,2,1,15,0,0
42369,-66.6666666666667,4,2,1,90,0,0
42437,-66.6666666666667,4,2,1,15,0,0
42507,-66.6666666666667,4,2,1,90,0,0
42575,-66.6666666666667,4,2,1,80,0,0
42644,-66.6666666666667,4,2,1,90,0,0
42850,-66.6666666666667,4,2,1,15,0,0
42919,-66.6666666666667,4,2,1,90,0,0
43263,-66.6666666666667,4,2,1,15,0,0
43332,-66.6666666666667,4,2,1,90,0,0
43400,-66.6666666666667,4,2,1,15,0,0
43470,-66.6666666666667,4,2,1,90,0,0
43538,-66.6666666666667,4,2,1,15,0,0
43608,-66.6666666666667,4,2,1,90,0,0
43676,-66.6666666666667,4,2,1,15,0,0
43745,-66.6666666666667,4,2,1,90,0,0
43813,-66.6666666666667,4,2,1,15,0,0
43883,-66.6666666666667,4,2,1,90,0,0
43951,-66.6666666666667,4,2,1,15,0,0
44020,-66.6666666666667,4,2,1,90,0,0
44088,-66.6666666666667,4,2,1,15,0,0
44158,-66.6666666666667,4,2,1,90,0,0
44226,-66.6666666666667,4,2,1,15,0,0
44296,-66.6666666666667,4,2,1,90,0,0
44364,-66.6666666666667,4,2,1,80,0,0
44433,-66.6666666666667,4,2,1,90,0,0
44501,-66.6666666666667,4,2,1,15,0,0
44571,-66.6666666666667,4,2,1,90,0,0
44639,-66.6666666666667,4,2,1,15,0,0
44708,-66.6666666666667,4,2,1,90,0,0
44776,-66.6666666666667,4,2,1,80,0,0
44846,-66.6666666666667,4,2,1,90,0,0
45052,-66.6666666666667,4,2,1,15,0,0
45121,-66.6666666666667,4,2,1,90,0,0
47874,-100,4,2,1,90,0,0
48562,-133.333333333333,4,2,1,80,0,0
48630,-133.333333333333,4,2,1,90,0,0
49525,-66.6666666666667,4,2,3,90,0,0
49800,-100,4,1,1,90,0,0
51727,-57.1428571428571,4,1,3,90,0,0
51864,-57.1428571428571,4,1,3,80,0,0
52002,-100,4,1,1,90,0,0
53653,-100,4,1,3,90,0,0
53929,-57.1428571428571,4,1,3,90,0,0
54066,-57.1428571428571,4,1,3,80,0,0
54204,-66.6666666666667,4,2,1,90,0,0
56130,-66.6666666666667,4,2,3,90,0,0
56406,-66.6666666666667,4,2,1,90,0,0
58057,-66.6666666666667,4,1,3,90,0,0
58332,-57.1428571428571,4,1,3,90,0,0
58469,-57.1428571428571,4,1,3,80,0,0
58608,-100,4,1,1,90,0,0
60259,-100,4,1,3,90,0,0
60534,-57.1428571428571,4,1,3,90,0,0
60671,-57.1428571428571,4,1,3,80,0,0
60809,-100,4,1,1,90,0,0
62461,-57.1428571428571,4,1,3,90,0,0
62873,-57.1428571428571,4,1,3,80,0,0
63011,-66.6666666666667,4,2,1,90,0,0
64938,-66.6666666666667,4,2,3,90,0,0
65626,-66.6666666666667,4,2,1,80,0,0
66864,-66.6666666666667,4,1,1,90,0,0
67141,275.229357798165,4,2,0,80,1,0
67141,-400,4,2,0,80,0,0
73608,-400,4,2,0,20,0,0
73677,-400,4,3,0,80,0,0
73746,-133.333333333333,4,3,4,60,0,0
75260,-133.333333333333,4,3,0,90,0,0
75948,-133.333333333333,4,3,1,90,0,0
90810,-133.333333333333,4,3,1,80,0,0
93012,-40,4,3,3,80,0,0
93563,-106.382978723404,4,3,3,80,0,0
94113,-266.666666666667,4,3,3,80,0,0
94454,-266.666666666667,4,3,3,80,0,0
94526,-266.666666666667,4,3,1,80,0,0
94663,-66.6666666666667,4,3,1,80,0,0
94939,-66.6666666666667,4,3,3,80,0,0
95214,-266.666666666667,4,3,3,80,0,0
95489,-266.666666666667,4,3,1,80,0,0
95557,-266.666666666667,4,3,1,80,0,0
95761,-266.666666666667,4,3,1,80,0,0
95764,-106.382978723404,4,3,1,80,0,0
96040,-106.382978723404,4,3,3,80,0,0
96315,-266.666666666667,4,3,3,80,0,0
96590,-266.666666666667,4,3,1,80,0,0
96865,-66.6666666666667,4,3,1,80,0,0
97416,-66.6666666666667,4,3,3,80,0,0
97966,-106.382978723404,4,3,3,80,0,0
98516,-266.666666666667,4,3,3,80,0,0
98928,-266.666666666667,4,3,1,80,0,0
99066,-66.6666666666667,4,3,1,80,0,0
99341,-66.6666666666667,4,3,3,80,0,0
99617,-266.666666666667,4,3,3,80,0,0
100030,-266.666666666667,4,3,1,80,0,0
100167,-106.382978723404,4,3,1,80,0,0
100442,-106.382978723404,4,3,3,80,0,0
100718,-266.666666666667,4,3,3,80,0,0
100993,-266.666666666667,4,3,1,80,0,0
101268,-66.6666666666667,4,3,1,80,0,0
101818,-66.6666666666667,4,3,0,80,0,0
102576,-66.6666666666667,4,2,3,80,0,0
102713,-66.6666666666667,4,3,3,80,0,0
104020,-266.666666666667,4,3,3,80,0,0
104296,-266.666666666667,4,3,3,80,0,0
104433,-266.666666666667,4,3,1,80,0,0
104571,-106.382978723404,4,3,3,80,0,0
105121,-266.666666666667,4,3,3,80,0,0
105534,-266.666666666667,4,3,1,80,0,0
105672,-66.6666666666667,4,3,1,80,0,0
106222,-66.6666666666667,4,3,3,80,0,0
106774,-106.382978723404,4,3,3,80,0,0
107324,-266.666666666667,4,3,3,80,0,0
107874,-66.6666666666667,4,3,3,80,0,0
108425,-266.666666666667,4,3,3,80,0,0
108975,-106.382978723404,4,3,3,80,0,0
109526,-266.666666666667,4,3,3,80,0,0
110076,-100,4,3,3,80,0,0
110902,-200,4,3,3,80,0,0
111177,-66.6666666666667,4,2,1,80,0,0
111728,-100,4,3,1,80,0,0
112553,-66.6666666666667,4,2,1,80,0,0
113929,-100,4,3,1,80,0,0
114755,-66.6666666666667,4,3,1,80,0,0
116131,-100,4,3,1,80,0,0
116957,-66.6666666666667,4,3,1,80,0,0
118333,-100,4,3,1,80,0,0
119159,-133.333333333333,4,3,0,80,0,0
119709,-200,4,3,0,80,0,0
119985,-100,4,3,1,80,0,0
120466,-100,4,1,1,80,0,0
120535,-100,4,3,1,80,0,0
121567,-100,4,1,1,80,0,0
121636,-100,4,3,1,80,0,0
122668,-100,4,1,1,80,0,0
122737,-100,4,3,1,80,0,0
123769,-100,4,1,1,80,0,0
123838,-100,4,3,1,80,0,0
126865,-125,4,3,1,80,0,0
127140,-166.666666666667,4,3,1,80,0,0
127416,-250,4,3,1,80,0,0
127691,-250,4,2,1,30,0,0
127725,-250,4,2,1,15,0,0
128517,-80,4,2,0,100,0,0
128585,-80,4,2,0,50,0,0
128792,-80,4,2,0,100,0,0
137049,-80,4,2,0,100,0,0
137232,-80,4,2,0,80,0,0
137324,-80,4,2,0,100,0,0
137462,-40,4,2,0,100,0,0
137874,-80,4,2,0,100,0,0
145029,-80,4,2,1,80,0,0
145099,-80,4,2,1,100,0,0
145306,-111.111111111111,4,2,1,100,0,0
145925,-40,4,2,1,100,0,0
146407,-80,4,3,3,80,0,0
146957,-266.666666666667,4,3,3,80,0,0
147298,-266.666666666667,4,3,1,80,0,0
147507,-66.6666666666667,4,3,3,80,0,0
148058,-266.666666666667,4,3,3,80,0,0
148401,-266.666666666667,4,3,1,80,0,0
148605,-266.666666666667,4,3,3,80,0,0
148608,-80,4,3,3,80,0,0
149159,-266.666666666667,4,3,3,80,0,0
149709,-66.6666666666667,4,3,3,80,0,0
150810,-80,4,3,3,80,0,0
151360,-266.666666666667,4,3,3,80,0,0
151910,-66.6666666666667,4,3,3,80,0,0
152461,-266.666666666667,4,3,3,80,0,0
153011,-80,4,3,3,80,0,0
153562,-266.666666666667,4,3,3,80,0,0
154112,-66.6666666666667,4,3,3,80,0,0
156864,-266.666666666667,4,3,3,80,0,0
157140,-266.666666666667,4,3,1,80,0,0
157415,-80,4,3,3,80,0,0
157965,-266.666666666667,4,3,3,80,0,0
158516,-66.6666666666667,4,3,3,80,0,0
159618,-80,4,3,3,80,0,0
160168,-266.666666666667,4,3,3,80,0,0
160718,-66.6666666666667,4,3,3,80,0,0
161269,-266.666666666667,4,3,3,80,0,0
161819,-80,4,3,3,80,0,0
162370,-266.666666666667,4,3,3,80,0,0
162920,-100,4,3,3,80,0,0
163746,-200,4,3,3,80,0,0
166635,-200,4,3,3,80,0,0
176613,-369.0036900369,4,3,3,80,0,0
183838,-307.692307692308,4,3,3,80,0,0
185489,-500,4,2,3,30,0,0
185524,-500,4,2,3,15,0,0
186040,-80,4,2,0,80,0,0
186315,-100,4,2,0,80,0,0
186728,-111.111111111111,4,2,0,80,0,0
187003,-125,4,2,0,80,0,0
187278,-142.857142857143,4,2,0,80,0,0
187553,-166.666666666667,4,2,0,80,0,0
187966,-200,4,2,0,80,0,0
188241,-80,4,2,0,80,0,0
188516,-100,4,2,0,80,0,0
188929,-111.111111111111,4,2,0,80,0,0
189204,-125,4,2,0,80,0,0
189479,-142.857142857143,4,2,0,80,0,0
189754,-166.666666666667,4,2,0,80,0,0
190167,-200,4,2,0,80,0,0
190443,-80,4,2,0,80,0,0
190718,-100,4,2,0,80,0,0
192370,-200,4,2,0,80,0,0
192645,-80,4,2,0,80,0,0
192920,-100,4,2,0,80,0,0
194572,-200,4,2,0,80,0,0
194847,-80,4,2,0,80,0,0
195122,-200,4,2,0,80,0,0
195535,-222.222222222222,4,2,0,80,0,0
195810,-250,4,2,0,80,0,0
196085,-285.714285714286,4,2,0,80,0,0
196360,-166.666666666667,4,2,0,80,0,0
196429,-166.666666666667,4,2,0,20,0,0
196498,-166.666666666667,4,2,0,80,0,0
196773,-200,4,2,0,80,0,0
197048,-80,4,2,0,80,0,0
197323,-200,4,2,0,80,0,0
197736,-222.222222222222,4,2,0,80,0,0
198011,-250,4,2,0,80,0,0
198286,-285.714285714286,4,2,0,80,0,0
198561,-166.666666666667,4,2,0,80,0,0
198631,-166.666666666667,4,2,0,20,0,0
198700,-166.666666666667,4,2,0,80,0,0
198974,-200,4,2,0,80,0,0
199250,-80,4,2,0,80,0,0
199525,-200,4,2,0,80,0,0
200764,-100,4,2,0,80,0,0
200833,-100,4,2,0,20,0,0
200902,-100,4,2,0,80,0,0
201177,-200,4,2,0,80,0,0
201452,-133.333333333333,4,2,0,80,0,0
202003,-200,4,2,0,80,0,0
202278,-133.333333333333,4,2,0,80,0,0
202553,-80,4,2,0,80,0,0
202829,-200,4,2,0,80,0,0
203104,-200,4,3,1,80,0,0
203654,-66.6666666666667,4,3,1,80,0,0
204205,-100,4,3,1,80,0,0
205030,-66.6666666666667,4,3,1,80,0,0
205993,-66.6666666666667,4,2,1,80,0,0
206131,-66.6666666666667,4,3,1,80,0,0
206268,-66.6666666666667,4,2,1,80,0,0
206407,-100,4,3,1,80,0,0
207232,-66.6666666666667,4,3,1,80,0,0
208195,-66.6666666666667,4,2,1,80,0,0
208333,-66.6666666666667,4,3,1,80,0,0
208470,-66.6666666666667,4,2,1,80,0,0
208608,-100,4,3,1,80,0,0
209433,-66.6666666666667,4,3,1,80,0,0
210397,-66.6666666666667,4,2,1,80,0,0
210535,-66.6666666666667,4,3,1,80,0,0
210672,-66.6666666666667,4,2,1,80,0,0
210810,-100,4,3,1,80,0,0
211635,-133.333333333333,4,3,0,80,0,0
212186,-200,4,3,1,80,0,0
212393,-100,4,1,1,80,0,0
219342,-125,4,1,1,80,0,0
220168,-125,4,2,0,40,0,0
221544,-100,4,2,0,40,0,0
221957,-33.3333333333333,4,2,1,40,0,0
224021,-100,4,2,1,40,0,0
224090,-100,4,1,0,60,0,0
224228,-100,4,1,0,80,0,0
224365,-33.3333333333333,4,1,0,100,0,0
224572,-100,4,3,0,100,0,0
225397,-100,4,3,0,80,0,0
225673,-50,4,3,0,80,0,0
225948,275.229357798165,4,2,1,90,1,1
225948,-100,4,2,1,90,0,1
226085,-66.6666666666667,4,2,1,90,0,1
226360,-100,4,2,1,90,0,1
226497,-66.6666666666667,4,2,1,90,0,1
226773,-100,4,2,1,90,0,1
226910,-66.6666666666667,4,2,1,90,0,1
227186,-100,4,2,1,90,0,1
227323,-66.6666666666667,4,2,1,90,0,1
228149,-100,4,2,1,90,0,1
228286,-66.6666666666667,4,2,1,90,0,1
228561,-100,4,2,1,90,0,1
228698,-66.6666666666667,4,2,1,90,0,1
228974,-100,4,2,1,90,0,1
229111,-66.6666666666667,4,2,1,90,0,1
229387,-100,4,2,1,90,0,1
229524,-66.6666666666667,4,2,1,90,0,1
229801,-100,4,2,1,90,0,1
232003,-66.6666666666667,4,2,1,90,0,1
232553,-100,4,2,1,90,0,0
232828,-100,4,3,0,90,0,0
233447,-100,4,2,0,90,0,0
233516,-133.333333333333,4,2,1,80,0,0
233585,-133.333333333333,4,3,0,90,0,0
233654,-133.333333333333,4,3,1,90,0,0
233860,-133.333333333333,4,2,1,90,0,0
233997,-133.333333333333,4,3,1,90,0,0
234204,-66.6666666666667,4,2,1,90,0,0
234755,-100,4,2,1,90,0,1
234892,-66.6666666666667,4,2,1,90,0,1
235167,-100,4,2,1,90,0,1
235304,-66.6666666666667,4,2,1,90,0,1
235580,-100,4,2,1,90,0,1
235717,-66.6666666666667,4,2,1,90,0,1
235993,-100,4,2,1,90,0,1
236130,-66.6666666666667,4,2,1,90,0,1
236957,-100,4,2,1,90,0,1
237094,-66.6666666666667,4,2,1,90,0,1
237370,-100,4,2,1,90,0,1
237507,-66.6666666666667,4,2,1,90,0,1
237782,-100,4,2,1,90,0,1
237919,-66.6666666666667,4,2,1,90,0,1
238195,-100,4,2,1,90,0,1
238332,-66.6666666666667,4,2,1,90,0,1
238608,-100,4,2,1,90,0,1
240810,-66.6666666666667,4,2,1,90,0,1
241360,-100,4,2,0,90,0,0
242462,-133.333333333333,4,2,1,90,0,0
243012,-66.6666666666667,4,1,3,90,0,0
243562,-62.5,4,1,1,90,0,1
244388,-80,4,1,1,90,0,1
245214,-66.6666666666667,4,1,3,90,0,1
245764,-62.5,4,1,1,90,0,1
246590,-80,4,1,1,90,0,1
247415,-80,4,1,3,90,0,1
247691,-66.6666666666667,4,1,3,90,0,1
247966,-100,4,1,1,90,0,0
249617,-66.6666666666667,4,1,1,90,0,0
249892,-66.6666666666667,4,1,3,90,0,0
250168,-100,4,2,0,90,0,0
251819,-100,4,1,3,90,0,0
252094,-66.6666666666667,4,1,3,90,0,0
252370,-62.5,4,1,1,90,0,1
253196,-80,4,1,1,90,0,1
254022,-66.6666666666667,4,1,3,90,0,1
254571,-62.5,4,1,1,90,0,1
255398,-80,4,1,1,90,0,1
256222,-80,4,1,3,90,0,1
256498,-66.6666666666667,4,1,3,90,0,1
256773,-100,4,2,1,90,0,0
258425,-66.6666666666667,4,1,1,90,0,0
258699,-66.6666666666667,4,1,3,90,0,0
258975,-100,4,2,0,90,0,0
260626,-100,4,1,1,90,0,0
260902,275.229357798165,4,2,0,100,1,0
260902,-400,4,2,0,100,0,1
260970,-400,4,2,0,100,0,0
267507,-133.333333333333,4,3,4,60,0,0
269571,-377.358490566038,4,3,0,100,0,1
269640,-370.37037037037,4,3,1,40,0,0
275145,-377.358490566038,4,3,1,60,0,0
275213,-377.358490566038,4,3,0,60,0,1
276796,-377.358490566038,4,2,0,60,0,0

[Colours]
Combo1 : 99,137,133
Combo2 : 141,173,175
Combo3 : 95,224,202
Combo4 : 73,150,190
SliderBorder : 255,255,255

[HitObjects]
256,192,2323,12,0,5351,0:0:0:0:
274,31,5489,6,0,B|261:187|442:202|442:202|256:192|241:357|241:357|250:186|68:170|68:170|256:181|269:30,1,1123.87502743836,4|0,1:0|1:0,0:0:0:0:
291,116,13883,5,8,0:0:0:0:
233,200,14021,1,8,0:0:0:0:
291,267,14158,1,4,0:0:0:0:
243,346,14296,6,0,B|-31:412|-160:158|-128:15|507:-107|693:-64|740:200|683:335|367:356|149:398|136:351|-227:312|-69:146|89:131|87:-23|614:73|610:151|480:322|68:368|162:184|192:168,1,1937.41240244353,4|0,1:2|0:0,0:0:0:0:
256,252,22553,6,0,L|256:248,12,4.625,2|0|0|0|0|0|0|0|0|0|0|0|0,0:0|0:0|0:0|0:0|0:0|0:0|0:0|0:0|0:0|0:0|0:0|0:0|0:0,0:0:0:0:
270,368,23103,6,0,B|308:384|308:384|328:331|328:331|436:309|436:309|375:355,1,277.5,12|0,1:0|2:0,0:0:0:0:
483,383,23378,6,0,P|513:337|510:291,1,92.5,2|0,0:0|0:0,0:0:0:0:
510,283,23584,2,0,P|478:236|435:222,1,92.5,2|2,0:2|0:2,0:0:0:0:
426,223,23791,2,0,P|384:202|361:163,1,92.5,0|2,0:0|0:0,0:0:0:0:
359,144,23997,2,0,P|371:99|405:70,1,92.5,2|2,0:2|0:2,0:0:0:0:
509,0,24272,6,0,L|512:92,1,92.5,2|2,0:2|0:2,0:0:0:0:
493,101,24479,2,0,L|397:67,1,92.5,2|0,0:0|0:0,0:0:0:0:
386,64,24685,2,0,L|298:33,1,92.5,2|2,0:2|0:2,0:0:0:0:
283,44,24891,2,0,L|296:126,1,46.25,2|0,0:0|0:0,0:0:0:0:
102,215,25029,6,0,B|46:150|46:150|56:127|56:127|174:88|174:88|220:130,1,277.5,12|0,1:0|2:0,0:0:0:0:
234,211,25304,6,0,B|202:252|202:252|193:246|193:246|34:223|34:223|12:253|12:253|33:308,1,277.5,12|0,1:0|2:0,0:0:0:0:
145,373,25580,6,0,P|195:337|261:341,1,92.5,2|0,0:0|0:0,0:0:0:0:
242,336,25786,2,0,P|305:359|333:369,1,92.5,2|2,0:2|0:2,0:0:0:0:
346,373,25992,2,0,P|398:372|423:331,1,92.5,2|2,0:2|0:0,0:0:0:0:
426,324,26199,2,0,P|419:271|414:227,1,92.5,2|0,0:2|0:0,0:0:0:0:
500,384,26474,6,0,P|506:331|512:287,1,92.5,2|2,0:0|0:2,0:0:0:0:
506,274,26680,2,0,P|453:243|406:252,1,92.5,2|0,0:0|0:0,0:0:0:0:
407,253,26887,2,0,P|361:251|324:223,1,92.5,2|2,0:2|0:2,0:0:0:0:
320,206,27093,2,0,L|331:121,1,46.25,2|0,0:0|0:0,0:0:0:0:
174,24,27231,6,0,B|138:9|138:9|70:135|70:135|83:151|83:151|176:119,1,277.5,12|0,1:0|2:0,0:0:0:0:
250,86,27506,6,0,B|265:62|265:62|361:22|361:22|435:115|435:115|404:198,1,277.5,12|0,1:0|2:0,0:0:0:0:
431,288,27781,6,0,P|464:269|472:214,1,92.5,2|2,0:0|0:2,0:0:0:0:
463,203,27988,2,0,P|430:182|378:203,1,92.5,2|2,0:0|0:2,0:0:0:0:
367,211,28194,2,0,P|337:224|309:219,1,46.25,2|2,0:2|0:2,0:0:0:0:
174,360,28332,6,0,B|28:334|28:334|51:283|51:283|166:249,1,277.5,12|0,1:0|2:0,0:0:0:0:
256,252,28607,6,0,B|271:303|271:303|267:324|267:324|183:193|183:193|132:179,1,277.5,12|0,1:0|2:0,0:0:0:0:
0,62,28882,6,0,P|21:30|77:27,1,92.5,2|2,0:0|0:2,0:0:0:0:
87,37,29089,2,0,P|105:71|79:121,1,92.5,2|2,0:0|0:2,0:0:0:0:
71,132,29295,2,0,P|55:160|57:189,1,46.25,2|2,0:2|0:2,0:0:0:0:
256,252,29433,6,0,B|185:270|185:270|105:234|105:234|30:299|30:299|32:328,1,277.5,12|0,1:0|2:0,0:0:0:0:
174,360,29708,6,0,B|194:360|194:360|208:333|208:333|152:211|152:211|196:153|196:153|244:144,1,277.5,12|0,1:0|2:0,0:0:0:0:
256,64,29983,5,2,0:0:0:0:
338,360,30258,6,0,B|317:360|317:360|303:333|303:333|359:211|359:211|315:153|315:153|267:144,1,277.5,12|0,1:0|2:0,0:0:0:0:
256,64,30534,5,2,0:0:0:0:
255,252,30809,6,0,L|255:248,20,4.625,2|0|0|0|0|0|0|0|0|0|0|0|0|0|0|0|0|0|0|0|0,1:2|0:0|0:0|0:0|0:0|0:0|0:0|0:0|0:0|0:0|0:0|0:0|0:0|0:0|0:0|0:0|0:0|0:0|0:0|0:0|0:0,0:0:0:0:
201,311,31635,2,0,L|120:323,1,69.375,6|0,3:2|0:0,0:0:0:0:
50,301,31910,6,2,L|291:336,1,241.425002026119,6|0,1:3|0:0,1:0:0:0:
367,378,32186,6,0,P|385:349|389:315,1,69.3750026464463,6|0,1:2|0:0,0:0:0:0:
423,292,32324,2,0,P|444:319|451:353,1,69.3750026464463,6|0,1:2|0:0,0:0:0:0:
431,248,32462,2,0,P|465:253|494:273,1,69.3750026464463,6|0,1:2|0:0,0:0:0:0:
408,215,32599,2,0,P|435:194|469:188,1,69.3750026464463,6|0,1:2|0:0,0:0:0:0:
367,208,32737,2,0,P|371:174|390:146,1,69.3750026464463,6|0,1:2|0:0,0:0:0:0:
331,232,32874,2,0,P|310:205|305:172,1,69.3750026464463,6|0,1:2|0:0,0:0:0:0:
324,271,33012,2,0,P|290:267|261:249,1,69.3750026464463,6|0,1:2|0:0,0:0:0:0:
348,307,33150,2,0,P|321:328|288:335,1,69.3750026464463,6|0,1:2|0:0,0:0:0:0:
389,315,33287,6,0,P|386:349|367:378,1,69.3750026464463,2|0,1:3|0:0,0:0:0:0:
494,273,33425,2,0,P|466:254|431:248,1,69.3750026464463,2|0,1:2|0:0,0:0:0:0:
391,146,33562,2,0,P|372:174|367:208,1,69.3750026464463,2|0,1:2|0:0,0:0:0:0:
261,249,33700,2,0,P|290:267|324:271,1,69.3750026464463,2|0,1:3|0:0,0:0:0:0:
468,176,33837,6,0,B|488:140|488:140|464:44|464:44|444:50|444:50|458:104,1,208.125007939339,4|0,3:0|0:0,1:0:0:0:
391,146,34112,6,2,B|334:126|334:126|323:52|323:52|230:21,1,208.125007939339,4|0,1:3|0:0,1:2:0:0:
145,6,34387,6,0,P|127:35|123:69,1,69.3750026464463,6|0,1:2|0:0,0:0:0:0:
89,92,34525,2,0,P|68:65|61:31,1,69.3750026464463,6|0,1:2|0:0,0:0:0:0:
81,136,34663,2,0,P|47:131|18:111,1,69.3750026464463,6|0,1:2|0:0,0:0:0:0:
104,169,34800,2,0,P|77:190|43:196,1,69.3750026464463,6|0,1:2|0:0,0:0:0:0:
145,176,34938,2,0,P|141:210|122:238,1,69.3750026464463,6|0,1:2|0:0,0:0:0:0:
181,152,35075,2,0,P|202:179|207:212,1,69.3750026464463,6|0,1:2|0:0,0:0:0:0:
188,113,35213,2,0,P|222:117|251:135,1,69.3750026464463,6|0,1:2|0:0,0:0:0:0:
164,77,35351,2,0,P|191:56|224:49,1,69.3750026464463,6|0,1:2|0:0,0:0:0:0:
123,69,35488,6,0,P|126:35|145:6,1,69.3750026464463,2|0,1:3|0:0,0:0:0:0:
18,111,35626,2,0,P|46:130|81:136,1,69.3750026464463,2|0,1:2|0:0,0:0:0:0:
121,238,35763,2,0,P|140:210|145:176,1,69.3750026464463,2|0,1:2|0:0,0:0:0:0:
251,135,35901,2,0,P|222:117|188:113,1,69.3750026464463,2|0,1:3|0:0,0:0:0:0:
44,208,36039,6,0,B|24:244|24:244|48:340|48:340|68:334|68:334|54:280,1,208.125007939339,4|0,3:0|0:0,1:0:0:0:
121,238,36314,6,2,B|178:258|178:258|189:332|189:332|282:363,1,208.125007939339,4|0,1:3|0:0,1:2:0:0:
422,384,36589,6,0,P|472:350|450:259,1,138.750005292893,4|2,1:3|0:0,0:0:0:0:
444,164,36864,2,0,P|416:198|418:230,1,69.3750026464463,8|8,3:0|3:0,0:0:0:0:
469,277,37001,6,0,P|419:241|341:293,1,138.750005292893,4|2,1:3|0:0,0:0:0:0:
320,373,37277,2,0,P|292:339|294:307,1,69.3750026464463,8|8,3:0|3:0,0:0:0:0:
352,267,37414,6,0,P|297:293|229:228,1,138.750005292893,4|2,1:3|0:0,0:0:0:0:
125,227,37689,2,0,P|159:199|191:201,1,69.3750026464463,8|8,3:0|3:0,0:0:0:0:
236,254,37827,6,0,P|229:193|313:152,1,138.750005292893,4|2,1:3|0:0,0:0:0:0:
327,68,38102,2,0,P|355:102|353:134,1,69.3750026464463,8|8,3:0|3:0,0:0:0:0:
285,149,38240,6,0,B|362:155|362:155|392:186|392:186|491:195,1,208.125007939339,4|0,1:3|2:0,1:0:0:0:
365,272,38515,6,0,B|371:195|371:195|402:165|402:165|411:66,1,208.125007939339,4|0,1:3|0:0,1:0:0:0:
356,20,38790,5,4,1:2:0:0:
97,178,39066,6,0,B|171:209|248:181|290:172|315:74|265:32|170:14|136:116|194:165,1,416.25,2|2,0:0|0:0,0:0:0:0:
380,280,39823,5,2,0:3:0:0:
386,289,39892,2,0,P|385:337|356:365,1,69.3750026464463,2|2,0:3|0:0,0:0:0:0:
347,371,40098,2,0,P|303:339|272:333,1,69.3750026464463,2|2,0:0|0:0,0:0:0:0:
255,343,40305,1,2,0:3:0:0:
164,264,40442,6,0,B|6:305|6:305|12:325|12:325|58:349,1,208.125007939339,4|0,3:0|0:0,1:0:0:0:
116,376,40718,6,2,B|128:348|128:348|44:212|44:212|64:160,1,208.125007939339,4|0,1:3|0:0,1:2:0:0:
232,120,40993,6,0,L|238:50,1,69.3750026464463,4|0,1:2|0:0,0:0:0:0:
162,89,41130,2,0,L|168:20,1,69.3750026464463,4|0,1:2|0:0,0:0:0:0:
88,104,41268,2,0,L|94:34,1,69.3750026464463,4|0,1:2|0:0,0:0:0:0:
18,73,41405,2,0,L|24:4,1,69.3750026464463,4|0,1:2|0:0,0:0:0:0:
11,157,41543,2,0,L|17:87,1,69.3750026464463,4|0,1:2|0:0,0:0:0:0:
81,188,41680,2,0,L|87:119,1,69.3750026464463,4|0,1:2|0:0,0:0:0:0:
155,173,41819,2,0,L|161:103,1,69.3750026464463,4|0,1:2|0:0,0:0:0:0:
225,204,41956,2,0,L|231:135,1,69.3750026464463,4|0,1:2|0:0,0:0:0:0:
238,50,42094,6,0,L|232:120,1,69.3750026464463,2|0,1:3|0:0,0:0:0:0:
155,173,42231,2,0,L|161:103,1,69.3750026464463,2|0,1:2|0:0,0:0:0:0:
94,34,42369,2,0,L|88:104,1,69.3750026464463,2|0,1:2|0:0,0:0:0:0:
11,157,42507,2,0,L|17:88,1,69.3750026464463,2|0,1:3|0:0,0:0:0:0:
0,292,42644,6,0,B|56:280|56:280|144:356|144:356|115:313,1,208.125007939339,4|0,1:3|2:0,1:0:0:0:
42,384,42919,6,2,B|59:323|59:323|217:293,1,208.125007939339,4|0,1:3|0:0,1:2:0:0:
280,264,43195,6,0,L|274:334,1,69.3750026464463,4|0,1:2|0:0,0:0:0:0:
350,295,43332,2,0,L|344:364,1,69.3750026464463,4|0,1:2|0:0,0:0:0:0:
424,280,43470,2,0,L|418:350,1,69.3750026464463,4|0,1:2|0:0,0:0:0:0:
494,311,43607,2,0,L|488:380,1,69.3750026464463,4|0,1:2|0:0,0:0:0:0:
501,227,43745,2,0,L|495:297,1,69.3750026464463,4|0,1:2|0:0,0:0:0:0:
431,196,43882,2,0,L|425:265,1,69.3750026464463,4|0,1:2|0:0,0:0:0:0:
357,211,44021,2,0,L|351:281,1,69.3750026464463,4|0,1:2|0:0,0:0:0:0:
287,180,44158,2,0,L|281:249,1,69.3750026464463,4|0,1:2|0:0,0:0:0:0:
274,334,44296,6,0,L|280:264,1,69.3750026464463,2|0,1:3|0:0,0:0:0:0:
357,211,44433,2,0,L|351:281,1,69.3750026464463,2|0,1:2|0:0,0:0:0:0:
418,350,44571,2,0,L|424:280,1,69.3750026464463,2|0,1:2|0:0,0:0:0:0:
501,227,44709,2,0,L|495:296,1,69.3750026464463,2|0,1:3|0:0,0:0:0:0:
512,92,44846,6,0,B|456:104|456:104|368:28|368:28|397:71,1,208.125007939339,4|0,1:3|2:0,1:0:0:0:
470,0,45121,6,2,B|453:61|453:61|295:91,1,208.125007939339,4|0,1:3|0:0,1:2:0:0:
90,0,45397,6,0,P|40:34|62:125,1,138.750005292893,4|2,1:3|0:0,0:0:0:0:
68,220,45672,2,0,P|96:186|94:154,1,69.3750026464463,8|8,3:0|3:0,0:0:0:0:
43,107,45809,6,0,P|93:143|171:91,1,138.750005292893,4|2,1:3|0:0,0:0:0:0:
192,11,46085,2,0,P|220:45|218:77,1,69.3750026464463,8|8,3:0|3:0,0:0:0:0:
159,117,46222,6,0,P|214:91|282:156,1,138.750005292893,4|2,1:3|0:0,0:0:0:0:
387,157,46497,2,0,P|353:185|321:183,1,69.3750026464463,8|8,3:0|3:0,0:0:0:0:
275,130,46635,6,0,P|282:191|198:232,1,138.750005292893,4|2,1:3|0:0,0:0:0:0:
185,316,46910,2,0,P|157:282|159:250,1,69.3750026464463,8|8,3:0|3:0,0:0:0:0:
226,235,47048,6,0,B|149:229|149:229|119:198|119:198|20:189,1,208.125007939339,4|0,1:3|2:0,1:0:0:0:
147,112,47323,6,0,B|141:189|141:189|110:219|110:219|101:318,1,208.125007939339,4|0,1:3|0:0,1:0:0:0:
156,364,47598,5,4,1:2:0:0:
415,206,47874,6,0,B|341:175|264:203|222:212|197:310|247:352|342:370|376:268|318:219,1,416.25,2|2,0:0|0:0,0:0:0:0:
132,104,48630,5,2,0:3:0:0:
126,95,48699,2,0,P|127:47|156:19,1,69.3750026464463,2|2,0:3|0:0,0:0:0:0:
165,13,48906,2,0,P|209:45|240:51,1,69.3750026464463,2|2,0:0|0:0,0:0:0:0:
257,41,49112,1,2,0:3:0:0:
389,83,49250,5,4,1:3:0:0:
416,62,49319,1,0,1:0:0:0:
449,52,49387,1,0,1:0:0:0:
483,58,49456,1,0,1:0:0:0:
512,75,49525,2,2,B|520:141|520:141|485:195|485:195|500:306,1,208.125007939339,14|0,1:0|2:0,1:2:0:0:
447,355,49800,6,0,L|401:361,1,46.25,4|0,0:2|0:0,0:0:0:0:
363,293,49938,2,0,L|317:299,3,46.25,4|0|0|0,0:2|0:0|0:2|0:0,0:0:0:0:
272,365,50213,2,0,L|226:371,1,46.25,4|0,0:2|0:0,0:0:0:0:
175,315,50351,2,0,L|129:321,3,46.25,4|0|0|0,0:2|0:0|0:0|0:0,0:0:0:0:
0,337,50626,5,2,0:0:0:0:
65,258,50763,2,0,L|80:151,1,92.5,4|4,0:3|0:3,0:0:0:0:
242,222,51039,6,0,B|233:235|233:235|226:226,2,23.125,2|0|0,0:0|0:0|0:0,0:0:0:0:
208,150,51176,2,0,L|189:44,1,92.5,4|4,0:3|0:3,0:0:0:0:
78,23,51452,5,2,0:2:0:0:
67,42,51520,1,2,0:2:0:0:
45,37,51589,1,2,0:2:0:0:
28,52,51658,1,2,0:2:0:0:
11,38,51727,2,0,B|1:76|1:76|79:172,1,161.87500154376,14|0,0:0|0:0,0:0:0:0:
183,239,52002,6,0,L|228:229,1,46.25,4|0,0:2|0:0,0:0:0:0:
268,299,52140,2,0,L|311:285,3,46.25,4|0|0|0,0:2|0:0|0:2|0:0,0:0:0:0:
352,220,52415,2,0,L|394:202,1,46.25,4|0,0:2|0:0,0:0:0:0:
467,221,52552,2,0,L|476:175,3,46.25,4|0|0|0,0:2|0:0|0:0|0:0,0:0:0:0:
512,73,52828,5,2,0:0:0:0:
431,1,52965,2,0,L|406:110,1,92.5,4|4,1:3|1:3,0:0:0:0:
206,128,53241,6,0,B|203:120|203:120|215:107,2,23.125,2|0|0,0:0|0:0|0:0,0:0:0:0:
284,63,53378,2,0,L|299:173,1,92.5,4|4,1:3|1:3,0:0:0:0:
445,160,53653,5,2,0:2:0:0:
454,179,53722,1,2,0:2:0:0:
476,176,53791,1,2,0:2:0:0:
492,193,53860,1,2,0:2:0:0:
511,179,53929,2,0,B|533:214|533:214|462:328,1,161.87500154376,14|0,0:0|0:0,0:0:0:0:
389,384,54204,6,0,P|304:344|274:226,1,208.125007939339,4|0,1:3|0:0,0:0:0:0:
313,176,54479,1,8,3:0:0:0:
320,184,54548,1,8,3:0:0:0:
329,192,54617,6,0,P|262:229|199:189,1,138.750005292893,4|2,1:3|0:0,0:0:0:0:
118,112,54892,1,8,3:0:0:0:
129,110,54961,1,8,3:0:0:0:
141,109,55030,6,0,P|139:185|74:219,1,138.750005292893,4|2,1:3|0:0,0:0:0:0:
5,289,55305,1,8,3:0:0:0:
9,279,55374,1,8,3:0:0:0:
14,267,55442,6,0,P|78:305|76:379,1,138.750005292893,4|2,1:3|0:0,0:0:0:0:
223,300,55718,1,8,3:0:0:0:
219,288,55786,1,8,3:0:0:0:
272,233,55855,6,0,B|408:201|408:201|352:273,1,208.125007939339,4|0,1:3|0:0,1:0:0:0:
298,328,56130,2,0,B|255:382|255:382|391:350,1,208.125007939339,14|0,1:0|2:0,0:0:0:0:
446,292,56406,1,6,1:2:0:0:
68,160,58057,5,2,0:2:0:0:
59,179,58126,1,2,0:2:0:0:
37,176,58195,1,2,0:2:0:0:
21,193,58263,1,2,0:2:0:0:
2,179,58332,2,0,B|-20:214|-20:214|51:328,1,161.87500154376,14|0,0:0|0:0,0:0:0:0:
224,384,58608,6,0,L|228:336,1,46.25,4|0,0:2|0:0,0:0:0:0:
178,275,58745,2,0,L|182:227,3,46.25,4|0|0|0,0:2|0:0|0:0|0:0,0:0:0:0:
246,181,59020,2,0,L|250:133,1,46.25,4|0,0:2|0:0,0:0:0:0:
204,72,59158,2,0,L|208:24,3,46.25,4|0|0|0,0:2|0:0|0:0|0:0,0:0:0:0:
88,0,59433,5,2,0:0:0:0:
8,92,59571,2,0,L|115:77,1,92.5,4|4,1:3|1:3,0:0:0:0:
305,57,59846,6,0,B|310:50|310:50|318:63,2,23.125,2|0|0,0:0|0:0|0:0,0:0:0:0:
250,134,59984,2,0,L|357:149,1,92.5,4|4,1:3|1:3,0:0:0:0:
468,228,60259,5,2,0:2:0:0:
447,236,60328,1,2,0:2:0:0:
448,259,60397,1,2,0:2:0:0:
429,272,60465,1,2,0:2:0:0:
437,296,60534,2,0,B|389:269|389:269|284:338,1,161.87500154376,14|0,0:0|0:0,0:0:0:0:
132,384,60809,6,0,L|127:336,1,46.25,4|0,0:2|0:0,0:0:0:0:
178,275,60947,2,0,L|173:227,3,46.25,4|0|0|0,0:2|0:0|0:0|0:0,0:0:0:0:
110,181,61222,2,0,L|105:133,1,46.25,4|0,0:2|0:0,0:0:0:0:
152,72,61360,2,0,L|147:24,3,46.25,4|0|0|0,0:2|0:0|0:0|0:0,0:0:0:0:
272,0,61635,5,2,0:0:0:0:
360,68,61773,2,0,L|486:48,1,92.5,4|4,0:3|0:3,0:0:0:0:
328,232,62048,6,0,B|343:238|343:238|351:222,2,23.125,2|0|0,0:0|0:0|0:0,0:0:0:0:
288,140,62185,2,0,L|162:160,1,92.5,4|4,0:3|0:3,0:0:0:0:
67,224,62461,5,2,0:2:0:0:
58,205,62530,1,2,0:2:0:0:
36,208,62598,1,2,0:2:0:0:
20,191,62667,1,2,0:2:0:0:
1,205,62736,2,0,B|-21:170|-21:170|50:56,1,161.87500154376,14|0,0:0|0:0,0:0:0:0:
123,0,63011,6,0,P|208:40|238:158,1,208.125007939339,4|0,1:3|0:0,0:0:0:0:
199,208,63286,1,8,3:0:0:0:
192,200,63355,1,8,3:0:0:0:
183,192,63424,6,0,P|250:155|313:195,1,138.750005292893,4|2,1:3|0:0,0:0:0:0:
394,272,63699,1,8,3:0:0:0:
383,274,63768,1,8,3:0:0:0:
371,275,63837,6,0,P|373:199|438:165,1,138.750005292893,4|2,1:3|0:0,0:0:0:0:
507,95,64112,1,8,3:0:0:0:
503,105,64181,1,8,3:0:0:0:
498,117,64249,6,0,P|434:79|436:5,1,138.750005292893,4|2,1:3|0:0,0:0:0:0:
289,84,64525,1,8,3:0:0:0:
293,96,64593,1,8,3:0:0:0:
240,151,64662,6,0,B|104:183|104:183|160:111,1,208.125007939339,4|0,1:3|0:0,1:0:0:0:
214,56,64937,2,0,B|257:2|257:2|121:34,1,208.125007939339,14|0,1:0|2:0,0:0:0:0:
66,92,65213,1,6,1:2:0:0:
396,180,66864,5,4,0:3:0:0:
423,186,66933,1,2,0:2:0:0:
449,192,67002,1,2,0:2:0:0:
475,198,67071,1,2,0:2:0:0:
510,179,67141,6,0,B|343:168|369:355|182:328,1,370,4|0,1:2|3:0,0:0:0:0:
256,192,69893,12,0,73608,0:0:0:0:
0,172,73746,6,0,L|84:160,1,69.3750026464463,2|0,1:0|0:0,2:0:0:0:
128,208,74021,2,0,L|136:248,2,34.6875013232232,0|0|0,0:0|0:0|0:0,2:0:0:0:
192,128,74296,2,0,L|204:44,1,69.3750026464463,2|0,0:2|0:0,2:0:0:0:
247,243,74572,2,0,L|259:327,1,69.3750026464463,0|0,0:0|0:0,2:0:0:0:
300,166,74847,2,0,L|308:126,2,34.6875013232232,0|0|0,0:0|0:0|0:0,2:0:0:0:
375,231,75122,1,0,0:0:0:0:
431,152,75260,5,8,0:0:0:0:
431,152,75329,1,8,0:0:0:0:
431,152,75397,1,8,0:0:0:0:
512,210,75535,1,8,0:0:0:0:
460,286,75673,2,0,L|472:366,1,69.3750026464463,4|2,0:0|0:2,0:0:0:0:
317,383,75948,6,0,P|295:315|170:260,1,208.125007939339,4|0,1:2|0:0,0:0:0:0:
108,288,76498,2,0,L|100:368,1,69.3750026464463,2|0,1:2|0:0,0:0:0:0:
21,366,76774,2,0,L|27:296,1,69.3750026464463
53,183,77049,5,0,1:0:0:0:
53,183,77186,2,0,P|20:150|-6:143,2,69.3750026464463
51,35,77599,2,0,P|72:61|78:95,1,69.3750026464463,2|0,1:2|0:0,0:0:0:0:
150,127,77874,2,0,P|167:97|168:63,1,69.3750026464463
267,10,78150,5,0,1:0:0:0:
267,10,78287,2,0,L|341:24,2,69.3750026464463
426,148,78700,2,0,L|494:135,1,69.3750026464463,2|0,1:2|0:0,0:0:0:0:
417,0,78975,2,0,L|404:68,1,69.3750026464463
330,160,79251,5,2,1:2:0:0:
330,160,79388,2,0,L|344:234,2,69.3750026464463
253,222,79801,1,2,1:2:0:0:
363,329,79939,1,0,0:0:0:0:
373,327,80007,1,0,0:0:0:0:
383,324,80076,2,0,L|476:309,1,69.3750026464463
507,203,80352,5,0,1:0:0:0:
507,203,80489,2,0,L|493:129,2,69.3750026464463
451,312,80902,2,0,L|437:386,1,69.3750026464463,2|0,1:2|0:0,0:0:0:0:
342,228,81177,2,0,L|416:242,1,69.3750026464463
285,347,81452,5,0,1:0:0:0:
285,347,81590,2,0,L|211:361,2,69.3750026464463
242,206,82003,2,0,L|228:280,1,69.3750026464463,2|0,1:2|0:0,0:0:0:0:
133,384,82278,2,0,L|59:370,1,69.3750026464463
0,298,82553,5,0,1:0:0:0:
0,298,82691,2,0,L|74:284,2,69.3750026464463
154,210,83104,2,0,L|80:196,1,69.3750026464463,2|0,1:2|0:0,0:0:0:0:
20,125,83379,2,0,L|34:51,1,69.3750026464463
128,0,83654,5,0,1:0:0:0:
128,0,83792,2,0,L|142:74,2,69.3750026464463
32,56,84205,1,2,0:2:0:0:
253,10,84342,1,2,0:2:0:0:
379,99,84480,2,0,L|311:87,1,69.3750026464463
128,0,84755,6,0,L|170:221,1,208.125007939339,4|0,1:2|0:0,0:0:0:0:
233,264,85306,2,0,P|255:221|248:183,1,69.3750026464463,2|0,1:2|0:0,0:0:0:0:
91,233,85581,2,0,P|104:264|133:284,1,69.3750026464463
261,384,85856,5,0,1:0:0:0:
261,384,85994,2,0,P|293:351|320:344,2,69.3750026464463,0|2|0,0:0|0:2|0:0,0:0:0:0:
335,264,86407,2,0,P|384:284|399:301,1,69.3750026464463,2|0,1:2|0:0,0:0:0:0:
453,381,86682,2,0,P|502:361|517:344,1,69.3750026464463
485,190,86957,5,0,1:0:0:0:
485,190,87095,2,0,L|471:264,2,69.3750026464463
436,99,87507,2,0,L|342:112,1,69.3750026464463,2|0,1:2|0:0,0:0:0:0:
302,201,87783,2,0,L|396:214,1,69.3750026464463
268,37,88058,5,2,1:2:0:0:
268,37,88196,2,0,L|254:111,2,69.3750026464463
182,153,88608,1,2,1:2:0:0:
347,82,88746,1,0,0:0:0:0:
357,84,88815,1,0,0:0:0:0:
367,87,88884,2,0,L|460:102,1,69.3750026464463
173,0,89159,5,0,1:0:0:0:
173,0,89296,2,0,L|187:74,2,69.3750026464463
88,67,89709,1,2,1:2:0:0:
88,67,89847,2,0,L|137:124,2,69.3750026464463
47,204,90260,1,2,1:2:0:0:
47,204,90397,2,0,L|121:216,2,69.3750026464463
131,359,90810,1,2,1:2:0:0:
131,359,90948,2,0,L|188:310,2,69.3750026464463,0|2|2,0:0|0:0|0:2,0:0:0:0:
387,354,91361,6,0,L|476:333,1,69.3750026464463,0|2,1:0|0:2,0:0:0:0:
512,270,91636,2,0,L|416:250,1,69.3750026464463,2|2,0:0|0:2,0:0:0:0:
394,140,91842,1,2,0:0:0:0:
411,126,91911,2,0,L|391:222,1,69.3750026464463,2|0,1:2|0:0,0:0:0:0:
313,384,92186,2,0,L|298:316,1,69.3750026464463,2|0,0:0|0:0,0:0:0:0:
207,233,92462,6,0,L|163:239,1,34.6875013232232,0|0,1:0|1:0,0:0:0:0:
166,317,92599,2,0,L|201:313,1,34.6875013232232,0|0,1:0|1:0,0:0:0:0:
104,271,92737,2,0,L|69:275,1,34.6875013232232,0|0,1:0|1:0,0:0:0:0:
63,355,92874,2,0,L|98:351,1,34.6875013232232,0|0,1:0|1:0,0:0:0:0:
1,308,93012,6,0,P|-5:285|7:238,14,57.8125,8|0|0|0|0|0|0|0|2|0|0|0|0|0|0,1:0|0:0|0:0|0:0|0:0|0:0|0:0|0:0|0:1|0:0|0:0|0:0|0:0|0:0|0:0,0:0:0:0:
21,328,93563,6,0,P|106:345|184:384,1,173.899997346497,4|2,1:2|0:0,0:0:0:0:
300,256,93975,5,0,1:0:0:0:
297,240,94044,1,0,1:0:0:0:
289,229,94113,2,8,P|241:236|220:291,1,104.06250396967,10|2,1:0|1:3,0:0:0:0:
368,384,94663,6,0,B|400:369|400:369|424:296,1,69.3750026464463,4|0,1:2|0:2,0:2:0:0:
468,284,94801,2,0,B|458:228|458:228|446:215|446:215|428:115,1,138.750005292893,4|2,1:2|0:0,0:2:0:0:
248,59,95076,5,0,1:0:0:0:
261,84,95145,1,0,1:0:0:0:
286,100,95214,2,8,B|334:85|311:53|370:37,1,104.06250396967,10|2,1:0|1:3,0:0:0:0:
512,219,95764,6,0,P|434:183|347:174,1,173.899997346497,4|2,1:2|0:0,0:0:0:0:
215,288,96177,5,0,1:0:0:0:
203,278,96246,1,0,1:0:0:0:
191,268,96315,2,8,L|299:257,1,104.06250396967,10|2,1:0|1:3,0:0:0:0:
512,384,96865,6,0,B|460:393|423:352|423:352|430:332|428:313,1,138.750005292893,4|0,1:2|0:0,0:0:0:0:
352,320,97072,2,0,B|312:286|318:231|318:231|339:224|352:210,1,138.750005292893,4|0,1:2|0:0,0:0:0:0:
392,144,97278,1,0,1:0:0:0:
328,0,97416,6,0,P|303:24|294:58,3,69.3750026464463,10|0|0|0,1:0|0:0|0:0|0:0,0:0:0:0:
322,130,97691,2,0,P|373:160|417:138,1,69.3750026464463,2|2,0:1|0:2,0:0:0:0:
401,155,97829,2,0,P|428:134|439:101,1,69.3750026464463,2|2,0:2|0:2,0:0:0:0:
512,144,97966,6,0,P|415:190|430:268,1,173.4375,4|2,1:2|0:0,0:0:0:0:
336,349,98379,5,0,1:0:0:0:
327,363,98448,1,0,1:0:0:0:
316,370,98517,2,8,P|273:347|272:288,1,104.06250396967,10|2,1:0|1:3,0:0:0:0:
428,145,99067,6,0,B|460:160|460:160|484:233,1,69.3750026464463,4|0,1:2|0:2,0:2:0:0:
415,243,99205,2,0,B|359:233|359:233|346:221|346:221|246:203,1,138.750005292893,4|2,1:2|0:0,0:0:0:0:
327,6,99480,5,0,1:0:0:0:
355,10,99549,1,0,1:0:0:0:
378,28,99618,2,8,B|381:79|343:68|348:129,1,104.06250396967,10|2,1:0|1:3,0:0:0:0:
419,293,100168,6,0,P|483:244|478:141,1,173.899997346497,4|2,1:2|0:0,0:0:0:0:
301,184,100581,5,0,1:0:0:0:
291,196,100650,1,0,1:0:0:0:
282,209,100718,2,8,L|389:191,1,104.06250396967,10|2,1:0|1:3,0:0:0:0:
446,11,101269,6,0,B|396:59|396:59|423:132,1,138.750005292893,4|0,1:2|0:0,0:0:0:0:
486,156,101475,2,0,B|510:221|510:221|460:269,1,138.750005292893,4|0,1:2|0:0,0:0:0:0:
396,311,101682,1,0,1:0:0:0:
299,235,101819,6,0,P|253:206|215:215,3,69.3750026464463,4|0|0|0,1:3|0:0|0:0|0:0,0:0:0:0:
214,236,102095,2,0,L|225:317,1,69.3750026464463,8|2,1:3|0:2,0:0:0:0:
146,317,102232,2,0,L|137:248,1,69.3750026464463,2|2,0:2|0:2,0:0:0:0:
137,248,102783,2,0,L|145:316,1,69.3750026464463,2|0,1:0|2:0,2:0:0:0:
223,305,102920,6,0,L|214:236,1,69.3750026464463,8|0,1:0|0:0,0:0:0:0:
253,69,103058,6,0,B|198:90|170:174|170:174|128:100|34:102,1,277.500010585785,10|2,1:0|1:3,0:0:0:0:
0,147,103471,6,0,B|8:165|8:165|91:186,1,69.3750026464463,4|0,1:2|0:0,0:0:0:0:
149,4,103608,2,0,B|138:19|138:19|173:184,1,138.750005292893,4|2,1:2|0:0,0:0:0:0:
223,305,103884,5,0,1:0:0:0:
220,333,103952,1,0,1:0:0:0:
200,353,104021,2,8,B|144:350|168:314|104:309,1,104.06250396967,10|2,1:0|1:3,0:0:0:0:
0,147,104572,6,0,P|34:137|100:254,1,173.899997346497,4|2,1:2|0:0,0:0:0:0:
0,367,104985,5,0,1:0:0:0:
12,375,105053,1,0,1:0:0:0:
25,384,105122,2,8,L|12:275,1,104.06250396967,10|0,1:0|1:0,0:0:0:0:
0,147,105673,6,0,B|59:118|59:118|128:182,1,138.750005292893,4|0,1:2|0:0,0:0:0:0:
161,232,105879,2,0,B|101:260|101:260|32:196,1,138.750005292893,4|0,1:2|0:0,0:0:0:0:
191,159,106085,1,0,1:0:0:0:
102,10,106223,6,0,P|54:8|22:-5,3,69.3750026464463,10|0|0|0,1:0|0:0|0:0|0:0,0:0:0:0:
0,33,106498,2,0,P|-1:89|20:109,1,69.3750026464463,2|2,0:1|0:2,0:0:0:0:
39,133,106636,2,0,P|40:189|19:209,1,69.3750026464463,2|2,0:2|0:2,0:0:0:0:
0,226,106774,6,0,L|208:209,1,173.4375,4|2,1:2|0:0,0:0:0:0:
214,58,107186,5,0,1:0:0:0:
206,44,107255,1,0,1:0:0:0:
195,36,107324,2,8,P|152:58|152:118,1,104.06250396967,10|0,1:0|1:0,0:0:0:0:
172,211,107874,6,0,B|211:199|211:199|187:185,1,69.3750026464463,4|0,1:2|0:0,0:0:0:0:
39,133,108012,2,0,B|46:190|46:190|57:204|57:204|70:304,1,138.750005292893,4|2,1:2|0:0,0:0:0:0:
238,384,108287,5,0,1:0:0:0:
235,356,108356,1,0,1:0:0:0:
215,336,108425,2,8,B|160:339|184:375|119:380,1,104.06250396967,10|2,1:0|1:3,0:0:0:0:
27,209,108975,6,0,P|29:173|161:151,1,173.899997346497,4|2,1:2|0:0,0:0:0:0:
122,292,109388,5,0,1:0:0:0:
108,299,109457,1,0,1:0:0:0:
95,307,109526,2,8,L|107:195,1,104.06250396967,10|2,1:0|0:2,0:0:0:0:
213,103,110076,6,0,P|237:80|287:72,1,46.25,8|8,0:0|0:0,0:0:0:0:
303,81,110214,2,0,P|280:77|258:81,1,46.25,8|8,0:0|0:0,0:0:0:0:
354,142,110352,6,0,P|379:162|395:211,1,46.25,8|8,0:0|0:0,0:0:0:0:
386,229,110489,2,0,P|387:206|381:184,1,46.25,8|8,0:0|0:0,0:0:0:0:
322,275,110627,1,4,0:0:0:0:
322,275,110902,6,0,L|307:201,1,46.25
308,215,111177,6,0,P|248:208|226:320,1,138.750005292893,6|0,1:0|0:0,0:0:0:0:
411,364,111452,2,0,P|389:301|324:288,1,138.750005292893,6|0,1:0|0:0,0:0:0:0:
156,384,111728,6,0,L|150:338,1,46.25,2|0,0:2|0:2,0:0:0:0:
128,320,111865,2,0,L|82:325,1,46.25,2|0,0:2|0:2,0:0:0:0:
56,312,112003,2,0,L|51:267,1,46.25,2|0,0:2|0:2,0:2:0:0:
144,376,112140,6,0,L|138:330,1,46.25,2|0,0:2|0:2,0:0:0:0:
116,312,112278,2,0,L|70:317,1,46.25,2|0,0:2|0:2,0:0:0:0:
44,304,112416,2,0,L|39:259,1,46.25,2|0,0:2|0:2,0:2:0:0:
72,183,112553,6,0,P|160:171|188:299,1,208.125007939339,6|0,1:0|0:0,0:0:0:0:
198,270,112829,2,0,P|170:254|162:206,1,69.3750026464463,2|0,0:3|0:0,0:0:0:0:
254,98,112966,6,0,P|329:145|268:261,1,208.125007939339,6|0,1:0|0:0,0:0:0:0:
295,244,113241,2,0,P|283:213|308:171,1,69.3750026464463,2|0,0:3|0:0,0:0:0:0:
442,150,113379,6,0,P|415:262|409:338,1,138.750005292893,6|0,1:0|0:0,0:0:0:0:
158,220,113654,2,0,P|185:108|191:32,1,138.750005292893,6|0,1:0|0:0,0:0:0:0:
356,0,113929,6,0,L|362:46,1,46.25,2|0,0:2|0:2,0:0:0:0:
384,64,114067,2,0,L|430:59,1,46.25,2|0,0:2|0:2,0:0:0:0:
456,72,114205,2,0,L|461:117,1,46.25,2|0,0:2|0:2,0:2:0:0:
368,8,114342,6,0,L|374:54,1,46.25,2|0,0:2|0:2,0:0:0:0:
396,72,114480,2,0,L|442:67,1,46.25,2|0,0:2|0:2,0:0:0:0:
468,80,114618,2,0,L|473:125,1,46.25,2|0,0:2|0:2,0:2:0:0:
440,200,114755,6,0,B|349:216|367:141|306:119|241:146,1,208.125007939339,6|0,1:0|0:0,0:0:0:0:
250,148,115030,2,0,L|261:226,1,69.3750026464463,2|0,0:3|0:0,0:0:0:0:
135,312,115168,6,0,B|226:328|207:253|268:231|333:258,1,208.125007939339,6|0,1:0|0:0,0:0:0:0:
325,260,115443,2,0,L|314:338,1,69.3750026464463,2|0,0:3|0:0,0:0:0:0:
375,383,115581,6,0,P|449:370|531:361,1,138.750005292893,6|0,1:0|0:0,0:0:0:0:
485,142,115856,2,0,P|413:155|347:161,1,138.750005292893,6|0,1:0|0:0,0:0:0:0:
156,0,116131,6,0,L|150:46,1,46.25,2|0,0:2|0:2,0:0:0:0:
128,64,116269,2,0,L|82:59,1,46.25,2|0,0:2|0:2,0:0:0:0:
56,72,116407,2,0,L|51:117,1,46.25,2|0,0:2|0:2,0:2:0:0:
144,8,116544,6,0,L|138:54,1,46.25,2|0,0:2|0:2,0:0:0:0:
116,72,116682,2,0,L|70:67,1,46.25,2|0,0:2|0:2,0:0:0:0:
44,80,116819,2,0,L|39:125,1,46.25,2|0,0:2|0:2,0:2:0:0:
0,241,116957,6,0,B|50:237|81:295|81:295|96:228|177:222,1,208.125007939339,6|0,1:0|0:0,0:0:0:0:
154,220,117232,2,0,P|159:214|155:232,1,69.3750026464463,2|0,0:3|0:0,0:0:0:0:
233,96,117370,6,0,B|283:101|303:163|303:163|329:100|410:108,1,208.125007939339,6|0,1:0|0:0,0:0:0:0:
388,101,117645,2,0,P|411:103|386:112,1,69.3750026464463,2|0,0:3|0:0,0:0:0:0:
335,0,117783,6,0,P|308:112|302:188,1,138.750005292893,6|0,1:0|0:0,0:0:0:0:
70,186,118058,2,0,P|88:252|99:321,1,138.750005292893,6|0,1:0|0:0,0:0:0:0:
356,384,118333,6,0,L|362:338,1,46.25,2|0,0:2|0:2,0:0:0:0:
384,320,118471,2,0,L|430:325,1,46.25,2|0,0:2|0:2,0:0:0:0:
456,312,118608,2,0,L|461:267,1,46.25,2|0,0:2|0:2,0:2:0:0:
368,376,118746,6,0,L|374:330,1,46.25,2|0,0:2|0:2,0:0:0:0:
396,312,118884,2,0,L|442:317,1,46.25,2|0,0:2|0:2,0:0:0:0:
468,304,119021,2,0,L|473:259,1,46.25,2|0,0:2|0:2,0:2:0:0:
484,184,119159,6,2,B|428:179|462:150|367:141|396:176|332:170|367:141|271:133|300:167|236:162,1,242.812509262562,6|0,1:3|0:0,2:0:0:0:
176,144,119709,6,0,L|161:70,1,46.25
112,36,119985,6,0,P|53:56|38:132,1,138.75,4|0,1:2|0:0,0:0:0:0:
68,156,120260,2,0,P|79:218|49:250,1,92.5,2|0,1:3|0:0,0:0:0:0:
27,265,120466,1,0,0:0:0:0:
27,265,120535,1,4,1:2:0:0:
73,345,120673,1,2,1:2:0:0:
146,289,120810,2,0,P|185:283|241:304,1,92.5,2|0,0:3|1:0,0:0:0:0:
315,380,121085,6,0,L|468:365,1,138.75,6|0,1:2|2:0,0:0:0:0:
497,350,121361,2,0,P|514:305|490:259,1,92.5,2|2,1:3|1:2,0:0:0:0:
458,240,121567,1,0,0:0:0:0:
458,240,121636,1,4,1:2:0:0:
512,164,121774,1,0,1:0:0:0:
447,97,121911,2,0,L|339:106,1,92.5,2|0,1:3|0:0,0:0:0:0:
135,32,122186,6,0,P|227:25|256:96,1,138.75,4|0,1:2|0:0,0:0:0:0:
258,101,122462,2,0,L|244:195,1,92.5,2|0,1:3|0:0,0:0:0:0:
207,220,122668,1,0,0:0:0:0:
207,220,122737,1,4,1:2:0:0:
282,272,122874,1,2,1:2:0:0:
208,328,123012,2,0,P|148:337|112:363,1,92.5,2|0,0:3|1:0,0:0:0:0:
11,267,123287,6,0,L|-3:120,1,138.75,4|0,1:2|2:0,0:0:0:0:
17,85,123563,2,0,P|62:76|107:108,1,92.5,2|2,1:3|1:2,0:0:0:0:
125,137,123769,1,0,0:0:0:0:
125,137,123838,1,4,1:2:0:0:
203,88,123975,1,0,1:0:0:0:
265,156,124113,2,0,P|322:157|357:120,1,92.5,2|0,1:3|0:0,0:0:0:0:
310,0,124388,6,0,L|290:108,1,92.5,4|2,1:2|1:3,0:0:0:0:
153,206,124663,2,0,P|96:207|61:170,1,92.5,4|2,1:2|1:3,0:0:0:0:
108,46,124939,6,0,L|128:154,1,92.5,4|2,1:2|1:3,0:0:0:0:
314,274,125214,2,0,P|371:275|406:238,1,92.5,4|2,1:2|1:3,0:0:0:0:
292,90,125489,6,0,L|276:181,1,92.5,4|2,1:2|1:2,0:0:0:0:
82,348,125764,2,0,P|25:349|-10:312,1,92.5,4|2,1:2|1:2,0:0:0:0:
124,136,126040,6,0,L|141:227,1,92.5,0|2,1:0|1:2,0:0:0:0:
314,368,126315,1,2,1:2:0:0:
337,339,126384,1,2,1:2:0:0:
370,323,126452,1,2,1:2:0:0:
406,319,126521,1,2,1:2:0:0:
443,332,126590,2,0,L|459:384,3,46.25,0|0|0|0,1:0|1:0|1:0|1:0,0:0:0:0:
502,283,126865,2,0,L|518:231,3,37,0|0|0|0,1:0|1:0|1:0|1:0,0:0:0:0:
447,206,127140,2,0,L|438:179,3,27.7499991531372,0|0|0|0,3:0|3:0|3:0|3:0,3:0:0:0:
486,120,127416,2,0,L|494:93,3,18.5,0|0|0|0,3:0|3:0|3:0|3:0,3:0:0:0:
448,39,127691,6,0,L|447:28,22,9.25,2|0|0|0|0|0|0|0|0|0|0|0|0|0|0|0|0|0|0|0|0|0|0,1:2|0:0|0:0|0:0|0:0|0:0|0:0|0:0|0:0|0:0|0:0|0:0|0:0|0:0|0:0|0:0|0:0|0:0|0:0|0:0|0:0|0:0|0:0,0:0:0:0:
381,80,128517,2,0,P|349:74|320:71,1,57.8125,6|0,3:2|0:0,0:0:0:0:
32,8,128792,6,0,B|31:15|31:15|11:62|11:62|0:197,1,173.4375,6|0,1:3|0:0,1:0:0:0:
104,16,129067,2,0,B|102:31|102:31|82:80|82:80|71:205,1,173.4375,6|0,1:3|0:0,1:0:0:0:
175,20,129342,2,0,B|172:47|172:47|152:98|152:98|142:209,1,173.4375,6|0,1:3|0:0,1:0:0:0:
247,26,129618,2,0,B|243:66|243:66|223:112|223:112|214:215,1,173.4375,6|0,1:3|0:0,1:0:0:0:
319,33,129893,2,0,B|314:84|314:84|293:133|293:133|286:222,1,173.4375,6|0,1:3|0:0,1:0:0:0:
390,39,130168,2,0,B|384:102|384:102|364:149|364:149|357:228,1,173.4375,6|0,1:3|0:0,1:0:0:0:
462,45,130443,2,0,L|455:120,1,57.8125,6|0,1:3|0:0,0:0:0:0:
436,155,130581,2,0,L|429:230,1,57.8125,6|0,1:3|0:0,0:0:0:0:
477,283,130718,5,2,1:2:0:0:
0,336,130994,6,0,L|9:240,1,57.8125,6|0,1:3|0:0,0:0:0:0:
39,177,131131,2,0,L|33:232,1,57.8125,6|0,1:3|0:0,0:0:0:0:
74,345,131269,2,0,B|78:289|78:289|107:255|107:255|114:175,1,173.4375,6|0,1:3|0:0,0:0:0:0:
189,185,131544,6,0,L|183:244,1,57.8125,6|0,1:3|0:0,0:0:0:0:
149,349,131682,2,0,B|153:314|153:314|179:280|179:280|189:179,1,173.4375,6|0,1:3|0:0,0:0:0:0:
221,342,131957,5,0,1:0:0:0:
221,350,132026,1,0,1:0:0:0:
220,358,132095,2,0,B|220:346|220:346|248:307|248:307|260:188,1,173.4375,6|0,1:3|0:0,1:0:0:0:
296,365,132370,2,0,B|317:338|317:338|334:187,1,173.4375,6|0,1:3|0:0,0:0:0:0:
388,376,132645,2,0,L|395:304,1,57.8125,6|0,1:3|0:0,0:0:0:0:
399,272,132783,2,0,L|406:200,1,57.8125,6|0,1:3|0:0,0:0:0:0:
477,283,132920,5,2,1:2:0:0:
336,16,133196,6,0,B|261:56|261:56|290:152,1,173.4375,6|0,1:3|0:0,0:0:0:0:
219,27,133471,2,0,B|203:110|203:110|296:148,1,173.4375,6|0,1:3|0:0,0:0:0:0:
154,124,133746,2,0,B|209:188|209:188|297:140,1,173.4375,6|0,1:3|0:0,0:0:0:0:
190,236,134021,2,0,B|274:233|274:233|292:134,1,173.4375,6|0,1:3|0:0,0:0:0:0:
298,279,134296,2,0,B|349:211|349:211|283:135,1,173.4375,6|0,1:3|0:0,0:0:0:0:
400,221,134572,2,0,B|379:138|379:138|279:141,1,173.4375,6|0,1:3|0:0,0:0:0:0:
420,106,134847,2,0,L|356:76,1,57.8125,6|0,1:3|0:0,0:0:0:0:
325,93,134985,2,0,L|289:138,1,57.8125,6|0,1:3|0:0,0:0:0:0:
294,188,135122,5,2,1:2:0:0:
24,368,135397,6,0,L|103:356,1,57.8125,6|0,1:3|0:0,0:0:0:0:
197,345,135535,2,0,L|147:281,1,57.8125,6|0,1:3|0:0,0:0:0:0:
90,208,135673,2,0,L|15:391,1,173.4375,6|0,1:3|0:0,0:0:0:0:
81,359,135948,2,0,L|138:350,1,57.8125,6|0,1:3|0:0,0:0:0:0:
197,345,136085,2,0,L|89:207,1,173.4375,6|0,1:3|0:0,0:0:0:0:
156,116,136361,5,0,1:0:0:0:
171,118,136429,1,0,1:0:0:0:
187,121,136498,2,0,L|265:134,1,77.0833333333333,6|0,1:3|0:0,0:0:0:0:
345,149,136682,6,0,L|331:227,1,77.0833333333333,6|0,1:3|0:0,0:0:0:0:
317,306,136865,6,0,L|238:292,1,77.0833333333333,6|0,1:3|0:0,0:0:0:0:
160,273,137049,6,0,L|189:107,1,154.166666666667,6|0,1:3|0:0,0:0:0:0:
252,212,137324,5,2,1:2:0:0:
316,99,137462,2,0,P|318:127|310:155,10,57.8125,2|0|0|0|0|0|0|0|0|0|0,0:0|0:0|0:0|0:0|0:0|0:0|0:0|0:0|0:0|0:0|0:0,1:0:0:0:
252,212,137874,6,0,P|220:108|257:51,1,173.4375,4|0,1:0|0:0,0:0:0:0:
320,20,138150,2,0,P|392:22|448:107,1,173.4375,6|0,1:3|0:3,0:3:0:0:
455,176,138425,2,0,P|416:237|314:243,1,173.4375,6|0,1:3|0:0,0:0:0:0:
252,212,138700,2,0,P|165:147|99:162,1,173.4375,6|0,1:3|0:0,0:0:0:0:
47,209,138975,2,0,P|24:277|85:360,1,173.4375,6|0,1:3|0:0,0:0:0:0:
149,384,139251,2,0,P|184:379|214:369,1,57.8125,6|0,1:3|0:3,0:3:0:0:
259,315,139388,2,0,P|286:322|315:326,1,57.8125,6|0,1:3|0:3,0:3:0:0:
378,384,139526,5,2,1:2:0:0:
504,104,139801,6,0,P|467:138|455:169,1,57.8125,6|0,1:3|0:0,0:0:0:0:
445,214,139939,2,0,P|444:243|454:271,1,57.8125,6|0,1:3|0:0,0:0:0:0:
473,31,140076,2,0,P|409:88|371:166,1,173.4375,6|0,1:3|0:0,0:0:0:0:
374,253,140352,2,0,P|379:281|388:309,1,57.8125,6|0,1:3|0:0,0:0:0:0:
314,103,140489,2,0,P|294:182|306:296,1,173.4375,6|0,1:3|0:0,0:0:0:0:
255,375,140764,1,0,1:0:0:0:
248,363,140833,1,0,1:0:0:0:
238,351,140902,2,0,P|179:294|74:247,1,173.4375,6|0,1:3|0:0,0:0:0:0:
59,157,141177,2,0,P|137:134|231:66,1,173.4375,6|0,1:3|0:0,0:0:0:0:
391,176,141452,2,0,P|356:209|326:257,1,57.8125,6|0,1:3|0:0,0:0:0:0:
299,273,141590,2,0,P|277:253|252:238,1,57.8125,6|0,1:3|0:0,0:0:0:0:
205,180,141728,5,2,1:2:0:0:
340,384,142003,6,0,L|540:360,1,173.4375,6|0,1:3|0:0,0:0:0:0:
328,312,142278,2,0,L|528:288,1,173.4375,6|0,1:3|0:0,0:0:0:0:
316,240,142553,2,0,L|516:216,1,173.4375,6|0,1:3|0:0,0:0:0:0:
304,168,142829,2,0,L|504:144,1,173.4375,6|0,1:3|0:0,0:0:0:0:
292,96,143104,2,0,L|492:72,1,173.4375,6|0,1:3|0:0,0:0:0:0:
280,24,143379,2,0,L|480:0,1,173.4375,6|0,1:3|0:0,0:0:0:0:
232,152,143654,2,0,L|164:176,1,57.8125,6|0,1:3|0:3,0:3:0:0:
120,224,143792,2,0,L|52:200,1,57.8125,6|0,1:3|0:3,0:3:0:0:
16,144,143929,5,2,1:2:0:0:
211,383,144205,6,0,P|193:361|172:342,1,57.8125,6|0,1:3|0:0,0:0:0:0:
304,315,144342,2,0,P|323:294|348:279,1,57.8125,6|0,1:3|0:0,0:0:0:0:
164,224,144480,2,0,P|85:188|0:192,1,173.4375,6|0,1:3|0:0,0:0:0:0:
184,29,144755,2,0,P|210:93|210:105,1,57.8125,6|0,1:3|0:0,0:0:0:0:
232,152,144893,2,0,P|310:116|396:120,1,173.4375,6|0,1:3|3:0,3:0:0:0:
300,8,145168,1,0,1:0:0:0:
300,8,145237,1,0,1:0:0:0:
300,8,145306,6,0,P|277:191|252:392,1,374.624988567353,0|0,1:0|0:0,0:0:0:0:
176,365,145994,2,0,P|168:343|176:295,10,57.8125,2|0|0|0|0|0|0|0|0|0|0,0:0|0:0|0:0|0:0|0:0|0:0|0:0|0:0|0:0|0:0|0:0,1:0:0:0:
184,384,146407,6,0,P|124:352|0:328,1,173.4375,6|0,1:2|0:0,0:0:0:0:
8,308,146682,1,2,0:0:0:0:
140,196,146819,5,0,1:0:0:0:
150,208,146888,1,0,0:0:0:0:
154,221,146957,2,0,P|118:253|62:233,1,104.06250396967,10|2,1:0|1:3,0:0:0:0:
0,108,147507,6,0,B|15:76|15:76|88:52,1,69.3750026464463,4|0,1:2|0:0,0:0:0:0:
100,8,147645,2,0,B|156:18|156:18|169:30|169:30|269:48,1,138.750005292893,4|2,1:2|0:0,0:0:0:0:
398,168,147920,5,0,1:0:0:0:
394,140,147989,1,0,0:0:0:0:
376,117,148058,2,0,B|325:114|336:152|275:147,1,104.06250396967,10|2,1:0|1:0,0:0:0:0:
61,242,148608,6,0,P|146:243|229:268,1,173.4375,4|0,1:2|0:0,0:0:0:0:
254,284,148884,1,2,0:0:0:0:
412,355,149021,5,0,1:0:0:0:
402,367,149090,1,0,0:0:0:0:
392,379,149159,2,0,L|381:271,1,104.06250396967,10|0,1:0|1:0,0:0:0:0:
407,89,149709,6,0,B|438:91|465:56|465:56|473:98|517:113,1,138.750005292893,4|0,1:2|0:0,0:0:0:0:
495,186,149916,2,0,B|463:183|436:218|436:218|428:176|384:161,1,138.750005292893,4|0,1:2|0:0,0:0:0:0:
330,212,150122,1,0,1:0:0:0:
197,99,150260,6,0,P|209:67|204:33,3,69.3750026464463,10|0|0|0,1:0|0:0|0:0|0:0,0:0:0:0:
124,25,150535,2,0,P|111:57|116:91,1,69.3750026464463,2|2,0:1|0:2,0:0:0:0:
156,121,150673,2,0,P|160:155|149:187,1,69.3750026464463,2|2,0:2|0:2,0:0:0:0:
110,219,150810,6,0,P|13:265|28:343,1,173.4375,6|0,1:2|0:0,0:0:0:0:
27,337,151085,1,2,0:0:0:0:
200,353,151223,5,0,1:0:0:0:
208,368,151292,1,0,0:0:0:0:
216,382,151361,2,0,P|271:367|327:369,1,104.06250396967,10|0,1:0|1:0,0:0:0:0:
460,332,151911,6,0,B|485:304|485:304|471:254,1,69.3750026464463,4|0,1:2|0:0,0:0:0:0:
425,221,152049,2,0,B|368:228|368:228|354:239|354:239|254:252,1,138.750005292893,4|2,1:2|0:0,0:0:0:0:
99,165,152324,5,0,1:0:0:0:
103,137,152393,1,0,0:0:0:0:
121,114,152462,2,0,B|172:111|161:149|222:144,1,104.06250396967,10|0,1:0|1:0,0:0:0:0:
444,76,153012,6,0,P|432:49|307:52,1,173.4375,4|0,1:2|0:0,0:0:0:0:
299,68,153287,1,2,0:0:0:0:
295,242,153425,5,0,1:0:0:0:
307,251,153494,1,0,0:0:0:0:
320,260,153563,2,0,L|307:152,1,104.06250396967,10|0,1:0|1:0,0:0:0:0:
204,46,154113,6,0,B|162:38|162:38|101:131,1,138.750005292893,4|0,1:2|0:0,0:0:0:0:
20,197,154319,2,0,B|61:204|61:204|122:111,1,138.750005292893,4|0,1:2|0:0,0:0:0:0:
41,93,154526,1,0,1:0:0:0:
125,255,154663,6,2,P|175:276|211:261,3,69.3750026464463,4|2|2|2,1:3|0:2|0:2|0:2,0:2:0:0:
223,257,154939,2,0,L|230:173,1,69.3750026464463,8|2,1:3|0:2,0:0:0:0:
198,115,155076,2,0,L|205:31,1,69.3750026464463,2|2,0:2|0:2,0:0:0:0:
204,46,155627,2,0,L|198:115,1,69.3750026464463,2|0,1:3|2:0,2:0:0:0:
229,188,155764,6,0,L|223:257,1,69.3750026464463,8|0,1:0|0:0,0:0:0:0:
37,374,155902,6,0,B|93:357|128:276|128:276|164:353|258:360,1,277.500010585785,10|2,1:0|1:3,0:0:0:0:
454,343,156315,6,0,B|446:325|446:325|363:304,1,69.3750026464463,4|0,1:2|0:0,0:0:0:0:
234,357,156452,2,0,B|249:368|249:368|414:333,1,138.750005292893,4|2,1:2|0:0,0:0:0:0:
510,189,156728,5,0,0:0:0:0:
507,161,156796,1,0,0:0:0:0:
487,141,156865,2,0,B|431:144|455:180|391:185,1,104.06250396967,10|2,1:0|1:3,0:0:0:0:
273,64,157416,6,0,P|319:20|369:120,1,173.4375,4|0,1:2|0:0,0:0:0:0:
373,101,157691,1,2,0:0:0:0:
306,261,157829,5,0,1:0:0:0:
318,252,157897,1,0,0:0:0:0:
331,243,157966,2,0,L|225:218,1,104.06250396967,10|0,1:0|1:0,0:0:0:0:
16,172,158517,6,0,B|56:225|56:225|24:314,1,138.750005292893,4|0,1:2|0:0,0:0:0:0:
165,279,158723,2,0,B|129:217|129:217|160:157,1,138.750005292893,4|0,1:2|0:0,0:0:0:0:
234,127,158929,1,0,0:0:0:0:
328,263,159067,6,0,P|376:265|408:278,3,69.3750026464463,10|0|0|0,1:0|0:0|0:0|0:0,0:0:0:0:
430,240,159342,2,0,P|431:184|410:164,1,69.3750026464463,2|2,0:1|0:2,0:0:0:0:
391,140,159480,2,0,P|390:84|411:64,1,69.3750026464463,2|2,0:2|0:2,0:0:0:0:
441,54,159618,6,0,L|233:37,1,173.4375,4|0,1:2|0:0,0:0:0:0:
249,53,159893,1,2,0:0:0:0:
79,20,160030,5,0,0:0:0:0:
91,10,160099,1,0,0:0:0:0:
104,6,160168,2,0,P|136:42|116:98,1,104.06250396967,10|2,1:0|1:2,0:0:0:0:
40,183,160718,6,0,B|16:169|16:169|76:151,1,69.3750026464463,4|0,1:2|0:0,0:0:0:0:
184,165,160856,2,0,B|224:221|224:221|163:318,1,138.750005292893,4|2,1:2|0:0,0:0:0:0:
3,380,161131,5,0,0:0:0:0:
6,352,161200,1,0,0:0:0:0:
26,332,161269,2,0,B|81:335|57:371|122:376,1,104.06250396967,10|2,1:0|1:2,0:0:0:0:
276,286,161819,6,0,P|344:288|408:368,1,173.4375,4|0,1:2|0:0,0:0:0:0:
386,375,162095,1,2,0:0:0:0:
497,242,162232,5,0,0:0:0:0:
504,228,162301,1,0,0:0:0:0:
512,215,162370,2,0,L|400:227,1,104.06250396967,10|2,1:0|0:2,0:0:0:0:
317,147,162920,6,0,P|307:115|322:66,1,46.25,8|8,0:0|0:0,0:0:0:0:
338,55,163058,2,0,P|324:73|318:96,1,46.25,8|8,0:0|0:0,0:0:0:0:
274,9,163196,6,0,P|251:33|201:45,1,46.25,8|8,0:0|0:0,0:0:0:0:
183,35,163333,2,0,P|206:38|229:33,1,46.25,8|8,0:0|0:0,0:0:0:0:
138,100,163471,1,4,0:0:0:0:
138,100,163746,6,0,L|88:91,1,46.25
405,139,164021,5,4,1:2:0:0:
264,16,166636,6,2,B|239:59|168:80|168:80|212:100|264:121|308:103|308:103|367:155|348:264|256:273|194:245|178:165|229:117,1,601.25,2|4,2:0|1:0,2:0:0:0:
333,16,176682,5,0,1:0:0:0:
407,0,176819,5,8,0:0:0:0:
501,92,176957,1,8,0:0:0:0:
508,166,177095,1,4,0:0:0:0:
478,201,177232,6,0,B|307:217|427:359|260:368,1,300.625,4|0,0:2|1:0,0:0:0:0:
34,183,179434,2,0,B|205:167|85:25|252:16,1,300.625,2|0,2:0|1:0,0:0:0:0:
292,344,181636,6,0,P|196:348|152:172,1,300.809997888602,2|0,0:2|1:0,0:0:0:0:
472,96,183838,2,0,P|463:235|326:260,1,300.62498623848,2|2,0:2|0:2,0:0:0:0:
368,56,185489,6,0,L|368:60,14,4.625,2|0|0|0|0|0|0|0|0|0|0|0|0|0|0,0:0|0:0|0:0|0:0|0:0|0:0|0:0|0:0|0:0|0:0|0:0|0:0|0:0|0:0|0:0,0:0:0:0:
300,120,186040,6,2,B|332:140|332:140|284:68|284:68|176:96,1,231.25,4|0,1:2|1:0,2:0:0:0:
78,185,186452,6,0,P|33:182|0:152,1,92.5,2|0,3:0|1:0,0:0:0:0:
22,280,186728,2,0,P|62:283|98:262,1,83.2499974594117,2|0,3:0|1:0,0:0:0:0:
106,372,187003,2,0,P|136:350|148:315,1,74,2|0,3:0|1:0,0:0:0:0:
226,384,187278,2,0,P|235:353|225:322,1,64.7499980239869,2|0,3:0|1:0,0:0:0:0:
316,297,187553,2,0,P|300:274|275:262,1,55.4999983062745,2|0,3:0|1:0,0:0:0:0:
200,252,187829,1,0,1:0:0:0:
312,380,187966,6,0,L|386:365,1,46.25,2|2,3:2|3:2,2:0:0:0:
488,206,188241,6,2,B|455:96|455:96|353:157,1,231.25,2|0,1:2|1:0,2:0:0:0:
357,370,188654,6,0,L|389:274,1,92.5,2|0,3:0|1:0,0:0:0:0:
281,186,188929,2,0,L|312:264,1,83.2499974594117,2|0,3:0|1:0,0:0:0:0:
153,170,189205,2,0,L|212:216,1,74,2|0,3:0|1:0,0:0:0:0:
44,222,189480,2,0,L|108:232,1,64.7499980239869,2|0,3:0|1:0,0:0:0:0:
0,320,189755,2,0,L|52:300,1,55.4999983062745,2|0,3:0|1:0,0:0:0:0:
96,364,190030,1,0,1:0:0:0:
206,261,190168,6,0,L|214:197,1,46.25,2|2,3:2|3:2,2:0:0:0:
0,116,190443,6,2,B|83:101|83:101|122:61|122:61|237:41,1,231.25,2|0,1:2|1:0,2:1:0:0:
424,273,190856,6,2,L|333:253,1,92.5,2|0,3:0|1:0,2:1:0:0:
165,194,191131,2,2,L|227:125,1,92.5,2|0,3:0|1:0,2:1:0:0:
363,9,191407,2,2,L|391:97,1,92.5,2|0,3:0|1:0,2:1:0:0:
273,307,191682,2,2,L|245:219,1,92.5,2|0,3:0|1:0,2:1:0:0:
211,45,191957,2,2,L|300:64,1,92.5,2|0,3:0|1:0,2:1:0:0:
468,123,192232,1,0,1:0:0:0:
302,161,192370,6,0,L|366:169,1,46.25,2|2,3:2|3:2,2:0:0:0:
211,45,192645,6,2,B|122:61|122:61|83:101|83:101|0:116,1,231.25,2|0,1:2|1:0,2:1:0:0:
116,306,193058,6,2,P|151:260|143:214,1,92.5,2|0,3:0|1:0,2:1:0:0:
211,45,193333,2,2,P|232:98|276:114,1,92.5,2|0,3:0|1:0,2:1:0:0:
389,258,193608,2,2,P|332:250|296:279,1,92.5,2|0,3:0|1:0,2:1:0:0:
88,148,193884,2,2,P|144:155|180:126,1,92.5,2|0,3:0|1:0,2:1:0:0:
361,100,194159,2,2,P|325:145|333:191,1,92.5,2|0,3:0|1:0,2:1:0:0:
266,361,194434,1,0,1:0:0:0:
232,188,194572,6,0,L|240:240,1,46.25,2|2,3:2|3:2,2:0:0:0:
376,360,194847,6,2,B|440:384|440:384|508:316|508:316|488:244,1,231.25,4|0,1:2|1:0,2:0:0:0:
451,141,195260,6,0,P|423:149|404:164,1,46.25,2|0,3:0|1:0,0:0:0:0:
265,360,195535,2,0,P|266:340|273:320,1,41.6249987297059,2|0,3:0|1:0,0:0:0:0:
357,95,195810,2,0,P|340:119|336:142,1,37,2|0,3:0|1:0,0:0:0:0:
213,267,196085,2,0,P|222:255|236:245,1,32.3749990119934,2|0,3:0|1:0,0:0:0:0:
262,145,196361,1,2,3:0:0:0:
333,224,196498,1,0,1:0:0:0:
333,224,196636,1,0,1:0:0:0:
188,180,196774,6,0,L|124:188,1,46.25,2|2,3:2|3:2,2:0:0:0:
138,356,197049,6,2,B|74:380|74:380|6:312|6:312|26:240,1,231.25,4|0,1:2|1:0,2:0:0:0:
152,32,197462,6,0,P|164:51|169:73,1,46.25,2|0,3:0|1:0,0:0:0:0:
58,225,197737,2,0,P|41:240|19:249,1,41.6249987297059,2|0,3:0|1:0,0:0:0:0:
248,96,198012,2,0,P|237:116|220:132,1,37,2|0,3:0|1:0,0:0:0:0:
39,145,198287,2,0,P|16:142|-4:131,1,32.3749990119934,2|0,3:0|1:0,0:0:0:0:
236,204,198563,1,2,3:0:0:0:
131,154,198700,1,0,1:0:0:0:
131,154,198838,1,0,1:0:0:0:
153,263,198975,6,0,L|173:327,1,46.25,2|2,3:2|3:2,2:0:0:0:
316,384,199251,6,2,B|332:295|332:295|372:256|372:256|387:173,1,231.25,2|0,1:2|1:0,2:1:0:0:
300,32,199663,6,2,L|288:108,1,46.25,2|0,3:0|1:0,0:1:0:0:
504,117,199939,2,2,L|512:72,1,46.25,2|0,3:0|1:0,0:1:0:0:
276,156,200214,2,2,L|268:201,1,46.25,2|0,3:0|1:0,0:1:0:0:
480,241,200489,2,2,L|488:196,1,46.25,2|0,3:0|1:0,0:1:0:0:
256,277,200764,1,2,3:0:0:0:
387,172,200902,1,0,1:0:0:0:
387,172,201040,1,0,1:0:0:0:
416,341,201177,6,0,L|349:347,1,46.25,2|2,3:2|3:2,2:0:0:0:
171,351,201452,6,0,B|131:382|131:382|124:319|90:304|71:295|71:295|39:335|-12:316,1,242.812509262562,6|2,1:3|3:2,2:0:0:0:
11,243,202003,2,0,L|19:215,3,23.125,0|0|0|0,3:0|3:0|3:0|3:0,0:0:0:0:
59,179,202278,6,0,L|51:143,1,34.6875013232232,4|0,3:1|3:0,0:0:0:0:
31,111,202416,2,0,L|39:75,1,34.6875013232232,0|0,3:0|3:0,0:0:0:0:
93,21,202553,2,0,P|138:31|148:41,1,57.8125,0|0,3:0|3:0,0:0:0:0:
184,104,202691,2,0,P|203:115|245:109,1,57.8125,0|0,3:0|3:0,0:0:0:0:
295,59,202829,5,2,3:2:0:0:
292,47,202897,1,2,3:2:0:0:
289,35,202966,1,2,3:2:0:0:
286,23,203035,1,2,3:2:0:0:
283,11,203104,1,0,1:0:0:0:
512,92,203379,6,0,L|502:137,1,46.25
476,212,203654,6,0,P|408:192|340:176,1,138.750005292893,6|0,1:0|0:0,0:0:0:0:
160,336,203929,2,0,P|228:316|296:300,1,138.750005292893,6|0,1:0|0:0,0:0:0:0:
136,148,204205,5,2,0:2:0:0:
122,153,204274,1,0,0:0:0:0:
108,150,204342,2,0,L|60:140,1,46.25,2|0,0:2|0:0,0:0:0:0:
45,107,204480,2,0,L|55:59,1,46.25,2|0,0:2|0:0,0:0:0:0:
77,32,204618,1,2,0:2:0:0:
91,27,204687,1,0,0:0:0:0:
105,30,204755,2,0,L|153:40,1,46.25,2|0,0:2|0:0,0:0:0:0:
168,73,204893,2,0,L|158:121,1,46.25,2|0,0:2|0:0,0:0:0:0:
256,232,205030,6,0,P|290:150|328:232,1,208.125007939339,6|0,1:0|0:0,0:0:0:0:
335,231,205306,2,0,P|341:257|388:274,1,69.3750026464463,2|0,0:3|2:0,0:0:0:0:
504,188,205443,6,0,P|444:122|436:212,1,208.125007939339,6|0,1:0|0:0,0:0:0:0:
427,213,205719,2,0,P|429:239|391:271,1,69.3750026464463,2|0,0:3|2:0,0:0:0:0:
354,360,205856,6,0,P|426:361|482:316,1,138.750005292893,6|0,1:0|0:0,0:0:0:0:
291,150,206131,2,0,P|248:208|252:280,1,138.750005292893,6|0,1:0|0:0,0:0:0:0:
136,372,206407,5,2,0:2:0:0:
122,377,206476,1,0,0:0:0:0:
108,374,206544,2,0,L|60:364,1,46.25,2|0,0:2|0:0,0:0:0:0:
45,331,206682,2,0,L|55:283,1,46.25,2|0,0:2|0:0,0:0:0:0:
77,256,206820,1,2,0:2:0:0:
91,251,206889,1,0,0:0:0:0:
105,254,206957,2,0,L|153:264,1,46.25,2|0,0:2|0:0,0:0:0:0:
168,297,207095,2,0,L|158:345,1,46.25,2|0,0:2|0:0,0:0:0:0:
300,376,207232,6,0,P|388:372|394:241,1,208.125007939339,6|0,1:0|0:0,0:0:0:0:
410,268,207508,2,0,L|324:248,1,69.3750026464463,2|0,0:3|2:0,0:0:0:0:
212,169,207645,6,0,P|215:80|346:74,1,208.125007939339,6|0,1:0|0:0,0:0:0:0:
320,60,207921,2,0,L|340:146,1,69.3750026464463,2|0,0:3|2:0,0:0:0:0:
457,200,208058,6,0,P|463:130|475:62,1,138.750005292893,6|0,1:0|0:0,0:0:0:0:
231,32,208333,2,0,P|224:101|212:170,1,138.750005292893,6|0,1:0|0:0,0:0:0:0:
376,232,208608,5,2,0:2:0:0:
390,227,208677,1,0,0:0:0:0:
404,230,208745,2,0,L|452:240,1,46.25,2|0,0:2|0:0,0:0:0:0:
467,273,208883,2,0,L|457:321,1,46.25,2|0,0:2|0:0,0:0:0:0:
435,348,209021,1,2,0:2:0:0:
421,353,209090,1,0,0:0:0:0:
407,350,209158,2,0,L|359:340,1,46.25,2|0,0:2|0:0,0:0:0:0:
344,307,209296,2,0,L|354:259,1,46.25,2|0,0:2|0:0,0:0:0:0:
225,186,209434,6,0,B|175:190|144:132|144:132|129:199|48:205,1,208.125007939339,6|0,1:0|0:0,0:0:0:0:
71,207,209709,2,0,P|66:213|70:195,1,69.3750026464463,2|0,0:3|2:0,0:0:0:0:
0,335,209847,6,0,B|50:331|81:389|81:389|96:322|177:316,1,208.125007939339,6|0,1:0|0:0,0:0:0:0:
154,314,210122,2,0,P|159:308|155:326,1,69.3750026464463,2|0,2:3|0:0,0:0:0:0:
324,384,210260,6,0,P|330:314|342:246,1,138.750005292893,6|0,1:0|0:0,0:0:0:0:
152,228,210535,2,0,P|146:158|134:90,1,138.750005292893,6|0,1:0|0:0,0:0:0:0:
376,32,210810,5,2,0:2:0:0:
390,27,210879,1,0,0:0:0:0:
404,30,210947,2,0,L|452:40,1,46.25,2|0,0:2|0:0,0:0:0:0:
467,73,211085,2,0,L|457:121,1,46.25,2|0,0:2|0:0,0:0:0:0:
435,148,211223,1,2,0:2:0:0:
421,153,211292,1,0,0:0:0:0:
407,150,211360,2,0,L|359:140,1,46.25,2|0,0:2|0:0,0:0:0:0:
344,107,211498,2,0,L|354:59,1,46.25,2|0,0:2|0:0,0:0:0:0:
292,0,211636,6,0,B|236:9|273:35|179:53|205:15|141:27|179:53|84:69|110:32|46:43,1,242.812509262562,6|0,1:3|0:0,0:0:0:0:
0,92,212186,6,0,L|10:137,1,46.25
80,192,212462,6,0,P|20:242|36:317,1,138.75,4|0,0:2|2:0,0:0:0:0:
60,328,212737,2,0,P|103:318|166:315,1,92.5,2|0,0:3|0:0,0:0:0:0:
188,349,212943,1,0,0:0:0:0:
188,349,213012,1,4,0:2:0:0:
268,302,213150,1,2,0:2:0:0:
338,360,213287,2,0,L|449:350,1,92.5,2|0,0:3|0:0,0:0:0:0:
501,259,213563,6,0,P|456:193|387:194,1,138.75,6|0,0:2|2:0,0:0:0:0:
367,218,213838,2,0,P|309:207|294:140,1,92.5,2|0,0:3|0:0,0:0:0:0:
294,139,214044,1,0,0:0:0:0:
294,139,214113,1,4,0:2:0:0:
331,54,214251,1,0,0:0:0:0:
253,5,214388,1,2,0:3:0:0:
2,181,214526,5,0,0:0:0:0:
2,181,214595,1,0,0:0:0:0:
2,181,214663,2,0,P|108:165|161:204,1,138.75,4|0,0:2|2:0,0:0:0:0:
168,209,214939,2,0,P|183:281|171:315,1,92.5,2|0,0:3|0:0,0:0:0:0:
148,332,215145,1,0,0:0:0:0:
148,332,215214,1,4,0:2:0:0:
63,370,215352,1,2,0:2:0:0:
6,297,215489,2,0,P|60:256|104:258,1,92.5,2|0,0:3|0:0,0:0:0:0:
233,358,215764,6,0,L|401:374,1,138.75,6|0,0:2|2:0,0:0:0:0:
410,346,216040,2,0,P|415:295|447:245,1,92.5,2|0,0:3|0:0,0:0:0:0:
483,256,216246,1,0,0:0:0:0:
483,256,216315,1,4,0:2:0:0:
438,175,216452,1,0,0:0:0:0:
507,113,216590,1,2,0:3:0:0:
364,18,216728,5,0,0:0:0:0:
364,18,216796,1,0,0:0:0:0:
364,18,216865,2,0,L|268:30,1,92.5,4|2,0:2|0:3,0:0:0:0:
100,71,217140,2,0,L|196:83,1,92.5,4|2,1:2|1:3,0:0:0:0:
424,143,217416,6,0,L|328:155,1,92.5,4|2,1:2|1:3,0:0:0:0:
48,199,217691,2,0,L|144:211,1,92.5,4|2,1:2|1:3,0:0:0:0:
468,255,217966,6,0,L|372:267,1,92.5,4|2,1:2|1:2,0:0:0:0:
0,319,218241,2,0,L|96:331,1,92.5,4|2,1:2|1:2,0:0:0:0:
364,358,218517,6,0,L|376:262,1,92.5,0|2,1:0|1:2,0:0:0:0:
191,82,218792,1,2,1:2:0:0:
157,67,218861,1,2,1:2:0:0:
120,70,218929,1,2,1:2:0:0:
86,83,218998,1,2,1:2:0:0:
61,113,219067,2,0,L|72:166,3,46.25,0|0|0|0,1:0|0:0|0:0|0:0,0:0:0:0:
137,193,219342,2,0,L|120:244,3,37
56,260,219618,1,0,3:0:0:0:
60,276,219686,1,0,3:0:0:0:
65,292,219755,1,0,3:0:0:0:
69,309,219824,1,0,3:0:0:0:
99,324,219893,1,0,3:0:0:0:
96,335,219961,1,0,3:0:0:0:
92,347,220030,1,0,3:0:0:0:
88,359,220099,1,0,3:0:0:0:
86,366,220168,6,0,L|91:396,38,18.5,2|0|0|0|0|0|0|0|0|0|0|0|0|0|0|0|0|0|0|0|0|0|0|0|0|0|0|0|0|0|0|0|0|0|0|0|0|0|0,0:2|0:0|0:0|0:0|0:0|0:0|0:0|0:0|0:0|0:0|0:0|0:0|0:0|0:0|0:0|0:0|3:0|0:0|0:0|0:0|0:0|0:0|0:0|0:0|0:0|0:0|0:0|0:0|0:0|0:0|0:0|0:0|3:0|0:0|0:0|0:0|0:0|0:0|0:0,0:0:0:0:
153,314,221544,6,0,L|157:336,10,23.125,0|0|0|0|0|0|0|0|0|0|0,0:0|0:0|0:0|0:0|0:0|0:0|0:0|0:0|3:0|0:0|0:0,0:0:0:0:
241,318,221957,6,2,L|221:385,60,69.3750026464463,2|0|0|0|0|0|0|0|0|0|0|0|0|0|0|0|0|0|0|0|0|0|0|0|0|0|0|0|0|0|0|0|0|0|0|0|0|0|0|0|0|0|0|0|0|0|0|0|0|0|0|0|0|0|0|0|0|0|0|2|2,0:0|0:0|0:0|0:0|0:0|0:0|0:0|0:0|0:0|0:0|0:0|0:0|3:0|0:0|0:0|0:0|0:0|0:0|0:0|0:0|0:0|0:0|0:0|0:0|0:0|0:0|0:0|0:0|3:0|0:0|0:0|0:0|0:0|0:0|0:0|0:0|0:0|0:0|0:0|0:0|0:0|0:0|0:0|0:0|3:0|0:0|0:0|0:0|0:0|0:0|0:0|0:0|0:0|0:0|0:0|0:0|0:0|0:0|0:0|0:0|0:0,0:0:0:0:
318,323,224090,6,0,P|333:348|367:366,1,46.25,2|2,0:3|3:0,0:0:0:0:
390,344,224228,2,0,P|417:352|454:344,1,46.25,2|2,0:3|3:0,0:0:0:0:
461,311,224365,1,2,0:3:0:0:
492,285,224434,1,2,0:3:0:0:
509,246,224503,1,2,0:3:0:0:
512,205,224572,6,0,P|497:178|475:162,3,46.25,2|0|0|0,1:2|0:0|0:0|0:0,0:0:0:0:
493,69,224847,2,0,P|470:48|445:40,3,46.25,2|0|0|0,1:2|0:0|0:0|0:0,0:0:0:0:
371,4,225122,1,2,1:2:0:0:
357,28,225191,1,2,0:2:0:0:
347,52,225260,2,0,L|359:129,1,46.25,2|2,0:2|0:2,0:0:0:0:
291,140,225397,6,0,L|450:108,1,138.75,4|0,1:2|2:0,0:0:0:0:
485,168,225673,6,2,B|405:161|405:161|314:96|314:96|229:84,1,277.5,6|0,1:3|2:0,0:1:0:0:
132,37,225948,6,0,P|104:7|56:2,1,46.25,4|0,1:2|0:0,0:0:0:0:
26,3,226085,2,0,P|-11:36|11:123,1,138.750005292893,0|0,1:0|1:0,0:0:0:0:
168,128,226360,6,0,P|127:122|87:150,1,46.25,4|0,1:0|0:0,0:0:0:0:
65,169,226497,2,0,P|57:219|131:270,1,138.750005292893,0|0,1:0|1:0,0:0:0:0:
265,152,226773,6,0,P|230:174|217:220,1,46.25,4|0,1:0|0:0,0:0:0:0:
220,248,226910,2,0,P|246:291|336:283,1,138.750005292893,0|2,1:0|1:3,0:0:0:0:
353,119,227186,6,0,P|341:158|361:201,1,46.25,2|0,1:2|0:0,0:0:0:0:
375,227,227323,2,0,P|423:243|487:179,1,138.750005292893,2|2,1:2|1:3,0:0:0:0:
375,27,227599,5,12,1:3:0:0:
367,25,227668,1,2,1:2:0:0:
365,31,227736,1,2,1:2:0:0:
370,35,227805,1,2,1:2:0:0:
378,30,227874,2,2,B|311:42|311:42|272:92|272:92|161:112,1,208.125007939339,6|0,1:0|2:0,0:1:0:0:
0,124,228149,6,0,L|67:118,1,46.25,4|0,1:0|0:0,0:0:0:0:
119,112,228287,2,0,B|112:41|112:41|44:46,1,138.750005292893,0|0,1:0|1:0,0:0:0:0:
152,184,228562,6,0,L|219:178,1,46.25,4|0,1:0|0:0,0:0:0:0:
271,172,228700,2,0,B|264:101|264:101|196:106,1,138.750005292893,0|0,1:0|1:0,0:0:0:0:
0,276,228975,6,0,L|67:270,1,46.25,4|0,1:0|0:0,0:0:0:0:
119,264,229113,2,0,B|112:193|112:193|44:198,1,138.750005292893,0|2,1:0|1:3,0:0:0:0:
152,336,229388,6,0,L|219:330,1,46.25,2|0,1:2|0:0,0:0:0:0:
271,324,229526,2,0,B|264:253|264:253|196:258,1,138.750005292893,2|2,1:2|1:3,0:0:0:0:
42,365,229801,5,12,1:3:0:0:
44,357,229870,1,2,1:2:0:0:
38,355,229938,1,2,1:2:0:0:
34,360,230007,1,2,1:2:0:0:
36,370,230076,2,0,L|103:376,1,46.25,6|0,1:0|1:2,0:0:0:0:
152,336,230214,2,0,L|219:330,1,46.25,0|0,1:2|1:2,0:0:0:0:
314,383,230351,6,0,P|351:339|336:284,1,92.5,4|2,1:3|0:0,0:0:0:0:
352,118,230626,2,0,L|279:108,1,46.25,8|8,3:0|3:0,0:0:0:0:
278,108,230764,6,0,P|273:165|317:200,1,92.5,4|2,1:3|0:0,0:0:0:0:
401,344,231039,2,0,L|465:309,1,46.25,8|8,3:0|3:0,0:0:0:0:
466,308,231177,6,0,P|436:259|379:256,1,92.5,4|2,1:3|0:0,0:0:0:0:
227,190,231452,2,0,L|195:255,1,46.25,8|8,3:0|3:0,0:0:0:0:
196,257,231590,6,0,P|249:278|296:248,1,92.5,4|2,1:3|0:0,0:0:0:0:
459,214,231865,2,0,L|445:142,1,46.25,8|8,3:0|3:0,0:0:0:0:
432,96,232002,5,12,1:3:0:0:
432,89,232071,1,2,1:2:0:0:
439,87,232139,1,2,1:2:0:0:
443,93,232208,1,2,1:2:0:0:
441,96,232277,2,2,B|374:84|374:84|335:34|335:34|224:14,1,208.125007939339,6|0,1:0|2:0,0:1:0:0:
192,56,232553,5,2,1:0:0:0:
53,214,232828,6,0,B|15:244|-32:206|-41:165|-18:115|89:56|179:151|108:235|169:305|256:280,1,416.25,2|0,0:0|0:0,0:0:0:0:
392,380,233585,5,2,0:2:0:0:
398,371,233654,2,0,L|376:292,1,69.3750026464463,2|0,0:0|3:0,0:0:0:0:
320,248,233860,2,0,L|301:323,1,69.3750026464463,2|2,0:2|0:2,0:0:0:0:
240,360,234067,1,2,0:0:0:0:
488,300,234204,6,0,B|495:264|495:264|421:176|421:176|392:231,1,208.125007939339,4|0,1:3|0:0,0:0:0:0:
320,248,234480,6,2,B|408:264|408:264|455:155,1,208.125007939339,6|0,1:0|2:0,0:1:0:0:
384,12,234755,6,0,L|352:96,1,46.25,4|0,1:0|0:0,0:0:0:0:
304,92,234892,2,0,P|248:64|148:64,1,138.750005292893,0|0,1:0|1:0,0:0:0:0:
0,104,235168,6,0,L|32:188,1,46.25,4|0,1:0|0:0,0:0:0:0:
80,184,235305,2,0,P|136:156|236:156,1,138.750005292893,0|0,1:0|1:0,0:0:0:0:
388,208,235581,6,0,L|356:292,1,46.25,4|0,1:0|0:0,0:0:0:0:
308,288,235718,2,0,P|252:260|152:260,1,138.750005292893,0|2,1:0|1:3,0:0:0:0:
4,300,235994,6,0,L|36:384,1,46.25,2|0,1:2|0:0,0:0:0:0:
84,380,236131,2,0,P|140:352|240:352,1,138.750005292893,2|2,1:2|1:3,0:0:0:0:
372,374,236406,5,12,1:3:0:0:
380,372,236475,1,2,1:2:0:0:
382,378,236543,1,2,1:2:0:0:
377,382,236612,1,2,1:2:0:0:
367,380,236681,2,2,B|360:311|360:311|313:268|313:268|304:155,1,208.125007939339,6|0,1:0|2:0,0:1:0:0:
397,32,236957,6,0,L|475:45,1,46.25,4|0,1:0|0:0,0:0:0:0:
485,108,237094,2,0,B|538:56|538:56|486:-37,1,138.750005292893,0|0,1:0|1:0,0:0:0:0:
352,96,237370,6,0,L|274:83,1,46.25,4|0,1:0|0:0,0:0:0:0:
242,128,237507,2,0,B|210:71|210:71|263:19,1,138.750005292893,0|0,1:0|1:0,0:0:0:0:
388,164,237782,6,0,L|466:177,1,46.25,4|0,1:0|0:0,0:0:0:0:
476,240,237919,2,0,B|529:188|529:188|477:95,1,138.750005292893,0|2,1:0|1:3,0:0:0:0:
340,228,238195,6,0,L|262:215,1,46.25,2|0,1:2|0:0,0:0:0:0:
230,260,238332,2,0,B|198:203|198:203|251:151,1,138.750005292893,2|2,1:2|1:3,0:0:0:0:
432,304,238608,5,4,1:3:0:0:
424,302,238677,1,2,1:2:0:0:
422,308,238745,1,2,1:2:0:0:
427,312,238814,1,2,1:2:0:0:
427,312,238883,2,0,L|502:326,1,46.25,4|0,1:3|1:2,0:0:0:0:
356,360,239021,2,0,L|281:374,1,46.25,2|2,1:2|1:2,0:0:0:0:
198,383,239159,6,0,P|161:339|176:284,1,92.5,4|2,1:3|0:0,0:0:0:0:
160,118,239434,2,0,L|233:108,1,46.25,8|8,3:0|3:0,0:0:0:0:
234,108,239572,6,0,P|239:165|195:200,1,92.5,4|2,1:3|0:0,0:0:0:0:
111,344,239847,2,0,L|47:309,1,46.25,8|8,3:0|3:0,0:0:0:0:
46,308,239985,6,0,P|76:259|133:256,1,92.5,4|2,1:3|0:0,0:0:0:0:
285,190,240260,2,0,L|317:255,1,46.25,8|8,3:0|3:0,0:0:0:0:
316,257,240398,6,0,P|263:278|216:248,1,92.5,4|2,1:3|0:0,0:0:0:0:
53,214,240673,2,0,L|67:142,1,46.25,8|8,3:0|3:0,0:0:0:0:
80,96,240810,5,12,1:3:0:0:
80,89,240879,1,2,1:2:0:0:
73,87,240947,1,2,1:2:0:0:
69,93,241016,1,2,1:2:0:0:
71,96,241085,2,2,B|138:84|138:84|177:34|177:34|288:14,1,208.125007939339,6|0,1:0|2:0,0:1:0:0:
320,56,241360,5,2,1:0:0:0:
459,214,241636,6,0,B|497:244|544:206|553:165|530:115|423:56|333:151|404:235|343:305|256:280,1,416.25,2|0,3:0|0:0,0:0:0:0:
120,380,242393,5,2,0:0:0:0:
114,371,242462,2,0,L|136:292,1,69.3750026464463,2|2,3:0|0:0,0:0:0:0:
192,248,242668,2,0,L|211:323,1,69.3750026464463,2|2,3:2|0:0,0:0:0:0:
272,360,242875,1,2,3:0:0:0:
48,272,243012,5,4,0:3:0:0:
33,236,243081,1,0,0:0:0:0:
32,198,243149,1,0,0:0:0:0:
49,164,243218,1,0,0:0:0:0:
76,138,243287,2,2,B|148:149|148:149|194:202|194:202|316:220,1,208.125007939339,14|0,1:0|2:0,0:1:0:0:
472,176,243562,6,0,P|485:149|472:91,1,74,6|2,0:2|0:2,0:0:0:0:
418,55,243699,2,0,P|388:56|344:98,1,74,6|2,0:2|0:2,0:0:0:0:
339,162,243837,2,0,P|355:187|412:205,1,74,2|2,0:2|0:2,0:0:0:0:
480,100,243974,6,0,P|464:75|407:57,1,74,6|2,0:2|0:2,0:0:0:0:
348,86,244113,2,0,P|335:113|348:171,1,74,6|2,0:2|0:2,0:0:0:0:
401,207,244249,2,0,P|431:206|475:164,1,74,2|2,0:2|0:2,0:0:0:0:
360,8,244388,5,2,0:0:0:0:
264,92,244525,2,0,L|150:69,1,115.625,4|4,1:3|1:3,0:0:0:0:
33,17,244801,6,0,B|22:28|22:28|40:21,2,28.90625,2|0|0,0:0|0:0|0:0,0:0:0:0:
150,69,244938,2,0,L|186:178,1,115.625,4|4,1:3|1:3,0:0:0:0:
350,212,245214,5,2,0:3:0:0:
343,212,245283,1,2,0:3:0:0:
341,205,245351,1,2,0:3:0:0:
347,201,245420,1,2,0:2:0:0:
350,203,245490,2,0,B|338:270|338:270|288:309|288:309|274:384,1,208.125007939339,14|0,0:0|2:0,0:0:0:0:
43,329,245764,6,0,P|30:302|43:244,1,74,6|2,0:2|0:2,0:0:0:0:
97,208,245901,2,0,P|127:209|171:251,1,74,6|2,0:2|0:2,0:0:0:0:
176,315,246039,2,0,P|160:340|103:358,1,74,2|2,0:2|0:2,0:0:0:0:
35,253,246176,6,0,P|51:228|108:210,1,74,6|2,0:2|0:2,0:0:0:0:
167,239,246315,2,0,P|180:266|167:324,1,74,6|2,0:2|0:2,0:0:0:0:
114,360,246451,2,0,P|84:359|40:317,1,74,2|2,0:2|0:2,0:0:0:0:
153,161,246590,5,2,0:0:0:0:
249,245,246727,2,0,L|363:222,1,115.625,4|4,1:3|1:3,0:0:0:0:
492,118,247003,6,0,B|485:111|485:111|496:78,2,28.90625,2|0|0,0:0|0:0|0:0,0:0:0:0:
396,34,247140,2,0,L|282:57,1,115.625,4|4,1:3|1:3,0:0:0:0:
162,212,247415,5,2,0:3:0:0:
169,212,247484,1,2,0:3:0:0:
171,205,247552,1,2,0:3:0:0:
165,201,247621,1,2,0:2:0:0:
162,203,247691,2,0,B|174:270|174:270|224:309|224:309|244:420,1,208.125007939339,14|0,0:0|2:0,0:0:0:0:
386,375,247966,6,0,P|403:319|370:274,1,92.5,4|2,1:3|2:0,0:0:0:0:
278,91,248241,1,8,3:0:0:0:
264,109,248310,1,8,3:0:0:0:
251,128,248379,6,0,P|265:181|319:199,1,92.5,4|2,1:3|2:0,0:0:0:0:
471,286,248654,1,8,3:0:0:0:
486,267,248723,1,8,3:0:0:0:
499,248,248792,6,0,P|452:212|397:230,1,92.5,4|2,1:3|2:0,0:0:0:0:
230,253,249067,1,8,3:0:0:0:
229,275,249136,1,8,3:0:0:0:
229,298,249205,6,0,P|285:297|318:252,1,92.5,4|2,1:3|2:0,0:0:0:0:
447,143,249480,1,8,3:0:0:0:
434,124,249548,1,8,3:0:0:0:
421,106,249617,6,0,L|349:86,1,69.3750026464463,4|2,1:3|3:2,0:0:0:0:
294,34,249754,2,0,L|274:106,1,69.3750026464463,2|2,1:2|3:2,3:0:0:0:
218,147,249892,2,0,B|151:135|151:135|112:85|112:85|1:65,1,208.125007939339,14|0,0:0|2:0,0:0:0:0:
101,6,250168,5,4,1:2:0:0:
101,378,250993,5,2,3:2:0:0:
46,312,251131,2,0,L|52:267,2,46.25,2|2|2,3:2|0:0|0:3,0:0:0:0:
218,303,251406,5,2,3:2:0:0:
273,237,251544,2,0,L|266:192,2,46.25,2|2|2,3:2|0:0|0:3,0:0:0:0:
132,144,251819,5,4,1:3:0:0:
133,137,251888,1,0,0:0:0:0:
127,133,251956,1,0,0:0:0:0:
122,138,252025,1,0,0:0:0:0:
123,141,252095,2,0,B|190:146|190:146|241:108|241:108|353:117,1,208.125007939339,14|0,0:0|2:0,0:0:0:0:
472,208,252370,6,0,P|485:235|472:293,1,74,6|2,0:2|0:2,0:0:0:0:
418,329,252507,2,0,P|388:328|344:286,1,74,6|2,0:2|0:2,0:0:0:0:
339,222,252645,2,0,P|355:197|412:179,1,74,2|2,0:2|0:2,0:0:0:0:
480,284,252782,6,0,P|464:309|407:327,1,74,6|2,0:2|0:2,0:0:0:0:
348,298,252921,2,0,P|335:271|348:213,1,74,6|2,0:2|0:2,0:0:0:0:
401,177,253057,2,0,P|431:178|475:220,1,74,2|2,0:2|0:2,0:0:0:0:
360,379,253195,5,2,0:0:0:0:
268,364,253333,2,0,L|248:248,1,115.625,4|4,1:3|1:3,0:0:0:0:
43,203,253608,6,0,B|38:220|38:220|46:241,2,28.90625,2|0|0,0:0|0:0|0:0,0:0:0:0:
140,290,253746,2,0,L|250:249,1,115.625,4|4,0:3|0:3,0:0:0:0:
412,192,254021,5,2,0:3:0:0:
412,185,254090,1,2,0:3:0:0:
419,183,254158,1,2,0:3:0:0:
423,189,254227,1,2,0:2:0:0:
421,192,254297,2,0,B|354:179|354:179|315:129|315:129|205:109,1,208.125007939339,14|0,0:0|2:0,0:0:0:0:
43,175,254571,6,0,P|26:141|41:83,1,74,6|2,0:2|0:2,0:0:0:0:
94,55,254708,2,0,P|124:56|168:98,1,74,6|2,0:2|0:2,0:0:0:0:
173,162,254846,2,0,P|157:187|100:205,1,74,2|2,0:2|0:2,0:0:0:0:
32,100,254983,6,0,P|48:75|105:57,1,74,6|2,0:2|0:2,0:0:0:0:
164,86,255122,2,0,P|177:113|164:171,1,74,6|2,0:2|0:2,0:0:0:0:
111,207,255258,2,0,P|81:206|37:164,1,74,2|2,0:2|0:2,0:0:0:0:
152,5,255396,5,2,0:0:0:0:
249,17,255534,2,0,L|269:133,1,115.625,4|4,1:3|1:3,0:0:0:0:
360,280,255810,6,0,B|344:296|344:296|352:280,2,28.90625,2|0|0,0:0|0:0|0:0,0:0:0:0:
452,265,255948,2,0,L|472:149,1,115.625,4|4,1:3|1:3,0:0:0:0:
439,54,256222,5,2,0:3:0:0:
438,60,256291,1,2,0:3:0:0:
445,62,256359,1,2,0:3:0:0:
449,56,256428,1,2,0:2:0:0:
447,53,256498,2,0,B|379:65|379:65|340:115|340:115|230:135,1,208.125007939339,14|0,0:0|2:0,0:0:0:0:
126,9,256773,6,0,P|109:65|142:110,1,92.5,4|2,1:3|0:0,0:0:0:0:
234,293,257048,1,8,3:0:0:0:
248,275,257117,1,8,3:0:0:0:
261,256,257186,6,0,P|247:203|193:185,1,92.5,4|2,1:3|0:0,0:0:0:0:
41,98,257461,1,8,3:0:0:0:
26,117,257530,1,8,3:0:0:0:
13,136,257599,6,0,P|60:172|115:154,1,92.5,4|2,1:3|0:0,0:0:0:0:
282,131,257874,1,8,3:0:0:0:
283,109,257943,1,8,3:0:0:0:
283,86,258012,6,0,P|227:87|194:132,1,92.5,4|2,1:3|0:0,0:0:0:0:
65,241,258287,1,8,3:0:0:0:
78,260,258355,1,8,3:0:0:0:
91,278,258425,6,0,L|163:298,1,69.3750026464463,4|2,1:3|3:2,0:0:0:0:
217,351,258562,2,0,L|237:279,1,69.3750026464463,2|2,1:2|3:2,3:0:0:0:
294,237,258699,2,0,B|361:249|361:249|400:299|400:299|511:319,1,208.125007939339,14|0,0:0|2:0,0:0:0:0:
411,378,258975,5,4,1:2:0:0:
411,6,259801,5,2,3:2:0:0:
472,88,259939,2,0,L|458:131,2,46.25,2|2|2,3:2|3:2|3:0,0:0:0:0:
340,48,260214,5,2,3:2:0:0:
304,204,260352,2,0,L|262:221,2,46.25,2|2|2,3:2|3:2|3:0,0:0:0:0:
116,180,260626,5,4,0:3:0:0:
89,186,260695,1,2,0:2:0:0:
63,192,260764,1,2,0:2:0:0:
37,198,260833,1,2,0:2:0:0:
2,179,260903,6,0,B|169:168|143:355|330:328,1,370,4|0,1:2|3:0,0:0:0:0:
256,192,263654,12,0,267369,0:0:0:0:
440,224,267507,6,0,L|516:212,1,69.3750026464463,2|0,1:0|0:0,2:0:0:0:
387,142,267782,2,0,P|399:134|412:115,2,34.6875013232232,0|0|0,0:0|0:0|0:0,2:0:0:0:
313,272,268057,2,0,P|380:312|396:310,1,69.3750026464463,2|0,0:2|0:0,2:0:0:0:
251,120,268333,2,0,P|245:68|261:38,1,69.3750026464463,0|0,0:0|0:0,2:0:0:0:
194,248,268608,2,0,P|194:265|193:286,2,34.6875013232232,0|0|0,0:0|0:0|0:0,2:0:0:0:
143,186,268883,1,0,0:0:0:0:
4,142,269021,5,8,0:0:0:0:
4,142,269090,1,8,0:0:0:0:
4,142,269158,1,8,0:0:0:0:
52,206,269296,1,8,0:0:0:0:
5,269,269434,1,4,0:0:0:0:
64,363,269571,6,0,B|39:340|24:309|21:275|21:275|46:260|46:260|67:129|67:129|139:105|150:101|150:101|154:94|187:67|218:52|232:34|232:34|293:115|293:115|284:134|284:134|314:202|333:211|337:251|337:251|318:292|318:292|112:355|121:328|68:365,1,1005.01250153353,4|6,1:0|1:2,0:0:0:0:
