osu file format v14

[General]
AudioFilename: audio.mp3
AudioLeadIn: 0
PreviewTime: 147503
Countdown: 0
SampleSet: Drum
StackLeniency: 0.7
Mode: 3
LetterboxInBreaks: 0
SpecialStyle: 0
WidescreenStoryboard: 0

[Editor]
Bookmarks: 3722,25417,33553,38976,49824,55248,60671,66095,71519,93214,104061,114909,125756,147451,169146,190841,196264,201688,207112,212536,220671,226095
DistanceSpacing: 0.7
BeatDivisor: 6
GridSize: 8
TimelineZoom: 3.199999

[Metadata]
Title:Dark Sheep
TitleUnicode:Dark Sheep
Artist:Chroma
ArtistUnicode:黒魔
Creator:Feylos
Version:SC
Source:
Tags:五つの物語 itsutsu no monogatari five stories CHRO-0005 disc1 electronic chiptune retro Masakichi Kurokawa くろま Instrumental
BeatmapID:1966776
BeatmapSetID:939798

[Difficulty]
HPDrainRate:8
CircleSize:4
OverallDifficulty:8
ApproachRate:5
SliderMultiplier:1.4
SliderTickRate:1

[Events]
//Background and Video events
0,0,"maxresdefault.jpg",0,0
//Break Periods
//Storyboard Layer 0 (Background)
//Storyboard Layer 1 (Fail)
//Storyboard Layer 2 (Pass)
//Storyboard Layer 3 (Foreground)
//Storyboard Layer 4 (Overlay)
//Storyboard Sound Samples

[TimingPoints]
3774.61226954588,338.983050847458,4,2,1,35,1,0
25300,-100,4,3,1,45,0,0
97672,-100,4,3,1,40,0,0
98011,-100,4,3,1,35,0,0
98350,-100,4,3,1,30,0,0
98689,-100,4,3,1,45,0,0
136316,-100,4,3,1,20,0,0
136655,-100,4,3,1,45,0,0
147503,-100,4,3,1,50,0,1
167842,-100,4,3,1,40,0,0

[HitObjects]
64,192,3774,5,4,0:0:0:0:
192,192,3774,128,0,4283:0:0:0:0:
448,192,3774,1,0,0:0:0:0:
320,192,3944,1,0,0:0:0:0:
448,192,4113,1,0,0:0:0:0:
320,192,4283,128,0,4452:0:0:0:0:
64,192,4452,128,0,5469:0:0:0:0:
320,192,4622,1,0,0:0:0:0:
192,192,4791,1,0,0:0:0:0:
320,192,4961,1,0,0:0:0:0:
192,192,5130,1,0,0:0:0:0:
448,192,5300,1,0,0:0:0:0:
320,192,5469,128,0,5639:0:0:0:0:
448,192,5639,128,0,5808:0:0:0:0:
320,192,5808,128,0,6062:0:0:0:0:
64,192,5978,1,0,0:0:0:0:
448,192,6062,128,0,6147:0:0:0:0:
192,192,6147,128,0,6486:0:0:0:0:
320,192,6316,1,0,0:0:0:0:
64,192,6486,128,0,6994:0:0:0:0:
192,192,6655,1,0,0:0:0:0:
320,192,6825,1,0,0:0:0:0:
192,192,6994,128,0,7164:0:0:0:0:
64,192,7164,128,0,8407:0:0:0:0:
448,192,7333,1,0,0:0:0:0:
192,192,7503,1,0,0:0:0:0:
320,192,7672,1,0,0:0:0:0:
192,192,7842,1,0,0:0:0:0:
320,192,8011,1,0,0:0:0:0:
448,192,8181,1,0,0:0:0:0:
192,192,8350,1,0,0:0:0:0:
320,192,8407,128,0,8463:0:0:0:0:
448,192,8463,128,0,8520:0:0:0:0:
64,192,8520,128,0,8576:0:0:0:0:
192,192,8576,128,0,8633:0:0:0:0:
320,192,8633,128,0,8689:0:0:0:0:
448,192,8689,128,0,8746:0:0:0:0:
64,192,8746,128,0,8802:0:0:0:0:
320,192,8802,128,0,8859:0:0:0:0:
192,192,8859,128,0,9028:0:0:0:0:
64,192,9028,128,0,9198:0:0:0:0:
192,192,9198,128,0,9706:0:0:0:0:
320,192,9367,1,0,0:0:0:0:
448,192,9537,1,0,0:0:0:0:
320,192,9706,128,0,9876:0:0:0:0:
64,192,9876,128,0,9932:0:0:0:0:
448,192,9932,128,0,10554:0:0:0:0:
320,192,10045,1,0,0:0:0:0:
192,192,10215,1,0,0:0:0:0:
64,192,10384,1,0,0:0:0:0:
64,192,10554,128,0,10610:0:0:0:0:
192,192,10610,128,0,10667:0:0:0:0:
320,192,10667,128,0,10723:0:0:0:0:
448,192,10723,128,0,10780:0:0:0:0:
192,192,10780,128,0,10836:0:0:0:0:
320,192,10836,128,0,10893:0:0:0:0:
64,192,10893,128,0,11062:0:0:0:0:
192,192,11062,128,0,11232:0:0:0:0:
320,192,11232,128,0,11571:0:0:0:0:
192,192,11401,1,0,0:0:0:0:
448,192,11571,128,0,11910:0:0:0:0:
192,192,11740,1,0,0:0:0:0:
64,192,11910,128,0,11966:0:0:0:0:
320,192,11966,128,0,13605:0:0:0:0:
192,192,12079,1,0,0:0:0:0:
64,192,12249,1,0,0:0:0:0:
192,192,12418,1,0,0:0:0:0:
448,192,12588,1,0,0:0:0:0:
192,192,12757,1,0,0:0:0:0:
64,192,12927,1,0,0:0:0:0:
192,192,13096,1,0,0:0:0:0:
64,192,13266,1,0,0:0:0:0:
192,192,13435,1,0,0:0:0:0:
448,192,13605,128,0,13661:0:0:0:0:
64,192,13661,128,0,13718:0:0:0:0:
192,192,13718,128,0,13774:0:0:0:0:
320,192,13774,128,0,13831:0:0:0:0:
448,192,13831,128,0,13887:0:0:0:0:
64,192,13887,128,0,13944:0:0:0:0:
192,192,13944,128,0,14622:0:0:0:0:
448,192,14113,1,0,0:0:0:0:
320,192,14283,1,0,0:0:0:0:
64,192,14452,1,0,0:0:0:0:
320,192,14622,128,0,14664:0:0:0:0:
448,192,14664,128,0,16655:0:0:0:0:
64,192,14791,1,0,0:0:0:0:
192,192,14961,1,0,0:0:0:0:
320,192,15130,1,0,0:0:0:0:
64,192,15300,1,0,0:0:0:0:
320,192,15469,1,0,0:0:0:0:
192,192,15639,1,0,0:0:0:0:
64,192,15808,1,0,0:0:0:0:
320,192,15978,1,0,0:0:0:0:
64,192,16147,1,0,0:0:0:0:
192,192,16316,1,0,0:0:0:0:
320,192,16486,1,0,0:0:0:0:
64,192,16655,128,0,17333:0:0:0:0:
448,192,16825,1,0,0:0:0:0:
320,192,16994,1,0,0:0:0:0:
192,192,17164,1,0,0:0:0:0:
320,192,17333,128,0,17390:0:0:0:0:
448,192,17390,128,0,18237:0:0:0:0:
64,192,17503,1,0,0:0:0:0:
192,192,17672,1,0,0:0:0:0:
320,192,17842,1,0,0:0:0:0:
64,192,18011,1,0,0:0:0:0:
192,192,18181,1,0,0:0:0:0:
320,192,18237,128,0,18463:0:0:0:0:
64,192,18350,1,0,0:0:0:0:
448,192,18463,128,0,18689:0:0:0:0:
192,192,18520,1,0,0:0:0:0:
64,192,18689,128,0,19706:0:0:0:0:
192,192,18859,1,0,0:0:0:0:
320,192,19028,1,0,0:0:0:0:
448,192,19198,1,0,0:0:0:0:
192,192,19367,1,0,0:0:0:0:
448,192,19537,1,0,0:0:0:0:
192,192,19706,128,0,19763:0:0:0:0:
320,192,19763,128,0,19819:0:0:0:0:
448,192,19819,128,0,19876:0:0:0:0:
192,192,19876,128,0,19932:0:0:0:0:
320,192,19932,128,0,19989:0:0:0:0:
64,192,19989,128,0,20045:0:0:0:0:
448,192,20045,128,0,20102:0:0:0:0:
320,192,20102,128,0,20949:0:0:0:0:
192,192,20215,1,0,0:0:0:0:
64,192,20384,1,0,0:0:0:0:
192,192,20554,1,0,0:0:0:0:
448,192,20723,1,0,0:0:0:0:
64,192,20893,1,0,0:0:0:0:
192,192,20949,128,0,21175:0:0:0:0:
448,192,21062,1,0,0:0:0:0:
320,192,21175,128,0,21401:0:0:0:0:
64,192,21232,1,0,0:0:0:0:
192,192,21401,128,0,22305:0:0:0:0:
320,192,21571,1,0,0:0:0:0:
448,192,21740,1,0,0:0:0:0:
320,192,21910,1,0,0:0:0:0:
64,192,22079,1,0,0:0:0:0:
448,192,22249,1,0,0:0:0:0:
64,192,22305,128,0,22531:0:0:0:0:
320,192,22418,1,0,0:0:0:0:
192,192,22531,128,0,22757:0:0:0:0:
448,192,22588,1,0,0:0:0:0:
320,192,22757,128,0,22983:0:0:0:0:
64,192,22927,1,0,0:0:0:0:
192,192,22983,128,0,23209:0:0:0:0:
448,192,23096,1,0,0:0:0:0:
320,192,23209,128,0,23435:0:0:0:0:
64,192,23266,1,0,0:0:0:0:
64,192,23435,128,0,23661:0:0:0:0:
320,192,23605,1,0,0:0:0:0:
192,192,23661,128,0,23887:0:0:0:0:
448,192,23774,1,0,0:0:0:0:
320,192,23887,128,0,24113:0:0:0:0:
64,192,23944,1,0,0:0:0:0:
448,192,24113,128,0,24170:0:0:0:0:
320,192,24170,128,0,24226:0:0:0:0:
448,192,24226,128,0,24622:0:0:0:0:
192,192,24283,1,0,0:0:0:0:
64,192,24452,1,0,0:0:0:0:
320,192,24622,128,0,24706:0:0:0:0:
192,192,24706,128,0,24791:0:0:0:0:
64,192,24791,128,0,25469:0:0:0:0:
448,192,24791,1,0,0:0:0:0:
320,192,24961,1,0,0:0:0:0:
192,192,25130,1,0,0:0:0:0:
448,192,25300,1,0,0:0:0:0:
192,192,25300,1,0,0:0:0:0:
320,192,25384,1,0,0:0:0:0:
192,192,25469,128,0,25766:0:0:0:0:
448,192,25469,1,4,0:0:0:0:
320,192,25808,128,0,26105:0:0:0:0:
64,192,26147,128,0,26444:0:0:0:0:
448,192,26486,128,0,26613:0:0:0:0:
320,192,26655,128,0,26952:0:0:0:0:
192,192,26994,128,0,27051:0:0:0:0:
448,192,27051,128,0,27107:0:0:0:0:
320,192,27107,128,0,27164:0:0:0:0:
192,192,27164,128,0,27291:0:0:0:0:
64,192,27333,128,0,27461:0:0:0:0:
192,192,27503,128,0,27800:0:0:0:0:
320,192,27672,1,0,0:0:0:0:
448,192,27672,1,4,0:0:0:0:
64,192,27842,1,0,0:0:0:0:
320,192,27842,128,0,28139:0:0:0:0:
448,192,27842,1,4,0:0:0:0:
192,192,28181,128,0,28478:0:0:0:0:
448,192,28520,128,0,28647:0:0:0:0:
320,192,28689,128,0,28986:0:0:0:0:
192,192,29028,128,0,29085:0:0:0:0:
448,192,29085,128,0,29141:0:0:0:0:
320,192,29141,128,0,29198:0:0:0:0:
192,192,29198,128,0,29325:0:0:0:0:
64,192,29367,128,0,29494:0:0:0:0:
448,192,29537,1,0,0:0:0:0:
192,192,29537,1,4,0:0:0:0:
320,192,29537,128,0,29833:0:0:0:0:
192,192,29876,1,0,0:0:0:0:
64,192,29876,1,4,0:0:0:0:
448,192,29876,128,0,30172:0:0:0:0:
192,192,30215,128,0,30511:0:0:0:0:
448,192,30554,128,0,30681:0:0:0:0:
320,192,30723,128,0,31020:0:0:0:0:
192,192,31062,128,0,31119:0:0:0:0:
448,192,31119,128,0,31175:0:0:0:0:
320,192,31175,128,0,31232:0:0:0:0:
192,192,31232,128,0,31359:0:0:0:0:
64,192,31401,128,0,31528:0:0:0:0:
192,192,31571,128,0,31867:0:0:0:0:
64,192,31740,1,0,0:0:0:0:
320,192,31740,1,4,0:0:0:0:
64,192,31910,1,0,0:0:0:0:
320,192,31910,1,4,0:0:0:0:
448,192,31910,128,0,32206:0:0:0:0:
192,192,32249,128,0,32545:0:0:0:0:
448,192,32588,128,0,32715:0:0:0:0:
320,192,32757,128,0,33054:0:0:0:0:
192,192,33096,128,0,33153:0:0:0:0:
64,192,33096,1,4,0:0:0:0:
448,192,33153,128,0,33209:0:0:0:0:
320,192,33209,128,0,33266:0:0:0:0:
64,192,33266,1,4,0:0:0:0:
192,192,33266,128,8,33393:0:0:0:0:
64,192,33435,128,0,33562:0:0:0:0:
320,192,33605,1,0,0:0:0:0:
192,192,33605,1,0,0:0:0:0:
448,192,33605,1,0,0:0:0:0:
64,192,33689,1,0,0:0:0:0:
448,192,33774,1,0,0:0:0:0:
192,192,33859,1,0,0:0:0:0:
64,192,33944,1,0,0:0:0:0:
448,192,33944,1,0,0:0:0:0:
320,192,33944,1,0,0:0:0:0:
192,192,34028,1,0,0:0:0:0:
320,192,34113,1,0,0:0:0:0:
448,192,34198,1,0,0:0:0:0:
64,192,34283,1,0,0:0:0:0:
320,192,34283,1,0,0:0:0:0:
192,192,34283,1,0,0:0:0:0:
448,192,34367,1,0,0:0:0:0:
192,192,34452,1,0,0:0:0:0:
64,192,34537,1,0,0:0:0:0:
448,192,34622,1,0,0:0:0:0:
192,192,34622,1,0,0:0:0:0:
320,192,34622,1,0,0:0:0:0:
64,192,34706,1,0,0:0:0:0:
448,192,34791,1,0,0:0:0:0:
320,192,34876,1,0,0:0:0:0:
64,192,34961,1,0,0:0:0:0:
192,192,34961,1,0,0:0:0:0:
448,192,34961,1,0,0:0:0:0:
320,192,35045,1,0,0:0:0:0:
64,192,35130,1,0,0:0:0:0:
192,192,35215,1,0,0:0:0:0:
64,192,35300,1,0,0:0:0:0:
320,192,35300,1,0,0:0:0:0:
448,192,35300,1,0,0:0:0:0:
192,192,35384,1,0,0:0:0:0:
320,192,35469,1,0,0:0:0:0:
448,192,35554,1,0,0:0:0:0:
192,192,35639,1,0,0:0:0:0:
320,192,35639,1,0,0:0:0:0:
64,192,35639,1,0,0:0:0:0:
448,192,35723,1,0,0:0:0:0:
192,192,35808,1,0,0:0:0:0:
64,192,35893,1,0,0:0:0:0:
448,192,35978,1,0,0:0:0:0:
320,192,35978,1,0,0:0:0:0:
192,192,35978,1,0,0:0:0:0:
64,192,36062,1,0,0:0:0:0:
448,192,36147,1,0,0:0:0:0:
192,192,36232,1,0,0:0:0:0:
64,192,36316,1,0,0:0:0:0:
320,192,36316,1,0,0:0:0:0:
448,192,36316,1,0,0:0:0:0:
192,192,36401,1,0,0:0:0:0:
448,192,36486,1,0,0:0:0:0:
64,192,36571,1,0,0:0:0:0:
192,192,36655,1,0,0:0:0:0:
320,192,36655,1,0,0:0:0:0:
448,192,36655,1,0,0:0:0:0:
64,192,36740,1,0,0:0:0:0:
192,192,36825,1,0,0:0:0:0:
448,192,36910,1,0,0:0:0:0:
320,192,36994,1,0,0:0:0:0:
192,192,36994,1,0,0:0:0:0:
64,192,36994,1,0,0:0:0:0:
448,192,37079,1,0,0:0:0:0:
192,192,37164,1,0,0:0:0:0:
64,192,37164,1,0,0:0:0:0:
320,192,37249,1,0,0:0:0:0:
448,192,37333,1,0,0:0:0:0:
192,192,37333,1,0,0:0:0:0:
64,192,37333,1,0,0:0:0:0:
320,192,37418,1,0,0:0:0:0:
448,192,37503,1,0,0:0:0:0:
64,192,37503,1,0,0:0:0:0:
192,192,37588,1,0,0:0:0:0:
64,192,37672,1,0,0:0:0:0:
320,192,37672,1,0,0:0:0:0:
448,192,37672,1,0,0:0:0:0:
192,192,37757,1,0,0:0:0:0:
320,192,37842,1,0,0:0:0:0:
448,192,37842,1,0,0:0:0:0:
192,192,37927,1,0,0:0:0:0:
64,192,38011,1,0,0:0:0:0:
320,192,38011,1,0,0:0:0:0:
448,192,38011,1,0,0:0:0:0:
192,192,38096,1,0,0:0:0:0:
64,192,38181,1,0,0:0:0:0:
448,192,38181,1,0,0:0:0:0:
320,192,38266,1,0,0:0:0:0:
448,192,38350,1,0,0:0:0:0:
192,192,38350,1,0,0:0:0:0:
64,192,38350,1,0,0:0:0:0:
320,192,38435,1,0,0:0:0:0:
64,192,38520,1,0,0:0:0:0:
192,192,38520,1,0,0:0:0:0:
320,192,38605,1,0,0:0:0:0:
64,192,38689,1,0,0:0:0:0:
448,192,38689,1,0,0:0:0:0:
192,192,38689,1,0,0:0:0:0:
64,192,39028,1,6,0:0:0:0:
192,192,39028,1,0,0:0:0:0:
448,192,39028,1,0,0:0:0:0:
64,192,39141,1,0,0:0:0:0:
192,192,39254,1,0,0:0:0:0:
320,192,39367,1,0,0:0:0:0:
448,192,39367,1,0,0:0:0:0:
448,192,39480,1,0,0:0:0:0:
320,192,39593,1,0,0:0:0:0:
192,192,39706,1,0,0:0:0:0:
448,192,39706,1,0,0:0:0:0:
64,192,39706,1,6,0:0:0:0:
64,192,39819,1,0,0:0:0:0:
192,192,39932,1,0,0:0:0:0:
320,192,40045,1,0,0:0:0:0:
448,192,40045,1,0,0:0:0:0:
448,192,40158,1,0,0:0:0:0:
320,192,40271,1,0,0:0:0:0:
192,192,40384,1,0,0:0:0:0:
448,192,40384,1,0,0:0:0:0:
64,192,40384,1,6,0:0:0:0:
64,192,40497,1,0,0:0:0:0:
192,192,40610,1,0,0:0:0:0:
320,192,40723,1,0,0:0:0:0:
448,192,40723,1,0,0:0:0:0:
448,192,40836,1,0,0:0:0:0:
320,192,40949,1,0,0:0:0:0:
448,192,41062,1,0,0:0:0:0:
64,192,41062,1,0,0:0:0:0:
192,192,41062,1,0,0:0:0:0:
192,192,41175,1,0,0:0:0:0:
448,192,41288,1,0,0:0:0:0:
320,192,41345,1,0,0:0:0:0:
192,192,41401,1,0,0:0:0:0:
64,192,41401,1,0,0:0:0:0:
64,192,41514,1,0,0:0:0:0:
320,192,41514,1,0,0:0:0:0:
320,192,41627,1,0,0:0:0:0:
448,192,41627,1,0,0:0:0:0:
192,192,41740,1,0,0:0:0:0:
64,192,41740,1,6,0:0:0:0:
448,192,41740,1,0,0:0:0:0:
64,192,41853,1,0,0:0:0:0:
192,192,41966,1,0,0:0:0:0:
320,192,42079,1,0,0:0:0:0:
448,192,42079,1,0,0:0:0:0:
448,192,42192,1,0,0:0:0:0:
320,192,42305,1,0,0:0:0:0:
192,192,42418,1,0,0:0:0:0:
448,192,42418,1,0,0:0:0:0:
64,192,42418,1,6,0:0:0:0:
64,192,42531,1,0,0:0:0:0:
192,192,42644,1,0,0:0:0:0:
320,192,42757,1,0,0:0:0:0:
448,192,42757,1,0,0:0:0:0:
448,192,42870,1,0,0:0:0:0:
320,192,42983,1,0,0:0:0:0:
192,192,43096,1,0,0:0:0:0:
448,192,43096,1,0,0:0:0:0:
64,192,43096,1,6,0:0:0:0:
64,192,43209,1,0,0:0:0:0:
192,192,43322,1,0,0:0:0:0:
320,192,43435,1,0,0:0:0:0:
448,192,43435,1,0,0:0:0:0:
448,192,43548,1,0,0:0:0:0:
320,192,43661,1,0,0:0:0:0:
448,192,43774,1,0,0:0:0:0:
64,192,43774,1,0,0:0:0:0:
192,192,43774,1,0,0:0:0:0:
192,192,43887,1,0,0:0:0:0:
64,192,44000,1,0,0:0:0:0:
192,192,44057,1,0,0:0:0:0:
448,192,44113,1,0,0:0:0:0:
320,192,44113,1,0,0:0:0:0:
448,192,44226,1,0,0:0:0:0:
192,192,44226,1,0,0:0:0:0:
192,192,44339,1,0,0:0:0:0:
64,192,44339,1,0,0:0:0:0:
320,192,44452,128,0,45808:0:0:0:0:
64,192,44452,1,0,0:0:0:0:
448,192,44452,1,6,0:0:0:0:
448,192,44565,1,0,0:0:0:0:
64,192,44678,1,0,0:0:0:0:
192,192,44791,1,0,0:0:0:0:
448,192,44904,1,0,0:0:0:0:
192,192,45017,1,0,0:0:0:0:
448,192,45130,1,0,0:0:0:0:
64,192,45130,1,6,0:0:0:0:
64,192,45243,1,0,0:0:0:0:
192,192,45356,1,0,0:0:0:0:
64,192,45469,1,0,0:0:0:0:
448,192,45582,1,0,0:0:0:0:
64,192,45695,1,0,0:0:0:0:
192,192,45808,128,0,46486:0:0:0:0:
448,192,45808,1,6,0:0:0:0:
448,192,45921,1,0,0:0:0:0:
320,192,46034,1,0,0:0:0:0:
64,192,46147,1,0,0:0:0:0:
448,192,46260,1,0,0:0:0:0:
320,192,46373,1,0,0:0:0:0:
448,192,46486,128,0,47164:0:0:0:0:
64,192,46486,1,0,0:0:0:0:
192,192,46599,1,0,0:0:0:0:
320,192,46712,1,0,0:0:0:0:
192,192,46768,1,0,0:0:0:0:
64,192,46825,1,0,0:0:0:0:
320,192,46938,1,0,0:0:0:0:
192,192,47051,1,0,0:0:0:0:
64,192,47164,1,6,0:0:0:0:
320,192,47164,128,0,49198:0:0:0:0:
64,192,47277,1,0,0:0:0:0:
192,192,47390,1,0,0:0:0:0:
64,192,47503,1,0,0:0:0:0:
448,192,47616,1,0,0:0:0:0:
192,192,47729,1,0,0:0:0:0:
448,192,47842,1,6,0:0:0:0:
64,192,47842,1,0,0:0:0:0:
448,192,47955,1,0,0:0:0:0:
192,192,48068,1,0,0:0:0:0:
64,192,48181,1,0,0:0:0:0:
448,192,48294,1,0,0:0:0:0:
192,192,48407,1,0,0:0:0:0:
448,192,48520,1,0,0:0:0:0:
64,192,48520,1,6,0:0:0:0:
64,192,48633,1,0,0:0:0:0:
192,192,48746,1,0,0:0:0:0:
64,192,48859,1,0,0:0:0:0:
192,192,48972,1,0,0:0:0:0:
448,192,49085,1,0,0:0:0:0:
64,192,49198,1,0,0:0:0:0:
192,192,49198,1,0,0:0:0:0:
448,192,49283,1,0,0:0:0:0:
64,192,49367,1,0,0:0:0:0:
448,192,49452,1,0,0:0:0:0:
64,192,49537,1,0,0:0:0:0:
448,192,49622,1,0,0:0:0:0:
64,192,49706,1,0,0:0:0:0:
448,192,49791,1,0,0:0:0:0:
64,192,49876,1,0,0:0:0:0:
320,192,49876,1,0,0:0:0:0:
192,192,49961,1,0,0:0:0:0:
64,192,50045,1,0,0:0:0:0:
448,192,50045,1,2,0:0:0:0:
320,192,50130,1,0,0:0:0:0:
64,192,50215,1,0,0:0:0:0:
192,192,50215,1,0,0:0:0:0:
448,192,50300,1,0,0:0:0:0:
320,192,50300,1,0,0:0:0:0:
64,192,50384,1,0,0:0:0:0:
192,192,50384,1,2,0:0:0:0:
448,192,50469,1,0,0:0:0:0:
320,192,50554,1,0,0:0:0:0:
64,192,50554,1,0,0:0:0:0:
192,192,50639,1,0,0:0:0:0:
448,192,50723,1,2,0:0:0:0:
64,192,50723,1,0,0:0:0:0:
320,192,50808,1,0,0:0:0:0:
64,192,50893,1,0,0:0:0:0:
192,192,50893,1,0,0:0:0:0:
320,192,50978,1,0,0:0:0:0:
448,192,50978,1,0,0:0:0:0:
64,192,51062,1,0,0:0:0:0:
192,192,51062,1,2,0:0:0:0:
448,192,51147,1,0,0:0:0:0:
320,192,51232,1,0,0:0:0:0:
64,192,51232,1,0,0:0:0:0:
192,192,51316,1,0,0:0:0:0:
64,192,51401,1,0,0:0:0:0:
448,192,51401,1,2,0:0:0:0:
320,192,51486,1,0,0:0:0:0:
64,192,51571,1,0,0:0:0:0:
192,192,51571,1,0,0:0:0:0:
320,192,51655,1,0,0:0:0:0:
448,192,51655,1,0,0:0:0:0:
64,192,51740,1,0,0:0:0:0:
192,192,51740,1,2,0:0:0:0:
448,192,51825,1,0,0:0:0:0:
320,192,51910,1,0,0:0:0:0:
64,192,51910,1,0,0:0:0:0:
192,192,51994,1,0,0:0:0:0:
448,192,52079,1,2,0:0:0:0:
64,192,52079,1,0,0:0:0:0:
320,192,52164,1,0,0:0:0:0:
64,192,52249,1,0,0:0:0:0:
192,192,52249,1,0,0:0:0:0:
320,192,52333,1,0,0:0:0:0:
448,192,52333,1,0,0:0:0:0:
192,192,52418,1,2,0:0:0:0:
64,192,52418,1,0,0:0:0:0:
320,192,52503,1,0,0:0:0:0:
192,192,52588,1,0,0:0:0:0:
448,192,52588,1,0,0:0:0:0:
320,192,52672,1,0,0:0:0:0:
64,192,52757,1,2,0:0:0:0:
448,192,52757,1,0,0:0:0:0:
192,192,52842,1,0,0:0:0:0:
320,192,52927,1,0,0:0:0:0:
448,192,52927,1,0,0:0:0:0:
64,192,53011,1,0,0:0:0:0:
192,192,53011,1,0,0:0:0:0:
320,192,53096,1,2,0:0:0:0:
448,192,53096,1,0,0:0:0:0:
64,192,53181,1,0,0:0:0:0:
448,192,53266,1,0,0:0:0:0:
192,192,53266,1,0,0:0:0:0:
320,192,53350,1,0,0:0:0:0:
448,192,53435,1,0,0:0:0:0:
64,192,53435,1,2,0:0:0:0:
192,192,53520,1,0,0:0:0:0:
320,192,53605,1,0,0:0:0:0:
448,192,53605,1,0,0:0:0:0:
64,192,53689,1,0,0:0:0:0:
192,192,53689,1,0,0:0:0:0:
448,192,53774,1,0,0:0:0:0:
320,192,53774,1,2,0:0:0:0:
64,192,53859,1,0,0:0:0:0:
192,192,53944,1,0,0:0:0:0:
448,192,53944,1,0,0:0:0:0:
320,192,54028,1,0,0:0:0:0:
64,192,54113,5,2,0:0:0:0:
448,192,54113,1,0,0:0:0:0:
192,192,54198,1,0,0:0:0:0:
320,192,54283,1,0,0:0:0:0:
448,192,54283,1,0,0:0:0:0:
64,192,54367,1,0,0:0:0:0:
192,192,54367,1,0,0:0:0:0:
448,192,54452,1,0,0:0:0:0:
320,192,54452,1,2,0:0:0:0:
192,192,54537,1,0,0:0:0:0:
64,192,54622,1,0,0:0:0:0:
448,192,54622,1,0,0:0:0:0:
192,192,54706,1,0,0:0:0:0:
320,192,54791,1,0,0:0:0:0:
448,192,54791,1,2,0:0:0:0:
448,192,54876,1,2,0:0:0:0:
320,192,54876,1,0,0:0:0:0:
64,192,54961,1,12,0:0:0:0:
192,192,55045,1,0,0:0:0:0:
320,192,55130,1,0,0:0:0:0:
448,192,55215,1,0,0:0:0:0:
64,192,55300,5,0,0:0:0:0:
192,192,55300,1,0,0:0:0:0:
320,192,55300,1,0,0:0:0:0:
320,192,55469,1,0,0:0:0:0:
448,192,55469,1,0,0:0:0:0:
192,192,55469,1,0,0:0:0:0:
64,192,55639,1,0,0:0:0:0:
320,192,55808,1,0,0:0:0:0:
320,192,55893,1,0,0:0:0:0:
64,192,55978,1,0,0:0:0:0:
192,192,55978,1,8,0:0:0:0:
448,192,55978,1,0,0:0:0:0:
320,192,56147,1,0,0:0:0:0:
448,192,56147,1,0,0:0:0:0:
64,192,56147,1,0,0:0:0:0:
192,192,56316,1,0,0:0:0:0:
320,192,56486,128,0,56825:0:0:0:0:
448,192,56655,1,0,0:0:0:0:
64,192,56825,128,0,56994:0:0:0:0:
192,192,56825,1,0,0:0:0:0:
192,192,56994,128,0,57164:0:0:0:0:
320,192,57164,128,0,57333:0:0:0:0:
64,192,57164,1,0,0:0:0:0:
64,192,57249,1,0,0:0:0:0:
448,192,57333,128,0,57503:0:0:0:0:
192,192,57333,1,4,0:0:0:0:
320,192,57503,128,0,57559:0:0:0:0:
192,192,57559,128,0,57616:0:0:0:0:
64,192,57616,128,0,57672:0:0:0:0:
448,192,57672,128,2,57842:0:0:0:0:
320,192,57672,1,0,0:0:0:0:
64,192,57842,128,0,58011:0:0:0:0:
192,192,58011,1,0,0:0:0:0:
320,192,58011,1,0,0:0:0:0:
448,192,58011,1,0,0:0:0:0:
64,192,58181,1,0,0:0:0:0:
192,192,58181,1,0,0:0:0:0:
320,192,58181,1,0,0:0:0:0:
448,192,58350,1,0,0:0:0:0:
192,192,58520,1,0,0:0:0:0:
192,192,58605,1,0,0:0:0:0:
64,192,58689,1,0,0:0:0:0:
320,192,58689,1,8,0:0:0:0:
448,192,58689,1,0,0:0:0:0:
192,192,58859,1,0,0:0:0:0:
64,192,58859,1,0,0:0:0:0:
448,192,58859,1,0,0:0:0:0:
320,192,59028,1,0,0:0:0:0:
448,192,59198,128,0,59537:0:0:0:0:
64,192,59367,1,0,0:0:0:0:
320,192,59537,128,0,59593:0:0:0:0:
192,192,59593,128,0,59650:0:0:0:0:
64,192,59650,128,0,59706:0:0:0:0:
192,192,59706,128,0,59876:0:0:0:0:
64,192,59876,128,0,60045:0:0:0:0:
320,192,59876,1,0,0:0:0:0:
320,192,59961,1,0,0:0:0:0:
192,192,60045,128,0,60215:0:0:0:0:
448,192,60045,1,4,0:0:0:0:
320,192,60215,128,0,60384:0:0:0:0:
64,192,60215,1,0,0:0:0:0:
64,192,60384,1,0,0:0:0:0:
448,192,60384,128,0,60469:0:0:0:0:
320,192,60469,128,0,60554:0:0:0:0:
192,192,60554,128,0,60639:0:0:0:0:
64,192,60639,128,0,60723:0:0:0:0:
192,192,60723,1,0,0:0:0:0:
448,192,60723,1,0,0:0:0:0:
320,192,60808,1,0,0:0:0:0:
64,192,60893,1,2,0:0:0:0:
448,192,60893,1,0,0:0:0:0:
192,192,60978,1,0,0:0:0:0:
320,192,61062,1,0,0:0:0:0:
448,192,61062,1,0,0:0:0:0:
192,192,61147,1,0,0:0:0:0:
64,192,61147,1,0,0:0:0:0:
320,192,61232,1,2,0:0:0:0:
448,192,61232,1,0,0:0:0:0:
64,192,61316,1,0,0:0:0:0:
448,192,61401,1,0,0:0:0:0:
192,192,61401,1,0,0:0:0:0:
320,192,61486,1,0,0:0:0:0:
64,192,61571,1,2,0:0:0:0:
448,192,61571,1,0,0:0:0:0:
192,192,61655,1,0,0:0:0:0:
448,192,61740,1,0,0:0:0:0:
320,192,61740,1,0,0:0:0:0:
64,192,61825,1,0,0:0:0:0:
192,192,61825,1,0,0:0:0:0:
320,192,61910,1,2,0:0:0:0:
448,192,61910,1,0,0:0:0:0:
64,192,61994,1,0,0:0:0:0:
448,192,62079,1,0,0:0:0:0:
192,192,62079,1,0,0:0:0:0:
320,192,62164,1,0,0:0:0:0:
448,192,62249,1,0,0:0:0:0:
64,192,62249,1,2,0:0:0:0:
192,192,62333,1,0,0:0:0:0:
320,192,62418,1,0,0:0:0:0:
448,192,62418,1,0,0:0:0:0:
64,192,62503,1,0,0:0:0:0:
192,192,62503,1,0,0:0:0:0:
320,192,62588,1,2,0:0:0:0:
448,192,62588,1,0,0:0:0:0:
64,192,62672,1,0,0:0:0:0:
448,192,62757,1,0,0:0:0:0:
192,192,62757,1,0,0:0:0:0:
320,192,62842,1,0,0:0:0:0:
64,192,62927,1,2,0:0:0:0:
448,192,62927,1,0,0:0:0:0:
192,192,63011,1,0,0:0:0:0:
320,192,63096,1,0,0:0:0:0:
448,192,63096,1,0,0:0:0:0:
64,192,63181,1,0,0:0:0:0:
192,192,63181,1,0,0:0:0:0:
320,192,63266,1,2,0:0:0:0:
448,192,63266,1,0,0:0:0:0:
192,192,63350,1,0,0:0:0:0:
64,192,63435,1,0,0:0:0:0:
320,192,63435,1,0,0:0:0:0:
192,192,63520,1,0,0:0:0:0:
448,192,63605,1,2,0:0:0:0:
64,192,63605,1,0,0:0:0:0:
320,192,63689,1,0,0:0:0:0:
64,192,63774,1,0,0:0:0:0:
192,192,63774,1,0,0:0:0:0:
320,192,63859,1,0,0:0:0:0:
448,192,63859,1,0,0:0:0:0:
64,192,63944,1,0,0:0:0:0:
192,192,63944,1,2,0:0:0:0:
448,192,64028,1,0,0:0:0:0:
64,192,64113,1,0,0:0:0:0:
320,192,64113,1,0,0:0:0:0:
192,192,64198,1,0,0:0:0:0:
448,192,64283,1,2,0:0:0:0:
64,192,64283,1,0,0:0:0:0:
320,192,64367,1,0,0:0:0:0:
192,192,64452,1,0,0:0:0:0:
64,192,64452,1,0,0:0:0:0:
448,192,64537,1,0,0:0:0:0:
320,192,64537,1,0,0:0:0:0:
192,192,64622,1,2,0:0:0:0:
64,192,64622,1,0,0:0:0:0:
448,192,64706,1,0,0:0:0:0:
64,192,64791,1,0,0:0:0:0:
320,192,64791,1,0,0:0:0:0:
192,192,64876,1,0,0:0:0:0:
64,192,64961,1,0,0:0:0:0:
448,192,64961,1,2,0:0:0:0:
320,192,65045,1,0,0:0:0:0:
64,192,65130,1,0,0:0:0:0:
192,192,65130,1,0,0:0:0:0:
320,192,65215,1,0,0:0:0:0:
448,192,65215,1,0,0:0:0:0:
64,192,65300,1,0,0:0:0:0:
192,192,65300,1,2,0:0:0:0:
448,192,65384,1,0,0:0:0:0:
64,192,65469,1,0,0:0:0:0:
320,192,65469,1,0,0:0:0:0:
192,192,65554,1,0,0:0:0:0:
448,192,65639,1,2,0:0:0:0:
64,192,65639,1,0,0:0:0:0:
320,192,65723,1,0,0:0:0:0:
192,192,65808,1,0,0:0:0:0:
64,192,65808,1,0,0:0:0:0:
448,192,65893,1,0,0:0:0:0:
320,192,65893,1,0,0:0:0:0:
192,192,65978,1,0,0:0:0:0:
64,192,65978,1,0,0:0:0:0:
320,192,66062,1,0,0:0:0:0:
448,192,66147,1,0,0:0:0:0:
64,192,66147,1,0,0:0:0:0:
192,192,66203,1,0,0:0:0:0:
320,192,66260,1,0,0:0:0:0:
448,192,66316,1,0,0:0:0:0:
192,192,66373,1,0,0:0:0:0:
64,192,66429,1,0,0:0:0:0:
448,192,66486,1,0,0:0:0:0:
320,192,66542,1,0,0:0:0:0:
64,192,66599,1,0,0:0:0:0:
448,192,66655,1,0,0:0:0:0:
192,192,66712,1,0,0:0:0:0:
64,192,66768,1,0,0:0:0:0:
448,192,66825,1,0,0:0:0:0:
320,192,66881,1,0,0:0:0:0:
192,192,66938,1,0,0:0:0:0:
448,192,66994,1,0,0:0:0:0:
320,192,67051,1,0,0:0:0:0:
64,192,67107,1,0,0:0:0:0:
448,192,67164,1,0,0:0:0:0:
64,192,67333,1,0,0:0:0:0:
192,192,67333,1,0,0:0:0:0:
320,192,67390,1,0,0:0:0:0:
448,192,67446,1,0,0:0:0:0:
64,192,67503,1,0,0:0:0:0:
192,192,67559,1,0,0:0:0:0:
448,192,67616,1,0,0:0:0:0:
64,192,67672,1,0,0:0:0:0:
320,192,67729,1,0,0:0:0:0:
448,192,67785,1,0,0:0:0:0:
192,192,67842,1,0,0:0:0:0:
64,192,67898,1,0,0:0:0:0:
320,192,67955,1,0,0:0:0:0:
448,192,68011,1,0,0:0:0:0:
64,192,68096,1,0,0:0:0:0:
192,192,68139,1,0,0:0:0:0:
448,192,68181,1,0,0:0:0:0:
320,192,68181,1,0,0:0:0:0:
64,192,68237,1,0,0:0:0:0:
448,192,68294,1,0,0:0:0:0:
192,192,68350,1,0,0:0:0:0:
320,192,68407,1,0,0:0:0:0:
448,192,68463,1,0,0:0:0:0:
64,192,68520,128,0,68576:0:0:0:0:
320,192,68576,128,0,68633:0:0:0:0:
448,192,68633,128,0,68689:0:0:0:0:
192,192,68689,128,0,68746:0:0:0:0:
320,192,68746,128,0,68802:0:0:0:0:
448,192,68802,128,0,68859:0:0:0:0:
64,192,68859,1,0,0:0:0:0:
192,192,68859,1,0,0:0:0:0:
320,192,69028,1,0,0:0:0:0:
192,192,69028,1,0,0:0:0:0:
64,192,69198,1,0,0:0:0:0:
448,192,69198,1,2,0:0:0:0:
320,192,69198,1,0,0:0:0:0:
320,192,69367,1,0,0:0:0:0:
448,192,69367,1,0,0:0:0:0:
192,192,69452,1,0,0:0:0:0:
64,192,69452,1,0,0:0:0:0:
320,192,69537,1,0,0:0:0:0:
448,192,69537,1,0,0:0:0:0:
320,192,69706,1,0,0:0:0:0:
192,192,69706,1,0,0:0:0:0:
192,192,69876,1,0,0:0:0:0:
64,192,69876,1,2,0:0:0:0:
448,192,69876,1,0,0:0:0:0:
320,192,70045,1,0,0:0:0:0:
192,192,70045,1,0,0:0:0:0:
64,192,70130,1,0,0:0:0:0:
448,192,70130,1,0,0:0:0:0:
320,192,70215,1,0,0:0:0:0:
192,192,70215,1,0,0:0:0:0:
448,192,70300,1,0,0:0:0:0:
320,192,70384,1,0,0:0:0:0:
448,192,70469,1,0,0:0:0:0:
192,192,70554,1,0,0:0:0:0:
64,192,70639,1,0,0:0:0:0:
192,192,70723,1,0,0:0:0:0:
64,192,70808,1,0,0:0:0:0:
320,192,70893,1,0,0:0:0:0:
192,192,70978,1,0,0:0:0:0:
320,192,71062,1,0,0:0:0:0:
192,192,71147,1,0,0:0:0:0:
64,192,71232,1,0,0:0:0:0:
320,192,71232,1,0,0:0:0:0:
192,192,71316,1,0,0:0:0:0:
448,192,71316,1,0,0:0:0:0:
64,192,71401,1,0,0:0:0:0:
320,192,71401,1,0,0:0:0:0:
192,192,71486,1,0,0:0:0:0:
448,192,71486,1,0,0:0:0:0:
320,192,71571,128,0,72079:0:0:0:0:
64,192,71571,1,0,0:0:0:0:
64,192,71740,1,0,0:0:0:0:
192,192,71910,1,0,0:0:0:0:
448,192,72079,128,0,72249:0:0:0:0:
192,192,72079,1,0,0:0:0:0:
192,192,72249,128,0,73266:0:0:0:0:
320,192,72249,1,0,0:0:0:0:
320,192,72418,1,0,0:0:0:0:
64,192,72588,1,0,0:0:0:0:
64,192,72757,1,0,0:0:0:0:
448,192,72927,1,0,0:0:0:0:
448,192,73096,1,0,0:0:0:0:
320,192,73266,128,0,73435:0:0:0:0:
64,192,73266,1,0,0:0:0:0:
448,192,73435,128,0,73605:0:0:0:0:
64,192,73435,1,0,0:0:0:0:
192,192,73605,128,0,73859:0:0:0:0:
320,192,73605,1,0,0:0:0:0:
320,192,73774,1,0,0:0:0:0:
448,192,73859,128,0,73901:0:0:0:0:
320,192,73901,128,0,73944:0:0:0:0:
64,192,73944,128,0,74283:0:0:0:0:
192,192,73944,1,0,0:0:0:0:
192,192,74113,1,0,0:0:0:0:
320,192,74283,128,0,74791:0:0:0:0:
448,192,74283,1,0,0:0:0:0:
448,192,74452,1,0,0:0:0:0:
192,192,74622,1,0,0:0:0:0:
448,192,74791,128,0,74961:0:0:0:0:
192,192,74791,1,0,0:0:0:0:
64,192,74961,128,0,76203:0:0:0:0:
320,192,74961,1,0,0:0:0:0:
320,192,75130,1,0,0:0:0:0:
448,192,75300,1,0,0:0:0:0:
448,192,75469,1,0,0:0:0:0:
192,192,75639,1,0,0:0:0:0:
192,192,75808,1,0,0:0:0:0:
448,192,75978,1,0,0:0:0:0:
448,192,76147,1,0,0:0:0:0:
192,192,76203,128,0,76260:0:0:0:0:
320,192,76260,128,0,76316:0:0:0:0:
448,192,76316,128,0,76373:0:0:0:0:
192,192,76373,128,0,76429:0:0:0:0:
320,192,76429,128,0,76486:0:0:0:0:
64,192,76486,128,0,76542:0:0:0:0:
448,192,76542,128,0,76599:0:0:0:0:
320,192,76599,128,0,76655:0:0:0:0:
192,192,76655,128,0,76825:0:0:0:0:
64,192,76655,1,0,0:0:0:0:
320,192,76825,128,0,76994:0:0:0:0:
64,192,76825,1,0,0:0:0:0:
448,192,76994,128,0,77503:0:0:0:0:
192,192,76994,1,0,0:0:0:0:
192,192,77164,1,0,0:0:0:0:
320,192,77333,1,0,0:0:0:0:
192,192,77503,128,0,77672:0:0:0:0:
320,192,77503,1,0,0:0:0:0:
64,192,77672,1,0,0:0:0:0:
320,192,77672,128,0,77729:0:0:0:0:
448,192,77729,128,0,78350:0:0:0:0:
64,192,77842,1,0,0:0:0:0:
192,192,78011,1,0,0:0:0:0:
192,192,78181,1,0,0:0:0:0:
320,192,78350,128,0,78407:0:0:0:0:
192,192,78407,128,0,78463:0:0:0:0:
64,192,78463,128,0,78520:0:0:0:0:
448,192,78520,128,0,78576:0:0:0:0:
320,192,78576,128,0,78633:0:0:0:0:
192,192,78633,128,0,78689:0:0:0:0:
64,192,78689,128,0,78859:0:0:0:0:
448,192,78689,1,0,0:0:0:0:
192,192,78859,128,0,79028:0:0:0:0:
448,192,78859,1,0,0:0:0:0:
320,192,79028,128,0,79367:0:0:0:0:
64,192,79028,1,0,0:0:0:0:
64,192,79198,1,0,0:0:0:0:
448,192,79367,128,0,79706:0:0:0:0:
192,192,79367,1,0,0:0:0:0:
192,192,79537,1,0,0:0:0:0:
64,192,79706,1,0,0:0:0:0:
192,192,79706,128,0,79763:0:0:0:0:
320,192,79763,128,0,81401:0:0:0:0:
64,192,79876,1,0,0:0:0:0:
448,192,80045,1,0,0:0:0:0:
448,192,80215,1,0,0:0:0:0:
192,192,80384,1,0,0:0:0:0:
192,192,80554,1,0,0:0:0:0:
64,192,80723,1,0,0:0:0:0:
64,192,80893,1,0,0:0:0:0:
448,192,81062,1,0,0:0:0:0:
448,192,81232,1,0,0:0:0:0:
64,192,81401,128,0,81458:0:0:0:0:
192,192,81458,128,0,81514:0:0:0:0:
320,192,81514,128,0,81571:0:0:0:0:
448,192,81571,128,0,81627:0:0:0:0:
64,192,81627,128,0,81684:0:0:0:0:
192,192,81684,128,0,81740:0:0:0:0:
320,192,81740,128,0,82418:0:0:0:0:
448,192,81740,1,0,0:0:0:0:
64,192,81910,1,0,0:0:0:0:
192,192,81910,1,0,0:0:0:0:
192,192,82079,1,0,0:0:0:0:
64,192,82079,1,0,0:0:0:0:
192,192,82249,1,0,0:0:0:0:
64,192,82418,1,0,0:0:0:0:
192,192,82418,128,0,82475:0:0:0:0:
448,192,82475,128,0,84452:0:0:0:0:
64,192,82588,1,0,0:0:0:0:
192,192,82757,1,0,0:0:0:0:
320,192,82757,1,0,0:0:0:0:
192,192,82927,1,0,0:0:0:0:
320,192,83096,1,0,0:0:0:0:
320,192,83266,1,0,0:0:0:0:
192,192,83435,1,0,0:0:0:0:
64,192,83435,1,0,0:0:0:0:
192,192,83605,1,0,0:0:0:0:
64,192,83774,1,0,0:0:0:0:
64,192,83944,1,0,0:0:0:0:
192,192,84113,1,0,0:0:0:0:
320,192,84113,1,0,0:0:0:0:
192,192,84283,1,0,0:0:0:0:
320,192,84452,128,0,85130:0:0:0:0:
64,192,84452,1,0,0:0:0:0:
64,192,84622,1,0,0:0:0:0:
192,192,84791,1,0,0:0:0:0:
448,192,84791,1,0,0:0:0:0:
192,192,84961,1,0,0:0:0:0:
64,192,85130,1,0,0:0:0:0:
192,192,85130,128,0,85187:0:0:0:0:
448,192,85187,128,0,86034:0:0:0:0:
64,192,85300,1,0,0:0:0:0:
192,192,85469,1,0,0:0:0:0:
320,192,85469,1,0,0:0:0:0:
192,192,85639,1,0,0:0:0:0:
64,192,85808,1,0,0:0:0:0:
64,192,85978,1,0,0:0:0:0:
320,192,86034,128,0,86260:0:0:0:0:
64,192,86147,1,0,0:0:0:0:
192,192,86147,1,0,0:0:0:0:
448,192,86260,128,0,86486:0:0:0:0:
192,192,86316,1,0,0:0:0:0:
64,192,86486,128,0,87503:0:0:0:0:
320,192,86486,1,0,0:0:0:0:
320,192,86655,1,0,0:0:0:0:
448,192,86825,1,0,0:0:0:0:
192,192,86825,1,0,0:0:0:0:
192,192,86994,1,0,0:0:0:0:
448,192,87164,1,0,0:0:0:0:
448,192,87333,1,0,0:0:0:0:
448,192,87503,128,0,87559:0:0:0:0:
320,192,87559,128,0,87616:0:0:0:0:
192,192,87616,128,0,87672:0:0:0:0:
64,192,87672,128,0,87729:0:0:0:0:
448,192,87729,128,0,87785:0:0:0:0:
320,192,87785,128,0,87842:0:0:0:0:
64,192,87842,128,0,87898:0:0:0:0:
192,192,87898,128,0,88746:0:0:0:0:
64,192,88011,1,0,0:0:0:0:
320,192,88181,1,0,0:0:0:0:
448,192,88181,1,0,0:0:0:0:
320,192,88350,1,0,0:0:0:0:
448,192,88520,1,0,0:0:0:0:
448,192,88689,1,0,0:0:0:0:
64,192,88746,128,0,88972:0:0:0:0:
192,192,88859,1,0,0:0:0:0:
448,192,88859,1,0,0:0:0:0:
320,192,88972,128,0,89198:0:0:0:0:
192,192,89028,1,0,0:0:0:0:
64,192,89198,128,0,90102:0:0:0:0:
448,192,89198,1,0,0:0:0:0:
448,192,89367,1,0,0:0:0:0:
320,192,89537,1,0,0:0:0:0:
192,192,89537,1,0,0:0:0:0:
320,192,89706,1,0,0:0:0:0:
448,192,89876,1,0,0:0:0:0:
448,192,90045,1,0,0:0:0:0:
192,192,90102,128,0,90328:0:0:0:0:
448,192,90215,1,0,0:0:0:0:
64,192,90215,1,0,0:0:0:0:
320,192,90328,128,0,90554:0:0:0:0:
64,192,90384,1,0,0:0:0:0:
448,192,90554,128,0,90780:0:0:0:0:
192,192,90554,1,0,0:0:0:0:
320,192,90723,1,0,0:0:0:0:
64,192,90780,128,0,91006:0:0:0:0:
192,192,90893,1,0,0:0:0:0:
448,192,90893,1,0,0:0:0:0:
320,192,91006,128,0,91232:0:0:0:0:
448,192,91062,1,0,0:0:0:0:
64,192,91232,128,0,91458:0:0:0:0:
192,192,91232,1,0,0:0:0:0:
448,192,91401,1,0,0:0:0:0:
192,192,91458,128,0,91684:0:0:0:0:
448,192,91571,1,0,0:0:0:0:
64,192,91571,1,0,0:0:0:0:
320,192,91684,128,0,91910:0:0:0:0:
64,192,91740,1,0,0:0:0:0:
448,192,91910,128,0,91966:0:0:0:0:
192,192,91910,1,0,0:0:0:0:
320,192,91966,128,0,92023:0:0:0:0:
448,192,92023,128,0,92418:0:0:0:0:
192,192,92079,1,0,0:0:0:0:
64,192,92249,1,0,0:0:0:0:
320,192,92249,1,0,0:0:0:0:
320,192,92418,128,0,92503:0:0:0:0:
64,192,92418,1,0,0:0:0:0:
192,192,92503,128,0,92588:0:0:0:0:
64,192,92588,128,0,92927:0:0:0:0:
448,192,92588,1,0,0:0:0:0:
320,192,92757,1,0,0:0:0:0:
192,192,92757,1,0,0:0:0:0:
192,192,92927,1,0,0:0:0:0:
448,192,92927,128,0,92983:0:0:0:0:
320,192,92983,128,0,93040:0:0:0:0:
192,192,93040,128,0,93096:0:0:0:0:
448,192,93096,128,0,93153:0:0:0:0:
320,192,93153,128,0,93209:0:0:0:0:
192,192,93209,128,0,93266:0:0:0:0:
64,192,93266,1,0,0:0:0:0:
320,192,93350,1,0,0:0:0:0:
64,192,93435,1,0,0:0:0:0:
320,192,93520,1,0,0:0:0:0:
64,192,93605,1,0,0:0:0:0:
192,192,93605,1,0,0:0:0:0:
320,192,93689,1,0,0:0:0:0:
64,192,93774,1,0,0:0:0:0:
320,192,93859,1,0,0:0:0:0:
192,192,93944,1,0,0:0:0:0:
64,192,93944,1,0,0:0:0:0:
448,192,94028,1,0,0:0:0:0:
192,192,94113,1,0,0:0:0:0:
320,192,94113,1,0,0:0:0:0:
448,192,94198,1,0,0:0:0:0:
192,192,94283,1,0,0:0:0:0:
448,192,94367,1,0,0:0:0:0:
192,192,94452,1,0,0:0:0:0:
320,192,94452,1,0,0:0:0:0:
448,192,94537,1,0,0:0:0:0:
64,192,94622,1,0,0:0:0:0:
192,192,94706,1,0,0:0:0:0:
64,192,94791,1,0,0:0:0:0:
448,192,94791,1,0,0:0:0:0:
192,192,94876,1,0,0:0:0:0:
64,192,94961,1,0,0:0:0:0:
320,192,94961,1,0,0:0:0:0:
192,192,95045,1,0,0:0:0:0:
64,192,95130,1,0,0:0:0:0:
320,192,95130,1,0,0:0:0:0:
192,192,95215,1,0,0:0:0:0:
448,192,95300,1,0,0:0:0:0:
64,192,95300,1,0,0:0:0:0:
320,192,95384,1,0,0:0:0:0:
448,192,95469,1,0,0:0:0:0:
320,192,95554,1,0,0:0:0:0:
448,192,95639,1,0,0:0:0:0:
192,192,95639,1,0,0:0:0:0:
320,192,95723,1,0,0:0:0:0:
448,192,95808,1,0,0:0:0:0:
320,192,95893,1,0,0:0:0:0:
192,192,95978,1,0,0:0:0:0:
64,192,95978,1,0,0:0:0:0:
320,192,96062,1,0,0:0:0:0:
192,192,96147,1,0,0:0:0:0:
320,192,96232,1,0,0:0:0:0:
192,192,96316,1,0,0:0:0:0:
64,192,96316,1,0,0:0:0:0:
320,192,96401,1,0,0:0:0:0:
192,192,96486,1,0,0:0:0:0:
320,192,96571,1,0,0:0:0:0:
64,192,96655,1,0,0:0:0:0:
192,192,96655,1,0,0:0:0:0:
320,192,96740,1,0,0:0:0:0:
64,192,96825,1,0,0:0:0:0:
192,192,96825,1,0,0:0:0:0:
320,192,96910,1,0,0:0:0:0:
64,192,96994,1,0,0:0:0:0:
320,192,97079,1,0,0:0:0:0:
64,192,97164,1,0,0:0:0:0:
192,192,97164,1,0,0:0:0:0:
320,192,97249,1,0,0:0:0:0:
64,192,97333,1,0,0:0:0:0:
192,192,97390,1,0,0:0:0:0:
448,192,97446,1,0,0:0:0:0:
320,192,97503,1,0,0:0:0:0:
64,192,97559,1,0,0:0:0:0:
192,192,97616,1,0,0:0:0:0:
448,192,97672,1,0,0:0:0:0:
320,192,97729,1,0,0:0:0:0:
64,192,97785,1,0,0:0:0:0:
192,192,97842,1,0,0:0:0:0:
448,192,97898,1,0,0:0:0:0:
320,192,97955,1,0,0:0:0:0:
64,192,98011,1,0,0:0:0:0:
192,192,98068,1,0,0:0:0:0:
448,192,98124,1,0,0:0:0:0:
320,192,98181,1,0,0:0:0:0:
64,192,98237,1,0,0:0:0:0:
192,192,98294,1,0,0:0:0:0:
448,192,98350,1,0,0:0:0:0:
320,192,98407,1,0,0:0:0:0:
64,192,98463,1,0,0:0:0:0:
192,192,98520,1,0,0:0:0:0:
320,192,98576,1,0,0:0:0:0:
448,192,98633,1,0,0:0:0:0:
64,192,98689,1,0,0:0:0:0:
192,192,98689,1,0,0:0:0:0:
320,192,98774,1,0,0:0:0:0:
64,192,98859,1,0,0:0:0:0:
320,192,98944,1,0,0:0:0:0:
64,192,99028,1,0,0:0:0:0:
192,192,99028,1,0,0:0:0:0:
320,192,99113,1,0,0:0:0:0:
64,192,99198,1,0,0:0:0:0:
320,192,99283,1,0,0:0:0:0:
192,192,99367,1,0,0:0:0:0:
64,192,99367,1,0,0:0:0:0:
448,192,99452,1,0,0:0:0:0:
192,192,99537,1,0,0:0:0:0:
320,192,99537,1,0,0:0:0:0:
448,192,99622,1,0,0:0:0:0:
192,192,99706,1,0,0:0:0:0:
448,192,99791,1,0,0:0:0:0:
192,192,99876,1,0,0:0:0:0:
320,192,99876,1,0,0:0:0:0:
448,192,99961,1,0,0:0:0:0:
64,192,100045,1,0,0:0:0:0:
192,192,100130,1,0,0:0:0:0:
64,192,100215,1,0,0:0:0:0:
448,192,100215,1,0,0:0:0:0:
192,192,100300,1,0,0:0:0:0:
64,192,100384,1,0,0:0:0:0:
320,192,100384,1,0,0:0:0:0:
192,192,100469,1,0,0:0:0:0:
64,192,100554,1,0,0:0:0:0:
320,192,100554,1,0,0:0:0:0:
192,192,100639,1,0,0:0:0:0:
448,192,100723,1,0,0:0:0:0:
64,192,100723,1,0,0:0:0:0:
320,192,100808,1,0,0:0:0:0:
448,192,100893,1,0,0:0:0:0:
320,192,100978,1,0,0:0:0:0:
448,192,101062,1,0,0:0:0:0:
192,192,101062,1,0,0:0:0:0:
320,192,101147,1,0,0:0:0:0:
448,192,101232,1,0,0:0:0:0:
320,192,101316,1,0,0:0:0:0:
192,192,101401,1,0,0:0:0:0:
64,192,101401,1,0,0:0:0:0:
320,192,101486,1,0,0:0:0:0:
192,192,101571,1,0,0:0:0:0:
320,192,101655,1,0,0:0:0:0:
192,192,101740,1,0,0:0:0:0:
64,192,101740,1,0,0:0:0:0:
320,192,101825,1,0,0:0:0:0:
192,192,101910,1,0,0:0:0:0:
320,192,101994,1,0,0:0:0:0:
64,192,102079,1,0,0:0:0:0:
192,192,102079,1,0,0:0:0:0:
320,192,102164,1,0,0:0:0:0:
64,192,102249,1,0,0:0:0:0:
192,192,102249,1,0,0:0:0:0:
320,192,102333,1,0,0:0:0:0:
64,192,102418,1,0,0:0:0:0:
320,192,102503,1,0,0:0:0:0:
64,192,102588,1,0,0:0:0:0:
192,192,102588,1,0,0:0:0:0:
320,192,102672,1,0,0:0:0:0:
64,192,102757,1,0,0:0:0:0:
192,192,102814,1,0,0:0:0:0:
448,192,102870,1,0,0:0:0:0:
320,192,102927,1,0,0:0:0:0:
64,192,102983,1,0,0:0:0:0:
448,192,103040,1,0,0:0:0:0:
320,192,103096,1,0,0:0:0:0:
64,192,103153,1,0,0:0:0:0:
192,192,103209,1,0,0:0:0:0:
448,192,103266,1,0,0:0:0:0:
320,192,103266,1,0,0:0:0:0:
64,192,103350,1,0,0:0:0:0:
192,192,103350,1,0,0:0:0:0:
320,192,103435,1,0,0:0:0:0:
448,192,103435,1,0,0:0:0:0:
448,192,103520,1,0,0:0:0:0:
320,192,103520,1,0,0:0:0:0:
64,192,103605,128,0,103774:0:0:0:0:
192,192,103605,1,0,0:0:0:0:
192,192,103774,128,0,103944:0:0:0:0:
448,192,103774,1,4,0:0:0:0:
320,192,103944,128,0,104113:0:0:0:0:
448,192,104113,128,0,104622:0:0:0:0:
64,192,104113,1,0,0:0:0:0:
192,192,104113,1,0,0:0:0:0:
320,192,104283,1,0,0:0:0:0:
64,192,104452,1,0,0:0:0:0:
192,192,104452,1,0,0:0:0:0:
320,192,104622,128,0,104791:0:0:0:0:
64,192,104791,128,0,105808:0:0:0:0:
192,192,104791,1,0,0:0:0:0:
448,192,104961,1,0,0:0:0:0:
192,192,105130,1,0,0:0:0:0:
320,192,105130,1,0,0:0:0:0:
448,192,105300,1,0,0:0:0:0:
192,192,105469,1,0,0:0:0:0:
320,192,105469,1,0,0:0:0:0:
448,192,105639,1,0,0:0:0:0:
320,192,105808,128,0,105978:0:0:0:0:
448,192,105808,1,0,0:0:0:0:
192,192,105978,128,0,106147:0:0:0:0:
448,192,106147,128,0,106316:0:0:0:0:
64,192,106147,1,0,0:0:0:0:
320,192,106316,128,0,106486:0:0:0:0:
192,192,106486,128,0,106655:0:0:0:0:
448,192,106486,1,0,0:0:0:0:
320,192,106655,128,0,106825:0:0:0:0:
64,192,106825,128,0,107333:0:0:0:0:
192,192,106825,1,0,0:0:0:0:
448,192,106994,1,0,0:0:0:0:
320,192,107164,1,0,0:0:0:0:
192,192,107164,1,0,0:0:0:0:
448,192,107333,128,0,107503:0:0:0:0:
320,192,107503,128,0,108520:0:0:0:0:
64,192,107503,1,0,0:0:0:0:
192,192,107672,1,0,0:0:0:0:
448,192,107842,1,0,0:0:0:0:
64,192,107842,1,0,0:0:0:0:
192,192,108011,1,0,0:0:0:0:
448,192,108181,1,0,0:0:0:0:
64,192,108181,1,0,0:0:0:0:
192,192,108350,1,0,0:0:0:0:
64,192,108520,128,0,108859:0:0:0:0:
448,192,108520,1,0,0:0:0:0:
320,192,108689,1,0,0:0:0:0:
192,192,108859,128,0,109198:0:0:0:0:
448,192,108859,1,0,0:0:0:0:
64,192,109028,1,0,0:0:0:0:
320,192,109198,128,0,109537:0:0:0:0:
448,192,109198,1,0,0:0:0:0:
192,192,109367,1,0,0:0:0:0:
448,192,109537,128,0,110554:0:0:0:0:
192,192,109537,1,0,0:0:0:0:
64,192,109537,1,0,0:0:0:0:
320,192,109622,1,0,0:0:0:0:
64,192,109706,1,0,0:0:0:0:
192,192,109791,1,0,0:0:0:0:
320,192,109876,1,0,0:0:0:0:
64,192,109876,1,0,0:0:0:0:
192,192,109961,1,0,0:0:0:0:
320,192,110045,1,0,0:0:0:0:
192,192,110130,1,0,0:0:0:0:
64,192,110215,1,0,0:0:0:0:
320,192,110215,1,0,0:0:0:0:
192,192,110300,1,0,0:0:0:0:
64,192,110384,1,0,0:0:0:0:
320,192,110469,1,0,0:0:0:0:
64,192,110554,1,0,0:0:0:0:
192,192,110554,1,0,0:0:0:0:
320,192,110639,1,0,0:0:0:0:
192,192,110723,1,0,0:0:0:0:
320,192,110808,1,0,0:0:0:0:
192,192,110893,1,0,0:0:0:0:
448,192,110893,1,0,0:0:0:0:
64,192,110978,1,0,0:0:0:0:
320,192,111062,1,0,0:0:0:0:
192,192,111147,1,0,0:0:0:0:
64,192,111232,1,0,0:0:0:0:
448,192,111232,1,0,0:0:0:0:
320,192,111316,1,0,0:0:0:0:
64,192,111401,1,0,0:0:0:0:
320,192,111486,1,0,0:0:0:0:
448,192,111571,1,0,0:0:0:0:
64,192,111571,1,0,0:0:0:0:
320,192,111655,1,0,0:0:0:0:
192,192,111740,1,0,0:0:0:0:
320,192,111825,1,0,0:0:0:0:
448,192,111910,1,0,0:0:0:0:
64,192,111910,1,0,0:0:0:0:
192,192,111994,1,0,0:0:0:0:
448,192,112079,1,0,0:0:0:0:
192,192,112164,1,0,0:0:0:0:
320,192,112249,1,4,0:0:0:0:
448,192,112249,1,0,0:0:0:0:
64,192,112333,1,0,0:0:0:0:
192,192,112418,1,0,0:0:0:0:
448,192,112503,1,0,0:0:0:0:
320,192,112588,1,0,0:0:0:0:
192,192,112588,1,0,0:0:0:0:
64,192,112672,1,0,0:0:0:0:
320,192,112757,1,0,0:0:0:0:
64,192,112842,1,0,0:0:0:0:
320,192,112927,1,0,0:0:0:0:
448,192,112927,1,0,0:0:0:0:
192,192,113011,1,0,0:0:0:0:
64,192,113096,1,0,0:0:0:0:
448,192,113181,1,0,0:0:0:0:
192,192,113266,1,0,0:0:0:0:
64,192,113266,1,0,0:0:0:0:
320,192,113350,1,0,0:0:0:0:
192,192,113435,1,0,0:0:0:0:
320,192,113520,1,0,0:0:0:0:
192,192,113605,128,0,114452:0:0:0:0:
64,192,113605,1,0,0:0:0:0:
448,192,113605,1,0,0:0:0:0:
64,192,114452,1,0,0:0:0:0:
320,192,114452,1,0,0:0:0:0:
448,192,114622,1,0,0:0:0:0:
64,192,114622,1,0,0:0:0:0:
320,192,114622,1,0,0:0:0:0:
320,192,114961,1,0,0:0:0:0:
64,192,114961,1,0,0:0:0:0:
448,192,114961,1,0,0:0:0:0:
192,192,114961,1,10,0:0:0:0:
192,192,115130,1,0,0:0:0:0:
64,192,115215,1,0,0:0:0:0:
192,192,115300,1,0,0:0:0:0:
192,192,115469,1,0,0:0:0:0:
64,192,115554,1,0,0:0:0:0:
192,192,115639,1,0,0:0:0:0:
64,192,115723,1,0,0:0:0:0:
192,192,115808,1,0,0:0:0:0:
64,192,115893,1,0,0:0:0:0:
192,192,115978,1,0,0:0:0:0:
448,192,116147,1,0,0:0:0:0:
320,192,116147,1,8,0:0:0:0:
64,192,116147,1,0,0:0:0:0:
192,192,116316,1,0,0:0:0:0:
64,192,116401,1,0,0:0:0:0:
192,192,116486,1,0,0:0:0:0:
320,192,116486,1,0,0:0:0:0:
64,192,116571,1,0,0:0:0:0:
192,192,116655,1,0,0:0:0:0:
448,192,116655,1,0,0:0:0:0:
320,192,116655,1,8,0:0:0:0:
192,192,116825,1,0,0:0:0:0:
64,192,116910,1,0,0:0:0:0:
448,192,116994,1,0,0:0:0:0:
320,192,117037,1,0,0:0:0:0:
192,192,117079,1,0,0:0:0:0:
64,192,117122,1,0,0:0:0:0:
448,192,117164,1,0,0:0:0:0:
320,192,117206,1,0,0:0:0:0:
192,192,117249,1,0,0:0:0:0:
64,192,117333,1,0,0:0:0:0:
192,192,117376,1,0,0:0:0:0:
320,192,117418,1,0,0:0:0:0:
448,192,117461,1,0,0:0:0:0:
64,192,117503,1,0,0:0:0:0:
192,192,117545,1,0,0:0:0:0:
320,192,117588,1,0,0:0:0:0:
448,192,117672,1,0,0:0:0:0:
64,192,117672,1,8,0:0:0:0:
192,192,117672,1,0,0:0:0:0:
320,192,117842,1,0,0:0:0:0:
448,192,117927,1,0,0:0:0:0:
320,192,118011,1,0,0:0:0:0:
320,192,118181,1,0,0:0:0:0:
448,192,118266,1,0,0:0:0:0:
320,192,118350,1,0,0:0:0:0:
448,192,118435,1,0,0:0:0:0:
320,192,118520,1,0,0:0:0:0:
192,192,118520,1,0,0:0:0:0:
448,192,118605,1,0,0:0:0:0:
320,192,118689,1,0,0:0:0:0:
64,192,118689,1,8,0:0:0:0:
192,192,118689,1,0,0:0:0:0:
448,192,118859,128,0,119028:0:0:0:0:
192,192,118859,1,0,0:0:0:0:
192,192,119028,1,0,0:0:0:0:
320,192,119028,1,0,0:0:0:0:
64,192,119113,1,0,0:0:0:0:
192,192,119198,1,0,0:0:0:0:
320,192,119283,1,0,0:0:0:0:
448,192,119367,1,0,0:0:0:0:
64,192,119367,1,8,0:0:0:0:
192,192,119367,1,0,0:0:0:0:
320,192,119452,1,0,0:0:0:0:
64,192,119537,1,0,0:0:0:0:
192,192,119622,1,0,0:0:0:0:
448,192,119706,1,0,0:0:0:0:
320,192,119791,1,0,0:0:0:0:
192,192,119876,1,0,0:0:0:0:
64,192,119876,1,0,0:0:0:0:
320,192,119961,1,0,0:0:0:0:
448,192,120045,1,0,0:0:0:0:
192,192,120045,1,0,0:0:0:0:
64,192,120045,1,8,0:0:0:0:
320,192,120130,1,0,0:0:0:0:
192,192,120215,1,0,0:0:0:0:
64,192,120300,1,0,0:0:0:0:
320,192,120384,1,0,0:0:0:0:
192,192,120384,1,0,0:0:0:0:
448,192,120384,1,8,0:0:0:0:
64,192,120554,1,0,0:0:0:0:
192,192,120639,1,0,0:0:0:0:
320,192,120723,1,0,0:0:0:0:
64,192,120723,1,0,0:0:0:0:
64,192,120893,1,0,0:0:0:0:
192,192,120978,1,0,0:0:0:0:
64,192,121062,1,0,0:0:0:0:
192,192,121147,1,0,0:0:0:0:
64,192,121232,1,0,0:0:0:0:
192,192,121316,1,0,0:0:0:0:
64,192,121401,1,0,0:0:0:0:
192,192,121571,1,0,0:0:0:0:
448,192,121571,1,0,0:0:0:0:
320,192,121571,1,8,0:0:0:0:
64,192,121740,1,0,0:0:0:0:
192,192,121825,1,0,0:0:0:0:
64,192,121910,1,0,0:0:0:0:
448,192,121910,1,0,0:0:0:0:
192,192,121994,1,0,0:0:0:0:
320,192,121994,1,0,0:0:0:0:
64,192,122079,1,0,0:0:0:0:
448,192,122079,1,8,0:0:0:0:
320,192,122249,1,0,0:0:0:0:
192,192,122333,1,0,0:0:0:0:
448,192,122418,1,0,0:0:0:0:
320,192,122461,1,0,0:0:0:0:
192,192,122503,1,0,0:0:0:0:
64,192,122545,1,0,0:0:0:0:
448,192,122588,1,0,0:0:0:0:
320,192,122630,1,0,0:0:0:0:
192,192,122672,1,0,0:0:0:0:
64,192,122757,1,0,0:0:0:0:
192,192,122800,1,0,0:0:0:0:
320,192,122842,1,0,0:0:0:0:
448,192,122884,1,0,0:0:0:0:
64,192,122927,1,0,0:0:0:0:
192,192,122969,1,0,0:0:0:0:
320,192,123011,1,0,0:0:0:0:
448,192,123096,1,0,0:0:0:0:
64,192,123096,1,8,0:0:0:0:
192,192,123096,1,0,0:0:0:0:
448,192,123266,1,0,0:0:0:0:
320,192,123350,1,0,0:0:0:0:
448,192,123435,1,0,0:0:0:0:
192,192,123435,1,0,0:0:0:0:
448,192,123605,1,0,0:0:0:0:
320,192,123689,1,0,0:0:0:0:
448,192,123774,1,0,0:0:0:0:
320,192,123859,1,0,0:0:0:0:
192,192,123944,1,0,0:0:0:0:
448,192,123944,1,0,0:0:0:0:
320,192,124028,1,0,0:0:0:0:
64,192,124028,1,0,0:0:0:0:
192,192,124113,1,0,0:0:0:0:
448,192,124113,1,8,0:0:0:0:
192,192,124283,1,0,0:0:0:0:
320,192,124283,128,0,124452:0:0:0:0:
448,192,124452,1,0,0:0:0:0:
192,192,124452,1,0,0:0:0:0:
64,192,124537,1,0,0:0:0:0:
448,192,124622,1,8,0:0:0:0:
320,192,124622,1,0,0:0:0:0:
192,192,124706,1,0,0:0:0:0:
64,192,124791,1,0,0:0:0:0:
448,192,124791,1,0,0:0:0:0:
192,192,124876,1,0,0:0:0:0:
320,192,124876,1,0,0:0:0:0:
448,192,124961,1,8,0:0:0:0:
64,192,124961,1,0,0:0:0:0:
320,192,125045,1,0,0:0:0:0:
64,192,125130,1,0,0:0:0:0:
448,192,125130,1,0,0:0:0:0:
192,192,125215,1,0,0:0:0:0:
448,192,125300,1,8,0:0:0:0:
320,192,125300,1,0,0:0:0:0:
192,192,125384,1,0,0:0:0:0:
64,192,125384,1,0,0:0:0:0:
64,192,125808,1,0,0:0:0:0:
192,192,125808,1,0,0:0:0:0:
448,192,125808,1,0,0:0:0:0:
320,192,125893,1,0,0:0:0:0:
448,192,125978,1,0,0:0:0:0:
64,192,125978,1,0,0:0:0:0:
192,192,126062,1,0,0:0:0:0:
320,192,126062,1,0,0:0:0:0:
448,192,126147,1,0,0:0:0:0:
64,192,126147,1,2,0:0:0:0:
192,192,126232,1,0,0:0:0:0:
320,192,126316,1,0,0:0:0:0:
448,192,126316,1,0,0:0:0:0:
192,192,126401,1,0,0:0:0:0:
64,192,126401,1,0,0:0:0:0:
320,192,126486,1,0,0:0:0:0:
448,192,126486,1,0,0:0:0:0:
64,192,126571,1,0,0:0:0:0:
192,192,126655,1,0,0:0:0:0:
448,192,126655,1,0,0:0:0:0:
64,192,126740,1,0,0:0:0:0:
320,192,126740,1,0,0:0:0:0:
192,192,126825,1,0,0:0:0:0:
448,192,126825,1,2,0:0:0:0:
320,192,126910,1,0,0:0:0:0:
192,192,126994,1,0,0:0:0:0:
64,192,126994,1,0,0:0:0:0:
448,192,127079,1,0,0:0:0:0:
320,192,127079,1,0,0:0:0:0:
192,192,127164,1,0,0:0:0:0:
64,192,127164,1,0,0:0:0:0:
320,192,127249,1,0,0:0:0:0:
448,192,127333,1,0,0:0:0:0:
64,192,127333,1,0,0:0:0:0:
320,192,127418,1,0,0:0:0:0:
192,192,127418,1,0,0:0:0:0:
448,192,127503,1,0,0:0:0:0:
64,192,127503,1,2,0:0:0:0:
192,192,127588,1,0,0:0:0:0:
448,192,127672,1,0,0:0:0:0:
320,192,127672,1,0,0:0:0:0:
192,192,127757,1,0,0:0:0:0:
64,192,127757,1,0,0:0:0:0:
448,192,127842,1,0,0:0:0:0:
320,192,127884,1,0,0:0:0:0:
192,192,127927,1,0,0:0:0:0:
64,192,127969,1,0,0:0:0:0:
448,192,128011,1,0,0:0:0:0:
320,192,128054,1,0,0:0:0:0:
192,192,128096,1,0,0:0:0:0:
64,192,128181,1,0,0:0:0:0:
192,192,128223,1,0,0:0:0:0:
320,192,128266,1,0,0:0:0:0:
448,192,128308,1,0,0:0:0:0:
64,192,128350,1,0,0:0:0:0:
192,192,128393,1,0,0:0:0:0:
320,192,128435,1,0,0:0:0:0:
448,192,128520,1,0,0:0:0:0:
64,192,128520,1,0,0:0:0:0:
192,192,128605,1,0,0:0:0:0:
320,192,128689,1,0,0:0:0:0:
448,192,128689,1,0,0:0:0:0:
64,192,128774,1,0,0:0:0:0:
192,192,128774,1,0,0:0:0:0:
320,192,128859,1,0,0:0:0:0:
448,192,128859,1,2,0:0:0:0:
64,192,128944,1,0,0:0:0:0:
192,192,129028,1,0,0:0:0:0:
448,192,129028,1,0,0:0:0:0:
64,192,129113,1,0,0:0:0:0:
320,192,129113,1,0,0:0:0:0:
192,192,129198,1,0,0:0:0:0:
448,192,129198,1,0,0:0:0:0:
64,192,129283,1,0,0:0:0:0:
448,192,129367,1,0,0:0:0:0:
320,192,129367,1,0,0:0:0:0:
192,192,129452,1,0,0:0:0:0:
64,192,129452,1,0,0:0:0:0:
320,192,129537,1,2,0:0:0:0:
448,192,129537,1,0,0:0:0:0:
192,192,129622,1,0,0:0:0:0:
64,192,129706,1,0,0:0:0:0:
448,192,129706,1,0,0:0:0:0:
320,192,129791,1,0,0:0:0:0:
192,192,129791,1,0,0:0:0:0:
64,192,129876,1,0,0:0:0:0:
448,192,129876,1,0,0:0:0:0:
320,192,129961,1,0,0:0:0:0:
192,192,130045,1,0,0:0:0:0:
64,192,130045,1,8,0:0:0:0:
448,192,130130,1,0,0:0:0:0:
64,192,130215,1,0,0:0:0:0:
192,192,130215,1,0,0:0:0:0:
64,192,130300,1,0,0:0:0:0:
192,192,130300,1,0,0:0:0:0:
320,192,130384,1,0,0:0:0:0:
448,192,130384,1,8,0:0:0:0:
192,192,130469,1,0,0:0:0:0:
448,192,130554,1,0,0:0:0:0:
64,192,130554,1,0,0:0:0:0:
192,192,130639,1,0,0:0:0:0:
320,192,130723,1,0,0:0:0:0:
448,192,130723,1,8,0:0:0:0:
192,192,130808,1,0,0:0:0:0:
64,192,130808,1,0,0:0:0:0:
320,192,130893,1,2,0:0:0:0:
448,192,130893,1,8,0:0:0:0:
64,192,130978,1,0,0:0:0:0:
192,192,131062,1,0,0:0:0:0:
320,192,131147,1,0,0:0:0:0:
448,192,131232,1,0,0:0:0:0:
64,192,131232,1,0,0:0:0:0:
192,192,131232,1,0,0:0:0:0:
320,192,131316,1,0,0:0:0:0:
448,192,131401,1,0,0:0:0:0:
64,192,131401,1,0,0:0:0:0:
192,192,131486,1,0,0:0:0:0:
320,192,131486,1,0,0:0:0:0:
448,192,131571,1,0,0:0:0:0:
64,192,131571,1,2,0:0:0:0:
192,192,131655,1,0,0:0:0:0:
320,192,131740,1,0,0:0:0:0:
448,192,131740,1,0,0:0:0:0:
192,192,131825,1,0,0:0:0:0:
64,192,131825,1,0,0:0:0:0:
448,192,131910,1,0,0:0:0:0:
320,192,131910,1,0,0:0:0:0:
192,192,131994,1,0,0:0:0:0:
64,192,132079,1,0,0:0:0:0:
320,192,132079,1,0,0:0:0:0:
192,192,132164,1,0,0:0:0:0:
448,192,132164,1,0,0:0:0:0:
320,192,132249,1,2,0:0:0:0:
64,192,132249,1,0,0:0:0:0:
192,192,132333,1,0,0:0:0:0:
320,192,132418,1,0,0:0:0:0:
448,192,132418,1,0,0:0:0:0:
64,192,132503,1,0,0:0:0:0:
192,192,132503,1,0,0:0:0:0:
448,192,132588,1,0,0:0:0:0:
320,192,132588,1,0,0:0:0:0:
192,192,132672,1,0,0:0:0:0:
64,192,132757,1,0,0:0:0:0:
448,192,132757,1,0,0:0:0:0:
320,192,132842,1,0,0:0:0:0:
192,192,132842,1,0,0:0:0:0:
64,192,132927,1,2,0:0:0:0:
448,192,132927,1,0,0:0:0:0:
320,192,133011,1,0,0:0:0:0:
192,192,133096,1,0,0:0:0:0:
64,192,133096,1,0,0:0:0:0:
448,192,133181,1,0,0:0:0:0:
320,192,133181,1,0,0:0:0:0:
64,192,133266,1,0,0:0:0:0:
192,192,133308,1,0,0:0:0:0:
320,192,133350,1,0,0:0:0:0:
448,192,133393,1,0,0:0:0:0:
64,192,133435,1,0,0:0:0:0:
192,192,133478,1,0,0:0:0:0:
320,192,133520,1,0,0:0:0:0:
448,192,133605,1,0,0:0:0:0:
320,192,133647,1,0,0:0:0:0:
192,192,133689,1,0,0:0:0:0:
64,192,133732,1,0,0:0:0:0:
448,192,133774,1,0,0:0:0:0:
320,192,133816,1,0,0:0:0:0:
192,192,133859,1,0,0:0:0:0:
64,192,133944,1,0,0:0:0:0:
448,192,133944,1,0,0:0:0:0:
320,192,134028,1,0,0:0:0:0:
192,192,134113,1,0,0:0:0:0:
64,192,134113,1,0,0:0:0:0:
448,192,134198,1,0,0:0:0:0:
320,192,134198,1,0,0:0:0:0:
192,192,134283,1,2,0:0:0:0:
64,192,134283,1,0,0:0:0:0:
448,192,134367,1,0,0:0:0:0:
320,192,134452,1,0,0:0:0:0:
64,192,134452,1,0,0:0:0:0:
192,192,134537,1,0,0:0:0:0:
448,192,134537,1,0,0:0:0:0:
320,192,134622,1,0,0:0:0:0:
64,192,134622,1,0,0:0:0:0:
448,192,134706,1,0,0:0:0:0:
64,192,134791,1,0,0:0:0:0:
192,192,134791,1,0,0:0:0:0:
320,192,134876,1,0,0:0:0:0:
448,192,134876,1,0,0:0:0:0:
192,192,134961,1,2,0:0:0:0:
64,192,134961,1,0,0:0:0:0:
320,192,135045,1,0,0:0:0:0:
64,192,135130,1,0,0:0:0:0:
448,192,135130,1,0,0:0:0:0:
192,192,135215,1,0,0:0:0:0:
320,192,135215,1,0,0:0:0:0:
64,192,135300,1,0,0:0:0:0:
448,192,135300,1,0,0:0:0:0:
192,192,135384,1,0,0:0:0:0:
448,192,135469,1,8,0:0:0:0:
320,192,135469,1,0,0:0:0:0:
64,192,135554,1,0,0:0:0:0:
320,192,135639,1,0,0:0:0:0:
448,192,135639,1,0,0:0:0:0:
448,192,135723,1,0,0:0:0:0:
320,192,135723,1,0,0:0:0:0:
192,192,135808,1,0,0:0:0:0:
64,192,135808,1,8,0:0:0:0:
320,192,135893,1,0,0:0:0:0:
64,192,135978,1,0,0:0:0:0:
448,192,135978,1,8,0:0:0:0:
192,192,135978,1,0,0:0:0:0:
320,192,136147,1,0,0:0:0:0:
192,192,136147,1,0,0:0:0:0:
64,192,136147,1,0,0:0:0:0:
448,192,136316,1,0,0:0:0:0:
320,192,136359,1,0,0:0:0:0:
192,192,136401,1,0,0:0:0:0:
64,192,136444,1,0,0:0:0:0:
448,192,136486,1,0,0:0:0:0:
320,192,136528,1,0,0:0:0:0:
192,192,136571,1,0,0:0:0:0:
64,192,136613,1,0,0:0:0:0:
448,192,136655,1,0,0:0:0:0:
320,192,136655,1,0,0:0:0:0:
192,192,136740,1,0,0:0:0:0:
448,192,136825,1,0,0:0:0:0:
64,192,136825,1,0,0:0:0:0:
192,192,136910,1,0,0:0:0:0:
320,192,136910,1,0,0:0:0:0:
448,192,136994,1,0,0:0:0:0:
64,192,136994,1,2,0:0:0:0:
192,192,137079,1,0,0:0:0:0:
448,192,137164,1,0,0:0:0:0:
320,192,137164,1,0,0:0:0:0:
192,192,137249,1,0,0:0:0:0:
64,192,137249,1,0,0:0:0:0:
320,192,137333,1,0,0:0:0:0:
448,192,137333,1,0,0:0:0:0:
64,192,137418,1,0,0:0:0:0:
192,192,137503,1,0,0:0:0:0:
448,192,137503,1,0,0:0:0:0:
320,192,137588,1,0,0:0:0:0:
64,192,137588,1,0,0:0:0:0:
192,192,137672,1,0,0:0:0:0:
448,192,137672,1,2,0:0:0:0:
320,192,137757,1,0,0:0:0:0:
192,192,137842,1,0,0:0:0:0:
64,192,137842,1,0,0:0:0:0:
448,192,137927,1,0,0:0:0:0:
320,192,137927,1,0,0:0:0:0:
192,192,138011,1,0,0:0:0:0:
64,192,138011,1,0,0:0:0:0:
320,192,138096,1,0,0:0:0:0:
448,192,138181,1,0,0:0:0:0:
64,192,138181,1,0,0:0:0:0:
192,192,138266,1,0,0:0:0:0:
320,192,138266,1,0,0:0:0:0:
64,192,138350,1,2,0:0:0:0:
448,192,138350,1,0,0:0:0:0:
320,192,138435,1,0,0:0:0:0:
192,192,138520,1,0,0:0:0:0:
64,192,138520,1,0,0:0:0:0:
448,192,138605,1,0,0:0:0:0:
320,192,138605,1,0,0:0:0:0:
64,192,138689,1,0,0:0:0:0:
192,192,138732,1,0,0:0:0:0:
320,192,138774,1,0,0:0:0:0:
448,192,138816,1,0,0:0:0:0:
64,192,138859,1,0,0:0:0:0:
192,192,138901,1,0,0:0:0:0:
320,192,138944,1,0,0:0:0:0:
448,192,139028,1,0,0:0:0:0:
320,192,139071,1,0,0:0:0:0:
192,192,139113,1,0,0:0:0:0:
64,192,139155,1,0,0:0:0:0:
448,192,139198,1,0,0:0:0:0:
320,192,139240,1,0,0:0:0:0:
192,192,139283,1,0,0:0:0:0:
64,192,139367,1,0,0:0:0:0:
448,192,139367,1,0,0:0:0:0:
320,192,139452,1,0,0:0:0:0:
192,192,139537,1,0,0:0:0:0:
64,192,139537,1,0,0:0:0:0:
448,192,139622,1,0,0:0:0:0:
320,192,139622,1,0,0:0:0:0:
192,192,139706,1,2,0:0:0:0:
64,192,139706,1,0,0:0:0:0:
448,192,139791,1,0,0:0:0:0:
320,192,139876,1,0,0:0:0:0:
64,192,139876,1,0,0:0:0:0:
192,192,139961,1,0,0:0:0:0:
448,192,139961,1,0,0:0:0:0:
64,192,140045,1,0,0:0:0:0:
320,192,140045,1,0,0:0:0:0:
448,192,140130,1,0,0:0:0:0:
64,192,140215,1,0,0:0:0:0:
192,192,140215,1,0,0:0:0:0:
320,192,140300,1,0,0:0:0:0:
448,192,140300,1,0,0:0:0:0:
192,192,140384,1,2,0:0:0:0:
64,192,140384,1,0,0:0:0:0:
320,192,140469,1,0,0:0:0:0:
448,192,140554,1,0,0:0:0:0:
64,192,140554,1,0,0:0:0:0:
320,192,140639,1,0,0:0:0:0:
192,192,140639,1,0,0:0:0:0:
64,192,140723,1,0,0:0:0:0:
448,192,140723,1,0,0:0:0:0:
192,192,140808,1,0,0:0:0:0:
448,192,140893,1,0,0:0:0:0:
320,192,140893,1,8,0:0:0:0:
64,192,140978,1,0,0:0:0:0:
448,192,141062,1,0,0:0:0:0:
320,192,141062,1,0,0:0:0:0:
320,192,141147,1,0,0:0:0:0:
448,192,141147,1,0,0:0:0:0:
64,192,141232,1,8,0:0:0:0:
192,192,141232,1,0,0:0:0:0:
320,192,141316,1,0,0:0:0:0:
448,192,141401,1,0,0:0:0:0:
64,192,141401,1,0,0:0:0:0:
192,192,141486,1,0,0:0:0:0:
320,192,141571,1,0,0:0:0:0:
448,192,141571,1,8,0:0:0:0:
192,192,141655,1,0,0:0:0:0:
64,192,141655,1,0,0:0:0:0:
320,192,141740,1,8,0:0:0:0:
448,192,141740,1,2,0:0:0:0:
64,192,141825,1,0,0:0:0:0:
192,192,141910,1,0,0:0:0:0:
320,192,141994,1,0,0:0:0:0:
64,192,142079,1,0,0:0:0:0:
448,192,142079,1,0,0:0:0:0:
192,192,142079,1,0,0:0:0:0:
320,192,142164,1,0,0:0:0:0:
448,192,142249,1,0,0:0:0:0:
64,192,142249,1,0,0:0:0:0:
192,192,142333,1,0,0:0:0:0:
320,192,142333,1,0,0:0:0:0:
64,192,142418,1,0,0:0:0:0:
448,192,142418,1,2,0:0:0:0:
192,192,142503,1,0,0:0:0:0:
320,192,142588,1,0,0:0:0:0:
448,192,142588,1,0,0:0:0:0:
64,192,142672,1,0,0:0:0:0:
192,192,142672,1,0,0:0:0:0:
320,192,142757,1,0,0:0:0:0:
448,192,142757,1,0,0:0:0:0:
192,192,142842,1,0,0:0:0:0:
320,192,142927,1,0,0:0:0:0:
64,192,142927,1,0,0:0:0:0:
448,192,143011,1,0,0:0:0:0:
192,192,143011,1,0,0:0:0:0:
320,192,143096,1,2,0:0:0:0:
64,192,143096,1,0,0:0:0:0:
192,192,143181,1,0,0:0:0:0:
448,192,143266,1,0,0:0:0:0:
320,192,143266,1,0,0:0:0:0:
64,192,143350,1,0,0:0:0:0:
192,192,143350,1,0,0:0:0:0:
448,192,143435,1,0,0:0:0:0:
320,192,143435,1,0,0:0:0:0:
192,192,143520,1,0,0:0:0:0:
320,192,143605,1,0,0:0:0:0:
64,192,143605,1,0,0:0:0:0:
448,192,143689,1,0,0:0:0:0:
192,192,143689,1,0,0:0:0:0:
64,192,143774,1,0,0:0:0:0:
320,192,143774,1,2,0:0:0:0:
192,192,143859,1,0,0:0:0:0:
448,192,143944,1,0,0:0:0:0:
320,192,143944,1,0,0:0:0:0:
192,192,144028,1,0,0:0:0:0:
64,192,144028,1,0,0:0:0:0:
448,192,144113,1,0,0:0:0:0:
320,192,144155,1,0,0:0:0:0:
192,192,144198,1,0,0:0:0:0:
64,192,144240,1,0,0:0:0:0:
448,192,144283,1,0,0:0:0:0:
320,192,144325,1,0,0:0:0:0:
192,192,144367,1,0,0:0:0:0:
64,192,144452,1,0,0:0:0:0:
192,192,144494,1,0,0:0:0:0:
320,192,144537,1,0,0:0:0:0:
448,192,144579,1,0,0:0:0:0:
64,192,144622,1,0,0:0:0:0:
192,192,144664,1,0,0:0:0:0:
320,192,144706,1,0,0:0:0:0:
64,192,144791,1,0,0:0:0:0:
448,192,144791,1,0,0:0:0:0:
192,192,144876,1,0,0:0:0:0:
320,192,144961,1,0,0:0:0:0:
448,192,144961,1,0,0:0:0:0:
64,192,145045,1,0,0:0:0:0:
192,192,145045,1,0,0:0:0:0:
448,192,145130,1,2,0:0:0:0:
320,192,145130,1,0,0:0:0:0:
192,192,145215,1,0,0:0:0:0:
448,192,145300,1,0,0:0:0:0:
64,192,145300,1,0,0:0:0:0:
320,192,145384,1,0,0:0:0:0:
64,192,145469,1,2,0:0:0:0:
448,192,145469,1,0,0:0:0:0:
192,192,145469,1,0,0:0:0:0:
320,192,145554,1,0,0:0:0:0:
64,192,145639,1,0,0:0:0:0:
192,192,145639,1,0,0:0:0:0:
320,192,145723,1,0,0:0:0:0:
192,192,145808,1,0,0:0:0:0:
448,192,145808,1,2,0:0:0:0:
64,192,145808,1,0,0:0:0:0:
320,192,145893,1,0,0:0:0:0:
64,192,145978,1,0,0:0:0:0:
448,192,145978,1,0,0:0:0:0:
192,192,146062,1,0,0:0:0:0:
448,192,146147,1,8,0:0:0:0:
64,192,146147,1,4,0:0:0:0:
320,192,146147,1,0,0:0:0:0:
192,192,146232,1,0,0:0:0:0:
320,192,146316,1,0,0:0:0:0:
448,192,146401,1,0,0:0:0:0:
64,192,146486,1,0,0:0:0:0:
192,192,146571,1,0,0:0:0:0:
320,192,146655,1,0,0:0:0:0:
448,192,146740,1,0,0:0:0:0:
320,192,146825,1,0,0:0:0:0:
448,192,146910,1,0,0:0:0:0:
64,192,146994,1,0,0:0:0:0:
192,192,147079,1,0,0:0:0:0:
320,192,147164,1,0,0:0:0:0:
448,192,147164,1,0,0:0:0:0:
448,192,147503,1,0,0:0:0:0:
64,192,147503,1,0,0:0:0:0:
192,192,147503,1,0,0:0:0:0:
320,192,147588,1,0,0:0:0:0:
64,192,147672,1,0,0:0:0:0:
448,192,147672,1,0,0:0:0:0:
192,192,147757,1,0,0:0:0:0:
448,192,147842,1,0,0:0:0:0:
320,192,147842,1,0,0:0:0:0:
192,192,147927,1,0,0:0:0:0:
64,192,148011,1,0,0:0:0:0:
448,192,148011,1,0,0:0:0:0:
320,192,148096,1,0,0:0:0:0:
448,192,148181,1,0,0:0:0:0:
64,192,148181,1,0,0:0:0:0:
192,192,148266,1,0,0:0:0:0:
448,192,148350,1,0,0:0:0:0:
320,192,148350,1,0,0:0:0:0:
64,192,148435,1,0,0:0:0:0:
448,192,148520,1,0,0:0:0:0:
192,192,148520,1,0,0:0:0:0:
320,192,148605,1,0,0:0:0:0:
192,192,148689,1,0,0:0:0:0:
64,192,148689,1,0,0:0:0:0:
448,192,148746,128,0,148802:0:0:0:0:
320,192,148802,128,0,148859:0:0:0:0:
64,192,148859,128,0,148915:0:0:0:0:
192,192,148915,128,0,148972:0:0:0:0:
320,192,148972,128,0,149028:0:0:0:0:
448,192,149028,128,0,149085:0:0:0:0:
64,192,149085,128,0,149141:0:0:0:0:
192,192,149141,128,0,149198:0:0:0:0:
320,192,149198,1,0,0:0:0:0:
448,192,149198,1,0,0:0:0:0:
192,192,149283,1,0,0:0:0:0:
64,192,149367,1,0,0:0:0:0:
448,192,149367,1,0,0:0:0:0:
320,192,149452,1,0,0:0:0:0:
448,192,149537,1,0,0:0:0:0:
64,192,149537,1,0,0:0:0:0:
192,192,149622,1,0,0:0:0:0:
448,192,149706,1,0,0:0:0:0:
320,192,149706,1,0,0:0:0:0:
64,192,149791,1,0,0:0:0:0:
448,192,149876,1,0,0:0:0:0:
192,192,149876,1,0,0:0:0:0:
320,192,149961,1,0,0:0:0:0:
192,192,150045,1,0,0:0:0:0:
64,192,150045,1,0,0:0:0:0:
448,192,150130,1,0,0:0:0:0:
64,192,150215,1,0,0:0:0:0:
192,192,150215,1,0,0:0:0:0:
320,192,150300,1,0,0:0:0:0:
448,192,150384,1,0,0:0:0:0:
64,192,150384,1,0,0:0:0:0:
192,192,150469,1,0,0:0:0:0:
320,192,150469,1,0,0:0:0:0:
448,192,150554,1,0,0:0:0:0:
64,192,150554,1,0,0:0:0:0:
320,192,150639,1,0,0:0:0:0:
64,192,150723,1,0,0:0:0:0:
192,192,150723,1,0,0:0:0:0:
448,192,150808,1,0,0:0:0:0:
192,192,150893,1,0,0:0:0:0:
64,192,150893,1,0,0:0:0:0:
320,192,150978,1,0,0:0:0:0:
64,192,151062,1,0,0:0:0:0:
448,192,151062,1,0,0:0:0:0:
192,192,151147,1,0,0:0:0:0:
320,192,151232,1,0,0:0:0:0:
448,192,151232,1,0,0:0:0:0:
192,192,151316,1,0,0:0:0:0:
64,192,151401,1,0,0:0:0:0:
448,192,151401,1,0,0:0:0:0:
320,192,151486,1,0,0:0:0:0:
64,192,151571,1,0,0:0:0:0:
192,192,151571,1,0,0:0:0:0:
320,192,151655,1,0,0:0:0:0:
448,192,151740,1,0,0:0:0:0:
64,192,151740,1,0,0:0:0:0:
192,192,151825,1,0,0:0:0:0:
320,192,151910,1,0,0:0:0:0:
448,192,151910,1,0,0:0:0:0:
192,192,151994,1,0,0:0:0:0:
64,192,152079,1,0,0:0:0:0:
448,192,152079,1,0,0:0:0:0:
320,192,152136,128,0,152192:0:0:0:0:
192,192,152192,128,0,152249:0:0:0:0:
64,192,152249,128,0,152305:0:0:0:0:
320,192,152305,128,0,152362:0:0:0:0:
448,192,152362,128,0,152418:0:0:0:0:
64,192,152418,128,0,152475:0:0:0:0:
192,192,152475,128,0,152531:0:0:0:0:
320,192,152531,128,0,152588:0:0:0:0:
448,192,152588,128,0,152644:0:0:0:0:
192,192,152644,128,0,152701:0:0:0:0:
64,192,152701,128,0,152757:0:0:0:0:
448,192,152757,128,0,152814:0:0:0:0:
320,192,152814,128,0,152870:0:0:0:0:
192,192,152870,128,0,152927:0:0:0:0:
448,192,152927,1,0,0:0:0:0:
64,192,152927,1,0,0:0:0:0:
192,192,153011,1,0,0:0:0:0:
448,192,153096,1,0,0:0:0:0:
320,192,153096,1,0,0:0:0:0:
64,192,153181,1,0,0:0:0:0:
448,192,153266,1,0,0:0:0:0:
192,192,153266,1,0,0:0:0:0:
320,192,153350,1,0,0:0:0:0:
64,192,153435,1,0,0:0:0:0:
192,192,153435,1,0,0:0:0:0:
448,192,153520,1,0,0:0:0:0:
320,192,153605,1,0,0:0:0:0:
64,192,153605,1,0,0:0:0:0:
448,192,153689,1,0,0:0:0:0:
192,192,153774,1,0,0:0:0:0:
64,192,153774,1,0,0:0:0:0:
320,192,153859,1,0,0:0:0:0:
448,192,153944,1,0,0:0:0:0:
64,192,153944,1,0,0:0:0:0:
320,192,154028,1,0,0:0:0:0:
64,192,154113,1,0,0:0:0:0:
192,192,154113,1,0,0:0:0:0:
448,192,154170,128,0,154226:0:0:0:0:
320,192,154226,128,0,154283:0:0:0:0:
64,192,154283,128,0,154339:0:0:0:0:
192,192,154339,128,0,154396:0:0:0:0:
320,192,154396,128,0,154452:0:0:0:0:
448,192,154452,128,0,154509:0:0:0:0:
64,192,154509,128,0,154565:0:0:0:0:
192,192,154565,128,0,154622:0:0:0:0:
320,192,154622,1,0,0:0:0:0:
448,192,154622,1,0,0:0:0:0:
192,192,154706,1,0,0:0:0:0:
64,192,154791,1,0,0:0:0:0:
448,192,154791,1,0,0:0:0:0:
320,192,154876,1,0,0:0:0:0:
448,192,154961,1,0,0:0:0:0:
64,192,154961,1,0,0:0:0:0:
192,192,155045,1,0,0:0:0:0:
448,192,155130,1,0,0:0:0:0:
320,192,155130,1,0,0:0:0:0:
64,192,155215,1,0,0:0:0:0:
320,192,155300,1,0,0:0:0:0:
192,192,155300,1,0,0:0:0:0:
64,192,155384,1,0,0:0:0:0:
448,192,155469,1,0,0:0:0:0:
320,192,155554,1,0,0:0:0:0:
64,192,155639,1,0,0:0:0:0:
192,192,155639,1,0,0:0:0:0:
320,192,155723,1,0,0:0:0:0:
64,192,155808,1,0,0:0:0:0:
448,192,155808,1,0,0:0:0:0:
192,192,155893,1,0,0:0:0:0:
320,192,155893,1,0,0:0:0:0:
64,192,155978,1,0,0:0:0:0:
448,192,155978,1,0,0:0:0:0:
320,192,156062,1,0,0:0:0:0:
192,192,156147,1,0,0:0:0:0:
64,192,156147,1,0,0:0:0:0:
448,192,156232,1,0,0:0:0:0:
192,192,156316,1,0,0:0:0:0:
64,192,156316,1,0,0:0:0:0:
320,192,156401,1,0,0:0:0:0:
448,192,156486,1,0,0:0:0:0:
64,192,156486,1,0,0:0:0:0:
192,192,156542,128,0,156599:0:0:0:0:
320,192,156599,128,0,156655:0:0:0:0:
448,192,156655,128,0,156712:0:0:0:0:
192,192,156712,128,0,156768:0:0:0:0:
64,192,156768,128,0,156825:0:0:0:0:
320,192,156825,1,0,0:0:0:0:
448,192,156825,1,0,0:0:0:0:
64,192,156910,1,0,0:0:0:0:
192,192,156910,1,0,0:0:0:0:
320,192,156994,1,0,0:0:0:0:
448,192,156994,1,0,0:0:0:0:
64,192,157079,1,0,0:0:0:0:
192,192,157164,1,0,0:0:0:0:
320,192,157164,1,0,0:0:0:0:
448,192,157249,1,0,0:0:0:0:
64,192,157333,1,0,0:0:0:0:
192,192,157333,1,0,0:0:0:0:
448,192,157446,128,0,157503:0:0:0:0:
320,192,157503,128,0,157559:0:0:0:0:
192,192,157559,128,0,157616:0:0:0:0:
64,192,157616,128,0,157672:0:0:0:0:
448,192,157672,1,0,0:0:0:0:
320,192,157672,1,0,0:0:0:0:
192,192,157757,1,0,0:0:0:0:
64,192,157842,1,0,0:0:0:0:
448,192,157842,1,0,0:0:0:0:
192,192,157927,1,0,0:0:0:0:
448,192,158011,1,0,0:0:0:0:
320,192,158011,1,0,0:0:0:0:
192,192,158124,128,0,158181:0:0:0:0:
64,192,158181,128,0,158237:0:0:0:0:
448,192,158237,128,0,158294:0:0:0:0:
320,192,158294,128,0,158350:0:0:0:0:
64,192,158350,1,0,0:0:0:0:
192,192,158350,1,0,0:0:0:0:
320,192,158435,1,0,0:0:0:0:
448,192,158520,1,0,0:0:0:0:
64,192,158520,1,0,0:0:0:0:
192,192,158605,1,0,0:0:0:0:
448,192,158689,1,0,0:0:0:0:
320,192,158689,1,0,0:0:0:0:
192,192,158774,1,0,0:0:0:0:
448,192,158859,1,0,0:0:0:0:
64,192,158859,1,0,0:0:0:0:
320,192,158944,1,0,0:0:0:0:
192,192,159028,1,0,0:0:0:0:
64,192,159028,1,0,0:0:0:0:
320,192,159141,128,0,159198:0:0:0:0:
448,192,159198,128,0,159254:0:0:0:0:
64,192,159254,128,0,159311:0:0:0:0:
192,192,159311,128,0,159367:0:0:0:0:
448,192,159367,1,0,0:0:0:0:
320,192,159367,1,0,0:0:0:0:
64,192,159452,1,0,0:0:0:0:
448,192,159537,1,0,0:0:0:0:
320,192,159537,1,0,0:0:0:0:
192,192,159622,1,0,0:0:0:0:
320,192,159706,1,0,0:0:0:0:
64,192,159706,1,0,0:0:0:0:
192,192,159791,1,0,0:0:0:0:
448,192,159876,1,0,0:0:0:0:
320,192,159876,1,0,0:0:0:0:
64,192,159961,1,0,0:0:0:0:
192,192,160045,1,0,0:0:0:0:
320,192,160045,1,0,0:0:0:0:
448,192,160158,128,0,160215:0:0:0:0:
320,192,160215,128,0,160271:0:0:0:0:
192,192,160271,128,0,160328:0:0:0:0:
64,192,160328,128,0,160384:0:0:0:0:
192,192,160384,1,0,0:0:0:0:
448,192,160384,1,0,0:0:0:0:
320,192,160469,1,0,0:0:0:0:
64,192,160554,1,0,0:0:0:0:
448,192,160554,1,0,0:0:0:0:
192,192,160639,1,0,0:0:0:0:
448,192,160723,1,0,0:0:0:0:
320,192,160723,1,0,0:0:0:0:
192,192,160836,128,0,160893:0:0:0:0:
64,192,160893,128,0,160949:0:0:0:0:
448,192,160949,128,0,161006:0:0:0:0:
320,192,161006,128,0,161062:0:0:0:0:
64,192,161062,1,0,0:0:0:0:
192,192,161062,1,0,0:0:0:0:
320,192,161147,1,0,0:0:0:0:
448,192,161232,1,0,0:0:0:0:
64,192,161232,1,0,0:0:0:0:
192,192,161316,1,0,0:0:0:0:
448,192,161401,1,0,0:0:0:0:
320,192,161401,1,0,0:0:0:0:
192,192,161486,1,0,0:0:0:0:
64,192,161571,1,0,0:0:0:0:
448,192,161571,1,0,0:0:0:0:
320,192,161655,1,0,0:0:0:0:
64,192,161740,1,0,0:0:0:0:
192,192,161740,1,0,0:0:0:0:
320,192,161825,1,0,0:0:0:0:
64,192,161910,1,0,0:0:0:0:
448,192,161910,1,0,0:0:0:0:
192,192,161994,1,0,0:0:0:0:
448,192,162079,1,0,0:0:0:0:
320,192,162079,1,0,0:0:0:0:
192,192,162164,1,0,0:0:0:0:
448,192,162249,1,0,0:0:0:0:
64,192,162249,1,0,0:0:0:0:
320,192,162305,128,0,162362:0:0:0:0:
192,192,162362,128,0,162418:0:0:0:0:
64,192,162418,128,0,162475:0:0:0:0:
320,192,162475,128,0,162531:0:0:0:0:
448,192,162531,128,0,162588:0:0:0:0:
64,192,162588,128,0,162644:0:0:0:0:
192,192,162644,128,0,162701:0:0:0:0:
448,192,162701,128,0,162757:0:0:0:0:
320,192,162757,128,0,162814:0:0:0:0:
192,192,162814,128,0,162870:0:0:0:0:
64,192,162870,128,0,162927:0:0:0:0:
448,192,162927,128,0,162983:0:0:0:0:
320,192,162983,128,0,163040:0:0:0:0:
192,192,163040,128,0,163096:0:0:0:0:
64,192,163096,1,0,0:0:0:0:
448,192,163096,1,0,0:0:0:0:
192,192,163181,1,0,0:0:0:0:
320,192,163266,1,0,0:0:0:0:
448,192,163266,1,0,0:0:0:0:
64,192,163350,1,0,0:0:0:0:
320,192,163435,1,0,0:0:0:0:
192,192,163435,1,0,0:0:0:0:
64,192,163520,1,0,0:0:0:0:
320,192,163605,1,0,0:0:0:0:
448,192,163605,1,0,0:0:0:0:
192,192,163689,1,0,0:0:0:0:
320,192,163774,1,0,0:0:0:0:
448,192,163774,1,0,0:0:0:0:
64,192,163774,1,0,0:0:0:0:
192,192,163859,1,0,0:0:0:0:
320,192,163944,1,0,0:0:0:0:
448,192,163944,1,0,0:0:0:0:
64,192,164028,1,0,0:0:0:0:
448,192,164113,1,0,0:0:0:0:
192,192,164113,1,0,0:0:0:0:
320,192,164198,1,0,0:0:0:0:
192,192,164283,1,0,0:0:0:0:
64,192,164283,1,0,0:0:0:0:
448,192,164367,1,0,0:0:0:0:
192,192,164452,1,0,0:0:0:0:
320,192,164452,1,0,0:0:0:0:
448,192,164565,128,0,164622:0:0:0:0:
64,192,164622,128,0,164678:0:0:0:0:
192,192,164678,128,0,164735:0:0:0:0:
320,192,164735,128,0,164791:0:0:0:0:
64,192,164791,1,0,0:0:0:0:
192,192,164791,1,0,0:0:0:0:
448,192,164791,1,0,0:0:0:0:
320,192,164876,1,0,0:0:0:0:
64,192,164961,1,0,0:0:0:0:
448,192,164961,1,0,0:0:0:0:
192,192,165045,1,0,0:0:0:0:
320,192,165130,1,0,0:0:0:0:
64,192,165130,1,0,0:0:0:0:
448,192,165215,1,0,0:0:0:0:
64,192,165300,1,0,0:0:0:0:
192,192,165300,1,0,0:0:0:0:
320,192,165384,1,0,0:0:0:0:
192,192,165469,1,0,0:0:0:0:
448,192,165469,1,0,0:0:0:0:
64,192,165582,128,0,165639:0:0:0:0:
448,192,165639,128,0,165695:0:0:0:0:
320,192,165695,128,0,165752:0:0:0:0:
192,192,165752,128,0,165808:0:0:0:0:
64,192,165808,1,0,0:0:0:0:
320,192,165808,1,0,0:0:0:0:
448,192,165808,1,0,0:0:0:0:
192,192,165893,1,0,0:0:0:0:
320,192,165978,1,0,0:0:0:0:
64,192,165978,1,0,0:0:0:0:
448,192,166062,1,0,0:0:0:0:
64,192,166147,1,0,0:0:0:0:
192,192,166147,1,0,0:0:0:0:
448,192,166260,128,0,166316:0:0:0:0:
320,192,166316,128,0,166373:0:0:0:0:
192,192,166373,128,0,166429:0:0:0:0:
64,192,166429,128,0,166486:0:0:0:0:
320,192,166486,1,0,0:0:0:0:
448,192,166486,1,0,0:0:0:0:
64,192,166571,1,0,0:0:0:0:
192,192,166571,1,0,0:0:0:0:
320,192,166655,1,0,0:0:0:0:
448,192,166655,1,0,0:0:0:0:
192,192,166740,1,0,0:0:0:0:
64,192,166740,1,0,0:0:0:0:
320,192,166825,1,0,0:0:0:0:
448,192,166825,1,0,0:0:0:0:
192,192,166910,1,0,0:0:0:0:
64,192,166910,1,0,0:0:0:0:
448,192,166994,1,0,0:0:0:0:
320,192,166994,1,0,0:0:0:0:
192,192,167079,1,0,0:0:0:0:
64,192,167079,1,0,0:0:0:0:
448,192,167164,1,0,0:0:0:0:
320,192,167164,1,0,0:0:0:0:
192,192,167249,1,0,0:0:0:0:
64,192,167249,1,0,0:0:0:0:
448,192,167333,1,0,0:0:0:0:
320,192,167333,1,0,0:0:0:0:
192,192,167418,1,0,0:0:0:0:
64,192,167418,1,0,0:0:0:0:
448,192,167503,1,0,0:0:0:0:
320,192,167503,1,0,0:0:0:0:
192,192,167588,1,0,0:0:0:0:
64,192,167588,1,0,0:0:0:0:
320,192,167672,1,0,0:0:0:0:
448,192,167672,1,0,0:0:0:0:
192,192,167757,1,0,0:0:0:0:
448,192,167842,1,0,0:0:0:0:
320,192,167842,1,8,0:0:0:0:
64,192,167842,1,0,0:0:0:0:
192,192,168520,128,0,168562:0:0:0:0:
64,192,168562,128,0,168859:0:0:0:0:
448,192,168859,128,0,169198:0:0:0:0:
192,192,169198,1,0,0:0:0:0:
64,192,169198,1,6,0:0:0:0:
320,192,169198,128,0,170780:0:0:0:0:
64,192,169311,1,0,0:0:0:0:
192,192,169424,1,0,0:0:0:0:
64,192,169537,1,0,0:0:0:0:
448,192,169650,1,0,0:0:0:0:
192,192,169763,1,0,0:0:0:0:
448,192,169876,1,0,0:0:0:0:
64,192,169876,1,6,0:0:0:0:
448,192,169989,1,0,0:0:0:0:
192,192,170102,1,0,0:0:0:0:
64,192,170215,1,0,0:0:0:0:
448,192,170328,1,0,0:0:0:0:
192,192,170441,1,0,0:0:0:0:
448,192,170554,1,0,0:0:0:0:
64,192,170554,1,6,0:0:0:0:
64,192,170667,1,0,0:0:0:0:
192,192,170780,128,0,170836:0:0:0:0:
64,192,170836,128,0,170893:0:0:0:0:
320,192,170893,128,0,170949:0:0:0:0:
192,192,170949,128,0,171006:0:0:0:0:
448,192,171006,128,0,171062:0:0:0:0:
64,192,171062,128,0,171119:0:0:0:0:
320,192,171119,128,0,171175:0:0:0:0:
192,192,171175,128,0,171232:0:0:0:0:
64,192,171232,128,0,171288:0:0:0:0:
320,192,171288,128,0,171345:0:0:0:0:
192,192,171345,128,0,171401:0:0:0:0:
448,192,171401,128,0,171458:0:0:0:0:
320,192,171458,128,0,171514:0:0:0:0:
64,192,171514,128,0,171571:0:0:0:0:
192,192,171571,128,0,171627:0:0:0:0:
448,192,171627,128,0,171684:0:0:0:0:
320,192,171684,128,0,171740:0:0:0:0:
192,192,171740,128,0,171797:0:0:0:0:
448,192,171797,128,0,171853:0:0:0:0:
320,192,171853,128,0,171910:0:0:0:0:
64,192,171910,1,6,0:0:0:0:
192,192,171910,128,0,171966:0:0:0:0:
448,192,171966,128,0,172023:0:0:0:0:
64,192,172023,128,0,172079:0:0:0:0:
192,192,172079,128,0,172136:0:0:0:0:
320,192,172136,128,0,172192:0:0:0:0:
64,192,172192,128,0,172249:0:0:0:0:
448,192,172249,128,0,172305:0:0:0:0:
320,192,172305,128,0,172362:0:0:0:0:
192,192,172362,128,0,172418:0:0:0:0:
64,192,172418,128,0,172475:0:0:0:0:
448,192,172475,128,0,172531:0:0:0:0:
320,192,172531,128,0,172588:0:0:0:0:
192,192,172588,128,0,172644:0:0:0:0:
64,192,172588,1,6,0:0:0:0:
448,192,172644,128,0,172701:0:0:0:0:
64,192,172701,128,0,172757:0:0:0:0:
192,192,172757,128,0,172814:0:0:0:0:
320,192,172814,128,0,172870:0:0:0:0:
64,192,172870,128,0,172927:0:0:0:0:
448,192,172927,128,0,172983:0:0:0:0:
320,192,172983,128,0,173040:0:0:0:0:
192,192,173040,128,0,173096:0:0:0:0:
64,192,173096,128,0,173153:0:0:0:0:
448,192,173153,128,0,173209:0:0:0:0:
320,192,173209,128,0,173266:0:0:0:0:
64,192,173266,1,6,0:0:0:0:
192,192,173266,128,0,173322:0:0:0:0:
448,192,173322,128,0,173379:0:0:0:0:
320,192,173379,128,0,173435:0:0:0:0:
64,192,173435,128,0,173492:0:0:0:0:
192,192,173492,128,0,173548:0:0:0:0:
320,192,173548,128,0,173605:0:0:0:0:
448,192,173605,128,0,173661:0:0:0:0:
192,192,173661,128,0,173718:0:0:0:0:
320,192,173718,128,0,173774:0:0:0:0:
64,192,173774,128,0,173831:0:0:0:0:
448,192,173831,128,0,173887:0:0:0:0:
320,192,173887,128,0,173944:0:0:0:0:
192,192,173944,128,0,174000:0:0:0:0:
64,192,173944,1,0,0:0:0:0:
448,192,174000,128,0,174057:0:0:0:0:
320,192,174057,128,0,174113:0:0:0:0:
64,192,174113,128,0,174170:0:0:0:0:
192,192,174170,128,0,174226:0:0:0:0:
320,192,174226,128,0,174283:0:0:0:0:
64,192,174283,128,0,174339:0:0:0:0:
448,192,174283,1,0,0:0:0:0:
192,192,174339,128,0,174396:0:0:0:0:
448,192,174396,128,0,174452:0:0:0:0:
320,192,174452,128,0,174509:0:0:0:0:
192,192,174509,128,0,174565:0:0:0:0:
64,192,174565,128,0,174622:0:0:0:0:
320,192,174622,128,0,175978:0:0:0:0:
448,192,174622,1,6,0:0:0:0:
192,192,174735,1,0,0:0:0:0:
448,192,174848,1,0,0:0:0:0:
64,192,174961,1,0,0:0:0:0:
448,192,175074,1,0,0:0:0:0:
192,192,175187,1,0,0:0:0:0:
448,192,175300,1,0,0:0:0:0:
64,192,175300,1,6,0:0:0:0:
64,192,175413,1,0,0:0:0:0:
192,192,175526,1,0,0:0:0:0:
64,192,175639,1,0,0:0:0:0:
448,192,175752,1,0,0:0:0:0:
64,192,175865,1,0,0:0:0:0:
192,192,175978,128,0,176655:0:0:0:0:
448,192,175978,1,6,0:0:0:0:
448,192,176090,1,0,0:0:0:0:
320,192,176203,1,0,0:0:0:0:
64,192,176316,1,0,0:0:0:0:
448,192,176429,1,0,0:0:0:0:
320,192,176542,1,0,0:0:0:0:
448,192,176655,128,0,177333:0:0:0:0:
64,192,176655,1,0,0:0:0:0:
192,192,176768,1,0,0:0:0:0:
320,192,176881,1,0,0:0:0:0:
192,192,176938,1,0,0:0:0:0:
64,192,176994,1,0,0:0:0:0:
320,192,177107,1,0,0:0:0:0:
192,192,177220,1,0,0:0:0:0:
64,192,177333,1,6,0:0:0:0:
320,192,177333,128,0,179367:0:0:0:0:
64,192,177446,1,0,0:0:0:0:
192,192,177559,1,0,0:0:0:0:
64,192,177672,1,0,0:0:0:0:
448,192,177785,1,0,0:0:0:0:
192,192,177898,1,0,0:0:0:0:
448,192,178011,1,6,0:0:0:0:
64,192,178011,1,0,0:0:0:0:
448,192,178124,1,0,0:0:0:0:
192,192,178237,1,0,0:0:0:0:
64,192,178350,1,0,0:0:0:0:
448,192,178463,1,0,0:0:0:0:
192,192,178576,1,0,0:0:0:0:
448,192,178689,1,0,0:0:0:0:
64,192,178689,1,6,0:0:0:0:
64,192,178802,1,0,0:0:0:0:
192,192,178915,1,0,0:0:0:0:
64,192,179028,1,0,0:0:0:0:
192,192,179141,1,0,0:0:0:0:
448,192,179254,1,0,0:0:0:0:
64,192,179367,128,0,179480:0:0:0:0:
192,192,179480,128,0,179593:0:0:0:0:
320,192,179593,128,0,179706:0:0:0:0:
448,192,179593,1,0,0:0:0:0:
192,192,179706,128,0,179819:0:0:0:0:
64,192,179706,1,4,0:0:0:0:
320,192,179819,128,0,179932:0:0:0:0:
448,192,179932,128,0,180045:0:0:0:0:
320,192,180045,1,0,0:0:0:0:
192,192,180045,1,0,0:0:0:0:
64,192,180045,1,6,0:0:0:0:
64,192,180158,1,0,0:0:0:0:
320,192,180271,1,0,0:0:0:0:
192,192,180384,1,0,0:0:0:0:
64,192,180497,1,0,0:0:0:0:
448,192,180554,1,0,0:0:0:0:
320,192,180610,1,0,0:0:0:0:
192,192,180667,1,0,0:0:0:0:
448,192,180723,1,6,0:0:0:0:
64,192,180723,1,0,0:0:0:0:
320,192,180723,1,0,0:0:0:0:
448,192,180836,1,0,0:0:0:0:
192,192,180949,1,0,0:0:0:0:
320,192,181062,1,0,0:0:0:0:
448,192,181175,1,0,0:0:0:0:
64,192,181232,1,0,0:0:0:0:
192,192,181288,1,0,0:0:0:0:
320,192,181345,1,0,0:0:0:0:
448,192,181401,1,0,0:0:0:0:
64,192,181401,1,6,0:0:0:0:
192,192,181401,1,0,0:0:0:0:
64,192,181514,1,0,0:0:0:0:
320,192,181627,1,0,0:0:0:0:
192,192,181740,1,0,0:0:0:0:
64,192,181853,1,0,0:0:0:0:
448,192,181910,1,0,0:0:0:0:
320,192,181966,1,0,0:0:0:0:
192,192,182023,1,0,0:0:0:0:
448,192,182079,1,0,0:0:0:0:
64,192,182079,1,0,0:0:0:0:
64,192,182192,1,0,0:0:0:0:
448,192,182305,1,0,0:0:0:0:
320,192,182362,1,0,0:0:0:0:
192,192,182418,1,0,0:0:0:0:
64,192,182418,1,0,0:0:0:0:
448,192,182531,1,0,0:0:0:0:
64,192,182531,1,0,0:0:0:0:
448,192,182644,1,0,0:0:0:0:
320,192,182644,1,0,0:0:0:0:
64,192,182757,1,6,0:0:0:0:
320,192,182757,1,0,0:0:0:0:
192,192,182757,1,0,0:0:0:0:
64,192,182870,1,0,0:0:0:0:
320,192,182983,1,0,0:0:0:0:
192,192,183096,1,0,0:0:0:0:
64,192,183209,1,0,0:0:0:0:
448,192,183266,1,0,0:0:0:0:
320,192,183322,1,0,0:0:0:0:
192,192,183379,1,0,0:0:0:0:
320,192,183435,1,0,0:0:0:0:
448,192,183435,1,6,0:0:0:0:
64,192,183435,1,0,0:0:0:0:
448,192,183548,1,0,0:0:0:0:
192,192,183661,1,0,0:0:0:0:
320,192,183774,1,0,0:0:0:0:
448,192,183887,1,0,0:0:0:0:
64,192,183944,1,0,0:0:0:0:
192,192,184000,1,0,0:0:0:0:
320,192,184057,1,0,0:0:0:0:
448,192,184113,1,0,0:0:0:0:
192,192,184113,1,0,0:0:0:0:
64,192,184113,1,6,0:0:0:0:
64,192,184226,1,0,0:0:0:0:
320,192,184339,1,0,0:0:0:0:
192,192,184452,1,0,0:0:0:0:
64,192,184565,1,0,0:0:0:0:
448,192,184622,1,0,0:0:0:0:
320,192,184678,1,0,0:0:0:0:
192,192,184735,1,0,0:0:0:0:
448,192,184791,1,0,0:0:0:0:
64,192,184791,1,0,0:0:0:0:
64,192,184904,1,0,0:0:0:0:
448,192,185017,1,0,0:0:0:0:
320,192,185074,1,0,0:0:0:0:
64,192,185130,1,0,0:0:0:0:
192,192,185130,1,0,0:0:0:0:
448,192,185243,1,0,0:0:0:0:
64,192,185243,1,0,0:0:0:0:
448,192,185356,1,0,0:0:0:0:
320,192,185356,1,0,0:0:0:0:
320,192,185469,1,0,0:0:0:0:
192,192,185469,128,0,186825:0:0:0:0:
64,192,185469,1,6,0:0:0:0:
64,192,185582,1,0,0:0:0:0:
320,192,185695,1,0,0:0:0:0:
448,192,185808,1,0,0:0:0:0:
64,192,185921,1,0,0:0:0:0:
320,192,185978,1,0,0:0:0:0:
448,192,186034,1,0,0:0:0:0:
64,192,186090,1,0,0:0:0:0:
320,192,186147,1,0,0:0:0:0:
448,192,186147,1,6,0:0:0:0:
64,192,186260,1,0,0:0:0:0:
320,192,186373,1,0,0:0:0:0:
64,192,186486,1,0,0:0:0:0:
320,192,186599,1,0,0:0:0:0:
448,192,186655,1,0,0:0:0:0:
64,192,186712,1,0,0:0:0:0:
320,192,186768,1,0,0:0:0:0:
64,192,186825,128,0,187503:0:0:0:0:
448,192,186825,1,6,0:0:0:0:
192,192,186938,1,0,0:0:0:0:
320,192,187051,1,0,0:0:0:0:
192,192,187164,1,0,0:0:0:0:
448,192,187277,1,0,0:0:0:0:
320,192,187333,1,0,0:0:0:0:
192,192,187390,1,0,0:0:0:0:
448,192,187446,1,0,0:0:0:0:
320,192,187503,128,0,188181:0:0:0:0:
192,192,187503,1,0,0:0:0:0:
64,192,187616,1,0,0:0:0:0:
448,192,187729,1,0,0:0:0:0:
192,192,187785,1,0,0:0:0:0:
64,192,187842,1,0,0:0:0:0:
448,192,187955,1,0,0:0:0:0:
192,192,188068,1,0,0:0:0:0:
448,192,188181,128,0,189537:0:0:0:0:
64,192,188181,1,6,0:0:0:0:
192,192,188181,1,0,0:0:0:0:
64,192,188294,1,0,0:0:0:0:
192,192,188407,1,0,0:0:0:0:
64,192,188520,1,0,0:0:0:0:
320,192,188633,1,0,0:0:0:0:
192,192,188689,1,0,0:0:0:0:
64,192,188746,1,0,0:0:0:0:
320,192,188802,1,0,0:0:0:0:
192,192,188859,1,6,0:0:0:0:
64,192,188859,1,0,0:0:0:0:
320,192,188972,1,0,0:0:0:0:
192,192,189085,1,0,0:0:0:0:
64,192,189198,1,0,0:0:0:0:
192,192,189311,1,0,0:0:0:0:
64,192,189367,1,0,0:0:0:0:
320,192,189424,1,0,0:0:0:0:
192,192,189480,1,0,0:0:0:0:
320,192,189537,128,0,190215:0:0:0:0:
64,192,189537,1,6,0:0:0:0:
192,192,189650,1,0,0:0:0:0:
448,192,189763,1,0,0:0:0:0:
64,192,189876,1,0,0:0:0:0:
448,192,189989,1,0,0:0:0:0:
192,192,190045,1,0,0:0:0:0:
64,192,190102,1,0,0:0:0:0:
448,192,190158,1,0,0:0:0:0:
64,192,190215,1,0,0:0:0:0:
192,192,190215,1,0,0:0:0:0:
448,192,190300,1,0,0:0:0:0:
64,192,190384,1,0,0:0:0:0:
448,192,190469,1,0,0:0:0:0:
64,192,190554,1,0,0:0:0:0:
448,192,190639,1,0,0:0:0:0:
64,192,190723,1,0,0:0:0:0:
448,192,190808,1,0,0:0:0:0:
64,192,190893,1,0,0:0:0:0:
320,192,190893,1,0,0:0:0:0:
192,192,190978,1,0,0:0:0:0:
64,192,191062,1,0,0:0:0:0:
448,192,191062,1,2,0:0:0:0:
320,192,191147,1,0,0:0:0:0:
64,192,191232,1,0,0:0:0:0:
192,192,191232,1,0,0:0:0:0:
448,192,191316,1,0,0:0:0:0:
320,192,191316,1,0,0:0:0:0:
64,192,191401,1,0,0:0:0:0:
192,192,191401,1,2,0:0:0:0:
448,192,191486,1,0,0:0:0:0:
320,192,191571,1,0,0:0:0:0:
64,192,191571,1,0,0:0:0:0:
192,192,191655,1,0,0:0:0:0:
448,192,191740,1,2,0:0:0:0:
64,192,191740,1,0,0:0:0:0:
320,192,191825,1,0,0:0:0:0:
64,192,191910,1,0,0:0:0:0:
192,192,191910,1,0,0:0:0:0:
320,192,191994,1,0,0:0:0:0:
448,192,191994,1,0,0:0:0:0:
64,192,192079,1,0,0:0:0:0:
192,192,192079,1,2,0:0:0:0:
448,192,192164,1,0,0:0:0:0:
320,192,192249,1,0,0:0:0:0:
64,192,192249,1,0,0:0:0:0:
192,192,192333,1,0,0:0:0:0:
64,192,192418,1,0,0:0:0:0:
448,192,192418,1,2,0:0:0:0:
320,192,192503,1,0,0:0:0:0:
64,192,192588,1,0,0:0:0:0:
192,192,192588,1,0,0:0:0:0:
320,192,192672,1,0,0:0:0:0:
448,192,192672,1,0,0:0:0:0:
64,192,192757,1,0,0:0:0:0:
192,192,192757,1,2,0:0:0:0:
448,192,192842,1,0,0:0:0:0:
320,192,192927,1,0,0:0:0:0:
64,192,192927,1,0,0:0:0:0:
192,192,193011,1,0,0:0:0:0:
448,192,193096,1,2,0:0:0:0:
64,192,193096,1,0,0:0:0:0:
320,192,193181,1,0,0:0:0:0:
64,192,193266,1,0,0:0:0:0:
192,192,193266,1,0,0:0:0:0:
320,192,193350,1,0,0:0:0:0:
448,192,193350,1,0,0:0:0:0:
192,192,193435,1,2,0:0:0:0:
64,192,193435,1,0,0:0:0:0:
320,192,193520,1,0,0:0:0:0:
192,192,193605,1,0,0:0:0:0:
448,192,193605,1,0,0:0:0:0:
320,192,193689,1,0,0:0:0:0:
64,192,193774,1,2,0:0:0:0:
448,192,193774,1,0,0:0:0:0:
192,192,193859,1,0,0:0:0:0:
320,192,193944,1,0,0:0:0:0:
448,192,193944,1,0,0:0:0:0:
64,192,194028,1,0,0:0:0:0:
192,192,194028,1,0,0:0:0:0:
320,192,194113,1,2,0:0:0:0:
448,192,194113,1,0,0:0:0:0:
64,192,194198,1,0,0:0:0:0:
448,192,194283,1,0,0:0:0:0:
192,192,194283,1,0,0:0:0:0:
320,192,194367,1,0,0:0:0:0:
448,192,194452,1,0,0:0:0:0:
64,192,194452,1,2,0:0:0:0:
192,192,194537,1,0,0:0:0:0:
320,192,194622,1,0,0:0:0:0:
448,192,194622,1,0,0:0:0:0:
64,192,194706,1,0,0:0:0:0:
192,192,194706,1,0,0:0:0:0:
448,192,194791,1,0,0:0:0:0:
320,192,194791,1,2,0:0:0:0:
64,192,194876,1,0,0:0:0:0:
192,192,194961,1,0,0:0:0:0:
448,192,194961,1,0,0:0:0:0:
320,192,195045,1,0,0:0:0:0:
64,192,195130,5,2,0:0:0:0:
448,192,195130,1,0,0:0:0:0:
192,192,195215,1,0,0:0:0:0:
320,192,195300,1,0,0:0:0:0:
448,192,195300,1,0,0:0:0:0:
64,192,195384,1,0,0:0:0:0:
192,192,195384,1,0,0:0:0:0:
448,192,195469,1,0,0:0:0:0:
320,192,195469,1,2,0:0:0:0:
192,192,195554,1,0,0:0:0:0:
64,192,195639,1,0,0:0:0:0:
448,192,195639,1,0,0:0:0:0:
192,192,195723,1,0,0:0:0:0:
320,192,195808,1,2,0:0:0:0:
448,192,195808,1,0,0:0:0:0:
448,192,195893,1,0,0:0:0:0:
320,192,195893,1,2,0:0:0:0:
64,192,195978,1,12,0:0:0:0:
192,192,196062,1,0,0:0:0:0:
320,192,196147,1,0,0:0:0:0:
448,192,196232,1,0,0:0:0:0:
64,192,196316,5,0,0:0:0:0:
192,192,196316,1,0,0:0:0:0:
320,192,196316,1,0,0:0:0:0:
320,192,196486,1,0,0:0:0:0:
448,192,196486,1,0,0:0:0:0:
192,192,196486,1,0,0:0:0:0:
64,192,196655,1,0,0:0:0:0:
320,192,196825,1,0,0:0:0:0:
320,192,196910,1,0,0:0:0:0:
64,192,196994,1,0,0:0:0:0:
192,192,196994,1,8,0:0:0:0:
448,192,196994,1,0,0:0:0:0:
320,192,197164,1,0,0:0:0:0:
448,192,197164,1,0,0:0:0:0:
64,192,197164,1,0,0:0:0:0:
192,192,197333,1,0,0:0:0:0:
320,192,197503,128,0,197842:0:0:0:0:
448,192,197672,1,0,0:0:0:0:
64,192,197842,128,0,198011:0:0:0:0:
192,192,197842,1,0,0:0:0:0:
192,192,198011,128,0,198181:0:0:0:0:
320,192,198181,128,0,198350:0:0:0:0:
64,192,198181,1,0,0:0:0:0:
64,192,198266,1,0,0:0:0:0:
448,192,198350,128,0,198520:0:0:0:0:
192,192,198350,1,4,0:0:0:0:
320,192,198520,128,0,198576:0:0:0:0:
192,192,198576,128,0,198633:0:0:0:0:
64,192,198633,128,0,198689:0:0:0:0:
448,192,198689,128,2,198859:0:0:0:0:
320,192,198689,1,0,0:0:0:0:
64,192,198859,128,0,199028:0:0:0:0:
192,192,199028,1,0,0:0:0:0:
320,192,199028,1,0,0:0:0:0:
448,192,199028,1,0,0:0:0:0:
64,192,199198,1,0,0:0:0:0:
192,192,199198,1,0,0:0:0:0:
320,192,199198,1,0,0:0:0:0:
448,192,199367,1,0,0:0:0:0:
192,192,199537,1,0,0:0:0:0:
192,192,199622,1,0,0:0:0:0:
64,192,199706,1,0,0:0:0:0:
320,192,199706,1,8,0:0:0:0:
448,192,199706,1,0,0:0:0:0:
192,192,199876,1,0,0:0:0:0:
64,192,199876,1,0,0:0:0:0:
448,192,199876,1,0,0:0:0:0:
320,192,200045,1,0,0:0:0:0:
448,192,200215,128,0,200554:0:0:0:0:
64,192,200384,1,0,0:0:0:0:
320,192,200554,128,0,200610:0:0:0:0:
192,192,200610,128,0,200667:0:0:0:0:
64,192,200667,128,0,200723:0:0:0:0:
192,192,200723,128,0,200893:0:0:0:0:
64,192,200893,128,0,201062:0:0:0:0:
320,192,200893,1,0,0:0:0:0:
320,192,200978,1,0,0:0:0:0:
192,192,201062,128,0,201232:0:0:0:0:
448,192,201062,1,4,0:0:0:0:
320,192,201232,128,0,201401:0:0:0:0:
64,192,201232,1,0,0:0:0:0:
448,192,201401,128,0,201486:0:0:0:0:
64,192,201401,1,0,0:0:0:0:
320,192,201486,128,0,201571:0:0:0:0:
192,192,201571,128,0,201655:0:0:0:0:
64,192,201655,128,0,201740:0:0:0:0:
192,192,201740,1,0,0:0:0:0:
448,192,201740,1,0,0:0:0:0:
320,192,201825,1,0,0:0:0:0:
64,192,201910,1,2,0:0:0:0:
448,192,201910,1,0,0:0:0:0:
192,192,201994,1,0,0:0:0:0:
320,192,202079,1,0,0:0:0:0:
448,192,202079,1,0,0:0:0:0:
192,192,202164,1,0,0:0:0:0:
64,192,202164,1,0,0:0:0:0:
320,192,202249,1,2,0:0:0:0:
448,192,202249,1,0,0:0:0:0:
64,192,202333,1,0,0:0:0:0:
448,192,202418,1,0,0:0:0:0:
192,192,202418,1,0,0:0:0:0:
320,192,202503,1,0,0:0:0:0:
64,192,202588,1,2,0:0:0:0:
448,192,202588,1,0,0:0:0:0:
192,192,202672,1,0,0:0:0:0:
448,192,202757,1,0,0:0:0:0:
320,192,202757,1,0,0:0:0:0:
64,192,202842,1,0,0:0:0:0:
192,192,202842,1,0,0:0:0:0:
320,192,202927,1,2,0:0:0:0:
448,192,202927,1,0,0:0:0:0:
64,192,203011,1,0,0:0:0:0:
448,192,203096,1,0,0:0:0:0:
192,192,203096,1,0,0:0:0:0:
320,192,203181,1,0,0:0:0:0:
448,192,203266,1,0,0:0:0:0:
64,192,203266,1,2,0:0:0:0:
192,192,203350,1,0,0:0:0:0:
320,192,203435,1,0,0:0:0:0:
448,192,203435,1,0,0:0:0:0:
64,192,203520,1,0,0:0:0:0:
192,192,203520,1,0,0:0:0:0:
320,192,203605,1,2,0:0:0:0:
448,192,203605,1,0,0:0:0:0:
64,192,203689,1,0,0:0:0:0:
448,192,203774,1,0,0:0:0:0:
192,192,203774,1,0,0:0:0:0:
320,192,203859,1,0,0:0:0:0:
64,192,203944,1,2,0:0:0:0:
448,192,203944,1,0,0:0:0:0:
192,192,204028,1,0,0:0:0:0:
320,192,204113,1,0,0:0:0:0:
448,192,204113,1,0,0:0:0:0:
64,192,204198,1,0,0:0:0:0:
192,192,204198,1,0,0:0:0:0:
320,192,204283,1,2,0:0:0:0:
448,192,204283,1,0,0:0:0:0:
192,192,204367,1,0,0:0:0:0:
64,192,204452,1,0,0:0:0:0:
320,192,204452,1,0,0:0:0:0:
192,192,204537,1,0,0:0:0:0:
448,192,204622,1,2,0:0:0:0:
64,192,204622,1,0,0:0:0:0:
320,192,204706,1,0,0:0:0:0:
64,192,204791,1,0,0:0:0:0:
192,192,204791,1,0,0:0:0:0:
320,192,204876,1,0,0:0:0:0:
448,192,204876,1,0,0:0:0:0:
64,192,204961,1,0,0:0:0:0:
192,192,204961,1,2,0:0:0:0:
448,192,205045,1,0,0:0:0:0:
64,192,205130,1,0,0:0:0:0:
320,192,205130,1,0,0:0:0:0:
192,192,205215,1,0,0:0:0:0:
448,192,205300,1,2,0:0:0:0:
64,192,205300,1,0,0:0:0:0:
320,192,205384,1,0,0:0:0:0:
192,192,205469,1,0,0:0:0:0:
64,192,205469,1,0,0:0:0:0:
448,192,205554,1,0,0:0:0:0:
320,192,205554,1,0,0:0:0:0:
192,192,205639,1,2,0:0:0:0:
64,192,205639,1,0,0:0:0:0:
448,192,205723,1,0,0:0:0:0:
64,192,205808,1,0,0:0:0:0:
320,192,205808,1,0,0:0:0:0:
192,192,205893,1,0,0:0:0:0:
64,192,205978,5,0,0:0:0:0:
448,192,205978,1,2,0:0:0:0:
320,192,206062,1,0,0:0:0:0:
64,192,206147,1,0,0:0:0:0:
192,192,206147,1,0,0:0:0:0:
320,192,206232,1,0,0:0:0:0:
448,192,206232,1,0,0:0:0:0:
64,192,206316,1,0,0:0:0:0:
192,192,206316,1,2,0:0:0:0:
448,192,206401,1,0,0:0:0:0:
64,192,206486,1,0,0:0:0:0:
320,192,206486,1,0,0:0:0:0:
192,192,206571,1,0,0:0:0:0:
448,192,206655,1,2,0:0:0:0:
64,192,206655,1,0,0:0:0:0:
320,192,206740,1,0,0:0:0:0:
192,192,206825,1,0,0:0:0:0:
64,192,206825,1,0,0:0:0:0:
448,192,206910,1,0,0:0:0:0:
320,192,206910,1,0,0:0:0:0:
192,192,206994,1,0,0:0:0:0:
64,192,206994,1,0,0:0:0:0:
320,192,207079,1,0,0:0:0:0:
64,192,207164,1,0,0:0:0:0:
448,192,207164,1,0,0:0:0:0:
192,192,207220,1,0,0:0:0:0:
320,192,207277,1,0,0:0:0:0:
448,192,207333,1,0,0:0:0:0:
192,192,207390,1,0,0:0:0:0:
64,192,207446,1,0,0:0:0:0:
448,192,207503,1,0,0:0:0:0:
320,192,207559,1,0,0:0:0:0:
64,192,207616,1,0,0:0:0:0:
448,192,207672,1,0,0:0:0:0:
192,192,207729,1,0,0:0:0:0:
64,192,207785,1,0,0:0:0:0:
448,192,207842,1,0,0:0:0:0:
320,192,207898,1,0,0:0:0:0:
192,192,207955,1,0,0:0:0:0:
448,192,208011,1,0,0:0:0:0:
320,192,208068,1,0,0:0:0:0:
64,192,208124,1,0,0:0:0:0:
448,192,208181,1,0,0:0:0:0:
64,192,208350,1,0,0:0:0:0:
192,192,208350,1,0,0:0:0:0:
320,192,208407,1,0,0:0:0:0:
448,192,208463,1,0,0:0:0:0:
64,192,208520,1,0,0:0:0:0:
192,192,208576,1,0,0:0:0:0:
448,192,208633,1,0,0:0:0:0:
64,192,208689,1,0,0:0:0:0:
320,192,208746,1,0,0:0:0:0:
448,192,208802,1,0,0:0:0:0:
192,192,208859,1,0,0:0:0:0:
64,192,208915,1,0,0:0:0:0:
320,192,208972,1,0,0:0:0:0:
448,192,209028,1,0,0:0:0:0:
64,192,209085,1,0,0:0:0:0:
192,192,209141,1,0,0:0:0:0:
320,192,209198,1,0,0:0:0:0:
448,192,209198,1,0,0:0:0:0:
64,192,209254,1,0,0:0:0:0:
448,192,209311,1,0,0:0:0:0:
192,192,209367,1,0,0:0:0:0:
320,192,209424,1,0,0:0:0:0:
448,192,209480,1,0,0:0:0:0:
64,192,209537,128,0,209593:0:0:0:0:
320,192,209593,128,0,209650:0:0:0:0:
448,192,209650,128,0,209706:0:0:0:0:
192,192,209706,128,0,209763:0:0:0:0:
320,192,209763,128,0,209819:0:0:0:0:
448,192,209819,128,0,209876:0:0:0:0:
64,192,209876,1,0,0:0:0:0:
192,192,209876,1,0,0:0:0:0:
320,192,210045,1,0,0:0:0:0:
192,192,210045,1,0,0:0:0:0:
64,192,210215,1,0,0:0:0:0:
320,192,210215,1,0,0:0:0:0:
448,192,210215,1,2,0:0:0:0:
320,192,210384,1,0,0:0:0:0:
448,192,210384,1,0,0:0:0:0:
64,192,210469,1,0,0:0:0:0:
192,192,210469,1,0,0:0:0:0:
320,192,210554,1,0,0:0:0:0:
448,192,210554,1,0,0:0:0:0:
320,192,210723,1,0,0:0:0:0:
192,192,210723,1,0,0:0:0:0:
192,192,210893,1,0,0:0:0:0:
64,192,210893,1,2,0:0:0:0:
448,192,210893,1,0,0:0:0:0:
192,192,211062,1,0,0:0:0:0:
320,192,211062,1,0,0:0:0:0:
64,192,211147,1,0,0:0:0:0:
448,192,211147,1,0,0:0:0:0:
320,192,211232,1,0,0:0:0:0:
192,192,211232,1,0,0:0:0:0:
448,192,211316,1,0,0:0:0:0:
320,192,211401,1,0,0:0:0:0:
448,192,211486,1,0,0:0:0:0:
192,192,211571,1,0,0:0:0:0:
64,192,211655,1,0,0:0:0:0:
192,192,211740,1,0,0:0:0:0:
64,192,211825,1,0,0:0:0:0:
320,192,211910,1,0,0:0:0:0:
192,192,211994,1,0,0:0:0:0:
320,192,212079,1,0,0:0:0:0:
192,192,212164,1,0,0:0:0:0:
64,192,212249,1,0,0:0:0:0:
320,192,212249,1,0,0:0:0:0:
192,192,212333,1,0,0:0:0:0:
448,192,212333,1,0,0:0:0:0:
64,192,212418,1,0,0:0:0:0:
320,192,212418,1,0,0:0:0:0:
192,192,212503,1,0,0:0:0:0:
448,192,212503,1,0,0:0:0:0:
320,192,212588,1,4,0:0:0:0:
64,192,212588,128,0,212884:0:0:0:0:
320,192,212927,128,0,213223:0:0:0:0:
64,192,213266,128,0,213562:0:0:0:0:
448,192,213605,128,0,213732:0:0:0:0:
320,192,213774,128,0,214071:0:0:0:0:
192,192,214113,128,0,214170:0:0:0:0:
448,192,214170,128,0,214226:0:0:0:0:
320,192,214226,128,0,214283:0:0:0:0:
192,192,214283,128,0,214410:0:0:0:0:
64,192,214452,128,0,214579:0:0:0:0:
192,192,214622,128,0,214918:0:0:0:0:
448,192,214791,1,4,0:0:0:0:
320,192,214791,1,0,0:0:0:0:
448,192,214961,1,4,0:0:0:0:
320,192,214961,128,0,215257:0:0:0:0:
64,192,214961,1,0,0:0:0:0:
192,192,215300,128,0,215596:0:0:0:0:
448,192,215639,128,0,215766:0:0:0:0:
320,192,215808,128,0,216105:0:0:0:0:
192,192,216147,128,0,216203:0:0:0:0:
448,192,216203,128,0,216260:0:0:0:0:
320,192,216260,128,0,216316:0:0:0:0:
192,192,216316,128,0,216444:0:0:0:0:
64,192,216486,128,0,216613:0:0:0:0:
320,192,216655,128,0,216952:0:0:0:0:
192,192,216655,1,4,0:0:0:0:
448,192,216655,1,0,0:0:0:0:
448,192,216994,128,0,217291:0:0:0:0:
192,192,216994,1,0,0:0:0:0:
64,192,216994,1,4,0:0:0:0:
192,192,217333,128,0,217630:0:0:0:0:
448,192,217672,128,0,217800:0:0:0:0:
320,192,217842,128,0,218139:0:0:0:0:
192,192,218181,128,0,218237:0:0:0:0:
448,192,218237,128,0,218294:0:0:0:0:
320,192,218294,128,0,218350:0:0:0:0:
192,192,218350,128,0,218478:0:0:0:0:
64,192,218520,128,0,218647:0:0:0:0:
192,192,218689,128,0,218986:0:0:0:0:
320,192,218859,1,4,0:0:0:0:
448,192,218859,1,0,0:0:0:0:
448,192,219028,128,0,219325:0:0:0:0:
320,192,219028,1,4,0:0:0:0:
64,192,219028,1,0,0:0:0:0:
192,192,219367,128,0,219664:0:0:0:0:
448,192,219706,128,0,219833:0:0:0:0:
320,192,219876,128,0,220172:0:0:0:0:
192,192,220215,128,0,220271:0:0:0:0:
448,192,220271,128,0,220328:0:0:0:0:
320,192,220328,128,0,220384:0:0:0:0:
192,192,220384,128,0,220511:0:0:0:0:
64,192,220384,1,4,0:0:0:0:
64,192,220554,128,0,220681:0:0:0:0:
448,192,220723,1,0,0:0:0:0:
192,192,220723,1,0,0:0:0:0:
320,192,220723,1,0,0:0:0:0:
64,192,220808,1,0,0:0:0:0:
448,192,220893,1,0,0:0:0:0:
192,192,220978,1,0,0:0:0:0:
320,192,221062,1,0,0:0:0:0:
448,192,221062,1,0,0:0:0:0:
64,192,221062,1,0,0:0:0:0:
192,192,221147,1,0,0:0:0:0:
320,192,221232,1,0,0:0:0:0:
448,192,221316,1,0,0:0:0:0:
192,192,221401,1,0,0:0:0:0:
320,192,221401,1,0,0:0:0:0:
64,192,221401,1,0,0:0:0:0:
448,192,221486,1,0,0:0:0:0:
192,192,221571,1,0,0:0:0:0:
64,192,221655,1,0,0:0:0:0:
320,192,221740,1,0,0:0:0:0:
192,192,221740,1,0,0:0:0:0:
448,192,221740,1,0,0:0:0:0:
64,192,221825,1,0,0:0:0:0:
448,192,221910,1,0,0:0:0:0:
320,192,221994,1,0,0:0:0:0:
448,192,222079,1,0,0:0:0:0:
192,192,222079,1,0,0:0:0:0:
64,192,222079,1,0,0:0:0:0:
320,192,222164,1,0,0:0:0:0:
64,192,222249,1,0,0:0:0:0:
192,192,222333,1,0,0:0:0:0:
448,192,222418,1,0,0:0:0:0:
320,192,222418,1,0,0:0:0:0:
64,192,222418,1,0,0:0:0:0:
192,192,222503,1,0,0:0:0:0:
320,192,222588,1,0,0:0:0:0:
448,192,222672,1,0,0:0:0:0:
64,192,222757,1,0,0:0:0:0:
320,192,222757,1,0,0:0:0:0:
192,192,222757,1,0,0:0:0:0:
448,192,222842,1,0,0:0:0:0:
192,192,222927,1,0,0:0:0:0:
64,192,223011,1,0,0:0:0:0:
192,192,223096,1,0,0:0:0:0:
320,192,223096,1,0,0:0:0:0:
448,192,223096,1,0,0:0:0:0:
64,192,223181,1,0,0:0:0:0:
448,192,223266,1,0,0:0:0:0:
192,192,223350,1,0,0:0:0:0:
448,192,223435,1,0,0:0:0:0:
320,192,223435,1,0,0:0:0:0:
64,192,223435,1,0,0:0:0:0:
192,192,223520,1,0,0:0:0:0:
448,192,223605,1,0,0:0:0:0:
64,192,223689,1,0,0:0:0:0:
448,192,223774,1,0,0:0:0:0:
320,192,223774,1,0,0:0:0:0:
192,192,223774,1,0,0:0:0:0:
64,192,223859,1,0,0:0:0:0:
192,192,223944,1,0,0:0:0:0:
448,192,224028,1,0,0:0:0:0:
64,192,224113,1,0,0:0:0:0:
192,192,224113,1,0,0:0:0:0:
320,192,224113,1,0,0:0:0:0:
448,192,224198,1,0,0:0:0:0:
64,192,224283,1,0,0:0:0:0:
192,192,224283,1,0,0:0:0:0:
320,192,224367,1,0,0:0:0:0:
64,192,224452,1,0,0:0:0:0:
192,192,224452,1,0,0:0:0:0:
448,192,224452,1,0,0:0:0:0:
320,192,224537,1,0,0:0:0:0:
64,192,224622,1,0,0:0:0:0:
448,192,224622,1,0,0:0:0:0:
192,192,224706,1,0,0:0:0:0:
448,192,224791,1,0,0:0:0:0:
320,192,224791,1,0,0:0:0:0:
64,192,224791,1,0,0:0:0:0:
192,192,224876,1,0,0:0:0:0:
448,192,224961,1,0,0:0:0:0:
320,192,224961,1,0,0:0:0:0:
192,192,225045,1,0,0:0:0:0:
448,192,225130,1,0,0:0:0:0:
320,192,225130,1,0,0:0:0:0:
64,192,225130,1,0,0:0:0:0:
192,192,225215,1,0,0:0:0:0:
448,192,225300,1,0,0:0:0:0:
64,192,225300,1,0,0:0:0:0:
320,192,225384,1,0,0:0:0:0:
64,192,225469,1,0,0:0:0:0:
192,192,225469,1,0,0:0:0:0:
448,192,225469,1,0,0:0:0:0:
320,192,225554,1,0,0:0:0:0:
192,192,225639,1,0,0:0:0:0:
64,192,225639,1,0,0:0:0:0:
320,192,225723,1,0,0:0:0:0:
192,192,225808,1,0,0:0:0:0:
448,192,225808,1,0,0:0:0:0:
64,192,225808,1,0,0:0:0:0:
64,192,226147,1,0,0:0:0:0:
192,192,226147,1,0,0:0:0:0:
320,192,226147,1,0,0:0:0:0:
448,192,226147,1,0,0:0:0:0:
64,192,226486,1,0,0:0:0:0:
192,192,226599,1,0,0:0:0:0:
320,192,226712,1,0,0:0:0:0:
448,192,226825,1,0,0:0:0:0:
192,192,226881,1,0,0:0:0:0:
64,192,226938,1,0,0:0:0:0:
320,192,226994,1,0,0:0:0:0:
448,192,227051,1,0,0:0:0:0:
192,192,227107,1,0,0:0:0:0:
320,192,227164,1,0,0:0:0:0:
64,192,227220,1,0,0:0:0:0:
448,192,227277,1,0,0:0:0:0:
192,192,227333,1,0,0:0:0:0:
320,192,227390,1,0,0:0:0:0:
448,192,227446,1,0,0:0:0:0:
192,192,227503,1,0,0:0:0:0:
64,192,227503,1,0,0:0:0:0:
320,192,227503,1,0,0:0:0:0:
64,192,227842,1,0,0:0:0:0:
192,192,227955,1,0,0:0:0:0:
320,192,228068,1,0,0:0:0:0:
64,192,228181,1,0,0:0:0:0:
320,192,228237,1,0,0:0:0:0:
448,192,228294,1,0,0:0:0:0:
192,192,228350,1,0,0:0:0:0:
64,192,228407,1,0,0:0:0:0:
320,192,228463,1,0,0:0:0:0:
192,192,228520,1,0,0:0:0:0:
448,192,228576,1,0,0:0:0:0:
64,192,228633,1,0,0:0:0:0:
320,192,228689,1,0,0:0:0:0:
192,192,228746,1,0,0:0:0:0:
64,192,228802,1,0,0:0:0:0:
448,192,228859,1,0,0:0:0:0:
320,192,228859,1,0,0:0:0:0:
192,192,228859,1,0,0:0:0:0:
192,192,229198,1,0,0:0:0:0:
320,192,229198,1,0,0:0:0:0:
320,192,229311,1,0,0:0:0:0:
64,192,229311,1,0,0:0:0:0:
448,192,229424,1,0,0:0:0:0:
64,192,229424,1,0,0:0:0:0:
192,192,229537,1,0,0:0:0:0:
448,192,229537,1,0,0:0:0:0:
192,192,229650,1,0,0:0:0:0:
320,192,229650,1,0,0:0:0:0:
64,192,229763,1,0,0:0:0:0:
320,192,229763,1,0,0:0:0:0:
448,192,229876,1,0,0:0:0:0:
64,192,229876,1,0,0:0:0:0:
192,192,229989,1,0,0:0:0:0:
448,192,229989,1,0,0:0:0:0:
192,192,230102,1,0,0:0:0:0:
320,192,230102,1,0,0:0:0:0:
64,192,230215,1,0,0:0:0:0:
320,192,230215,1,0,0:0:0:0:
448,192,230328,1,0,0:0:0:0:
64,192,230328,1,0,0:0:0:0:
448,192,230441,1,0,0:0:0:0:
192,192,230441,1,0,0:0:0:0:
320,192,230554,1,0,0:0:0:0:
192,192,230554,1,0,0:0:0:0:
320,192,230667,1,0,0:0:0:0:
64,192,230667,1,0,0:0:0:0:
448,192,230780,1,0,0:0:0:0:
64,192,230780,1,0,0:0:0:0:
192,192,230893,1,0,0:0:0:0:
448,192,230893,1,0,0:0:0:0:
320,192,231006,1,0,0:0:0:0:
192,192,231006,1,0,0:0:0:0:
64,192,231119,1,0,0:0:0:0:
320,192,231119,1,0,0:0:0:0:
448,192,231232,1,0,0:0:0:0:
64,192,231232,1,0,0:0:0:0:
320,192,231288,1,0,0:0:0:0:
192,192,231345,1,0,0:0:0:0:
64,192,231401,1,0,0:0:0:0:
448,192,231571,1,0,0:0:0:0:
320,192,231571,1,0,0:0:0:0:
192,192,231627,1,0,0:0:0:0:
64,192,231684,1,0,0:0:0:0:
448,192,231740,1,0,0:0:0:0:
320,192,231797,1,0,0:0:0:0:
64,192,231853,1,0,0:0:0:0:
448,192,231910,1,0,0:0:0:0:
192,192,231966,1,0,0:0:0:0:
64,192,232023,1,0,0:0:0:0:
320,192,232079,1,0,0:0:0:0:
192,192,232136,1,0,0:0:0:0:
64,192,232192,1,0,0:0:0:0:
448,192,232249,1,0,0:0:0:0:
320,192,232305,1,0,0:0:0:0:
192,192,232362,1,0,0:0:0:0:
448,192,232418,1,0,0:0:0:0:
64,192,232475,1,0,0:0:0:0:
320,192,232531,1,0,0:0:0:0:
192,192,232588,1,0,0:0:0:0:
64,192,232644,1,0,0:0:0:0:
448,192,232701,1,0,0:0:0:0:
320,192,232757,1,0,0:0:0:0:
192,192,232814,1,0,0:0:0:0:
64,192,232870,1,0,0:0:0:0:
448,192,232927,1,0,0:0:0:0:
320,192,232983,1,0,0:0:0:0:
64,192,233040,1,0,0:0:0:0:
448,192,233096,1,0,0:0:0:0:
192,192,233153,1,0,0:0:0:0:
64,192,233209,1,0,0:0:0:0:
320,192,233266,1,0,0:0:0:0:
192,192,233322,1,0,0:0:0:0:
64,192,233379,1,0,0:0:0:0:
448,192,233435,1,0,0:0:0:0:
320,192,233492,1,0,0:0:0:0:
192,192,233548,1,0,0:0:0:0:
448,192,233605,1,0,0:0:0:0:
64,192,233661,1,0,0:0:0:0:
320,192,233718,1,0,0:0:0:0:
192,192,233774,1,0,0:0:0:0:
64,192,233831,1,0,0:0:0:0:
448,192,233887,1,0,0:0:0:0:
320,192,233944,1,0,0:0:0:0:
192,192,234000,1,0,0:0:0:0:
64,192,234057,1,0,0:0:0:0:
448,192,234113,1,0,0:0:0:0:
320,192,234170,1,0,0:0:0:0:
64,192,234226,1,0,0:0:0:0:
448,192,234283,1,0,0:0:0:0:
192,192,234339,1,0,0:0:0:0:
64,192,234396,1,0,0:0:0:0:
320,192,234452,1,0,0:0:0:0:
192,192,234509,1,0,0:0:0:0:
64,192,234565,1,0,0:0:0:0:
448,192,234622,1,0,0:0:0:0:
320,192,234678,1,0,0:0:0:0:
192,192,234735,1,0,0:0:0:0:
448,192,234791,1,0,0:0:0:0:
64,192,234848,1,0,0:0:0:0:
320,192,234904,1,0,0:0:0:0:
192,192,234961,1,0,0:0:0:0:
64,192,235017,1,0,0:0:0:0:
448,192,235074,1,0,0:0:0:0:
320,192,235130,1,0,0:0:0:0:
192,192,235187,1,0,0:0:0:0:
64,192,235243,1,0,0:0:0:0:
448,192,235300,1,0,0:0:0:0:
320,192,235356,1,0,0:0:0:0:
64,192,235413,1,0,0:0:0:0:
448,192,235469,1,0,0:0:0:0:
192,192,235526,1,0,0:0:0:0:
64,192,235582,1,0,0:0:0:0:
320,192,235639,1,0,0:0:0:0:
192,192,235695,1,0,0:0:0:0:
64,192,235752,1,0,0:0:0:0:
448,192,235808,1,0,0:0:0:0:
320,192,235865,1,0,0:0:0:0:
192,192,235921,1,0,0:0:0:0:
448,192,235978,1,0,0:0:0:0:
64,192,236034,1,0,0:0:0:0:
320,192,236090,1,0,0:0:0:0:
192,192,236147,1,0,0:0:0:0:
64,192,236203,1,0,0:0:0:0:
448,192,236260,1,0,0:0:0:0:
320,192,236316,1,0,0:0:0:0:
192,192,236373,1,0,0:0:0:0:
64,192,236429,1,0,0:0:0:0:
448,192,236486,1,0,0:0:0:0:
320,192,236542,1,0,0:0:0:0:
192,192,236599,1,0,0:0:0:0:
448,192,236655,1,0,0:0:0:0:
64,192,236712,1,0,0:0:0:0:
320,192,236768,1,0,0:0:0:0:
192,192,236825,1,0,0:0:0:0:
64,192,236881,1,0,0:0:0:0:
448,192,236938,1,0,0:0:0:0:
