osu file format v14

[General]
AudioFilename: audio.mp3
AudioLeadIn: 0
PreviewTime: 147503
Countdown: 0
SampleSet: Drum
StackLeniency: 0.7
Mode: 3
LetterboxInBreaks: 0
SpecialStyle: 0
WidescreenStoryboard: 0

[Editor]
Bookmarks: 3722,25417,33553,38976,49824,55248,60671,66095,71519,93214,104061,114909,125756,147451,169146,190841,196264,201688,207112,212536,220671,226095
DistanceSpacing: 0.7
BeatDivisor: 4
GridSize: 8
TimelineZoom: 2

[Metadata]
Title:Dark Sheep
TitleUnicode:Dark Sheep
Artist:Chroma
ArtistUnicode:黒魔
Creator:Feylos
Version:NM
Source:
Tags:五つの物語 itsutsu no monogatari five stories CHRO-0005 disc1 electronic chiptune retro Masakichi Kurokawa くろま Instrumental
BeatmapID:2253338
BeatmapSetID:939798

[Difficulty]
HPDrainRate:7
CircleSize:4
OverallDifficulty:7
ApproachRate:5
SliderMultiplier:1.4
SliderTickRate:1

[Events]
//Background and Video events
0,0,"maxresdefault.jpg",0,0
//Break Periods
//Storyboard Layer 0 (Background)
//Storyboard Layer 1 (Fail)
//Storyboard Layer 2 (Pass)
//Storyboard Layer 3 (Foreground)
//Storyboard Layer 4 (Overlay)
//Storyboard Sound Samples

[TimingPoints]
3774.61226954588,338.983050847458,4,2,1,35,1,0
25300,-100,4,3,1,45,0,0
97672,-100,4,3,1,40,0,0
98011,-100,4,3,1,35,0,0
98350,-100,4,3,1,30,0,0
98689,-100,4,3,1,45,0,0
147503,-100,4,3,1,50,0,1
167842,-100,4,3,1,40,0,0

[HitObjects]
64,192,3774,5,4,0:0:0:0:
192,192,3774,128,0,4283:0:0:0:0:
448,192,4113,1,0,0:0:0:0:
320,192,4283,128,0,4452:0:0:0:0:
64,192,4452,128,0,5469:0:0:0:0:
320,192,4791,1,0,0:0:0:0:
448,192,5130,1,0,0:0:0:0:
320,192,5469,128,0,5639:0:0:0:0:
448,192,5639,128,0,5808:0:0:0:0:
320,192,5808,128,0,6147:0:0:0:0:
192,192,6147,128,0,6486:0:0:0:0:
64,192,6486,128,0,6994:0:0:0:0:
448,192,6825,1,0,0:0:0:0:
320,192,6994,128,0,7164:0:0:0:0:
192,192,7164,128,0,8859:0:0:0:0:
320,192,7503,1,0,0:0:0:0:
448,192,7842,1,0,0:0:0:0:
320,192,8181,1,0,0:0:0:0:
64,192,8520,1,0,0:0:0:0:
448,192,8859,128,0,9028:0:0:0:0:
64,192,9028,128,0,9198:0:0:0:0:
192,192,9198,128,0,9706:0:0:0:0:
448,192,9537,1,0,0:0:0:0:
320,192,9706,128,0,9876:0:0:0:0:
448,192,9876,128,0,10893:0:0:0:0:
64,192,10215,1,0,0:0:0:0:
192,192,10554,1,0,0:0:0:0:
64,192,10893,128,0,11062:0:0:0:0:
192,192,11062,128,0,11232:0:0:0:0:
320,192,11232,128,0,11571:0:0:0:0:
448,192,11571,128,0,11910:0:0:0:0:
320,192,11910,128,0,13944:0:0:0:0:
64,192,12249,1,0,0:0:0:0:
448,192,12588,1,0,0:0:0:0:
64,192,12927,1,0,0:0:0:0:
192,192,13266,1,0,0:0:0:0:
64,192,13605,1,0,0:0:0:0:
192,192,13944,128,0,14622:0:0:0:0:
320,192,14283,1,0,0:0:0:0:
448,192,14622,128,0,16655:0:0:0:0:
64,192,14961,1,0,0:0:0:0:
320,192,15300,1,0,0:0:0:0:
192,192,15639,1,0,0:0:0:0:
64,192,15978,1,0,0:0:0:0:
192,192,16316,1,0,0:0:0:0:
64,192,16655,128,0,17333:0:0:0:0:
320,192,16994,1,0,0:0:0:0:
448,192,17333,128,0,18237:0:0:0:0:
64,192,17672,1,0,0:0:0:0:
192,192,18011,1,0,0:0:0:0:
320,192,18237,128,0,18463:0:0:0:0:
64,192,18350,1,0,0:0:0:0:
448,192,18463,128,0,18689:0:0:0:0:
64,192,18689,128,0,20045:0:0:0:0:
320,192,19028,1,0,0:0:0:0:
448,192,19367,1,0,0:0:0:0:
192,192,19706,1,0,0:0:0:0:
320,192,20045,128,0,20949:0:0:0:0:
192,192,20384,1,0,0:0:0:0:
64,192,20723,1,0,0:0:0:0:
192,192,20949,128,0,21175:0:0:0:0:
448,192,21062,1,0,0:0:0:0:
320,192,21175,128,0,21401:0:0:0:0:
192,192,21401,128,0,22305:0:0:0:0:
64,192,21740,1,0,0:0:0:0:
448,192,22079,1,0,0:0:0:0:
64,192,22305,128,0,22531:0:0:0:0:
320,192,22418,1,0,0:0:0:0:
192,192,22531,128,0,22757:0:0:0:0:
320,192,22757,128,0,22983:0:0:0:0:
192,192,22983,128,0,23209:0:0:0:0:
448,192,23096,1,0,0:0:0:0:
320,192,23209,128,0,23435:0:0:0:0:
64,192,23435,128,0,23661:0:0:0:0:
192,192,23661,128,0,23887:0:0:0:0:
448,192,23774,1,0,0:0:0:0:
320,192,23887,128,0,24113:0:0:0:0:
192,192,24113,128,0,24622:0:0:0:0:
448,192,24452,1,0,0:0:0:0:
320,192,24622,128,0,24791:0:0:0:0:
64,192,24791,128,0,25469:0:0:0:0:
448,192,25130,1,0,0:0:0:0:
320,192,25300,1,0,0:0:0:0:
192,192,25469,128,4,25808:0:0:0:0:
320,192,25808,128,0,26147:0:0:0:0:
64,192,26147,128,0,26486:0:0:0:0:
448,192,26486,128,0,26655:0:0:0:0:
320,192,26655,128,0,26994:0:0:0:0:
448,192,26994,128,0,27164:0:0:0:0:
192,192,27164,128,0,27333:0:0:0:0:
64,192,27333,128,0,27503:0:0:0:0:
192,192,27503,128,0,27842:0:0:0:0:
448,192,27672,1,4,0:0:0:0:
320,192,27842,128,4,28181:0:0:0:0:
192,192,28181,128,0,28520:0:0:0:0:
448,192,28520,128,0,28689:0:0:0:0:
320,192,28689,128,0,29028:0:0:0:0:
448,192,29028,128,0,29198:0:0:0:0:
192,192,29198,128,0,29367:0:0:0:0:
64,192,29367,128,0,29537:0:0:0:0:
320,192,29537,128,4,29876:0:0:0:0:
448,192,29876,128,4,30215:0:0:0:0:
192,192,30215,128,0,30554:0:0:0:0:
448,192,30554,128,0,30723:0:0:0:0:
320,192,30723,128,0,31062:0:0:0:0:
448,192,31062,128,0,31232:0:0:0:0:
192,192,31232,128,0,31401:0:0:0:0:
64,192,31401,128,0,31571:0:0:0:0:
192,192,31571,128,0,31910:0:0:0:0:
320,192,31740,1,4,0:0:0:0:
448,192,31910,128,4,32249:0:0:0:0:
192,192,32249,128,0,32588:0:0:0:0:
448,192,32588,128,0,32757:0:0:0:0:
320,192,32757,128,0,33096:0:0:0:0:
448,192,33096,128,4,33266:0:0:0:0:
320,192,33266,128,12,33435:0:0:0:0:
192,192,33435,128,0,33605:0:0:0:0:
64,192,33605,128,0,34283:0:0:0:0:
448,192,33605,1,0,0:0:0:0:
320,192,33944,1,0,0:0:0:0:
192,192,34283,128,0,34961:0:0:0:0:
448,192,34622,1,0,0:0:0:0:
320,192,34961,128,0,35639:0:0:0:0:
64,192,35300,1,0,0:0:0:0:
448,192,35639,128,0,36316:0:0:0:0:
192,192,35978,1,0,0:0:0:0:
64,192,36316,128,0,36994:0:0:0:0:
320,192,36655,1,0,0:0:0:0:
192,192,36994,128,0,37672:0:0:0:0:
448,192,36994,1,0,0:0:0:0:
448,192,37333,1,0,0:0:0:0:
320,192,37333,1,0,0:0:0:0:
320,192,37672,128,0,38350:0:0:0:0:
64,192,37672,1,0,0:0:0:0:
192,192,38011,1,0,0:0:0:0:
64,192,38011,1,0,0:0:0:0:
448,192,38350,128,0,38689:0:0:0:0:
192,192,38350,1,0,0:0:0:0:
192,192,38689,1,0,0:0:0:0:
64,192,38689,1,0,0:0:0:0:
64,192,39028,1,6,0:0:0:0:
448,192,39028,1,0,0:0:0:0:
320,192,39367,1,0,0:0:0:0:
64,192,39706,1,6,0:0:0:0:
192,192,39706,1,0,0:0:0:0:
448,192,40045,1,0,0:0:0:0:
320,192,40384,1,0,0:0:0:0:
192,192,40384,1,6,0:0:0:0:
64,192,40723,1,0,0:0:0:0:
192,192,41062,1,0,0:0:0:0:
320,192,41401,1,0,0:0:0:0:
64,192,41740,1,6,0:0:0:0:
448,192,41740,1,0,0:0:0:0:
192,192,42079,1,0,0:0:0:0:
448,192,42418,1,0,0:0:0:0:
320,192,42418,1,6,0:0:0:0:
64,192,42757,1,0,0:0:0:0:
192,192,43096,1,6,0:0:0:0:
320,192,43096,1,0,0:0:0:0:
448,192,43435,1,0,0:0:0:0:
320,192,43774,1,0,0:0:0:0:
192,192,44113,1,0,0:0:0:0:
320,192,44452,128,0,45808:0:0:0:0:
64,192,44452,1,6,0:0:0:0:
192,192,44452,1,0,0:0:0:0:
448,192,44791,1,0,0:0:0:0:
192,192,45130,1,0,0:0:0:0:
64,192,45130,1,6,0:0:0:0:
64,192,45469,1,0,0:0:0:0:
192,192,45808,128,0,46486:0:0:0:0:
448,192,45808,1,6,0:0:0:0:
320,192,46147,1,0,0:0:0:0:
448,192,46486,128,0,47164:0:0:0:0:
64,192,46486,1,0,0:0:0:0:
192,192,46825,1,0,0:0:0:0:
320,192,47164,128,0,49198:0:0:0:0:
64,192,47164,1,6,0:0:0:0:
192,192,47503,1,0,0:0:0:0:
448,192,47842,1,0,0:0:0:0:
64,192,47842,1,6,0:0:0:0:
448,192,48181,1,0,0:0:0:0:
192,192,48520,1,0,0:0:0:0:
64,192,48520,1,6,0:0:0:0:
64,192,48859,1,0,0:0:0:0:
192,192,49198,1,0,0:0:0:0:
448,192,49198,128,0,49876:0:0:0:0:
192,192,49876,1,0,0:0:0:0:
64,192,49876,1,0,0:0:0:0:
448,192,50045,1,2,0:0:0:0:
192,192,50215,1,0,0:0:0:0:
320,192,50300,1,0,0:0:0:0:
448,192,50384,1,2,0:0:0:0:
64,192,50554,1,0,0:0:0:0:
320,192,50723,1,2,0:0:0:0:
64,192,50893,1,0,0:0:0:0:
192,192,50978,1,0,0:0:0:0:
320,192,51062,1,2,0:0:0:0:
192,192,51232,1,0,0:0:0:0:
448,192,51401,1,2,0:0:0:0:
192,192,51571,1,0,0:0:0:0:
320,192,51655,1,0,0:0:0:0:
448,192,51740,1,2,0:0:0:0:
64,192,51910,1,0,0:0:0:0:
320,192,52079,1,2,0:0:0:0:
64,192,52249,1,0,0:0:0:0:
192,192,52333,1,0,0:0:0:0:
320,192,52418,1,2,0:0:0:0:
448,192,52588,1,0,0:0:0:0:
192,192,52757,1,2,0:0:0:0:
448,192,52927,1,0,0:0:0:0:
320,192,53011,1,0,0:0:0:0:
192,192,53096,1,2,0:0:0:0:
320,192,53266,1,0,0:0:0:0:
64,192,53435,1,2,0:0:0:0:
320,192,53605,1,0,0:0:0:0:
192,192,53689,1,0,0:0:0:0:
64,192,53774,1,2,0:0:0:0:
448,192,53944,1,0,0:0:0:0:
192,192,54113,1,2,0:0:0:0:
448,192,54283,1,0,0:0:0:0:
320,192,54367,1,0,0:0:0:0:
192,192,54452,1,2,0:0:0:0:
448,192,54622,1,0,0:0:0:0:
64,192,54791,1,2,0:0:0:0:
192,192,54876,1,2,0:0:0:0:
320,192,54961,128,12,55300:0:0:0:0:
64,192,55300,1,0,0:0:0:0:
192,192,55300,1,0,0:0:0:0:
320,192,55469,1,0,0:0:0:0:
448,192,55469,1,0,0:0:0:0:
64,192,55808,1,0,0:0:0:0:
320,192,55893,1,0,0:0:0:0:
64,192,55978,1,0,0:0:0:0:
192,192,55978,1,8,0:0:0:0:
448,192,56147,1,0,0:0:0:0:
320,192,56147,1,0,0:0:0:0:
192,192,56486,128,0,56825:0:0:0:0:
64,192,56825,128,0,56994:0:0:0:0:
192,192,56994,128,0,57164:0:0:0:0:
320,192,57164,128,0,57333:0:0:0:0:
448,192,57333,128,4,57503:0:0:0:0:
320,192,57503,128,0,57672:0:0:0:0:
192,192,57672,128,2,57842:0:0:0:0:
64,192,57842,128,0,58011:0:0:0:0:
320,192,58011,1,0,0:0:0:0:
448,192,58011,1,0,0:0:0:0:
64,192,58181,1,0,0:0:0:0:
192,192,58181,1,0,0:0:0:0:
448,192,58520,1,0,0:0:0:0:
192,192,58605,1,0,0:0:0:0:
320,192,58689,1,8,0:0:0:0:
448,192,58689,1,0,0:0:0:0:
64,192,58859,1,0,0:0:0:0:
192,192,58859,1,0,0:0:0:0:
448,192,59198,128,0,59537:0:0:0:0:
320,192,59537,128,0,59706:0:0:0:0:
192,192,59706,128,0,59876:0:0:0:0:
64,192,59876,128,0,60045:0:0:0:0:
192,192,60045,128,4,60215:0:0:0:0:
320,192,60215,128,0,60384:0:0:0:0:
448,192,60384,128,0,60723:0:0:0:0:
64,192,60723,1,0,0:0:0:0:
192,192,60723,1,0,0:0:0:0:
448,192,60893,1,2,0:0:0:0:
192,192,61062,1,0,0:0:0:0:
320,192,61147,1,0,0:0:0:0:
448,192,61232,1,2,0:0:0:0:
64,192,61401,1,0,0:0:0:0:
320,192,61571,1,2,0:0:0:0:
64,192,61740,1,0,0:0:0:0:
192,192,61825,1,0,0:0:0:0:
320,192,61910,1,2,0:0:0:0:
192,192,62079,1,0,0:0:0:0:
448,192,62249,1,2,0:0:0:0:
192,192,62418,1,0,0:0:0:0:
320,192,62503,1,0,0:0:0:0:
448,192,62588,1,2,0:0:0:0:
64,192,62757,1,0,0:0:0:0:
320,192,62927,1,2,0:0:0:0:
64,192,63096,1,0,0:0:0:0:
192,192,63181,1,0,0:0:0:0:
320,192,63266,1,2,0:0:0:0:
448,192,63435,1,0,0:0:0:0:
192,192,63605,1,2,0:0:0:0:
448,192,63774,1,0,0:0:0:0:
320,192,63859,1,0,0:0:0:0:
192,192,63944,1,2,0:0:0:0:
320,192,64113,1,0,0:0:0:0:
64,192,64283,1,2,0:0:0:0:
320,192,64452,1,0,0:0:0:0:
192,192,64537,1,0,0:0:0:0:
64,192,64622,1,2,0:0:0:0:
448,192,64791,1,0,0:0:0:0:
192,192,64961,5,2,0:0:0:0:
448,192,65130,1,0,0:0:0:0:
320,192,65215,1,0,0:0:0:0:
192,192,65300,1,2,0:0:0:0:
448,192,65469,1,0,0:0:0:0:
64,192,65639,1,2,0:0:0:0:
320,192,65808,128,0,66147:0:0:0:0:
64,192,66147,128,0,66316:0:0:0:0:
192,192,66316,128,0,66486:0:0:0:0:
320,192,66486,128,0,66655:0:0:0:0:
192,192,66655,128,0,66825:0:0:0:0:
64,192,66825,128,0,66994:0:0:0:0:
320,192,66994,128,0,67164:0:0:0:0:
448,192,67164,128,0,67333:0:0:0:0:
64,192,67333,128,0,67503:0:0:0:0:
192,192,67503,128,0,67672:0:0:0:0:
320,192,67672,128,0,67842:0:0:0:0:
192,192,67842,128,0,68011:0:0:0:0:
64,192,68011,128,0,68181:0:0:0:0:
320,192,68181,128,0,68350:0:0:0:0:
448,192,68350,128,0,68520:0:0:0:0:
64,192,68520,128,0,68859:0:0:0:0:
320,192,68859,1,0,0:0:0:0:
448,192,68859,1,0,0:0:0:0:
64,192,69028,1,0,0:0:0:0:
192,192,69028,1,0,0:0:0:0:
320,192,69198,1,0,0:0:0:0:
448,192,69198,1,2,0:0:0:0:
64,192,69367,1,0,0:0:0:0:
320,192,69452,1,0,0:0:0:0:
64,192,69537,1,0,0:0:0:0:
192,192,69537,1,0,0:0:0:0:
320,192,69706,1,0,0:0:0:0:
448,192,69706,1,0,0:0:0:0:
192,192,69876,1,0,0:0:0:0:
64,192,69876,1,2,0:0:0:0:
448,192,70045,1,0,0:0:0:0:
192,192,70130,1,0,0:0:0:0:
320,192,70215,128,0,70554:0:0:0:0:
448,192,70215,1,0,0:0:0:0:
192,192,70554,128,0,70893:0:0:0:0:
320,192,70893,128,0,71232:0:0:0:0:
192,192,71232,128,0,71571:0:0:0:0:
320,192,71571,128,0,72079:0:0:0:0:
448,192,71571,1,0,0:0:0:0:
64,192,71910,1,0,0:0:0:0:
448,192,72079,128,0,72249:0:0:0:0:
192,192,72249,128,0,73266:0:0:0:0:
448,192,72588,1,0,0:0:0:0:
320,192,72927,1,0,0:0:0:0:
320,192,73266,128,0,73435:0:0:0:0:
448,192,73435,128,0,73605:0:0:0:0:
192,192,73605,128,0,73944:0:0:0:0:
64,192,73944,128,0,74283:0:0:0:0:
320,192,74283,128,0,74791:0:0:0:0:
64,192,74622,1,0,0:0:0:0:
448,192,74791,128,0,74961:0:0:0:0:
64,192,74961,128,0,76655:0:0:0:0:
320,192,75300,1,0,0:0:0:0:
192,192,75639,1,0,0:0:0:0:
448,192,75978,1,0,0:0:0:0:
320,192,76316,1,0,0:0:0:0:
192,192,76655,128,0,76825:0:0:0:0:
320,192,76825,128,0,76994:0:0:0:0:
448,192,76994,128,0,77503:0:0:0:0:
64,192,77333,1,0,0:0:0:0:
192,192,77503,128,0,77672:0:0:0:0:
320,192,77672,128,0,78689:0:0:0:0:
64,192,78011,1,0,0:0:0:0:
192,192,78350,1,0,0:0:0:0:
64,192,78689,128,0,78859:0:0:0:0:
192,192,78859,128,0,79028:0:0:0:0:
320,192,79028,128,0,79367:0:0:0:0:
448,192,79367,128,0,79706:0:0:0:0:
192,192,79706,128,0,81740:0:0:0:0:
320,192,80045,1,0,0:0:0:0:
448,192,80384,1,0,0:0:0:0:
64,192,80723,1,0,0:0:0:0:
448,192,81062,1,0,0:0:0:0:
64,192,81401,1,0,0:0:0:0:
320,192,81740,128,0,82418:0:0:0:0:
64,192,81910,1,0,0:0:0:0:
192,192,81910,1,0,0:0:0:0:
192,192,82079,1,0,0:0:0:0:
64,192,82079,1,0,0:0:0:0:
448,192,82418,128,0,84452:0:0:0:0:
64,192,82757,1,0,0:0:0:0:
192,192,82757,1,0,0:0:0:0:
320,192,83096,1,0,0:0:0:0:
64,192,83435,1,0,0:0:0:0:
192,192,83435,1,0,0:0:0:0:
64,192,83774,1,0,0:0:0:0:
64,192,84113,1,0,0:0:0:0:
192,192,84113,1,0,0:0:0:0:
320,192,84452,128,0,85130:0:0:0:0:
448,192,84791,1,0,0:0:0:0:
64,192,84791,1,0,0:0:0:0:
448,192,85130,128,0,86034:0:0:0:0:
64,192,85469,1,0,0:0:0:0:
192,192,85469,1,0,0:0:0:0:
192,192,85808,1,0,0:0:0:0:
320,192,86034,128,0,86260:0:0:0:0:
64,192,86147,1,0,0:0:0:0:
448,192,86260,128,0,86486:0:0:0:0:
64,192,86486,128,0,87842:0:0:0:0:
320,192,86825,1,0,0:0:0:0:
448,192,86825,1,0,0:0:0:0:
192,192,87164,1,0,0:0:0:0:
320,192,87503,1,0,0:0:0:0:
448,192,87503,1,0,0:0:0:0:
192,192,87842,128,0,88746:0:0:0:0:
320,192,88181,1,0,0:0:0:0:
448,192,88181,1,0,0:0:0:0:
448,192,88520,1,0,0:0:0:0:
320,192,88746,128,0,88972:0:0:0:0:
64,192,88859,1,0,0:0:0:0:
448,192,88972,128,0,89198:0:0:0:0:
192,192,89198,128,0,90102:0:0:0:0:
448,192,89537,1,0,0:0:0:0:
320,192,89537,1,0,0:0:0:0:
448,192,89876,1,0,0:0:0:0:
64,192,90102,128,0,90328:0:0:0:0:
320,192,90215,1,0,0:0:0:0:
192,192,90328,128,0,90554:0:0:0:0:
448,192,90554,128,0,90780:0:0:0:0:
320,192,90780,128,0,91006:0:0:0:0:
64,192,90893,1,0,0:0:0:0:
448,192,91006,128,0,91232:0:0:0:0:
192,192,91232,128,0,91458:0:0:0:0:
64,192,91458,128,0,91684:0:0:0:0:
320,192,91571,1,0,0:0:0:0:
192,192,91684,128,0,91910:0:0:0:0:
448,192,91910,128,0,92418:0:0:0:0:
64,192,92249,1,0,0:0:0:0:
192,192,92249,1,0,0:0:0:0:
320,192,92418,128,0,92588:0:0:0:0:
64,192,92588,128,0,92927:0:0:0:0:
320,192,92757,1,0,0:0:0:0:
448,192,92757,1,0,0:0:0:0:
448,192,92927,1,0,0:0:0:0:
320,192,92927,1,0,0:0:0:0:
64,192,93266,128,0,93944:0:0:0:0:
192,192,93266,1,0,0:0:0:0:
448,192,93605,1,0,0:0:0:0:
192,192,93944,128,0,94622:0:0:0:0:
320,192,93944,1,0,0:0:0:0:
448,192,94113,1,0,0:0:0:0:
448,192,94452,1,0,0:0:0:0:
320,192,94622,128,0,95300:0:0:0:0:
64,192,94791,1,0,0:0:0:0:
192,192,94791,1,0,0:0:0:0:
448,192,94961,1,0,0:0:0:0:
64,192,95130,1,0,0:0:0:0:
448,192,95300,128,0,95978:0:0:0:0:
192,192,95300,1,0,0:0:0:0:
64,192,95639,1,0,0:0:0:0:
320,192,95978,128,0,98689:0:0:0:0:
64,192,96316,1,0,0:0:0:0:
192,192,96655,1,0,0:0:0:0:
64,192,96655,1,0,0:0:0:0:
448,192,96825,1,0,0:0:0:0:
64,192,96994,1,0,0:0:0:0:
192,192,97164,1,0,0:0:0:0:
448,192,97333,128,0,98689:0:0:0:0:
64,192,97503,1,0,0:0:0:0:
192,192,97672,1,0,0:0:0:0:
64,192,97842,1,0,0:0:0:0:
192,192,98011,1,0,0:0:0:0:
64,192,98350,1,0,0:0:0:0:
64,192,98689,128,0,99367:0:0:0:0:
448,192,99028,1,0,0:0:0:0:
320,192,99367,1,0,0:0:0:0:
192,192,99367,128,0,100045:0:0:0:0:
448,192,99537,1,0,0:0:0:0:
448,192,99876,1,0,0:0:0:0:
320,192,100045,128,0,100723:0:0:0:0:
64,192,100215,1,0,0:0:0:0:
192,192,100215,1,0,0:0:0:0:
448,192,100384,1,0,0:0:0:0:
64,192,100554,1,0,0:0:0:0:
192,192,100723,1,0,0:0:0:0:
448,192,100723,128,0,101401:0:0:0:0:
64,192,101062,1,0,0:0:0:0:
320,192,101401,128,0,103435:0:0:0:0:
64,192,101740,1,0,0:0:0:0:
192,192,102079,1,0,0:0:0:0:
64,192,102079,1,0,0:0:0:0:
448,192,102249,1,0,0:0:0:0:
64,192,102418,1,0,0:0:0:0:
192,192,102588,1,0,0:0:0:0:
448,192,102757,128,0,103435:0:0:0:0:
64,192,102927,1,0,0:0:0:0:
64,192,103266,1,0,0:0:0:0:
192,192,103435,128,0,103605:0:0:0:0:
64,192,103605,128,0,103774:0:0:0:0:
192,192,103774,128,4,103944:0:0:0:0:
320,192,103944,128,0,104113:0:0:0:0:
448,192,104113,128,0,104622:0:0:0:0:
192,192,104452,1,0,0:0:0:0:
320,192,104622,128,0,104791:0:0:0:0:
64,192,104791,128,0,105808:0:0:0:0:
448,192,105130,1,0,0:0:0:0:
192,192,105469,1,0,0:0:0:0:
320,192,105808,128,0,105978:0:0:0:0:
192,192,105978,128,0,106147:0:0:0:0:
448,192,106147,128,0,106316:0:0:0:0:
320,192,106316,128,0,106486:0:0:0:0:
192,192,106486,128,0,106655:0:0:0:0:
320,192,106655,128,0,106825:0:0:0:0:
64,192,106825,128,0,107333:0:0:0:0:
192,192,107164,1,0,0:0:0:0:
448,192,107333,128,0,107503:0:0:0:0:
320,192,107503,128,0,108520:0:0:0:0:
64,192,107842,1,0,0:0:0:0:
448,192,108181,1,0,0:0:0:0:
64,192,108520,128,0,108859:0:0:0:0:
192,192,108859,128,0,109198:0:0:0:0:
320,192,109198,128,0,109537:0:0:0:0:
448,192,109537,128,0,109706:0:0:0:0:
192,192,109706,128,0,109876:0:0:0:0:
320,192,109876,128,0,110045:0:0:0:0:
448,192,110045,128,0,110215:0:0:0:0:
192,192,110215,128,0,110384:0:0:0:0:
64,192,110384,128,0,110554:0:0:0:0:
192,192,110554,128,0,110723:0:0:0:0:
320,192,110723,128,0,110893:0:0:0:0:
448,192,110893,128,0,111062:0:0:0:0:
64,192,111062,128,0,111232:0:0:0:0:
320,192,111232,128,0,111401:0:0:0:0:
448,192,111401,128,0,111571:0:0:0:0:
192,192,111571,128,0,111740:0:0:0:0:
64,192,111740,128,0,111910:0:0:0:0:
192,192,111910,128,0,112079:0:0:0:0:
320,192,112079,128,0,112249:0:0:0:0:
448,192,112249,128,4,112418:0:0:0:0:
192,192,112418,1,0,0:0:0:0:
448,192,112588,1,0,0:0:0:0:
320,192,112588,1,0,0:0:0:0:
192,192,112757,1,0,0:0:0:0:
448,192,112927,1,0,0:0:0:0:
64,192,112927,1,0,0:0:0:0:
320,192,113096,1,0,0:0:0:0:
64,192,113266,1,0,0:0:0:0:
192,192,113266,1,0,0:0:0:0:
320,192,113435,1,0,0:0:0:0:
192,192,113605,128,0,114452:0:0:0:0:
448,192,113605,1,0,0:0:0:0:
320,192,114452,1,0,0:0:0:0:
448,192,114452,1,0,0:0:0:0:
192,192,114622,1,0,0:0:0:0:
64,192,114622,1,0,0:0:0:0:
64,192,114961,1,2,0:0:0:0:
448,192,114961,1,8,0:0:0:0:
192,192,115130,128,0,115300:0:0:0:0:
320,192,115300,1,0,0:0:0:0:
192,192,115469,128,0,115639:0:0:0:0:
320,192,115639,128,0,115808:0:0:0:0:
192,192,115808,128,0,115978:0:0:0:0:
320,192,115978,1,0,0:0:0:0:
448,192,116147,1,0,0:0:0:0:
64,192,116147,1,8,0:0:0:0:
320,192,116316,128,0,116486:0:0:0:0:
192,192,116486,128,0,116655:0:0:0:0:
448,192,116655,1,8,0:0:0:0:
320,192,116655,1,0,0:0:0:0:
64,192,116825,128,0,116994:0:0:0:0:
448,192,116994,128,0,117333:0:0:0:0:
192,192,117333,128,0,117672:0:0:0:0:
448,192,117672,1,8,0:0:0:0:
64,192,117672,1,0,0:0:0:0:
320,192,117842,128,0,118011:0:0:0:0:
192,192,118011,1,0,0:0:0:0:
320,192,118181,128,0,118350:0:0:0:0:
192,192,118350,128,0,118520:0:0:0:0:
320,192,118520,128,0,118689:0:0:0:0:
64,192,118689,1,8,0:0:0:0:
192,192,118689,1,0,0:0:0:0:
448,192,118859,128,0,119028:0:0:0:0:
64,192,119028,128,0,119198:0:0:0:0:
192,192,119198,128,0,119367:0:0:0:0:
320,192,119367,128,8,119537:0:0:0:0:
192,192,119537,128,0,119706:0:0:0:0:
448,192,119706,128,0,119876:0:0:0:0:
320,192,119876,128,0,120045:0:0:0:0:
192,192,120045,128,8,120215:0:0:0:0:
64,192,120215,128,0,120384:0:0:0:0:
320,192,120384,1,0,0:0:0:0:
448,192,120384,1,8,0:0:0:0:
192,192,120554,128,0,120723:0:0:0:0:
320,192,120723,1,0,0:0:0:0:
192,192,120893,128,0,121062:0:0:0:0:
320,192,121062,128,0,121232:0:0:0:0:
192,192,121232,128,0,121401:0:0:0:0:
320,192,121401,1,0,0:0:0:0:
64,192,121571,1,8,0:0:0:0:
448,192,121571,1,0,0:0:0:0:
320,192,121740,128,0,121910:0:0:0:0:
192,192,121910,128,0,122079:0:0:0:0:
448,192,122079,1,8,0:0:0:0:
320,192,122079,1,0,0:0:0:0:
64,192,122249,128,0,122418:0:0:0:0:
448,192,122418,128,0,122757:0:0:0:0:
192,192,122757,128,0,123096:0:0:0:0:
64,192,123096,1,0,0:0:0:0:
448,192,123096,1,8,0:0:0:0:
320,192,123266,128,0,123435:0:0:0:0:
192,192,123435,1,0,0:0:0:0:
320,192,123605,128,0,123774:0:0:0:0:
192,192,123774,128,0,123944:0:0:0:0:
320,192,123944,128,0,124113:0:0:0:0:
64,192,124113,1,8,0:0:0:0:
192,192,124113,1,0,0:0:0:0:
320,192,124283,128,0,124452:0:0:0:0:
64,192,124452,128,0,124622:0:0:0:0:
448,192,124622,128,8,124791:0:0:0:0:
192,192,124791,128,0,124961:0:0:0:0:
448,192,124961,128,8,125130:0:0:0:0:
64,192,125130,128,0,125300:0:0:0:0:
320,192,125300,128,8,125469:0:0:0:0:
64,192,125808,1,0,0:0:0:0:
192,192,125808,1,0,0:0:0:0:
448,192,125978,1,0,0:0:0:0:
320,192,126062,1,0,0:0:0:0:
64,192,126147,1,2,0:0:0:0:
320,192,126316,1,0,0:0:0:0:
192,192,126401,1,0,0:0:0:0:
320,192,126486,1,0,0:0:0:0:
64,192,126655,1,0,0:0:0:0:
192,192,126740,1,0,0:0:0:0:
448,192,126825,1,2,0:0:0:0:
192,192,126994,1,0,0:0:0:0:
320,192,127079,1,0,0:0:0:0:
192,192,127164,1,0,0:0:0:0:
448,192,127333,1,0,0:0:0:0:
320,192,127418,1,0,0:0:0:0:
192,192,127503,1,2,0:0:0:0:
64,192,127672,1,0,0:0:0:0:
192,192,127757,1,0,0:0:0:0:
320,192,127842,1,0,0:0:0:0:
448,192,127842,128,0,128181:0:0:0:0:
64,192,128181,128,0,128520:0:0:0:0:
192,192,128181,1,0,0:0:0:0:
448,192,128520,1,0,0:0:0:0:
320,192,128520,1,0,0:0:0:0:
192,192,128689,1,0,0:0:0:0:
320,192,128774,1,0,0:0:0:0:
448,192,128859,1,2,0:0:0:0:
192,192,129028,1,0,0:0:0:0:
320,192,129113,1,0,0:0:0:0:
192,192,129198,1,0,0:0:0:0:
448,192,129367,1,0,0:0:0:0:
320,192,129452,1,0,0:0:0:0:
64,192,129537,1,2,0:0:0:0:
320,192,129706,1,0,0:0:0:0:
448,192,129791,1,0,0:0:0:0:
64,192,129876,128,0,130045:0:0:0:0:
448,192,130045,128,8,130215:0:0:0:0:
192,192,130215,128,0,130384:0:0:0:0:
448,192,130384,128,8,130554:0:0:0:0:
64,192,130554,128,0,130723:0:0:0:0:
448,192,130723,128,8,130893:0:0:0:0:
192,192,130893,128,10,131062:0:0:0:0:
320,192,131062,128,0,131232:0:0:0:0:
192,192,131232,1,0,0:0:0:0:
64,192,131232,1,0,0:0:0:0:
448,192,131401,1,0,0:0:0:0:
320,192,131486,1,0,0:0:0:0:
64,192,131571,1,2,0:0:0:0:
320,192,131740,1,0,0:0:0:0:
192,192,131825,1,0,0:0:0:0:
320,192,131910,1,0,0:0:0:0:
64,192,132079,1,0,0:0:0:0:
192,192,132164,1,0,0:0:0:0:
448,192,132249,1,2,0:0:0:0:
192,192,132418,1,0,0:0:0:0:
320,192,132503,1,0,0:0:0:0:
192,192,132588,1,0,0:0:0:0:
448,192,132757,1,0,0:0:0:0:
320,192,132842,1,0,0:0:0:0:
192,192,132927,1,2,0:0:0:0:
64,192,133096,1,0,0:0:0:0:
192,192,133181,1,0,0:0:0:0:
448,192,133266,128,0,133605:0:0:0:0:
320,192,133266,1,0,0:0:0:0:
192,192,133605,1,0,0:0:0:0:
64,192,133605,128,0,133944:0:0:0:0:
448,192,133944,1,0,0:0:0:0:
320,192,133944,1,0,0:0:0:0:
192,192,134113,1,0,0:0:0:0:
320,192,134198,1,0,0:0:0:0:
448,192,134283,1,2,0:0:0:0:
192,192,134452,1,0,0:0:0:0:
320,192,134537,1,0,0:0:0:0:
192,192,134622,1,0,0:0:0:0:
448,192,134791,1,0,0:0:0:0:
320,192,134876,1,0,0:0:0:0:
64,192,134961,1,2,0:0:0:0:
320,192,135130,1,0,0:0:0:0:
448,192,135215,1,0,0:0:0:0:
192,192,135300,128,0,135469:0:0:0:0:
448,192,135469,1,8,0:0:0:0:
64,192,135639,1,0,0:0:0:0:
192,192,135723,1,0,0:0:0:0:
64,192,135808,1,8,0:0:0:0:
448,192,135978,1,8,0:0:0:0:
320,192,135978,1,0,0:0:0:0:
192,192,136147,1,0,0:0:0:0:
320,192,136316,128,0,136655:0:0:0:0:
448,192,136316,128,0,136655:0:0:0:0:
64,192,136655,1,0,0:0:0:0:
192,192,136655,1,0,0:0:0:0:
448,192,136825,1,0,0:0:0:0:
320,192,136910,1,0,0:0:0:0:
64,192,136994,1,2,0:0:0:0:
320,192,137164,1,0,0:0:0:0:
192,192,137249,1,0,0:0:0:0:
320,192,137333,1,0,0:0:0:0:
64,192,137503,1,0,0:0:0:0:
192,192,137588,1,0,0:0:0:0:
448,192,137672,1,2,0:0:0:0:
192,192,137842,1,0,0:0:0:0:
320,192,137927,1,0,0:0:0:0:
192,192,138011,1,0,0:0:0:0:
448,192,138181,1,0,0:0:0:0:
320,192,138266,1,0,0:0:0:0:
192,192,138350,1,2,0:0:0:0:
64,192,138520,1,0,0:0:0:0:
192,192,138605,1,0,0:0:0:0:
320,192,138689,1,0,0:0:0:0:
448,192,138689,128,0,139028:0:0:0:0:
64,192,139028,128,0,139367:0:0:0:0:
192,192,139028,1,0,0:0:0:0:
448,192,139367,1,0,0:0:0:0:
320,192,139367,1,0,0:0:0:0:
64,192,139537,1,0,0:0:0:0:
192,192,139622,1,0,0:0:0:0:
448,192,139706,1,2,0:0:0:0:
192,192,139876,1,0,0:0:0:0:
320,192,139961,1,0,0:0:0:0:
192,192,140045,1,0,0:0:0:0:
448,192,140215,1,0,0:0:0:0:
320,192,140300,1,0,0:0:0:0:
64,192,140384,1,2,0:0:0:0:
320,192,140554,1,0,0:0:0:0:
448,192,140639,1,0,0:0:0:0:
64,192,140723,128,0,140893:0:0:0:0:
448,192,140893,128,8,141062:0:0:0:0:
192,192,141062,128,0,141232:0:0:0:0:
448,192,141232,128,8,141401:0:0:0:0:
64,192,141401,128,0,141571:0:0:0:0:
448,192,141571,128,8,141740:0:0:0:0:
192,192,141740,128,10,141910:0:0:0:0:
320,192,141910,128,0,142079:0:0:0:0:
192,192,142079,1,0,0:0:0:0:
64,192,142079,1,0,0:0:0:0:
448,192,142249,1,0,0:0:0:0:
320,192,142333,1,0,0:0:0:0:
64,192,142418,1,2,0:0:0:0:
320,192,142588,1,0,0:0:0:0:
192,192,142672,1,0,0:0:0:0:
320,192,142757,1,0,0:0:0:0:
64,192,142927,1,0,0:0:0:0:
192,192,143011,1,0,0:0:0:0:
448,192,143096,1,2,0:0:0:0:
192,192,143266,1,0,0:0:0:0:
320,192,143350,1,0,0:0:0:0:
192,192,143435,1,0,0:0:0:0:
448,192,143605,1,0,0:0:0:0:
320,192,143689,1,0,0:0:0:0:
192,192,143774,1,2,0:0:0:0:
64,192,143944,1,0,0:0:0:0:
192,192,144028,1,0,0:0:0:0:
448,192,144113,128,0,144452:0:0:0:0:
320,192,144113,1,0,0:0:0:0:
192,192,144452,1,0,0:0:0:0:
64,192,144452,128,0,144791:0:0:0:0:
448,192,144791,1,0,0:0:0:0:
320,192,144791,1,0,0:0:0:0:
64,192,144961,1,0,0:0:0:0:
192,192,145045,1,0,0:0:0:0:
448,192,145130,1,2,0:0:0:0:
320,192,145300,1,0,0:0:0:0:
192,192,145384,1,0,0:0:0:0:
64,192,145469,1,2,0:0:0:0:
448,192,145469,1,0,0:0:0:0:
64,192,145808,1,2,0:0:0:0:
448,192,145808,1,0,0:0:0:0:
192,192,146147,1,4,0:0:0:0:
64,192,146147,1,8,0:0:0:0:
64,192,146825,128,0,147164:0:0:0:0:
448,192,147164,128,0,147503:0:0:0:0:
320,192,147164,1,0,0:0:0:0:
192,192,147503,128,0,148011:0:0:0:0:
320,192,147503,1,0,0:0:0:0:
64,192,147842,1,0,0:0:0:0:
448,192,148011,128,0,148181:0:0:0:0:
320,192,148181,128,0,149198:0:0:0:0:
64,192,148520,1,0,0:0:0:0:
192,192,148859,1,0,0:0:0:0:
64,192,149198,128,0,149367:0:0:0:0:
192,192,149367,128,0,149537:0:0:0:0:
320,192,149537,128,0,149876:0:0:0:0:
448,192,149876,128,0,150215:0:0:0:0:
320,192,150215,128,0,150469:0:0:0:0:
192,192,150469,128,0,150723:0:0:0:0:
448,192,150554,1,0,0:0:0:0:
64,192,150723,128,0,152927:0:0:0:0:
320,192,150893,1,0,0:0:0:0:
448,192,151232,1,0,0:0:0:0:
192,192,151571,1,0,0:0:0:0:
320,192,151910,1,0,0:0:0:0:
448,192,152249,1,0,0:0:0:0:
192,192,152588,1,0,0:0:0:0:
320,192,152927,128,0,153435:0:0:0:0:
64,192,153266,1,0,0:0:0:0:
448,192,153435,128,0,153605:0:0:0:0:
192,192,153605,128,0,154622:0:0:0:0:
448,192,153944,1,0,0:0:0:0:
320,192,154283,1,0,0:0:0:0:
64,192,154622,128,0,154791:0:0:0:0:
192,192,154791,128,0,154961:0:0:0:0:
320,192,154961,128,0,155300:0:0:0:0:
448,192,155300,128,0,155639:0:0:0:0:
320,192,155639,128,0,155893:0:0:0:0:
192,192,155893,128,0,156147:0:0:0:0:
448,192,155978,1,0,0:0:0:0:
64,192,156147,128,0,156825:0:0:0:0:
320,192,156316,1,0,0:0:0:0:
192,192,156655,1,0,0:0:0:0:
448,192,156825,128,0,156994:0:0:0:0:
192,192,156994,128,0,157672:0:0:0:0:
64,192,157333,1,0,0:0:0:0:
320,192,157672,128,0,158350:0:0:0:0:
64,192,158011,1,0,0:0:0:0:
192,192,158181,1,0,0:0:0:0:
448,192,158350,128,0,159367:0:0:0:0:
64,192,158350,1,0,0:0:0:0:
320,192,158689,1,0,0:0:0:0:
192,192,159028,1,0,0:0:0:0:
64,192,159367,128,0,159537:0:0:0:0:
192,192,159537,128,0,159706:0:0:0:0:
320,192,159706,128,0,160384:0:0:0:0:
192,192,160045,1,0,0:0:0:0:
448,192,160384,128,0,161062:0:0:0:0:
64,192,160723,1,0,0:0:0:0:
192,192,161062,128,0,163096:0:0:0:0:
448,192,161401,1,0,0:0:0:0:
320,192,161740,1,0,0:0:0:0:
64,192,162079,1,0,0:0:0:0:
320,192,162418,1,0,0:0:0:0:
448,192,162757,1,0,0:0:0:0:
64,192,163096,128,0,163435:0:0:0:0:
192,192,163435,128,0,163774:0:0:0:0:
448,192,163774,128,0,164791:0:0:0:0:
320,192,163944,1,0,0:0:0:0:
192,192,164113,1,0,0:0:0:0:
64,192,164283,1,0,0:0:0:0:
320,192,164452,1,0,0:0:0:0:
192,192,164622,1,0,0:0:0:0:
64,192,164791,128,0,164961:0:0:0:0:
192,192,164961,128,0,165130:0:0:0:0:
320,192,165130,128,0,165808:0:0:0:0:
64,192,165300,1,0,0:0:0:0:
448,192,165469,1,0,0:0:0:0:
192,192,165639,1,0,0:0:0:0:
448,192,165808,128,0,166486:0:0:0:0:
64,192,165978,1,0,0:0:0:0:
192,192,166147,1,0,0:0:0:0:
320,192,166316,1,0,0:0:0:0:
192,192,166486,128,0,167164:0:0:0:0:
320,192,166655,1,0,0:0:0:0:
448,192,166825,1,0,0:0:0:0:
64,192,166994,1,0,0:0:0:0:
320,192,167164,128,0,167333:0:0:0:0:
448,192,167333,128,0,167503:0:0:0:0:
64,192,167503,128,0,167672:0:0:0:0:
192,192,167672,128,0,167842:0:0:0:0:
448,192,167842,1,0,0:0:0:0:
320,192,167842,1,8,0:0:0:0:
64,192,168520,128,0,168859:0:0:0:0:
448,192,168859,128,0,169198:0:0:0:0:
64,192,169198,1,6,0:0:0:0:
192,192,169198,128,0,174622:0:0:0:0:
320,192,169537,1,0,0:0:0:0:
64,192,169876,1,6,0:0:0:0:
448,192,169876,1,0,0:0:0:0:
320,192,170215,1,0,0:0:0:0:
64,192,170554,1,6,0:0:0:0:
448,192,170554,1,0,0:0:0:0:
320,192,170893,1,0,0:0:0:0:
448,192,171232,1,0,0:0:0:0:
64,192,171571,1,0,0:0:0:0:
320,192,171910,1,6,0:0:0:0:
448,192,171910,1,0,0:0:0:0:
64,192,172249,1,0,0:0:0:0:
448,192,172588,1,0,0:0:0:0:
320,192,172588,1,6,0:0:0:0:
64,192,172927,1,0,0:0:0:0:
320,192,173266,1,6,0:0:0:0:
448,192,173266,1,0,0:0:0:0:
64,192,173605,1,0,0:0:0:0:
320,192,173944,1,0,0:0:0:0:
448,192,174283,1,0,0:0:0:0:
320,192,174622,128,0,175978:0:0:0:0:
64,192,174622,1,6,0:0:0:0:
448,192,174961,1,0,0:0:0:0:
192,192,175300,1,0,0:0:0:0:
64,192,175300,1,6,0:0:0:0:
448,192,175639,1,0,0:0:0:0:
192,192,175978,128,0,176655:0:0:0:0:
64,192,175978,1,6,0:0:0:0:
320,192,176316,1,0,0:0:0:0:
448,192,176655,128,0,177333:0:0:0:0:
192,192,176994,1,0,0:0:0:0:
320,192,177333,128,0,179367:0:0:0:0:
64,192,177333,1,6,0:0:0:0:
192,192,177672,1,0,0:0:0:0:
448,192,178011,1,6,0:0:0:0:
64,192,178011,1,0,0:0:0:0:
192,192,178350,1,0,0:0:0:0:
64,192,178689,1,6,0:0:0:0:
448,192,178689,1,0,0:0:0:0:
192,192,179028,1,0,0:0:0:0:
64,192,179367,1,0,0:0:0:0:
192,192,179480,1,0,0:0:0:0:
448,192,179593,1,0,0:0:0:0:
64,192,179706,1,4,0:0:0:0:
320,192,179819,1,0,0:0:0:0:
448,192,179932,1,0,0:0:0:0:
64,192,180045,1,6,0:0:0:0:
192,192,180045,1,0,0:0:0:0:
320,192,180497,1,0,0:0:0:0:
192,192,180610,1,0,0:0:0:0:
448,192,180723,1,0,0:0:0:0:
64,192,180723,1,6,0:0:0:0:
192,192,181175,1,0,0:0:0:0:
320,192,181288,1,0,0:0:0:0:
64,192,181401,1,6,0:0:0:0:
448,192,181401,1,0,0:0:0:0:
448,192,181853,1,0,0:0:0:0:
320,192,181966,1,0,0:0:0:0:
192,192,182079,1,0,0:0:0:0:
448,192,182418,1,0,0:0:0:0:
192,192,182757,1,0,0:0:0:0:
64,192,182757,1,6,0:0:0:0:
448,192,183209,1,0,0:0:0:0:
64,192,183322,1,0,0:0:0:0:
192,192,183435,1,6,0:0:0:0:
320,192,183435,1,0,0:0:0:0:
64,192,183887,1,0,0:0:0:0:
448,192,184000,1,0,0:0:0:0:
320,192,184113,1,6,0:0:0:0:
192,192,184113,1,0,0:0:0:0:
64,192,184565,1,0,0:0:0:0:
192,192,184678,1,0,0:0:0:0:
320,192,184791,1,0,0:0:0:0:
64,192,185130,1,0,0:0:0:0:
448,192,185469,1,6,0:0:0:0:
320,192,185469,128,0,186825:0:0:0:0:
64,192,185921,128,0,186147:0:0:0:0:
448,192,186147,1,6,0:0:0:0:
64,192,186599,128,0,186825:0:0:0:0:
448,192,186825,1,6,0:0:0:0:
192,192,186825,128,0,187503:0:0:0:0:
64,192,187277,128,0,187503:0:0:0:0:
320,192,187503,1,0,0:0:0:0:
448,192,187503,128,0,188181:0:0:0:0:
64,192,187842,1,0,0:0:0:0:
320,192,188181,128,0,189537:0:0:0:0:
192,192,188181,1,6,0:0:0:0:
448,192,188633,128,0,188859:0:0:0:0:
64,192,188859,1,6,0:0:0:0:
448,192,189311,128,0,189537:0:0:0:0:
64,192,189537,1,6,0:0:0:0:
192,192,189537,128,0,190215:0:0:0:0:
448,192,189989,128,0,190215:0:0:0:0:
64,192,190215,1,0,0:0:0:0:
320,192,190215,128,0,190893:0:0:0:0:
192,192,190893,1,0,0:0:0:0:
64,192,190893,1,0,0:0:0:0:
448,192,191062,1,2,0:0:0:0:
192,192,191232,1,0,0:0:0:0:
320,192,191316,1,0,0:0:0:0:
448,192,191401,1,2,0:0:0:0:
64,192,191571,1,0,0:0:0:0:
320,192,191740,1,2,0:0:0:0:
64,192,191910,1,0,0:0:0:0:
192,192,191994,1,0,0:0:0:0:
320,192,192079,1,2,0:0:0:0:
192,192,192249,1,0,0:0:0:0:
448,192,192418,1,2,0:0:0:0:
192,192,192588,1,0,0:0:0:0:
320,192,192672,1,0,0:0:0:0:
448,192,192757,1,2,0:0:0:0:
64,192,192927,1,0,0:0:0:0:
320,192,193096,1,2,0:0:0:0:
64,192,193266,1,0,0:0:0:0:
192,192,193350,1,0,0:0:0:0:
320,192,193435,1,2,0:0:0:0:
448,192,193605,1,0,0:0:0:0:
192,192,193774,1,2,0:0:0:0:
448,192,193944,1,0,0:0:0:0:
320,192,194028,1,0,0:0:0:0:
192,192,194113,1,2,0:0:0:0:
320,192,194283,1,0,0:0:0:0:
64,192,194452,1,2,0:0:0:0:
320,192,194622,1,0,0:0:0:0:
192,192,194706,1,0,0:0:0:0:
64,192,194791,1,2,0:0:0:0:
448,192,194961,1,0,0:0:0:0:
192,192,195130,1,2,0:0:0:0:
448,192,195300,1,0,0:0:0:0:
320,192,195384,1,0,0:0:0:0:
192,192,195469,1,2,0:0:0:0:
448,192,195639,1,0,0:0:0:0:
64,192,195808,1,2,0:0:0:0:
192,192,195893,1,2,0:0:0:0:
320,192,195978,128,12,196316:0:0:0:0:
64,192,196316,1,0,0:0:0:0:
192,192,196316,1,0,0:0:0:0:
320,192,196486,1,0,0:0:0:0:
448,192,196486,1,0,0:0:0:0:
64,192,196825,1,0,0:0:0:0:
320,192,196910,1,0,0:0:0:0:
64,192,196994,1,0,0:0:0:0:
192,192,196994,1,8,0:0:0:0:
320,192,197164,1,0,0:0:0:0:
448,192,197164,1,0,0:0:0:0:
192,192,197503,128,0,197842:0:0:0:0:
64,192,197842,128,0,198011:0:0:0:0:
192,192,198011,128,0,198181:0:0:0:0:
320,192,198181,128,0,198350:0:0:0:0:
448,192,198350,128,4,198520:0:0:0:0:
320,192,198520,128,0,198689:0:0:0:0:
192,192,198689,128,2,198859:0:0:0:0:
64,192,198859,128,0,199028:0:0:0:0:
320,192,199028,1,0,0:0:0:0:
448,192,199028,1,0,0:0:0:0:
64,192,199198,1,0,0:0:0:0:
192,192,199198,1,0,0:0:0:0:
448,192,199537,1,0,0:0:0:0:
192,192,199622,1,0,0:0:0:0:
320,192,199706,1,8,0:0:0:0:
448,192,199706,1,0,0:0:0:0:
64,192,199876,1,0,0:0:0:0:
192,192,199876,1,0,0:0:0:0:
448,192,200215,128,0,200554:0:0:0:0:
320,192,200554,128,0,200723:0:0:0:0:
192,192,200723,128,0,200893:0:0:0:0:
64,192,200893,128,0,201062:0:0:0:0:
192,192,201062,128,4,201232:0:0:0:0:
320,192,201232,128,0,201401:0:0:0:0:
448,192,201401,128,0,201740:0:0:0:0:
64,192,201740,1,0,0:0:0:0:
192,192,201740,1,0,0:0:0:0:
448,192,201910,1,2,0:0:0:0:
192,192,202079,1,0,0:0:0:0:
320,192,202164,1,0,0:0:0:0:
448,192,202249,1,2,0:0:0:0:
64,192,202418,1,0,0:0:0:0:
320,192,202588,1,2,0:0:0:0:
64,192,202757,1,0,0:0:0:0:
192,192,202842,1,0,0:0:0:0:
320,192,202927,1,2,0:0:0:0:
192,192,203096,1,0,0:0:0:0:
448,192,203266,1,2,0:0:0:0:
192,192,203435,1,0,0:0:0:0:
320,192,203520,1,0,0:0:0:0:
448,192,203605,1,2,0:0:0:0:
64,192,203774,1,0,0:0:0:0:
320,192,203944,1,2,0:0:0:0:
64,192,204113,1,0,0:0:0:0:
192,192,204198,1,0,0:0:0:0:
320,192,204283,1,2,0:0:0:0:
448,192,204452,1,0,0:0:0:0:
192,192,204622,1,2,0:0:0:0:
448,192,204791,1,0,0:0:0:0:
320,192,204876,1,0,0:0:0:0:
192,192,204961,1,2,0:0:0:0:
320,192,205130,1,0,0:0:0:0:
64,192,205300,1,2,0:0:0:0:
320,192,205469,1,0,0:0:0:0:
192,192,205554,1,0,0:0:0:0:
64,192,205639,1,2,0:0:0:0:
448,192,205808,1,0,0:0:0:0:
192,192,205978,5,2,0:0:0:0:
448,192,206147,1,0,0:0:0:0:
320,192,206232,1,0,0:0:0:0:
192,192,206316,1,2,0:0:0:0:
448,192,206486,1,0,0:0:0:0:
64,192,206655,1,2,0:0:0:0:
320,192,206825,128,0,207164:0:0:0:0:
64,192,207164,128,0,207333:0:0:0:0:
192,192,207333,128,0,207503:0:0:0:0:
320,192,207503,128,0,207672:0:0:0:0:
192,192,207672,128,0,207842:0:0:0:0:
64,192,207842,128,0,208011:0:0:0:0:
320,192,208011,128,0,208181:0:0:0:0:
448,192,208181,128,0,208350:0:0:0:0:
64,192,208350,128,0,208520:0:0:0:0:
192,192,208520,128,0,208689:0:0:0:0:
320,192,208689,128,0,208859:0:0:0:0:
192,192,208859,128,0,209028:0:0:0:0:
64,192,209028,128,0,209198:0:0:0:0:
320,192,209198,128,0,209367:0:0:0:0:
448,192,209367,128,0,209537:0:0:0:0:
64,192,209537,128,0,209876:0:0:0:0:
320,192,209876,1,0,0:0:0:0:
448,192,209876,1,0,0:0:0:0:
64,192,210045,1,0,0:0:0:0:
192,192,210045,1,0,0:0:0:0:
448,192,210215,1,2,0:0:0:0:
320,192,210215,1,0,0:0:0:0:
64,192,210384,1,0,0:0:0:0:
320,192,210469,1,0,0:0:0:0:
64,192,210554,1,0,0:0:0:0:
192,192,210554,1,0,0:0:0:0:
320,192,210723,1,0,0:0:0:0:
448,192,210723,1,0,0:0:0:0:
192,192,210893,1,0,0:0:0:0:
64,192,210893,1,2,0:0:0:0:
448,192,211062,1,0,0:0:0:0:
192,192,211147,1,0,0:0:0:0:
320,192,211232,128,0,211571:0:0:0:0:
448,192,211232,1,0,0:0:0:0:
64,192,211571,128,0,211910:0:0:0:0:
320,192,211910,128,0,212249:0:0:0:0:
64,192,212249,128,0,212588:0:0:0:0:
192,192,212588,128,0,212927:0:0:0:0:
448,192,212588,1,4,0:0:0:0:
320,192,212927,128,0,213266:0:0:0:0:
64,192,213266,128,0,213605:0:0:0:0:
448,192,213605,128,0,213774:0:0:0:0:
320,192,213774,128,0,214113:0:0:0:0:
448,192,214113,128,0,214283:0:0:0:0:
192,192,214283,128,0,214452:0:0:0:0:
64,192,214452,128,0,214622:0:0:0:0:
192,192,214622,128,0,214961:0:0:0:0:
448,192,214791,1,4,0:0:0:0:
320,192,214961,128,4,215300:0:0:0:0:
192,192,215300,128,0,215639:0:0:0:0:
448,192,215639,128,0,215808:0:0:0:0:
320,192,215808,128,0,216147:0:0:0:0:
448,192,216147,128,0,216316:0:0:0:0:
192,192,216316,128,0,216486:0:0:0:0:
64,192,216486,128,0,216655:0:0:0:0:
320,192,216655,128,4,216994:0:0:0:0:
448,192,216994,128,4,217333:0:0:0:0:
192,192,217333,128,0,217672:0:0:0:0:
448,192,217672,128,0,217842:0:0:0:0:
320,192,217842,128,0,218181:0:0:0:0:
448,192,218181,128,0,218350:0:0:0:0:
192,192,218350,128,0,218520:0:0:0:0:
64,192,218520,128,0,218689:0:0:0:0:
192,192,218689,128,0,219028:0:0:0:0:
320,192,218859,1,4,0:0:0:0:
448,192,219028,128,4,219367:0:0:0:0:
192,192,219367,128,0,219706:0:0:0:0:
448,192,219706,128,0,219876:0:0:0:0:
320,192,219876,128,0,220215:0:0:0:0:
448,192,220215,128,0,220384:0:0:0:0:
320,192,220384,128,4,220554:0:0:0:0:
192,192,220554,128,0,220723:0:0:0:0:
64,192,220723,128,0,221401:0:0:0:0:
448,192,220723,1,0,0:0:0:0:
320,192,221062,1,0,0:0:0:0:
192,192,221401,128,0,222079:0:0:0:0:
448,192,221740,1,0,0:0:0:0:
320,192,222079,128,0,222757:0:0:0:0:
64,192,222418,1,0,0:0:0:0:
448,192,222757,128,0,223435:0:0:0:0:
192,192,223096,1,0,0:0:0:0:
64,192,223435,128,0,224113:0:0:0:0:
320,192,223774,1,0,0:0:0:0:
192,192,224113,128,0,224791:0:0:0:0:
448,192,224113,1,0,0:0:0:0:
448,192,224452,1,0,0:0:0:0:
320,192,224452,1,0,0:0:0:0:
320,192,224791,128,0,225469:0:0:0:0:
64,192,224791,1,0,0:0:0:0:
64,192,225130,1,0,0:0:0:0:
192,192,225130,1,0,0:0:0:0:
448,192,225469,128,0,225808:0:0:0:0:
192,192,225469,1,0,0:0:0:0:
64,192,225808,1,0,0:0:0:0:
192,192,225808,1,0,0:0:0:0:
448,192,226147,1,0,0:0:0:0:
64,192,226147,1,0,0:0:0:0:
64,192,226486,1,0,0:0:0:0:
192,192,226599,1,0,0:0:0:0:
320,192,226712,1,0,0:0:0:0:
448,192,226825,128,0,227503:0:0:0:0:
64,192,227503,1,0,0:0:0:0:
192,192,227503,1,0,0:0:0:0:
448,192,227842,1,0,0:0:0:0:
320,192,227955,1,0,0:0:0:0:
192,192,228068,1,0,0:0:0:0:
64,192,228181,128,0,228859:0:0:0:0:
320,192,228859,1,0,0:0:0:0:
448,192,228859,1,0,0:0:0:0:
64,192,229198,1,0,0:0:0:0:
320,192,229311,1,0,0:0:0:0:
448,192,229424,1,0,0:0:0:0:
192,192,229537,1,0,0:0:0:0:
320,192,229650,1,0,0:0:0:0:
448,192,229763,1,0,0:0:0:0:
64,192,229876,1,0,0:0:0:0:
192,192,229989,1,0,0:0:0:0:
320,192,230102,1,0,0:0:0:0:
64,192,230215,1,0,0:0:0:0:
192,192,230328,1,0,0:0:0:0:
448,192,230441,5,0,0:0:0:0:
64,192,230554,1,0,0:0:0:0:
320,192,230667,1,0,0:0:0:0:
448,192,230780,1,0,0:0:0:0:
64,192,230893,1,0,0:0:0:0:
192,192,231006,1,0,0:0:0:0:
320,192,231119,1,0,0:0:0:0:
448,192,231232,128,0,231571:0:0:0:0:
192,192,231571,128,0,236994:0:0:0:0:
64,192,231571,128,0,236994:0:0:0:0:
