osu file format v14

[General]
AudioFilename: audio.mp3
AudioLeadIn: 0
PreviewTime: 6628
Countdown: 0
SampleSet: Normal
StackLeniency: 0.7
Mode: 1
LetterboxInBreaks: 0
WidescreenStoryboard: 1

[Editor]
DistanceSpacing: 1.3
BeatDivisor: 4
GridSize: 4
TimelineZoom: 2.7

[Metadata]
Title:Collapse
TitleUnicode:Collapse
Artist:Chroma
ArtistUnicode:黒魔
Creator:MMzz
Version:Muzukashii
Source:Beat Beat Revolution 3rd CYBERNATION
Tags:BBR Kuroma Masaki Sekikawa 関川聖城
BeatmapID:1463198
BeatmapSetID:691352

[Difficulty]
HPDrainRate:6
CircleSize:5
OverallDifficulty:5
ApproachRate:5
SliderMultiplier:1.4
SliderTickRate:1

[Events]
//Background and Video events
0,0,"bgcollpase.png",0,90
//Break Periods
//Storyboard Layer 0 (Background)
//Storyboard Layer 1 (Fail)
//Storyboard Layer 2 (Pass)
//Storyboard Layer 3 (Foreground)
//Storyboard Sound Samples

[TimingPoints]
1331,331.491712707182,4,1,0,100,1,0
27850,-100,4,1,0,100,0,1
38458,-100,4,1,0,100,0,0
94148,-100,4,1,0,100,0,1
125971,-100,4,1,0,100,0,0
126137,-100,4,1,0,5,0,0

[HitObjects]
168,188,1331,5,4,0:0:0:0:
168,188,1662,1,8,0:0:0:0:
168,188,1993,1,4,0:0:0:0:
168,188,2325,1,8,0:0:0:0:
168,188,2491,1,4,0:0:0:0:
168,188,2988,1,4,0:0:0:0:
168,188,3319,1,8,0:0:0:0:
168,188,3485,1,4,0:0:0:0:
168,188,3817,1,0,0:0:0:0:
168,188,3982,1,4,0:0:0:0:
256,192,4148,12,0,4977,0:0:0:0:
460,124,5308,6,0,B|128:232|128:232|104:156,1,420
184,192,6634,1,4,0:0:0:0:
184,192,6966,1,8,0:0:0:0:
184,192,7463,1,0,0:0:0:0:
184,192,7629,1,8,0:0:0:0:
132,164,7795,1,0,0:0:0:0:
184,192,7960,1,0,0:0:0:0:
176,192,8292,1,8,0:0:0:0:
172,120,8458,1,0,0:0:0:0:
192,168,8623,1,0,0:0:0:0:
180,108,8706,1,0,0:0:0:0:
176,192,8789,1,0,0:0:0:0:
176,192,8955,1,8,0:0:0:0:
176,192,9286,1,0,0:0:0:0:
176,192,9618,1,8,0:0:0:0:
176,192,9784,1,8,0:0:0:0:
176,128,9949,1,0,0:0:0:0:
176,192,10281,1,0,0:0:0:0:
176,192,10447,1,8,0:0:0:0:
148,160,10612,1,0,0:0:0:0:
148,160,10944,1,8,0:0:0:0:
148,160,11275,1,8,0:0:0:0:
148,160,11441,1,0,0:0:0:0:
148,160,11524,1,0,0:0:0:0:
148,160,11607,1,8,0:0:0:0:
148,160,11938,1,0,0:0:0:0:
128,144,12270,1,8,0:0:0:0:
140,120,12767,1,0,0:0:0:0:
140,120,12933,1,8,0:0:0:0:
140,120,13098,1,0,0:0:0:0:
140,120,13264,1,0,0:0:0:0:
140,132,13596,1,8,0:0:0:0:
172,120,13761,1,0,0:0:0:0:
140,132,13927,1,0,0:0:0:0:
176,116,14010,1,0,0:0:0:0:
140,132,14093,1,0,0:0:0:0:
140,132,14259,1,8,0:0:0:0:
100,116,14590,1,0,0:0:0:0:
172,120,14922,1,8,0:0:0:0:
172,120,15253,1,0,0:0:0:0:
172,120,15419,1,0,0:0:0:0:
172,120,15585,1,8,0:0:0:0:
172,120,15916,1,0,0:0:0:0:
172,120,16082,1,0,0:0:0:0:
172,120,16248,1,8,0:0:0:0:
172,120,16413,1,0,0:0:0:0:
172,120,16579,1,8,0:0:0:0:
172,120,16745,1,8,0:0:0:0:
172,120,16911,1,8,0:0:0:0:
172,120,16993,1,8,0:0:0:0:
172,120,17076,1,8,0:0:0:0:
172,120,17242,1,4,0:0:0:0:
144,96,17574,1,8,0:0:0:0:
144,96,18071,1,0,0:0:0:0:
144,96,18237,1,8,0:0:0:0:
144,96,18402,1,0,0:0:0:0:
144,96,18568,1,0,0:0:0:0:
144,96,18900,1,8,0:0:0:0:
168,60,19065,1,0,0:0:0:0:
144,96,19231,1,0,0:0:0:0:
188,48,19314,1,0,0:0:0:0:
144,96,19397,1,0,0:0:0:0:
144,96,19563,1,8,0:0:0:0:
144,96,19894,1,0,0:0:0:0:
144,96,20226,1,8,0:0:0:0:
144,96,20391,1,0,0:0:0:0:
156,136,20557,1,0,0:0:0:0:
156,136,20889,1,8,0:0:0:0:
156,136,21054,1,8,0:0:0:0:
156,136,21220,1,0,0:0:0:0:
136,132,21551,1,8,0:0:0:0:
136,132,21883,1,8,0:0:0:0:
136,132,22049,1,0,0:0:0:0:
136,132,22132,1,0,0:0:0:0:
136,132,22214,1,8,0:0:0:0:
136,132,22546,1,0,0:0:0:0:
152,136,22877,1,8,0:0:0:0:
152,136,23375,1,0,0:0:0:0:
152,136,23540,1,8,0:0:0:0:
152,136,23706,1,0,0:0:0:0:
152,136,23872,1,0,0:0:0:0:
72,152,24203,1,8,0:0:0:0:
136,152,24369,1,0,0:0:0:0:
72,152,24535,1,0,0:0:0:0:
132,132,24618,1,0,0:0:0:0:
136,152,24701,1,0,0:0:0:0:
136,152,24866,1,8,0:0:0:0:
164,136,25198,1,0,0:0:0:0:
164,136,25281,1,0,0:0:0:0:
164,136,25364,1,0,0:0:0:0:
164,136,25529,1,8,0:0:0:0:
160,96,25695,1,0,0:0:0:0:
164,136,25861,1,0,0:0:0:0:
164,136,25944,1,0,0:0:0:0:
164,136,26027,1,0,0:0:0:0:
164,136,26192,1,8,0:0:0:0:
128,160,26358,1,0,0:0:0:0:
168,132,26524,1,8,0:0:0:0:
168,132,26690,1,8,0:0:0:0:
168,132,27187,1,0,0:0:0:0:
168,132,27353,1,0,0:0:0:0:
168,132,27518,1,8,0:0:0:0:
176,120,27684,1,0,0:0:0:0:
212,184,27850,1,12,0:0:0:0:
212,184,28347,1,12,0:0:0:0:
212,184,28844,1,12,0:0:0:0:
136,176,29176,1,8,0:0:0:0:
136,176,29342,1,8,0:0:0:0:
136,176,29507,1,0,0:0:0:0:
136,176,29673,1,8,0:0:0:0:
136,176,29839,1,0,0:0:0:0:
180,108,30005,1,0,0:0:0:0:
180,108,30170,1,8,0:0:0:0:
136,176,30336,1,0,0:0:0:0:
136,176,30502,1,12,0:0:0:0:
172,80,30999,1,12,0:0:0:0:
172,80,31496,1,12,0:0:0:0:
172,80,31828,1,0,0:0:0:0:
168,152,32076,1,0,0:0:0:0:
168,152,32325,1,0,0:0:0:0:
168,152,32574,1,0,0:0:0:0:
172,80,32822,1,0,0:0:0:0:
120,152,33154,1,12,0:0:0:0:
120,152,33651,1,12,0:0:0:0:
120,152,34148,1,12,0:0:0:0:
352,220,34480,1,8,0:0:0:0:
352,220,34645,1,8,0:0:0:0:
352,220,34811,1,0,0:0:0:0:
352,220,34977,1,8,0:0:0:0:
352,220,35143,1,0,0:0:0:0:
352,220,35308,1,0,0:0:0:0:
352,220,35474,1,8,0:0:0:0:
352,220,35640,1,0,0:0:0:0:
352,220,35806,1,12,0:0:0:0:
316,212,36303,1,12,0:0:0:0:
316,212,36800,1,12,0:0:0:0:
316,212,37132,1,0,0:0:0:0:
316,212,37380,1,0,0:0:0:0:
316,212,37629,1,0,0:0:0:0:
316,212,37877,1,0,0:0:0:0:
316,212,38126,1,8,0:0:0:0:
200,176,38458,1,4,0:0:0:0:
168,104,38789,1,8,0:0:0:0:
168,104,39121,1,0,0:0:0:0:
168,104,39286,1,0,0:0:0:0:
168,104,39452,1,8,0:0:0:0:
160,124,39784,1,0,0:0:0:0:
160,124,40115,1,8,0:0:0:0:
160,124,40447,1,0,0:0:0:0:
160,124,41110,1,0,0:0:0:0:
160,124,41441,1,8,0:0:0:0:
160,124,41772,1,0,0:0:0:0:
160,124,41938,1,0,0:0:0:0:
160,124,42104,1,8,0:0:0:0:
160,124,42435,1,0,0:0:0:0:
160,124,42767,1,8,0:0:0:0:
160,124,43098,1,8,0:0:0:0:
160,124,43761,1,4,0:0:0:0:
160,124,44093,1,8,0:0:0:0:
160,124,44424,1,0,0:0:0:0:
160,124,44590,1,0,0:0:0:0:
160,124,44756,1,8,0:0:0:0:
120,140,45087,1,0,0:0:0:0:
120,140,45419,1,8,0:0:0:0:
120,140,45750,1,0,0:0:0:0:
120,140,46413,1,0,0:0:0:0:
120,140,46745,1,8,0:0:0:0:
120,140,47076,1,0,0:0:0:0:
148,116,47242,5,0,0:0:0:0:
148,116,47408,1,8,0:0:0:0:
148,116,47739,1,4,0:0:0:0:
148,116,48071,1,8,0:0:0:0:
148,116,48319,1,8,0:0:0:0:
148,116,48568,1,8,0:0:0:0:
148,116,48817,1,8,0:0:0:0:
148,116,49065,1,4,0:0:0:0:
208,160,49397,1,8,0:0:0:0:
208,160,49728,1,0,0:0:0:0:
208,160,49894,1,0,0:0:0:0:
208,160,50060,1,8,0:0:0:0:
208,160,50391,1,0,0:0:0:0:
208,160,50723,1,8,0:0:0:0:
144,136,50889,1,0,0:0:0:0:
208,160,51054,1,8,0:0:0:0:
208,160,51220,1,0,0:0:0:0:
208,160,51386,1,8,0:0:0:0:
208,160,51717,1,0,0:0:0:0:
208,160,52049,1,8,0:0:0:0:
208,160,52380,1,0,0:0:0:0:
160,112,52546,1,0,0:0:0:0:
160,112,52712,1,8,0:0:0:0:
160,112,53043,1,0,0:0:0:0:
160,112,53375,1,8,0:0:0:0:
168,56,53540,1,0,0:0:0:0:
160,112,53706,1,8,0:0:0:0:
160,136,53872,1,8,0:0:0:0:
160,112,54038,1,0,0:0:0:0:
160,112,54369,1,4,0:0:0:0:
160,112,54701,1,8,0:0:0:0:
160,112,55032,1,0,0:0:0:0:
160,112,55198,1,0,0:0:0:0:
160,112,55364,1,8,0:0:0:0:
160,112,55695,1,0,0:0:0:0:
160,112,56027,1,8,0:0:0:0:
160,76,56192,1,0,0:0:0:0:
160,112,56358,1,0,0:0:0:0:
160,112,56524,1,0,0:0:0:0:
160,112,56690,1,8,0:0:0:0:
160,112,57021,1,0,0:0:0:0:
148,124,57353,1,8,0:0:0:0:
120,144,57684,1,0,0:0:0:0:
120,144,57850,1,0,0:0:0:0:
120,144,58016,1,8,0:0:0:0:
120,144,58347,1,0,0:0:0:0:
144,120,58513,1,0,0:0:0:0:
144,120,58679,1,8,0:0:0:0:
144,120,59010,1,0,0:0:0:0:
144,120,59176,1,0,0:0:0:0:
144,120,59342,1,8,0:0:0:0:
144,120,59507,1,8,0:0:0:0:
144,120,59673,1,4,0:0:0:0:
144,120,60005,1,8,0:0:0:0:
144,120,60253,1,8,0:0:0:0:
144,120,60502,1,8,0:0:0:0:
144,120,60750,1,8,0:0:0:0:
144,120,60999,1,4,0:0:0:0:
116,192,61496,1,0,0:0:0:0:
116,192,61662,1,8,0:0:0:0:
116,192,62325,1,0,0:0:0:0:
116,192,62574,1,8,0:0:0:0:
116,192,62822,1,0,0:0:0:0:
116,192,62988,1,8,0:0:0:0:
116,192,63651,1,0,0:0:0:0:
116,192,64314,1,8,0:0:0:0:
104,168,64563,1,8,0:0:0:0:
136,176,64977,1,0,0:0:0:0:
136,176,65226,1,8,0:0:0:0:
124,208,65474,1,0,0:0:0:0:
124,208,65640,1,0,0:0:0:0:
120,188,66303,1,0,0:0:0:0:
120,188,66800,1,0,0:0:0:0:
120,188,66966,1,8,0:0:0:0:
120,188,67297,1,0,0:0:0:0:
176,120,67629,5,4,0:0:0:0:
176,120,67960,1,4,0:0:0:0:
176,120,68292,1,12,0:0:0:0:
176,120,68623,1,12,0:0:0:0:
176,120,68955,1,4,0:0:0:0:
176,120,69618,1,0,0:0:0:0:
176,120,70281,1,8,0:0:0:0:
168,132,70447,1,0,0:0:0:0:
168,132,70612,1,8,0:0:0:0:
168,132,70778,1,8,0:0:0:0:
168,132,70944,1,0,0:0:0:0:
168,132,71110,1,0,0:0:0:0:
168,132,71275,1,12,0:0:0:0:
152,148,71607,1,4,0:0:0:0:
152,148,72767,1,4,0:0:0:0:
152,148,72933,1,4,0:0:0:0:
152,148,73430,1,4,0:0:0:0:
152,148,73761,1,4,0:0:0:0:
152,148,74010,1,12,0:0:0:0:
152,148,74259,1,4,0:0:0:0:
152,148,75419,1,4,0:0:0:0:
152,148,75585,1,4,0:0:0:0:
152,148,76248,1,12,0:0:0:0:
152,148,76496,1,12,0:0:0:0:
152,148,76745,1,12,0:0:0:0:
152,148,76911,1,4,0:0:0:0:
152,148,78071,1,4,0:0:0:0:
152,148,78237,1,4,0:0:0:0:
152,148,78734,1,4,0:0:0:0:
152,148,79065,1,4,0:0:0:0:
152,148,79314,1,12,0:0:0:0:
152,148,79563,1,4,0:0:0:0:
152,148,80723,1,4,0:0:0:0:
152,148,80971,1,4,0:0:0:0:
152,148,81220,1,12,0:0:0:0:
152,148,81469,1,12,0:0:0:0:
152,148,81717,1,4,0:0:0:0:
88,152,81966,1,4,0:0:0:0:
88,152,82214,1,4,0:0:0:0:
172,172,82546,1,8,0:0:0:0:
172,172,83043,1,0,0:0:0:0:
172,172,83209,1,8,0:0:0:0:
140,152,83375,5,0,0:0:0:0:
140,152,83540,1,0,0:0:0:0:
140,152,83872,1,8,0:0:0:0:
140,152,84038,1,0,0:0:0:0:
140,152,84203,1,0,0:0:0:0:
164,152,84286,1,0,0:0:0:0:
164,152,84369,1,0,0:0:0:0:
140,152,84535,1,8,0:0:0:0:
140,152,84866,1,0,0:0:0:0:
140,152,85198,1,8,0:0:0:0:
132,160,85529,1,0,0:0:0:0:
132,160,85695,1,0,0:0:0:0:
132,160,85861,1,8,0:0:0:0:
132,160,86192,1,0,0:0:0:0:
132,160,86358,1,0,0:0:0:0:
132,160,86524,1,8,0:0:0:0:
132,160,86855,1,8,0:0:0:0:
132,160,87021,1,0,0:0:0:0:
132,160,87104,1,0,0:0:0:0:
132,160,87187,1,8,0:0:0:0:
132,160,87518,1,4,0:0:0:0:
200,192,88181,1,0,0:0:0:0:
200,192,88347,1,0,0:0:0:0:
200,192,88513,1,8,0:0:0:0:
120,144,88679,1,0,0:0:0:0:
120,144,88844,1,4,0:0:0:0:
176,112,89507,1,0,0:0:0:0:
176,112,89673,1,0,0:0:0:0:
136,160,89839,1,8,0:0:0:0:
136,160,90005,1,0,0:0:0:0:
116,168,90170,1,12,0:0:0:0:
116,168,90502,1,12,0:0:0:0:
116,168,90833,1,4,0:0:0:0:
116,168,91165,1,4,0:0:0:0:
384,116,91496,2,0,B|184:252|184:252|56:116,1,420
200,152,92822,1,0,0:0:0:0:
200,152,92988,1,8,0:0:0:0:
200,152,93154,1,8,0:0:0:0:
200,152,93319,1,8,0:0:0:0:
200,152,93485,1,0,0:0:0:0:
200,152,93651,1,0,0:0:0:0:
200,152,93817,1,8,0:0:0:0:
200,152,93982,1,0,0:0:0:0:
200,152,94148,1,4,0:0:0:0:
180,152,94480,1,8,0:0:0:0:
180,152,94977,1,0,0:0:0:0:
180,152,95143,1,8,0:0:0:0:
176,140,95308,1,0,0:0:0:0:
176,140,95474,1,0,0:0:0:0:
176,140,95806,1,8,0:0:0:0:
184,140,95971,1,8,0:0:0:0:
192,140,96137,1,0,0:0:0:0:
192,120,96220,1,0,0:0:0:0:
192,140,96303,1,0,0:0:0:0:
192,140,96469,1,8,0:0:0:0:
192,140,96634,1,0,0:0:0:0:
192,140,96800,1,0,0:0:0:0:
176,140,97132,1,8,0:0:0:0:
176,140,97463,1,0,0:0:0:0:
176,140,97629,1,0,0:0:0:0:
176,140,97795,1,8,0:0:0:0:
192,132,98126,1,0,0:0:0:0:
192,132,98292,1,0,0:0:0:0:
192,132,98458,1,8,0:0:0:0:
192,132,98789,1,8,0:0:0:0:
192,132,98955,1,0,0:0:0:0:
192,132,99038,1,0,0:0:0:0:
192,132,99121,1,8,0:0:0:0:
192,132,99452,1,0,0:0:0:0:
212,156,99784,1,8,0:0:0:0:
136,176,100281,1,0,0:0:0:0:
136,176,100447,1,8,0:0:0:0:
136,176,100612,1,0,0:0:0:0:
136,176,100778,1,0,0:0:0:0:
136,156,101110,1,8,0:0:0:0:
192,132,101275,1,8,0:0:0:0:
136,152,101441,1,0,0:0:0:0:
200,120,101524,1,0,0:0:0:0:
136,152,101607,1,0,0:0:0:0:
136,152,101772,1,8,0:0:0:0:
136,156,101938,1,8,0:0:0:0:
136,156,102104,1,0,0:0:0:0:
136,152,102435,1,8,0:0:0:0:
136,152,102767,1,0,0:0:0:0:
136,156,102933,1,0,0:0:0:0:
136,156,103098,1,8,0:0:0:0:
164,168,103430,1,0,0:0:0:0:
164,168,103596,1,0,0:0:0:0:
164,168,103761,1,8,0:0:0:0:
136,132,103927,1,0,0:0:0:0:
164,168,104093,1,8,0:0:0:0:
164,168,104259,1,8,0:0:0:0:
164,168,104424,1,8,0:0:0:0:
164,168,104507,1,8,0:0:0:0:
164,168,104590,1,8,0:0:0:0:
164,168,104756,1,4,0:0:0:0:
160,140,105087,1,8,0:0:0:0:
160,140,105585,1,0,0:0:0:0:
160,140,105750,1,8,0:0:0:0:
160,140,105916,1,0,0:0:0:0:
160,140,106082,1,0,0:0:0:0:
160,140,106413,1,8,0:0:0:0:
200,120,106579,1,8,0:0:0:0:
160,140,106745,1,0,0:0:0:0:
200,120,106828,1,0,0:0:0:0:
160,140,106911,1,0,0:0:0:0:
160,140,107076,1,8,0:0:0:0:
160,140,107242,1,0,0:0:0:0:
160,140,107408,1,0,0:0:0:0:
156,132,107739,1,8,0:0:0:0:
156,132,108071,1,0,0:0:0:0:
156,132,108237,1,0,0:0:0:0:
156,132,108402,1,8,0:0:0:0:
156,132,108734,1,0,0:0:0:0:
156,132,108900,1,0,0:0:0:0:
156,132,109065,1,8,0:0:0:0:
156,88,109397,1,8,0:0:0:0:
156,88,109563,1,0,0:0:0:0:
156,88,109645,1,0,0:0:0:0:
156,88,109728,1,8,0:0:0:0:
156,88,110060,1,0,0:0:0:0:
128,148,110391,1,8,0:0:0:0:
128,148,110889,1,0,0:0:0:0:
128,148,111054,1,8,0:0:0:0:
128,148,111220,1,0,0:0:0:0:
128,148,111386,1,0,0:0:0:0:
128,148,111717,1,8,0:0:0:0:
128,148,112049,1,0,0:0:0:0:
128,148,112214,1,0,0:0:0:0:
176,120,112380,1,8,0:0:0:0:
208,136,112712,1,0,0:0:0:0:
208,136,112795,1,0,0:0:0:0:
208,136,112877,1,0,0:0:0:0:
208,136,113043,1,8,0:0:0:0:
208,136,113209,1,0,0:0:0:0:
208,136,113375,1,0,0:0:0:0:
208,136,113458,1,0,0:0:0:0:
208,136,113540,1,0,0:0:0:0:
208,136,113706,1,8,0:0:0:0:
208,136,113872,1,0,0:0:0:0:
448,128,114038,2,0,B|156:248|156:248|76:176,1,420
224,164,115364,5,12,0:0:0:0:
224,164,115861,1,12,0:0:0:0:
224,164,116358,1,12,0:0:0:0:
224,164,116690,1,8,0:0:0:0:
224,164,116855,1,8,0:0:0:0:
224,164,117021,1,0,0:0:0:0:
224,164,117187,1,8,0:0:0:0:
224,164,117353,1,0,0:0:0:0:
224,164,117518,1,0,0:0:0:0:
228,160,117684,1,8,0:0:0:0:
228,160,117850,1,0,0:0:0:0:
228,160,118016,1,12,0:0:0:0:
228,160,118513,1,12,0:0:0:0:
228,160,119010,1,12,0:0:0:0:
228,160,119342,1,0,0:0:0:0:
228,160,119590,1,0,0:0:0:0:
228,160,119839,1,0,0:0:0:0:
228,160,120087,1,0,0:0:0:0:
228,160,120336,1,0,0:0:0:0:
228,160,120668,1,12,0:0:0:0:
228,160,121165,1,12,0:0:0:0:
228,160,121662,1,12,0:0:0:0:
228,160,121993,1,8,0:0:0:0:
228,160,122159,1,8,0:0:0:0:
228,160,122325,1,0,0:0:0:0:
228,160,122491,1,8,0:0:0:0:
228,160,122656,1,0,0:0:0:0:
228,160,122822,1,0,0:0:0:0:
228,160,122988,1,8,0:0:0:0:
228,160,123154,1,0,0:0:0:0:
224,156,123319,1,12,0:0:0:0:
224,156,123817,1,12,0:0:0:0:
224,156,124314,1,12,0:0:0:0:
344,132,124645,2,0,B|236:256|236:256|72:60,1,420
152,176,125971,1,4,0:0:0:0:
256,192,126137,12,0,128292,0:0:0:0:
