osu file format v14

[General]
AudioFilename: audio.mp3
AudioLeadIn: 0
PreviewTime: 6628
Countdown: 0
SampleSet: Normal
StackLeniency: 0.7
Mode: 1
LetterboxInBreaks: 0
WidescreenStoryboard: 0

[Editor]
DistanceSpacing: 1.3
BeatDivisor: 4
GridSize: 4
TimelineZoom: 3.299999

[Metadata]
Title:Collapse
TitleUnicode:Collapse
Artist:Chroma
ArtistUnicode:黒魔
Creator:MMzz
Version:Inner Oni
Source:Beat Beat Revolution 3rd CYBERNATION
Tags:BBR Kuroma Masaki Sekikawa 関川聖城
BeatmapID:1463029
BeatmapSetID:691352

[Difficulty]
HPDrainRate:6
CircleSize:5
OverallDifficulty:6.5
ApproachRate:5
SliderMultiplier:1.4
SliderTickRate:1

[Events]
//Background and Video events
0,0,"bgcollpase.png",0,90
//Break Periods
//Storyboard Layer 0 (Background)
//Storyboard Layer 1 (Fail)
//Storyboard Layer 2 (Pass)
//Storyboard Layer 3 (Foreground)
//Storyboard Sound Samples

[TimingPoints]
1331,331.491712707182,4,1,0,100,1,0
27850,-100,4,1,0,100,0,1
38458,-100,4,1,0,100,0,0
60253,-105.263157894737,4,1,0,100,0,0
60502,-111.111111111111,4,1,0,100,0,0
60750,-117.647058823529,4,1,0,100,0,0
60999,-125,4,1,0,100,0,0
67629,-117.647058823529,4,1,0,100,0,0
69618,-111.111111111111,4,1,0,100,0,0
70281,-105.263157894737,4,1,0,100,0,0
71607,-100,4,1,0,100,0,0
92822,-95.2380952380952,4,1,0,100,0,0
93485,-90.9090909090909,4,1,0,100,0,0
94148,-86.9565217391304,4,1,0,100,0,1
125971,-86.9565217391304,4,1,0,100,0,0
126137,-86.9565217391304,4,1,0,5,0,0

[HitObjects]
212,172,1331,5,4,0:0:0:0:
212,172,1662,1,8,0:0:0:0:
212,172,1745,1,8,0:0:0:0:
212,172,1828,1,0,0:0:0:0:
212,172,1911,1,8,0:0:0:0:
212,172,1993,1,4,0:0:0:0:
136,224,2159,1,0,0:0:0:0:
212,172,2325,1,8,0:0:0:0:
136,224,2491,1,4,0:0:0:0:
308,168,2822,1,8,0:0:0:0:
368,68,2988,1,4,0:0:0:0:
308,136,3154,1,0,0:0:0:0:
248,204,3319,1,8,0:0:0:0:
136,224,3485,1,4,0:0:0:0:
224,196,3651,1,8,0:0:0:0:
312,168,3817,1,8,0:0:0:0:
384,60,3982,1,4,0:0:0:0:
256,192,4148,12,0,5143,0:0:0:0:
156,140,5308,5,0,0:0:0:0:
156,140,5391,1,0,0:0:0:0:
156,140,5474,1,0,0:0:0:0:
156,140,5557,1,0,0:0:0:0:
156,140,5640,1,0,0:0:0:0:
156,140,5723,1,0,0:0:0:0:
156,140,5806,1,0,0:0:0:0:
156,140,5889,1,0,0:0:0:0:
156,140,5971,1,0,0:0:0:0:
156,140,6054,1,0,0:0:0:0:
156,140,6137,1,0,0:0:0:0:
156,140,6220,1,0,0:0:0:0:
156,140,6303,1,8,0:0:0:0:
312,236,6634,1,4,0:0:0:0:
236,188,6800,1,0,0:0:0:0:
196,164,6883,1,0,0:0:0:0:
196,164,6966,1,8,0:0:0:0:
156,140,7132,1,0,0:0:0:0:
156,140,7297,1,0,0:0:0:0:
156,140,7380,1,8,0:0:0:0:
156,140,7463,1,0,0:0:0:0:
116,124,7629,1,8,0:0:0:0:
116,124,7795,1,0,0:0:0:0:
116,124,7877,1,0,0:0:0:0:
196,164,7960,1,0,0:0:0:0:
156,140,8126,1,0,0:0:0:0:
196,164,8292,1,8,0:0:0:0:
148,120,8457,1,0,0:0:0:0:
148,120,8540,1,8,0:0:0:0:
148,120,8623,1,0,0:0:0:0:
148,120,8705,1,8,0:0:0:0:
148,120,8788,1,0,0:0:0:0:
148,120,8954,1,8,0:0:0:0:
232,156,9121,1,8,0:0:0:0:
192,136,9203,1,8,0:0:0:0:
232,160,9286,1,0,0:0:0:0:
180,140,9369,1,0,0:0:0:0:
240,176,9452,1,0,0:0:0:0:
224,132,9535,1,8,0:0:0:0:
156,144,9701,1,0,0:0:0:0:
224,132,9784,1,8,0:0:0:0:
224,132,9949,1,8,0:0:0:0:
224,132,10032,1,8,0:0:0:0:
224,132,10115,1,0,0:0:0:0:
180,132,10198,1,8,0:0:0:0:
132,132,10364,1,0,0:0:0:0:
224,132,10447,1,8,0:0:0:0:
240,176,10612,1,0,0:0:0:0:
200,152,10695,1,0,0:0:0:0:
156,144,10778,1,0,0:0:0:0:
240,176,10944,1,8,0:0:0:0:
164,128,11110,1,0,0:0:0:0:
164,128,11192,1,0,0:0:0:0:
164,128,11275,1,8,0:0:0:0:
164,128,11441,1,0,0:0:0:0:
164,128,11524,1,0,0:0:0:0:
164,128,11607,1,8,0:0:0:0:
164,128,11690,1,8,0:0:0:0:
164,128,11772,1,0,0:0:0:0:
164,128,11938,1,4,0:0:0:0:
108,56,12104,1,0,0:0:0:0:
136,92,12187,1,0,0:0:0:0:
164,128,12270,1,8,0:0:0:0:
108,56,12435,1,8,0:0:0:0:
164,128,12601,1,0,0:0:0:0:
136,92,12684,1,8,0:0:0:0:
164,128,12767,1,0,0:0:0:0:
108,56,12933,1,8,0:0:0:0:
164,128,13098,1,8,0:0:0:0:
136,92,13181,1,8,0:0:0:0:
164,128,13264,1,0,0:0:0:0:
212,204,13430,1,0,0:0:0:0:
244,172,13596,1,8,0:0:0:0:
244,172,13761,1,0,0:0:0:0:
244,172,13844,1,8,0:0:0:0:
244,172,13927,1,0,0:0:0:0:
244,172,14010,1,8,0:0:0:0:
244,172,14093,1,0,0:0:0:0:
244,172,14259,1,8,0:0:0:0:
244,172,14424,1,8,0:0:0:0:
244,172,14507,1,8,0:0:0:0:
244,172,14590,1,0,0:0:0:0:
244,172,14756,1,0,0:0:0:0:
244,172,14839,1,0,0:0:0:0:
244,172,14922,1,8,0:0:0:0:
244,172,15087,1,0,0:0:0:0:
244,172,15253,1,0,0:0:0:0:
244,172,15336,1,8,0:0:0:0:
244,172,15419,1,0,0:0:0:0:
244,172,15585,1,8,0:0:0:0:
156,184,15750,1,0,0:0:0:0:
200,172,15833,1,0,0:0:0:0:
156,184,15916,1,0,0:0:0:0:
200,172,15999,1,8,0:0:0:0:
156,184,16082,1,0,0:0:0:0:
256,196,16248,1,8,0:0:0:0:
256,196,16413,1,0,0:0:0:0:
256,196,16579,1,8,0:0:0:0:
256,196,16662,1,8,0:0:0:0:
256,196,16745,1,0,0:0:0:0:
256,196,16828,1,0,0:0:0:0:
256,196,16911,1,8,0:0:0:0:
256,196,16993,1,0,0:0:0:0:
256,196,17076,1,8,0:0:0:0:
256,196,17159,1,8,0:0:0:0:
256,196,17242,1,4,0:0:0:0:
236,188,17408,1,0,0:0:0:0:
196,164,17491,1,0,0:0:0:0:
196,164,17574,1,8,0:0:0:0:
156,140,17740,1,0,0:0:0:0:
156,140,17905,1,0,0:0:0:0:
156,140,17988,1,8,0:0:0:0:
156,140,18071,1,0,0:0:0:0:
116,124,18237,1,8,0:0:0:0:
116,124,18403,1,0,0:0:0:0:
116,124,18485,1,0,0:0:0:0:
196,164,18568,1,0,0:0:0:0:
156,140,18734,1,0,0:0:0:0:
196,164,18900,1,8,0:0:0:0:
148,120,19065,1,0,0:0:0:0:
148,120,19148,1,8,0:0:0:0:
148,120,19231,1,0,0:0:0:0:
148,120,19313,1,8,0:0:0:0:
148,120,19396,1,0,0:0:0:0:
148,120,19562,1,8,0:0:0:0:
232,156,19729,1,0,0:0:0:0:
192,136,19811,1,0,0:0:0:0:
232,160,19894,1,8,0:0:0:0:
180,140,19977,1,8,0:0:0:0:
240,176,20060,1,0,0:0:0:0:
224,132,20143,1,8,0:0:0:0:
156,144,20309,1,0,0:0:0:0:
224,132,20392,1,8,0:0:0:0:
224,132,20557,1,8,0:0:0:0:
224,132,20640,1,0,0:0:0:0:
224,132,20723,1,0,0:0:0:0:
180,132,20806,1,8,0:0:0:0:
132,132,20972,1,0,0:0:0:0:
224,132,21055,1,8,0:0:0:0:
240,176,21220,1,0,0:0:0:0:
200,152,21303,1,0,0:0:0:0:
156,144,21386,1,0,0:0:0:0:
240,176,21552,1,8,0:0:0:0:
164,128,21718,1,0,0:0:0:0:
164,128,21800,1,0,0:0:0:0:
164,128,21883,1,8,0:0:0:0:
164,128,22049,1,0,0:0:0:0:
164,128,22132,1,0,0:0:0:0:
164,128,22215,1,8,0:0:0:0:
164,128,22298,1,8,0:0:0:0:
164,128,22380,1,0,0:0:0:0:
164,128,22546,1,4,0:0:0:0:
108,56,22712,1,0,0:0:0:0:
136,92,22795,1,0,0:0:0:0:
164,128,22878,1,8,0:0:0:0:
108,56,23043,1,8,0:0:0:0:
164,128,23209,1,0,0:0:0:0:
136,92,23292,1,8,0:0:0:0:
164,128,23375,1,0,0:0:0:0:
108,56,23541,1,8,0:0:0:0:
164,128,23706,1,8,0:0:0:0:
136,92,23789,1,8,0:0:0:0:
164,128,23872,1,0,0:0:0:0:
212,204,24038,1,0,0:0:0:0:
244,172,24204,1,8,0:0:0:0:
244,172,24369,1,0,0:0:0:0:
244,172,24452,1,8,0:0:0:0:
244,172,24535,1,0,0:0:0:0:
244,172,24618,1,8,0:0:0:0:
244,172,24701,1,0,0:0:0:0:
244,172,24867,1,8,0:0:0:0:
172,116,25032,1,0,0:0:0:0:
172,116,25115,1,0,0:0:0:0:
196,76,25198,1,8,0:0:0:0:
196,76,25281,1,0,0:0:0:0:
196,76,25364,1,0,0:0:0:0:
196,76,25447,1,0,0:0:0:0:
196,76,25529,1,8,0:0:0:0:
196,76,25612,1,8,0:0:0:0:
196,76,25695,1,0,0:0:0:0:
196,76,25778,1,0,0:0:0:0:
196,76,25861,1,8,0:0:0:0:
196,76,25944,1,0,0:0:0:0:
196,76,26027,1,0,0:0:0:0:
196,76,26110,1,0,0:0:0:0:
172,116,26192,1,8,0:0:0:0:
172,116,26275,1,8,0:0:0:0:
172,116,26358,1,0,0:0:0:0:
172,116,26441,1,0,0:0:0:0:
244,172,26524,1,12,0:0:0:0:
244,172,26690,1,12,0:0:0:0:
244,172,26855,1,0,0:0:0:0:
244,172,26938,1,0,0:0:0:0:
244,172,27021,1,0,0:0:0:0:
304,240,27187,1,8,0:0:0:0:
304,240,27270,1,8,0:0:0:0:
304,240,27353,1,0,0:0:0:0:
304,240,27435,1,8,0:0:0:0:
268,212,27518,1,0,0:0:0:0:
304,240,27601,1,0,0:0:0:0:
304,240,27684,1,8,0:0:0:0:
304,240,27767,1,0,0:0:0:0:
304,240,27850,1,12,0:0:0:0:
144,152,28181,1,0,0:0:0:0:
144,152,28264,1,0,0:0:0:0:
144,152,28347,1,12,0:0:0:0:
144,152,28679,1,0,0:0:0:0:
144,152,28761,1,0,0:0:0:0:
144,152,28844,1,12,0:0:0:0:
144,152,29176,1,8,0:0:0:0:
144,152,29259,1,8,0:0:0:0:
144,152,29342,1,0,0:0:0:0:
144,152,29424,1,8,0:0:0:0:
144,152,29507,1,0,0:0:0:0:
144,152,29590,1,0,0:0:0:0:
144,152,29673,1,8,0:0:0:0:
144,152,29756,1,0,0:0:0:0:
144,152,29839,1,8,0:0:0:0:
144,152,29922,1,8,0:0:0:0:
144,152,30005,1,8,0:0:0:0:
144,152,30087,1,0,0:0:0:0:
144,152,30170,1,8,0:0:0:0:
144,152,30253,1,0,0:0:0:0:
144,152,30336,1,0,0:0:0:0:
144,152,30419,1,0,0:0:0:0:
144,152,30502,1,12,0:0:0:0:
144,152,30833,1,0,0:0:0:0:
144,152,30916,1,0,0:0:0:0:
144,152,30999,1,12,0:0:0:0:
144,152,31330,1,0,0:0:0:0:
144,152,31413,1,0,0:0:0:0:
144,152,31496,1,12,0:0:0:0:
328,160,31828,1,8,0:0:0:0:
284,156,31911,1,0,0:0:0:0:
240,156,31993,1,0,0:0:0:0:
196,152,32076,1,8,0:0:0:0:
196,152,32159,1,0,0:0:0:0:
196,152,32242,1,0,0:0:0:0:
196,152,32325,1,8,0:0:0:0:
196,152,32408,1,0,0:0:0:0:
304,240,32491,1,8,0:0:0:0:
304,240,32574,1,8,0:0:0:0:
304,240,32657,1,0,0:0:0:0:
304,240,32739,1,0,0:0:0:0:
268,212,32822,1,8,0:0:0:0:
304,240,32905,1,8,0:0:0:0:
304,240,32988,1,8,0:0:0:0:
304,240,33071,1,0,0:0:0:0:
304,240,33154,1,12,0:0:0:0:
144,152,33485,1,0,0:0:0:0:
144,152,33568,1,0,0:0:0:0:
144,152,33651,1,12,0:0:0:0:
144,152,33982,1,0,0:0:0:0:
144,152,34065,1,0,0:0:0:0:
144,152,34148,1,12,0:0:0:0:
324,184,34480,1,8,0:0:0:0:
280,176,34563,1,8,0:0:0:0:
236,168,34645,1,0,0:0:0:0:
192,160,34728,1,8,0:0:0:0:
148,152,34811,1,0,0:0:0:0:
192,160,34894,1,0,0:0:0:0:
148,152,34977,1,8,0:0:0:0:
192,160,35060,1,0,0:0:0:0:
148,148,35143,1,8,0:0:0:0:
192,160,35226,1,8,0:0:0:0:
148,148,35308,1,8,0:0:0:0:
192,160,35391,1,0,0:0:0:0:
148,148,35474,1,8,0:0:0:0:
192,160,35557,1,0,0:0:0:0:
148,144,35640,1,0,0:0:0:0:
192,160,35723,1,0,0:0:0:0:
144,152,35806,1,12,0:0:0:0:
144,152,36137,1,0,0:0:0:0:
144,152,36220,1,0,0:0:0:0:
144,152,36303,1,12,0:0:0:0:
144,152,36634,1,0,0:0:0:0:
144,152,36717,1,0,0:0:0:0:
144,152,36800,1,12,0:0:0:0:
320,104,37132,1,8,0:0:0:0:
276,116,37214,1,8,0:0:0:0:
232,128,37297,1,0,0:0:0:0:
232,128,37380,1,8,0:0:0:0:
144,152,37463,1,0,0:0:0:0:
144,152,37546,1,0,0:0:0:0:
144,152,37629,1,8,0:0:0:0:
144,152,37712,1,8,0:0:0:0:
144,152,37795,1,0,0:0:0:0:
144,152,37877,1,8,0:0:0:0:
144,152,37960,1,0,0:0:0:0:
144,152,38043,1,0,0:0:0:0:
144,152,38126,1,8,0:0:0:0:
144,152,38209,1,8,0:0:0:0:
144,152,38292,1,8,0:0:0:0:
144,152,38375,1,8,0:0:0:0:
144,152,38458,1,4,0:0:0:0:
324,180,38789,1,8,0:0:0:0:
144,152,39121,1,0,0:0:0:0:
188,160,39286,1,0,0:0:0:0:
100,188,39452,1,8,0:0:0:0:
276,144,39784,1,0,0:0:0:0:
104,184,40115,1,8,0:0:0:0:
280,144,40447,1,0,0:0:0:0:
72,156,40612,1,0,0:0:0:0:
116,180,40778,1,8,0:0:0:0:
200,160,40944,1,8,0:0:0:0:
288,144,41110,1,0,0:0:0:0:
108,176,41441,1,8,0:0:0:0:
288,144,41772,1,0,0:0:0:0:
200,160,41938,1,0,0:0:0:0:
288,144,42104,1,8,0:0:0:0:
104,176,42435,1,0,0:0:0:0:
272,148,42767,1,8,0:0:0:0:
92,176,43098,1,8,0:0:0:0:
184,164,43264,1,0,0:0:0:0:
272,144,43430,1,8,0:0:0:0:
184,164,43596,1,8,0:0:0:0:
272,144,43761,1,4,0:0:0:0:
96,172,44093,1,8,0:0:0:0:
272,144,44424,1,0,0:0:0:0:
188,160,44590,1,0,0:0:0:0:
276,140,44756,1,8,0:0:0:0:
100,180,45087,1,0,0:0:0:0:
260,144,45419,1,8,0:0:0:0:
152,168,45750,1,0,0:0:0:0:
132,152,45916,1,0,0:0:0:0:
176,100,46082,1,8,0:0:0:0:
176,100,46248,1,8,0:0:0:0:
176,100,46413,1,0,0:0:0:0:
184,284,46745,1,8,0:0:0:0:
176,100,47076,1,0,0:0:0:0:
180,196,47242,1,0,0:0:0:0:
176,104,47408,1,8,0:0:0:0:
180,196,47574,1,0,0:0:0:0:
168,180,47739,5,4,0:0:0:0:
168,180,48071,1,12,0:0:0:0:
168,180,48319,1,12,0:0:0:0:
168,180,48568,1,4,0:0:0:0:
168,180,48817,1,12,0:0:0:0:
32,164,49065,1,4,0:0:0:0:
124,168,49231,1,0,0:0:0:0:
168,168,49314,1,0,0:0:0:0:
212,168,49397,1,8,0:0:0:0:
212,168,49563,1,0,0:0:0:0:
212,168,49645,1,8,0:0:0:0:
212,168,49728,1,0,0:0:0:0:
212,168,49894,1,0,0:0:0:0:
212,168,49977,1,0,0:0:0:0:
212,168,50060,1,8,0:0:0:0:
212,168,50226,1,8,0:0:0:0:
212,168,50308,1,8,0:0:0:0:
212,168,50391,1,0,0:0:0:0:
212,168,50557,1,0,0:0:0:0:
212,168,50640,1,0,0:0:0:0:
212,168,50723,1,8,0:0:0:0:
296,136,50889,1,8,0:0:0:0:
252,144,50971,1,0,0:0:0:0:
208,152,51054,1,8,0:0:0:0:
208,152,51220,1,8,0:0:0:0:
208,152,51303,1,8,0:0:0:0:
208,152,51386,1,0,0:0:0:0:
208,152,51551,1,0,0:0:0:0:
208,152,51634,1,0,0:0:0:0:
208,152,51717,1,8,0:0:0:0:
208,152,51883,1,8,0:0:0:0:
208,152,51966,1,0,0:0:0:0:
208,152,52049,1,0,0:0:0:0:
208,152,52214,1,0,0:0:0:0:
208,152,52297,1,0,0:0:0:0:
208,152,52380,1,8,0:0:0:0:
208,152,52546,1,0,0:0:0:0:
184,116,52629,1,8,0:0:0:0:
184,116,52712,1,0,0:0:0:0:
184,116,52877,1,0,0:0:0:0:
184,116,52960,1,0,0:0:0:0:
184,116,53043,1,8,0:0:0:0:
184,116,53209,1,8,0:0:0:0:
148,88,53292,1,0,0:0:0:0:
148,88,53375,1,0,0:0:0:0:
148,88,53540,1,0,0:0:0:0:
148,88,53623,1,0,0:0:0:0:
148,88,53706,1,8,0:0:0:0:
148,88,53872,1,8,0:0:0:0:
148,88,53955,1,8,0:0:0:0:
148,88,54038,1,0,0:0:0:0:
148,88,54203,1,8,0:0:0:0:
148,88,54369,1,4,0:0:0:0:
192,168,54535,1,0,0:0:0:0:
192,168,54618,1,0,0:0:0:0:
176,128,54701,1,8,0:0:0:0:
260,96,54866,1,8,0:0:0:0:
216,112,54949,1,0,0:0:0:0:
216,112,55032,1,0,0:0:0:0:
216,112,55198,1,0,0:0:0:0:
216,112,55281,1,0,0:0:0:0:
216,112,55364,1,8,0:0:0:0:
216,112,55529,1,0,0:0:0:0:
216,112,55612,1,8,0:0:0:0:
216,112,55695,1,0,0:0:0:0:
216,112,55861,1,0,0:0:0:0:
216,112,55944,1,0,0:0:0:0:
216,112,56027,1,8,0:0:0:0:
216,112,56192,1,8,0:0:0:0:
216,112,56275,1,0,0:0:0:0:
216,112,56358,1,0,0:0:0:0:
216,112,56524,1,0,0:0:0:0:
216,112,56607,1,0,0:0:0:0:
216,112,56690,1,8,0:0:0:0:
216,112,56855,1,8,0:0:0:0:
216,112,56938,1,8,0:0:0:0:
216,112,57021,1,0,0:0:0:0:
248,196,57187,1,0,0:0:0:0:
232,152,57270,1,0,0:0:0:0:
232,152,57353,1,8,0:0:0:0:
232,152,57518,1,0,0:0:0:0:
232,152,57601,1,8,0:0:0:0:
232,152,57684,5,0,0:0:0:0:
232,152,57850,1,0,0:0:0:0:
232,152,57933,1,0,0:0:0:0:
232,152,58016,1,8,0:0:0:0:
232,152,58181,1,8,0:0:0:0:
232,152,58264,1,8,0:0:0:0:
232,152,58347,1,0,0:0:0:0:
232,152,58513,1,0,0:0:0:0:
232,152,58596,1,0,0:0:0:0:
232,152,58679,1,8,0:0:0:0:
256,192,58844,5,0,0:0:0:0:
256,192,58927,1,8,0:0:0:0:
256,192,59010,1,0,0:0:0:0:
256,192,59093,1,0,0:0:0:0:
256,192,59176,1,8,0:0:0:0:
256,192,59259,1,8,0:0:0:0:
256,192,59342,1,0,0:0:0:0:
256,192,59424,1,8,0:0:0:0:
256,192,59507,1,8,0:0:0:0:
256,192,59590,1,8,0:0:0:0:
256,192,59673,1,4,0:0:0:0:
256,192,60005,1,12,0:0:0:0:
256,192,60253,1,12,0:0:0:0:
256,192,60502,1,4,0:0:0:0:
256,192,60750,1,12,0:0:0:0:
256,192,60999,1,4,0:0:0:0:
232,160,61496,1,0,0:0:0:0:
232,160,61579,1,0,0:0:0:0:
232,160,61662,1,8,0:0:0:0:
232,160,61993,1,0,0:0:0:0:
232,160,62159,1,0,0:0:0:0:
232,160,62325,1,0,0:0:0:0:
232,160,62574,1,8,0:0:0:0:
232,160,62822,1,0,0:0:0:0:
232,160,62905,1,0,0:0:0:0:
232,160,62988,1,8,0:0:0:0:
232,160,63237,1,0,0:0:0:0:
232,160,63485,1,0,0:0:0:0:
232,160,63651,1,0,0:0:0:0:
112,152,64148,1,0,0:0:0:0:
144,120,64231,1,0,0:0:0:0:
144,120,64314,1,8,0:0:0:0:
12,108,64563,1,8,0:0:0:0:
144,144,64811,1,0,0:0:0:0:
100,132,64894,1,0,0:0:0:0:
100,132,64977,1,0,0:0:0:0:
100,132,65226,1,8,0:0:0:0:
184,156,65474,1,0,0:0:0:0:
184,156,65557,1,0,0:0:0:0:
184,156,65640,1,0,0:0:0:0:
184,156,65971,1,8,0:0:0:0:
184,156,66137,1,0,0:0:0:0:
184,156,66303,1,0,0:0:0:0:
184,156,66800,1,0,0:0:0:0:
184,112,66883,1,0,0:0:0:0:
184,112,66966,1,8,0:0:0:0:
197,220,67214,1,8,0:0:0:0:
192,183,67297,1,0,0:0:0:0:
184,112,67629,1,4,0:0:0:0:
184,112,67795,1,0,0:0:0:0:
184,112,67960,1,12,0:0:0:0:
127,158,68126,1,8,0:0:0:0:
184,113,68292,1,4,0:0:0:0:
127,158,68458,1,0,0:0:0:0:
186,117,68623,1,12,0:0:0:0:
126,159,68789,1,0,0:0:0:0:
216,98,68955,1,4,0:0:0:0:
204,152,69618,1,0,0:0:0:0:
182,147,70281,1,8,0:0:0:0:
182,147,70364,1,8,0:0:0:0:
204,152,70447,1,0,0:0:0:0:
204,152,70529,1,8,0:0:0:0:
204,152,70612,1,0,0:0:0:0:
182,147,70695,1,0,0:0:0:0:
204,152,70778,1,8,0:0:0:0:
204,152,70944,1,0,0:0:0:0:
204,152,71027,1,8,0:0:0:0:
172,120,71110,1,0,0:0:0:0:
136,92,71192,1,0,0:0:0:0:
204,152,71275,1,12,0:0:0:0:
204,152,71607,1,4,0:0:0:0:
155,228,71772,1,0,0:0:0:0:
179,189,71855,1,0,0:0:0:0:
179,189,71938,1,8,0:0:0:0:
179,189,72104,1,8,0:0:0:0:
196,146,72187,1,8,0:0:0:0:
179,189,72270,1,0,0:0:0:0:
179,189,72435,1,0,0:0:0:0:
179,189,72518,1,0,0:0:0:0:
179,189,72601,1,8,0:0:0:0:
185,143,72684,1,8,0:0:0:0:
150,126,72767,1,4,0:0:0:0:
150,126,72933,1,4,0:0:0:0:
217,186,73098,1,0,0:0:0:0:
182,155,73181,1,0,0:0:0:0:
182,155,73264,1,8,0:0:0:0:
151,153,73430,1,4,0:0:0:0:
150,126,73596,1,8,0:0:0:0:
151,153,73761,1,4,0:0:0:0:
151,153,74010,1,12,0:0:0:0:
151,153,74259,1,4,0:0:0:0:
210,84,74424,1,0,0:0:0:0:
180,118,74507,1,0,0:0:0:0:
150,153,74590,1,8,0:0:0:0:
210,84,74756,1,0,0:0:0:0:
180,118,74839,1,8,0:0:0:0:
150,153,74922,1,0,0:0:0:0:
150,152,75087,1,8,0:0:0:0:
177,115,75170,1,0,0:0:0:0:
207,81,75253,1,8,0:0:0:0:
199,126,75336,1,8,0:0:0:0:
151,153,75419,1,4,0:0:0:0:
151,153,75585,1,4,0:0:0:0:
150,153,75750,1,0,0:0:0:0:
150,153,75833,1,0,0:0:0:0:
150,153,75916,1,8,0:0:0:0:
150,152,76082,1,0,0:0:0:0:
151,153,76248,1,12,0:0:0:0:
151,153,76496,1,12,0:0:0:0:
151,153,76745,1,12,0:0:0:0:
151,153,76911,1,4,0:0:0:0:
212,219,77076,1,0,0:0:0:0:
192,177,77159,1,0,0:0:0:0:
173,135,77242,1,8,0:0:0:0:
210,218,77408,1,8,0:0:0:0:
191,176,77491,1,8,0:0:0:0:
173,134,77574,1,0,0:0:0:0:
255,171,77739,1,0,0:0:0:0:
255,171,77822,1,0,0:0:0:0:
255,171,77905,1,8,0:0:0:0:
255,171,77988,1,8,0:0:0:0:
151,153,78071,1,4,0:0:0:0:
151,153,78237,1,4,0:0:0:0:
241,158,78402,1,0,0:0:0:0:
241,158,78485,1,0,0:0:0:0:
241,158,78568,1,8,0:0:0:0:
151,153,78734,1,4,0:0:0:0:
241,158,78900,1,8,0:0:0:0:
151,153,79065,1,4,0:0:0:0:
151,153,79314,1,12,0:0:0:0:
151,153,79563,1,4,0:0:0:0:
241,158,79728,1,0,0:0:0:0:
241,158,79811,1,0,0:0:0:0:
241,158,79894,1,8,0:0:0:0:
241,158,80060,1,0,0:0:0:0:
241,158,80143,1,8,0:0:0:0:
241,158,80226,1,0,0:0:0:0:
241,158,80391,1,8,0:0:0:0:
241,158,80474,1,0,0:0:0:0:
241,158,80557,1,8,0:0:0:0:
241,158,80640,1,8,0:0:0:0:
151,153,80723,1,4,0:0:0:0:
176,33,80971,1,4,0:0:0:0:
151,153,81220,1,12,0:0:0:0:
176,31,81469,1,12,0:0:0:0:
151,151,81717,1,4,0:0:0:0:
151,153,81966,1,12,0:0:0:0:
312,236,82214,1,4,0:0:0:0:
236,188,82380,1,0,0:0:0:0:
196,164,82463,1,0,0:0:0:0:
196,164,82546,1,8,0:0:0:0:
196,164,82712,1,8,0:0:0:0:
177,122,82795,1,8,0:0:0:0:
160,80,82877,1,0,0:0:0:0:
156,140,82960,1,8,0:0:0:0:
156,140,83043,1,0,0:0:0:0:
116,124,83209,1,8,0:0:0:0:
116,124,83375,1,0,0:0:0:0:
116,124,83457,1,0,0:0:0:0:
196,164,83540,1,0,0:0:0:0:
156,140,83706,1,0,0:0:0:0:
196,164,83872,1,8,0:0:0:0:
148,120,84037,1,0,0:0:0:0:
148,120,84120,1,8,0:0:0:0:
148,120,84203,1,0,0:0:0:0:
148,120,84285,1,8,0:0:0:0:
148,120,84368,1,0,0:0:0:0:
148,120,84534,1,8,0:0:0:0:
232,156,84701,1,8,0:0:0:0:
192,136,84783,1,8,0:0:0:0:
232,160,84866,1,0,0:0:0:0:
148,120,85032,1,0,0:0:0:0:
148,120,85115,1,0,0:0:0:0:
148,120,85198,1,8,0:0:0:0:
148,120,85364,1,8,0:0:0:0:
183,91,85447,1,8,0:0:0:0:
148,120,85529,1,0,0:0:0:0:
148,120,85612,1,8,0:0:0:0:
148,120,85695,1,0,0:0:0:0:
148,120,85861,1,8,0:0:0:0:
148,120,86027,1,0,0:0:0:0:
200,152,86110,1,0,0:0:0:0:
240,176,86192,1,0,0:0:0:0:
156,144,86275,1,8,0:0:0:0:
156,144,86358,1,0,0:0:0:0:
240,176,86524,1,8,0:0:0:0:
164,128,86690,1,0,0:0:0:0:
164,128,86772,1,0,0:0:0:0:
164,128,86855,1,8,0:0:0:0:
164,128,87021,1,0,0:0:0:0:
164,128,87104,1,0,0:0:0:0:
164,128,87187,1,8,0:0:0:0:
164,128,87270,1,8,0:0:0:0:
164,128,87352,1,0,0:0:0:0:
85,174,87518,1,4,0:0:0:0:
177,16,87850,1,8,0:0:0:0:
130,148,88016,1,8,0:0:0:0:
130,148,88098,1,8,0:0:0:0:
130,148,88181,1,0,0:0:0:0:
168,123,88264,1,8,0:0:0:0:
130,148,88347,1,0,0:0:0:0:
130,148,88430,1,0,0:0:0:0:
130,148,88513,1,8,0:0:0:0:
130,148,88679,1,4,0:0:0:0:
130,148,88844,1,4,0:0:0:0:
130,148,89176,1,8,0:0:0:0:
130,148,89342,1,8,0:0:0:0:
130,148,89424,1,8,0:0:0:0:
130,148,89507,1,0,0:0:0:0:
169,125,89590,1,8,0:0:0:0:
130,148,89673,1,0,0:0:0:0:
130,148,89839,1,12,0:0:0:0:
130,148,90005,1,4,0:0:0:0:
212,161,90170,5,12,0:0:0:0:
212,161,90336,1,0,0:0:0:0:
212,161,90419,1,0,0:0:0:0:
212,161,90502,1,8,0:0:0:0:
212,161,90585,1,0,0:0:0:0:
212,161,90668,1,0,0:0:0:0:
212,161,90750,1,0,0:0:0:0:
220,116,90833,1,8,0:0:0:0:
191,80,90916,1,8,0:0:0:0:
191,80,90999,1,0,0:0:0:0:
191,80,91082,1,0,0:0:0:0:
191,80,91165,1,8,0:0:0:0:
191,80,91248,1,0,0:0:0:0:
191,80,91330,1,0,0:0:0:0:
191,80,91413,1,0,0:0:0:0:
180,124,91496,1,8,0:0:0:0:
195,166,91579,1,8,0:0:0:0:
179,122,91662,1,0,0:0:0:0:
195,164,91745,1,8,0:0:0:0:
195,164,91828,1,8,0:0:0:0:
195,164,91911,1,0,0:0:0:0:
195,164,91993,1,8,0:0:0:0:
195,164,92076,1,8,0:0:0:0:
195,164,92159,1,0,0:0:0:0:
195,164,92242,1,0,0:0:0:0:
195,164,92325,1,0,0:0:0:0:
195,164,92408,1,0,0:0:0:0:
195,164,92491,1,12,0:0:0:0:
161,176,92822,5,0,0:0:0:0:
161,176,92988,1,8,0:0:0:0:
161,176,93071,1,0,0:0:0:0:
161,176,93154,1,8,0:0:0:0:
164,85,93319,1,8,0:0:0:0:
123,166,93485,1,0,0:0:0:0:
123,166,93568,1,0,0:0:0:0:
123,166,93651,1,8,0:0:0:0:
123,166,93734,1,0,0:0:0:0:
123,166,93817,1,8,0:0:0:0:
123,166,93982,1,8,0:0:0:0:
210,140,94148,1,8,0:0:0:0:
166,153,94231,1,0,0:0:0:0:
209,141,94314,1,0,0:0:0:0:
165,153,94397,1,8,0:0:0:0:
209,141,94480,1,0,0:0:0:0:
165,153,94563,1,0,0:0:0:0:
208,141,94645,1,8,0:0:0:0:
164,154,94728,1,0,0:0:0:0:
128,133,94811,1,0,0:0:0:0:
128,133,94894,1,8,0:0:0:0:
112,175,94977,1,0,0:0:0:0:
112,175,95060,1,0,0:0:0:0:
82,261,95143,1,8,0:0:0:0:
97,218,95226,1,8,0:0:0:0:
112,175,95308,1,0,0:0:0:0:
112,175,95391,1,8,0:0:0:0:
112,175,95474,1,0,0:0:0:0:
112,175,95557,1,0,0:0:0:0:
112,175,95640,1,8,0:0:0:0:
112,175,95723,1,0,0:0:0:0:
112,175,95806,1,8,0:0:0:0:
112,175,95889,1,8,0:0:0:0:
112,175,95971,1,0,0:0:0:0:
112,175,96054,1,0,0:0:0:0:
196,121,96137,1,8,0:0:0:0:
196,121,96220,1,8,0:0:0:0:
196,121,96303,1,8,0:0:0:0:
196,121,96386,1,0,0:0:0:0:
196,121,96469,1,8,0:0:0:0:
196,121,96551,1,8,0:0:0:0:
196,121,96634,1,0,0:0:0:0:
142,47,96800,1,8,0:0:0:0:
168,83,96883,1,8,0:0:0:0:
195,119,96966,1,0,0:0:0:0:
167,82,97049,1,8,0:0:0:0:
194,118,97132,1,0,0:0:0:0:
168,155,97214,1,0,0:0:0:0:
143,193,97297,1,8,0:0:0:0:
143,193,97380,1,0,0:0:0:0:
180,99,97463,1,8,0:0:0:0:
180,99,97546,1,8,0:0:0:0:
180,99,97629,1,0,0:0:0:0:
180,99,97712,1,0,0:0:0:0:
180,99,97795,1,8,0:0:0:0:
180,99,97877,1,8,0:0:0:0:
180,99,97960,1,0,0:0:0:0:
180,99,98043,1,0,0:0:0:0:
235,142,98126,1,8,0:0:0:0:
235,142,98209,1,8,0:0:0:0:
235,142,98292,1,8,0:0:0:0:
235,142,98375,1,0,0:0:0:0:
235,142,98458,1,8,0:0:0:0:
235,142,98540,1,8,0:0:0:0:
235,142,98623,1,8,0:0:0:0:
235,142,98706,1,0,0:0:0:0:
202,109,98789,1,8,0:0:0:0:
202,109,98872,1,8,0:0:0:0:
202,109,98955,1,0,0:0:0:0:
202,109,99038,1,0,0:0:0:0:
202,109,99121,1,8,0:0:0:0:
202,109,99203,1,8,0:0:0:0:
158,122,99286,1,0,0:0:0:0:
114,136,99369,1,8,0:0:0:0:
202,165,99452,1,0,0:0:0:0:
202,165,99618,1,0,0:0:0:0:
202,165,99701,1,0,0:0:0:0:
160,163,99784,1,8,0:0:0:0:
202,165,99949,1,8,0:0:0:0:
202,165,100115,1,0,0:0:0:0:
202,165,100198,1,8,0:0:0:0:
160,163,100281,1,0,0:0:0:0:
160,163,100447,1,8,0:0:0:0:
243,225,100612,1,8,0:0:0:0:
201,193,100695,1,8,0:0:0:0:
160,163,100778,1,0,0:0:0:0:
202,165,100944,1,8,0:0:0:0:
202,165,101027,1,0,0:0:0:0:
202,165,101110,1,8,0:0:0:0:
202,165,101192,1,8,0:0:0:0:
202,165,101275,1,0,0:0:0:0:
202,165,101358,1,8,0:0:0:0:
202,165,101441,1,0,0:0:0:0:
194,113,101524,1,0,0:0:0:0:
194,113,101607,1,8,0:0:0:0:
194,113,101690,1,0,0:0:0:0:
202,165,101772,1,8,0:0:0:0:
202,165,101855,1,8,0:0:0:0:
202,165,101938,1,0,0:0:0:0:
202,165,102021,1,0,0:0:0:0:
153,145,102104,1,8,0:0:0:0:
153,145,102187,1,8,0:0:0:0:
153,145,102270,1,0,0:0:0:0:
153,145,102353,1,8,0:0:0:0:
153,145,102435,1,0,0:0:0:0:
153,145,102518,1,0,0:0:0:0:
153,145,102601,1,8,0:0:0:0:
153,145,102684,1,0,0:0:0:0:
167,145,102767,1,8,0:0:0:0:
167,145,102850,1,8,0:0:0:0:
167,145,102933,1,8,0:0:0:0:
167,145,103016,1,0,0:0:0:0:
167,145,103098,1,8,0:0:0:0:
167,145,103181,1,8,0:0:0:0:
167,145,103264,1,0,0:0:0:0:
167,145,103347,1,0,0:0:0:0:
167,145,103430,1,8,0:0:0:0:
167,145,103513,1,8,0:0:0:0:
167,145,103596,1,0,0:0:0:0:
166,145,103679,1,8,0:0:0:0:
166,145,103761,1,8,0:0:0:0:
164,144,103844,1,0,0:0:0:0:
164,144,103927,1,8,0:0:0:0:
163,144,104010,1,8,0:0:0:0:
216,171,104093,1,0,0:0:0:0:
216,171,104176,1,8,0:0:0:0:
216,171,104259,1,0,0:0:0:0:
216,171,104342,1,0,0:0:0:0:
216,171,104424,1,8,0:0:0:0:
216,171,104507,1,8,0:0:0:0:
216,171,104590,1,8,0:0:0:0:
216,171,104673,1,8,0:0:0:0:
216,171,104756,1,4,0:0:0:0:
111,159,104922,1,0,0:0:0:0:
111,159,105005,1,0,0:0:0:0:
111,159,105087,1,8,0:0:0:0:
111,159,105170,1,8,0:0:0:0:
111,159,105253,1,0,0:0:0:0:
111,159,105336,1,8,0:0:0:0:
111,159,105419,1,0,0:0:0:0:
111,159,105502,1,0,0:0:0:0:
111,159,105585,1,8,0:0:0:0:
111,159,105668,1,0,0:0:0:0:
111,159,105750,1,8,0:0:0:0:
111,159,105833,1,8,0:0:0:0:
111,159,105916,1,0,0:0:0:0:
111,159,105999,1,0,0:0:0:0:
199,184,106082,1,8,0:0:0:0:
199,184,106165,1,0,0:0:0:0:
199,184,106248,1,8,0:0:0:0:
199,184,106330,1,0,0:0:0:0:
199,184,106413,1,8,0:0:0:0:
199,184,106496,1,8,0:0:0:0:
199,184,106579,1,8,0:0:0:0:
199,184,106662,1,0,0:0:0:0:
148,196,106745,1,8,0:0:0:0:
148,196,106828,1,0,0:0:0:0:
148,196,106911,1,8,0:0:0:0:
148,196,106993,1,0,0:0:0:0:
148,196,107076,1,8,0:0:0:0:
148,196,107159,1,8,0:0:0:0:
148,196,107242,1,0,0:0:0:0:
194,171,107325,1,8,0:0:0:0:
148,196,107408,1,0,0:0:0:0:
248,226,107574,1,8,0:0:0:0:
198,211,107656,1,8,0:0:0:0:
147,195,107739,1,0,0:0:0:0:
198,206,107822,1,8,0:0:0:0:
248,218,107905,1,8,0:0:0:0:
298,230,107988,1,0,0:0:0:0:
298,230,108071,1,8,0:0:0:0:
298,230,108154,1,8,0:0:0:0:
148,196,108237,1,0,0:0:0:0:
147,195,108319,1,8,0:0:0:0:
147,195,108402,1,0,0:0:0:0:
147,195,108485,1,0,0:0:0:0:
147,195,108568,1,8,0:0:0:0:
174,91,108734,1,8,0:0:0:0:
174,91,108817,1,8,0:0:0:0:
174,91,108900,1,0,0:0:0:0:
174,91,108982,1,0,0:0:0:0:
174,91,109065,1,8,0:0:0:0:
174,91,109148,1,0,0:0:0:0:
174,91,109231,1,8,0:0:0:0:
174,91,109314,1,8,0:0:0:0:
191,121,109397,1,0,0:0:0:0:
191,121,109480,1,0,0:0:0:0:
191,121,109563,1,0,0:0:0:0:
191,121,109645,1,0,0:0:0:0:
174,91,109728,1,8,0:0:0:0:
174,91,109811,1,0,0:0:0:0:
174,91,109894,1,8,0:0:0:0:
181,142,109977,1,8,0:0:0:0:
187,193,110060,1,0,0:0:0:0:
263,120,110226,1,0,0:0:0:0:
225,156,110308,1,0,0:0:0:0:
225,156,110391,1,8,0:0:0:0:
225,156,110474,1,8,0:0:0:0:
225,156,110557,1,0,0:0:0:0:
225,156,110640,1,8,0:0:0:0:
225,156,110723,1,0,0:0:0:0:
172,153,110806,1,0,0:0:0:0:
119,151,110889,1,8,0:0:0:0:
119,151,110971,1,0,0:0:0:0:
119,151,111054,1,8,0:0:0:0:
172,153,111137,1,8,0:0:0:0:
172,153,111220,1,0,0:0:0:0:
172,153,111303,1,8,0:0:0:0:
187,155,111386,1,0,0:0:0:0:
187,155,111551,1,8,0:0:0:0:
187,155,111634,1,0,0:0:0:0:
187,155,111717,1,0,0:0:0:0:
187,155,111800,1,8,0:0:0:0:
172,153,111883,1,0,0:0:0:0:
187,155,111966,1,8,0:0:0:0:
187,155,112132,1,8,0:0:0:0:
187,155,112214,1,8,0:0:0:0:
235,174,112297,1,0,0:0:0:0:
187,155,112380,1,8,0:0:0:0:
148,119,112463,1,0,0:0:0:0:
87,188,112546,1,8,0:0:0:0:
175,174,112712,1,0,0:0:0:0:
175,174,112795,1,0,0:0:0:0:
175,174,112877,1,0,0:0:0:0:
175,174,112960,1,0,0:0:0:0:
175,174,113043,1,8,0:0:0:0:
136,138,113126,1,0,0:0:0:0:
136,138,113209,1,8,0:0:0:0:
136,138,113292,1,8,0:0:0:0:
187,126,113375,1,0,0:0:0:0:
136,138,113458,1,8,0:0:0:0:
186,127,113540,1,0,0:0:0:0:
134,138,113623,1,0,0:0:0:0:
185,127,113706,1,8,0:0:0:0:
133,136,113789,1,0,0:0:0:0:
184,128,113872,1,8,0:0:0:0:
132,136,113955,1,8,0:0:0:0:
183,128,114038,1,4,0:0:0:0:
187,126,114203,1,0,0:0:0:0:
186,127,114286,1,0,0:0:0:0:
186,127,114369,1,8,0:0:0:0:
135,139,114452,1,8,0:0:0:0:
185,127,114535,1,0,0:0:0:0:
184,128,114701,1,8,0:0:0:0:
223,159,114866,5,0,0:0:0:0:
223,159,114949,1,0,0:0:0:0:
223,159,115032,1,8,0:0:0:0:
223,159,115198,1,0,0:0:0:0:
223,159,115364,5,12,0:0:0:0:
144,152,115695,5,0,0:0:0:0:
144,152,115778,1,0,0:0:0:0:
144,152,115861,1,12,0:0:0:0:
144,152,116193,1,0,0:0:0:0:
144,152,116275,1,0,0:0:0:0:
144,152,116358,1,12,0:0:0:0:
144,152,116690,1,8,0:0:0:0:
144,152,116773,1,8,0:0:0:0:
144,152,116856,1,0,0:0:0:0:
144,152,116938,1,8,0:0:0:0:
144,152,117021,1,0,0:0:0:0:
144,152,117104,1,0,0:0:0:0:
144,152,117187,1,8,0:0:0:0:
144,152,117270,1,0,0:0:0:0:
144,152,117353,1,8,0:0:0:0:
144,152,117436,1,8,0:0:0:0:
144,152,117519,1,8,0:0:0:0:
144,152,117601,1,0,0:0:0:0:
144,152,117684,1,8,0:0:0:0:
144,152,117767,1,0,0:0:0:0:
144,152,117850,1,0,0:0:0:0:
144,152,117933,1,0,0:0:0:0:
144,152,118016,1,12,0:0:0:0:
144,152,118347,1,0,0:0:0:0:
144,152,118430,1,0,0:0:0:0:
144,152,118513,1,12,0:0:0:0:
144,152,118844,1,0,0:0:0:0:
144,152,118927,1,0,0:0:0:0:
144,152,119010,1,12,0:0:0:0:
328,160,119342,1,8,0:0:0:0:
284,156,119425,1,0,0:0:0:0:
240,156,119507,1,0,0:0:0:0:
196,152,119590,1,8,0:0:0:0:
196,152,119673,1,0,0:0:0:0:
196,152,119756,1,0,0:0:0:0:
196,152,119839,1,8,0:0:0:0:
196,152,119922,1,0,0:0:0:0:
304,240,120005,1,8,0:0:0:0:
304,240,120088,1,8,0:0:0:0:
304,240,120171,1,0,0:0:0:0:
304,240,120253,1,0,0:0:0:0:
268,212,120336,1,8,0:0:0:0:
304,240,120419,1,8,0:0:0:0:
304,240,120502,1,8,0:0:0:0:
304,240,120585,1,0,0:0:0:0:
304,240,120668,1,12,0:0:0:0:
144,152,120999,1,0,0:0:0:0:
144,152,121082,1,0,0:0:0:0:
144,152,121165,1,12,0:0:0:0:
144,152,121496,1,0,0:0:0:0:
144,152,121579,1,0,0:0:0:0:
144,152,121662,1,12,0:0:0:0:
144,152,121993,1,8,0:0:0:0:
144,152,122076,1,8,0:0:0:0:
144,152,122159,1,0,0:0:0:0:
144,152,122241,1,8,0:0:0:0:
144,152,122324,1,0,0:0:0:0:
144,152,122407,1,0,0:0:0:0:
144,152,122490,1,8,0:0:0:0:
144,152,122573,1,0,0:0:0:0:
144,152,122656,1,8,0:0:0:0:
144,152,122739,1,8,0:0:0:0:
144,152,122822,1,8,0:0:0:0:
144,152,122904,1,0,0:0:0:0:
144,152,122987,1,8,0:0:0:0:
144,152,123070,1,0,0:0:0:0:
144,152,123153,1,0,0:0:0:0:
144,152,123236,1,0,0:0:0:0:
144,152,123319,1,12,0:0:0:0:
249,300,123651,1,0,0:0:0:0:
222,262,123734,1,0,0:0:0:0:
195,224,123817,1,12,0:0:0:0:
89,75,124148,1,0,0:0:0:0:
115,112,124231,1,0,0:0:0:0:
141,149,124314,1,12,0:0:0:0:
304,228,124645,1,8,0:0:0:0:
262,208,124728,1,8,0:0:0:0:
220,188,124811,1,0,0:0:0:0:
220,188,124894,1,0,0:0:0:0:
220,188,124977,1,8,0:0:0:0:
220,188,125060,1,8,0:0:0:0:
220,188,125143,1,0,0:0:0:0:
220,188,125226,1,8,0:0:0:0:
220,188,125308,1,0,0:0:0:0:
220,188,125391,1,0,0:0:0:0:
220,188,125474,1,8,0:0:0:0:
220,188,125557,1,0,0:0:0:0:
255,184,125640,1,12,0:0:0:0:
75,158,125971,1,4,0:0:0:0:
256,192,126137,12,0,128292,0:0:0:0:
