osu file format v14

[General]
AudioFilename: audio.mp3
AudioLeadIn: 0
PreviewTime: 6628
Countdown: 0
SampleSet: Normal
StackLeniency: 0.7
Mode: 1
LetterboxInBreaks: 0
WidescreenStoryboard: 1

[Editor]
DistanceSpacing: 1.3
BeatDivisor: 4
GridSize: 4
TimelineZoom: 2.7

[Metadata]
Title:Collapse
TitleUnicode:Collapse
Artist:Chroma
ArtistUnicode:黒魔
Creator:MMzz
Version:Futsuu
Source:Beat Beat Revolution 3rd CYBERNATION
Tags:BBR Kuroma Masaki Sekikawa 関川聖城
BeatmapID:1463482
BeatmapSetID:691352

[Difficulty]
HPDrainRate:7
CircleSize:5
OverallDifficulty:4
ApproachRate:5
SliderMultiplier:1.2
SliderTickRate:1

[Events]
//Background and Video events
0,0,"bgcollpase.png",0,90
//Break Periods
//Storyboard Layer 0 (Background)
//Storyboard Layer 1 (Fail)
//Storyboard Layer 2 (Pass)
//Storyboard Layer 3 (Foreground)
//Storyboard Sound Samples

[TimingPoints]
1331,331.491712707182,4,1,0,100,1,0
27850,-100,4,1,0,100,0,1
38458,-100,4,1,0,100,0,0
94148,-100,4,1,0,100,0,1
125971,-100,4,1,0,100,0,0
126137,-100,4,1,0,5,0,0

[HitObjects]
126,171,1331,5,4,0:0:0:0:
160,171,1662,1,8,0:0:0:0:
160,171,1993,1,4,0:0:0:0:
160,171,2491,1,4,0:0:0:0:
160,171,2988,1,4,0:0:0:0:
160,171,3485,1,4,0:0:0:0:
160,171,3982,1,4,0:0:0:0:
380,132,5308,2,0,L|62:317,1,360
210,197,6634,1,4,0:0:0:0:
210,197,6966,1,8,0:0:0:0:
186,168,7463,1,0,0:0:0:0:
210,197,7629,1,8,0:0:0:0:
210,197,7960,1,0,0:0:0:0:
208,185,8292,1,8,0:0:0:0:
210,197,8623,1,0,0:0:0:0:
153,156,8789,5,0,0:0:0:0:
153,156,8955,1,8,0:0:0:0:
210,197,9286,1,0,0:0:0:0:
179,165,9618,1,8,0:0:0:0:
200,171,10281,1,8,0:0:0:0:
210,197,10612,1,0,0:0:0:0:
230,139,10944,1,8,0:0:0:0:
210,197,11275,1,8,0:0:0:0:
230,139,11441,1,0,0:0:0:0:
210,197,11607,1,8,0:0:0:0:
210,197,11938,1,0,0:0:0:0:
176,174,12270,1,8,0:0:0:0:
176,174,12933,1,8,0:0:0:0:
176,174,13264,1,0,0:0:0:0:
176,174,13596,1,8,0:0:0:0:
176,174,13927,1,0,0:0:0:0:
176,174,14093,1,0,0:0:0:0:
176,174,14259,1,8,0:0:0:0:
176,174,14590,1,0,0:0:0:0:
176,174,15253,1,0,0:0:0:0:
176,174,15916,1,8,0:0:0:0:
176,174,16248,1,8,0:0:0:0:
176,174,16579,1,8,0:0:0:0:
176,174,16745,1,8,0:0:0:0:
176,174,16911,1,8,0:0:0:0:
176,174,17242,1,4,0:0:0:0:
154,167,17574,1,8,0:0:0:0:
192,169,18071,1,0,0:0:0:0:
154,167,18237,1,8,0:0:0:0:
154,167,18568,1,0,0:0:0:0:
154,167,18900,1,8,0:0:0:0:
154,167,19231,1,0,0:0:0:0:
154,167,19397,1,0,0:0:0:0:
154,167,19563,1,8,0:0:0:0:
154,167,19894,1,0,0:0:0:0:
168,155,20226,1,8,0:0:0:0:
171,147,20889,1,8,0:0:0:0:
154,167,21220,1,0,0:0:0:0:
211,84,21551,5,8,0:0:0:0:
154,167,21883,1,8,0:0:0:0:
211,84,22049,1,0,0:0:0:0:
154,167,22214,1,8,0:0:0:0:
154,167,22546,1,0,0:0:0:0:
154,167,22877,1,8,0:0:0:0:
154,167,23540,1,8,0:0:0:0:
154,167,23872,1,0,0:0:0:0:
154,167,24203,1,8,0:0:0:0:
154,167,24535,1,0,0:0:0:0:
154,167,24701,1,0,0:0:0:0:
154,167,24866,1,8,0:0:0:0:
154,167,25198,1,0,0:0:0:0:
154,167,25529,1,0,0:0:0:0:
154,167,25861,1,8,0:0:0:0:
154,167,26192,1,8,0:0:0:0:
154,167,26524,1,4,0:0:0:0:
244,204,27187,1,0,0:0:0:0:
154,166,27850,1,4,0:0:0:0:
154,166,28347,1,4,0:0:0:0:
154,166,28844,1,4,0:0:0:0:
154,166,29176,1,8,0:0:0:0:
154,166,29507,1,8,0:0:0:0:
154,166,29839,1,0,0:0:0:0:
154,166,30170,1,8,0:0:0:0:
135,170,30502,1,4,0:0:0:0:
135,170,30999,1,4,0:0:0:0:
135,170,31496,1,4,0:0:0:0:
135,170,31828,1,8,0:0:0:0:
135,170,32325,1,8,0:0:0:0:
135,170,32822,1,8,0:0:0:0:
135,170,33154,1,4,0:0:0:0:
135,170,33651,1,4,0:0:0:0:
135,170,34148,1,4,0:0:0:0:
176,138,34480,1,8,0:0:0:0:
176,138,34811,1,8,0:0:0:0:
176,138,35143,1,0,0:0:0:0:
176,138,35474,1,8,0:0:0:0:
156,129,35806,1,4,0:0:0:0:
156,129,36303,1,4,0:0:0:0:
156,129,36800,1,4,0:0:0:0:
156,129,37132,1,8,0:0:0:0:
156,129,37629,1,8,0:0:0:0:
156,129,38126,1,8,0:0:0:0:
156,129,38458,1,4,0:0:0:0:
206,183,38789,1,8,0:0:0:0:
206,183,39121,1,0,0:0:0:0:
206,183,39784,1,0,0:0:0:0:
206,183,40115,1,8,0:0:0:0:
206,183,40447,1,0,0:0:0:0:
206,183,41110,1,0,0:0:0:0:
206,183,41441,1,0,0:0:0:0:
206,183,41772,1,8,0:0:0:0:
206,183,42435,1,0,0:0:0:0:
206,183,42767,1,8,0:0:0:0:
206,183,43098,1,8,0:0:0:0:
206,183,43761,1,0,0:0:0:0:
206,183,44093,1,8,0:0:0:0:
206,183,44424,1,0,0:0:0:0:
206,183,45087,1,0,0:0:0:0:
206,183,45419,1,8,0:0:0:0:
206,183,45750,1,0,0:0:0:0:
206,183,46413,1,0,0:0:0:0:
206,183,46745,1,0,0:0:0:0:
206,183,47076,1,8,0:0:0:0:
206,183,47739,1,12,0:0:0:0:
206,183,49065,1,4,0:0:0:0:
205,158,49397,1,8,0:0:0:0:
205,158,49728,1,0,0:0:0:0:
205,158,50060,1,8,0:0:0:0:
205,158,50391,1,0,0:0:0:0:
205,158,50723,1,8,0:0:0:0:
205,158,51054,1,8,0:0:0:0:
205,158,51386,1,8,0:0:0:0:
205,158,51717,1,0,0:0:0:0:
205,158,52049,1,8,0:0:0:0:
205,158,52380,1,0,0:0:0:0:
205,158,52712,1,8,0:0:0:0:
205,158,53043,1,0,0:0:0:0:
205,158,53375,1,0,0:0:0:0:
205,158,53706,1,8,0:0:0:0:
205,158,54038,1,0,0:0:0:0:
205,158,54369,1,4,0:0:0:0:
205,158,54701,1,8,0:0:0:0:
205,158,55032,1,0,0:0:0:0:
205,158,55364,1,8,0:0:0:0:
205,158,55695,1,0,0:0:0:0:
205,158,56027,1,0,0:0:0:0:
205,158,56358,1,8,0:0:0:0:
205,158,56690,1,8,0:0:0:0:
205,158,57021,1,0,0:0:0:0:
205,158,57353,1,8,0:0:0:0:
205,158,57684,1,0,0:0:0:0:
205,158,58016,1,8,0:0:0:0:
205,158,58347,1,0,0:0:0:0:
205,158,58679,1,8,0:0:0:0:
205,158,59010,1,8,0:0:0:0:
205,158,59342,1,8,0:0:0:0:
205,158,59673,1,4,0:0:0:0:
194,139,60999,1,4,0:0:0:0:
161,125,61662,1,8,0:0:0:0:
161,125,62325,1,0,0:0:0:0:
170,141,62822,1,0,0:0:0:0:
170,141,62988,1,8,0:0:0:0:
148,150,63651,1,0,0:0:0:0:
155,152,64314,1,8,0:0:0:0:
155,152,64977,1,0,0:0:0:0:
155,152,65474,1,0,0:0:0:0:
155,152,65640,1,0,0:0:0:0:
155,152,66303,1,0,0:0:0:0:
155,152,66966,1,8,0:0:0:0:
182,162,67629,1,0,0:0:0:0:
182,162,67960,1,0,0:0:0:0:
182,162,68292,1,8,0:0:0:0:
182,162,68623,1,8,0:0:0:0:
182,162,68955,1,4,0:0:0:0:
152,162,69618,1,0,0:0:0:0:
436,132,70281,2,0,B|223:237|223:237|128:156,1,360
193,159,71607,1,4,0:0:0:0:
193,160,72767,1,8,0:0:0:0:
193,160,72933,1,8,0:0:0:0:
176,164,74259,1,0,0:0:0:0:
184,162,75419,1,8,0:0:0:0:
184,162,75585,1,8,0:0:0:0:
184,162,76248,1,8,0:0:0:0:
184,162,76911,1,0,0:0:0:0:
184,162,78071,1,8,0:0:0:0:
184,162,78237,1,8,0:0:0:0:
183,162,79563,1,0,0:0:0:0:
182,162,80723,1,8,0:0:0:0:
182,162,81220,1,8,0:0:0:0:
182,162,81717,1,8,0:0:0:0:
182,162,82214,1,4,0:0:0:0:
148,212,82546,1,8,0:0:0:0:
148,212,83043,1,0,0:0:0:0:
148,212,83209,1,8,0:0:0:0:
148,212,83540,1,0,0:0:0:0:
148,212,83872,1,8,0:0:0:0:
148,212,84203,1,0,0:0:0:0:
148,212,84369,1,0,0:0:0:0:
148,212,84535,1,8,0:0:0:0:
148,212,84866,1,0,0:0:0:0:
101,181,85198,1,8,0:0:0:0:
148,176,85861,1,8,0:0:0:0:
148,176,86192,1,0,0:0:0:0:
148,176,86524,1,8,0:0:0:0:
148,176,86855,1,8,0:0:0:0:
148,176,87021,1,0,0:0:0:0:
148,176,87187,1,8,0:0:0:0:
125,160,87518,1,4,0:0:0:0:
187,152,88679,1,0,0:0:0:0:
187,152,88844,1,0,0:0:0:0:
187,152,89839,1,0,0:0:0:0:
187,152,90005,1,0,0:0:0:0:
187,152,90170,1,8,0:0:0:0:
187,152,90502,1,8,0:0:0:0:
187,152,90833,1,0,0:0:0:0:
187,152,91165,1,8,0:0:0:0:
430,155,91496,2,0,B|245:312|245:312|143:241,1,360
211,179,92822,1,0,0:0:0:0:
211,211,93154,1,0,0:0:0:0:
211,211,93485,1,8,0:0:0:0:
211,211,93817,1,8,0:0:0:0:
167,167,94148,1,4,0:0:0:0:
167,167,94480,1,8,0:0:0:0:
167,167,94977,1,0,0:0:0:0:
167,167,95143,1,8,0:0:0:0:
167,167,95474,1,0,0:0:0:0:
167,167,95806,1,8,0:0:0:0:
167,167,96137,1,0,0:0:0:0:
167,167,96303,1,0,0:0:0:0:
167,167,96469,1,8,0:0:0:0:
167,167,96634,1,0,0:0:0:0:
167,167,96800,1,0,0:0:0:0:
165,144,97132,1,8,0:0:0:0:
165,144,97795,1,8,0:0:0:0:
165,144,98126,1,0,0:0:0:0:
165,144,98458,1,8,0:0:0:0:
165,144,98789,1,8,0:0:0:0:
165,144,98955,1,0,0:0:0:0:
165,144,99121,1,8,0:0:0:0:
165,144,99452,1,0,0:0:0:0:
142,131,99784,1,8,0:0:0:0:
142,131,100447,1,8,0:0:0:0:
142,131,100778,1,0,0:0:0:0:
142,131,101110,1,8,0:0:0:0:
142,131,101441,1,0,0:0:0:0:
142,131,101607,1,0,0:0:0:0:
142,131,101772,1,8,0:0:0:0:
142,131,102104,1,0,0:0:0:0:
142,131,102767,1,0,0:0:0:0:
142,131,103430,1,8,0:0:0:0:
142,131,103761,1,8,0:0:0:0:
142,131,104093,1,8,0:0:0:0:
142,131,104259,1,8,0:0:0:0:
142,131,104424,1,8,0:0:0:0:
142,131,104756,1,4,0:0:0:0:
207,227,105087,1,8,0:0:0:0:
207,227,105585,1,0,0:0:0:0:
207,227,105750,1,8,0:0:0:0:
207,227,106082,1,0,0:0:0:0:
207,227,106413,1,8,0:0:0:0:
207,227,106745,1,0,0:0:0:0:
207,227,106911,1,0,0:0:0:0:
207,227,107076,1,8,0:0:0:0:
207,227,107242,1,8,0:0:0:0:
207,227,107408,1,0,0:0:0:0:
207,227,107739,1,8,0:0:0:0:
207,227,108402,1,8,0:0:0:0:
207,188,108734,5,0,0:0:0:0:
207,188,109065,1,8,0:0:0:0:
207,188,109397,1,8,0:0:0:0:
207,188,109563,1,0,0:0:0:0:
207,188,109728,1,8,0:0:0:0:
207,188,110060,1,0,0:0:0:0:
207,188,110391,1,8,0:0:0:0:
207,188,111054,1,8,0:0:0:0:
207,188,111386,1,0,0:0:0:0:
207,188,111717,1,8,0:0:0:0:
207,188,112049,1,0,0:0:0:0:
207,188,112214,1,0,0:0:0:0:
207,188,112380,1,8,0:0:0:0:
207,188,112712,1,0,0:0:0:0:
207,188,113043,1,0,0:0:0:0:
207,188,113375,1,8,0:0:0:0:
207,188,113706,1,8,0:0:0:0:
380,72,114038,2,0,B|104:192|104:192|96:132,1,360
229,184,115364,1,4,0:0:0:0:
229,184,115861,1,4,0:0:0:0:
229,184,116358,1,4,0:0:0:0:
229,184,116690,1,8,0:0:0:0:
229,184,117021,1,8,0:0:0:0:
229,184,117353,1,0,0:0:0:0:
229,184,117684,1,8,0:0:0:0:
229,184,118016,1,4,0:0:0:0:
229,184,118513,1,4,0:0:0:0:
229,184,119010,1,4,0:0:0:0:
229,184,119342,1,8,0:0:0:0:
229,184,119839,1,8,0:0:0:0:
229,184,120336,1,8,0:0:0:0:
229,184,120668,1,4,0:0:0:0:
229,184,121165,1,4,0:0:0:0:
229,184,121662,1,4,0:0:0:0:
229,184,121993,1,8,0:0:0:0:
229,184,122325,1,8,0:0:0:0:
229,184,122656,1,0,0:0:0:0:
229,184,122988,1,8,0:0:0:0:
229,184,123319,1,4,0:0:0:0:
144,165,123817,1,4,0:0:0:0:
144,165,124314,1,4,0:0:0:0:
128,113,124645,2,12,B|291:282|291:282|382:196,1,360
156,176,125971,1,4,0:0:0:0:
256,192,126137,12,0,128292,0:0:0:0:
