osu file format v14

[General]
AudioFilename: audio.mp3
AudioLeadIn: 0
PreviewTime: 26443
Countdown: 0
SampleSet: Soft
StackLeniency: 0.7
Mode: 3
LetterboxInBreaks: 0
SpecialStyle: 0
WidescreenStoryboard: 1

[Editor]
DistanceSpacing: 0.8
BeatDivisor: 4
GridSize: 32
TimelineZoom: 1.3

[Metadata]
Title:[@__@]
TitleUnicode:[@__@]
Artist:Chroma
ArtistUnicode:黒魔
Creator:Jakads
Version:[h__h]
Source:
Tags:CHRO-0006 CHRO0006 featured artist fa electronic instrumental Robot & and Human K_a_t_a_g_i_r_i Katagiri emoticon @_@ [@_@] @-@ @--@ [@-@] [@--@] c-h-r-o-m-a くろま kuroma
BeatmapID:3553139
BeatmapSetID:1738412

[Difficulty]
HPDrainRate:7.5
CircleSize:7
OverallDifficulty:7.5
ApproachRate:5
SliderMultiplier:1.4
SliderTickRate:1

[Events]
//Background and Video events
0,0,"stream_robot_and_human.jpg",0,0
//Break Periods
//Storyboard Layer 0 (Background)
//Storyboard Layer 1 (Fail)
//Storyboard Layer 2 (Pass)
//Storyboard Layer 3 (Foreground)
//Storyboard Layer 4 (Overlay)
//Storyboard Sound Samples
Sample,65176,0,"Hat Open2.wav",25
Sample,71252,0,"Hat Open2.wav",50

[TimingPoints]
1000,379.746835443038,4,2,1,60,1,0
50936,379.746835443038,5,2,1,60,1,0
52645,379.746835443038,4,2,1,60,1,0
53974,379.746835443038,5,2,1,60,1,0
55683,379.746835443038,4,2,1,60,1,0
73721,379.746835443038,8,2,1,60,1,0
76569,379.746835443038,4,2,1,60,1,0
80746,379.746835443038,4,2,1,60,1,0
93278,379.746835443038,5,2,1,60,1,0
96886,379.746835443038,4,2,1,60,1,0
98215,379.746835443038,5,2,1,60,1,0
99924,379.746835443038,4,2,1,60,1,0

[HitObjects]
256,192,1000,5,0,0:0:0:0:
329,192,1000,1,0,0:0:0:0:
109,192,1189,1,0,0:0:0:0:
402,192,1379,1,0,0:0:0:0:
182,192,1569,1,0,0:0:0:0:
256,192,1569,1,0,0:0:0:0:
329,192,1949,1,0,0:0:0:0:
475,192,2139,1,0,0:0:0:0:
182,192,2329,1,0,0:0:0:0:
329,192,2329,1,0,0:0:0:0:
256,192,2708,128,0,2898:0:0:0:0:
182,192,2898,1,0,0:0:0:0:
36,192,3088,1,0,0:0:0:0:
109,192,3088,1,0,0:0:0:0:
182,192,3468,1,0,0:0:0:0:
329,192,3658,1,0,0:0:0:0:
109,192,3848,1,0,0:0:0:0:
256,192,3848,1,0,0:0:0:0:
329,192,4227,1,0,0:0:0:0:
475,192,4417,1,0,0:0:0:0:
256,192,4607,1,0,0:0:0:0:
402,192,4607,1,0,0:0:0:0:
329,192,4987,1,0,0:0:0:0:
256,192,5177,1,0,0:0:0:0:
182,192,5367,1,0,0:0:0:0:
402,192,5367,1,0,0:0:0:0:
329,192,5746,1,0,0:0:0:0:
256,192,5936,1,0,0:0:0:0:
109,192,6126,1,0,0:0:0:0:
402,192,6126,1,0,0:0:0:0:
256,192,7075,1,0,0:0:0:0:
329,192,7075,1,0,0:0:0:0:
109,192,7265,1,0,0:0:0:0:
402,192,7455,1,0,0:0:0:0:
182,192,7645,1,0,0:0:0:0:
256,192,7645,1,0,0:0:0:0:
329,192,8025,1,0,0:0:0:0:
402,192,8215,1,0,0:0:0:0:
182,192,8405,1,0,0:0:0:0:
329,192,8405,1,0,0:0:0:0:
256,192,8784,128,0,8974:0:0:0:0:
182,192,8974,1,0,0:0:0:0:
36,192,9164,1,0,0:0:0:0:
109,192,9164,1,0,0:0:0:0:
182,192,9544,1,0,0:0:0:0:
329,192,9734,1,0,0:0:0:0:
109,192,9924,1,0,0:0:0:0:
256,192,9924,1,0,0:0:0:0:
329,192,10303,1,0,0:0:0:0:
475,192,10493,1,0,0:0:0:0:
256,192,10683,1,0,0:0:0:0:
402,192,10683,1,0,0:0:0:0:
329,192,11063,1,0,0:0:0:0:
256,192,11253,1,0,0:0:0:0:
182,192,11443,1,0,0:0:0:0:
402,192,11443,1,0,0:0:0:0:
329,192,11822,1,0,0:0:0:0:
256,192,12012,1,0,0:0:0:0:
109,192,12202,1,0,0:0:0:0:
402,192,12202,1,0,0:0:0:0:
182,192,12582,1,0,0:0:0:0:
329,192,12582,1,0,0:0:0:0:
256,192,12867,1,0,0:0:0:0:
402,192,12867,1,0,0:0:0:0:
36,192,13151,1,0,0:0:0:0:
329,192,13151,1,0,0:0:0:0:
109,192,13341,1,0,0:0:0:0:
182,192,13531,1,0,0:0:0:0:
256,192,13721,1,0,0:0:0:0:
475,192,13721,1,0,0:0:0:0:
402,192,14101,1,0,0:0:0:0:
36,192,14291,1,0,0:0:0:0:
329,192,14291,1,0,0:0:0:0:
109,192,14481,1,0,0:0:0:0:
182,192,14670,1,0,0:0:0:0:
256,192,14860,1,0,0:0:0:0:
402,192,14860,1,0,0:0:0:0:
329,192,15240,1,0,0:0:0:0:
36,192,15430,1,0,0:0:0:0:
256,192,15430,1,0,0:0:0:0:
109,192,15810,1,0,0:0:0:0:
329,192,15810,1,0,0:0:0:0:
182,192,16189,1,0,0:0:0:0:
402,192,16189,1,0,0:0:0:0:
256,192,16379,1,0,0:0:0:0:
329,192,16569,1,0,0:0:0:0:
256,192,16759,1,0,0:0:0:0:
402,192,16759,1,0,0:0:0:0:
109,192,17139,1,0,0:0:0:0:
182,192,17518,1,0,0:0:0:0:
329,192,17518,1,0,0:0:0:0:
36,192,19227,1,0,0:0:0:0:
329,192,19227,1,0,0:0:0:0:
109,192,19417,1,0,0:0:0:0:
182,192,19607,1,0,0:0:0:0:
256,192,19797,1,0,0:0:0:0:
475,192,19797,1,0,0:0:0:0:
402,192,20177,1,0,0:0:0:0:
36,192,20367,1,0,0:0:0:0:
329,192,20367,1,0,0:0:0:0:
109,192,20556,1,0,0:0:0:0:
182,192,20746,1,0,0:0:0:0:
256,192,20936,1,0,0:0:0:0:
402,192,20936,1,0,0:0:0:0:
329,192,21316,1,0,0:0:0:0:
36,192,21506,1,0,0:0:0:0:
256,192,21506,1,0,0:0:0:0:
109,192,21886,1,0,0:0:0:0:
329,192,21886,1,0,0:0:0:0:
182,192,22265,1,0,0:0:0:0:
402,192,22265,1,0,0:0:0:0:
256,192,22455,1,0,0:0:0:0:
329,192,22645,1,0,0:0:0:0:
256,192,22835,1,0,0:0:0:0:
402,192,22835,1,0,0:0:0:0:
109,192,23215,1,0,0:0:0:0:
182,192,23594,1,0,0:0:0:0:
329,192,23594,1,0,0:0:0:0:
182,192,23974,1,0,0:0:0:0:
256,192,24164,1,0,0:0:0:0:
109,192,24354,1,0,0:0:0:0:
329,192,24354,1,0,0:0:0:0:
182,192,24734,1,0,0:0:0:0:
256,192,24924,1,0,0:0:0:0:
36,192,25113,1,0,0:0:0:0:
329,192,25113,1,0,0:0:0:0:
36,192,25493,1,0,0:0:0:0:
256,192,25683,1,0,0:0:0:0:
475,192,25873,1,0,0:0:0:0:
109,192,26063,128,0,26253:0:0:0:0:
402,192,26253,128,0,26443:0:0:0:25:LR_HiHat Click2.wav
36,192,26443,1,2,0:0:0:0:
182,192,26443,1,0,0:0:0:0:
36,192,26822,1,0,0:0:0:50:Hat Open2.wav
182,192,26822,1,0,0:0:0:0:
329,192,26822,1,0,0:0:0:0:
256,192,27012,1,0,0:0:0:0:
475,192,27202,1,0,0:0:0:70:soft-hitwhistle2.wav
36,192,27392,1,0,0:0:0:0:
109,192,27392,1,0,0:0:0:0:
402,192,27392,1,0,0:0:0:0:
256,192,27772,1,0,0:0:0:70:LR_HiHat Click2.wav
329,192,27772,1,0,0:0:0:0:
475,192,27962,1,0,0:0:0:70:LR_HiHat Click2.wav
36,192,28151,1,0,0:0:0:70:Clap.wav
182,192,28151,1,0,0:0:0:0:
329,192,28151,1,0,0:0:0:0:
182,192,28531,1,0,0:0:0:0:
402,192,28531,128,0,28721:0:0:0:0:
329,192,28721,1,0,0:0:0:0:
36,192,28911,1,0,0:0:0:50:Hat Open2.wav
109,192,28911,1,0,0:0:0:0:
256,192,28911,1,0,0:0:0:0:
182,192,29291,1,0,0:0:0:0:
329,192,29291,1,0,0:0:0:0:
36,192,29481,1,0,0:0:0:0:
109,192,29670,1,0,0:0:0:50:Hat Open2.wav
256,192,29670,1,0,0:0:0:70:Clap.wav
475,192,29670,1,0,0:0:0:0:
182,192,30050,1,0,0:0:0:70:soft-hitwhistle2.wav
329,192,30050,1,0,0:0:0:0:
475,192,30240,1,0,0:0:0:70:Clap.wav
36,192,30430,1,0,0:0:0:50:Hat Open2.wav
256,192,30430,1,0,0:0:0:45:Clap.wav
402,192,30430,1,0,0:0:0:0:
182,192,30810,1,0,0:0:0:70:Clap.wav
329,192,30810,1,0,0:0:0:0:
109,192,31000,1,0,0:0:0:0:
36,192,31189,1,0,0:0:0:50:Hat Open2.wav
256,192,31189,1,0,0:0:0:0:
475,192,31189,1,0,0:0:0:0:
182,192,31569,1,0,0:0:0:70:soft-hitwhistle2.wav
329,192,31569,1,0,0:0:0:0:
402,192,31759,1,0,0:0:0:70:soft-hitwhistle2.wav
36,192,31949,1,0,0:0:0:50:Hat Open2.wav
256,192,31949,1,0,0:0:0:0:
475,192,31949,1,0,0:0:0:0:
256,192,32329,128,0,32708:0:0:0:70:LR_HiHat Click2.wav
402,192,32329,1,0,0:0:0:0:
109,192,32518,1,0,0:0:0:70:LR_HiHat Click2.wav
402,192,32708,1,2,0:0:0:0:
475,192,32708,1,0,0:0:0:0:
36,192,32898,1,0,0:0:0:50:Hat Open2.wav
182,192,32898,1,0,0:0:0:0:
329,192,32898,1,0,0:0:0:0:
256,192,33088,1,0,0:0:0:0:
475,192,33278,1,0,0:0:0:70:soft-hitwhistle2.wav
36,192,33468,1,0,0:0:0:0:
109,192,33468,1,0,0:0:0:0:
402,192,33468,1,0,0:0:0:0:
256,192,33848,1,0,0:0:0:70:LR_HiHat Click2.wav
329,192,33848,1,0,0:0:0:0:
475,192,34037,1,0,0:0:0:70:LR_HiHat Click2.wav
36,192,34227,1,0,0:0:0:70:Clap.wav
182,192,34227,1,0,0:0:0:0:
329,192,34227,1,0,0:0:0:0:
182,192,34607,1,0,0:0:0:0:
402,192,34607,128,0,34797:0:0:0:0:
329,192,34797,1,0,0:0:0:0:
36,192,34987,1,0,0:0:0:50:Hat Open2.wav
109,192,34987,1,0,0:0:0:70:soft-hitwhistle2.wav
256,192,34987,1,0,0:0:0:0:
182,192,35367,1,0,0:0:0:0:
329,192,35367,1,0,0:0:0:0:
36,192,35556,1,0,0:0:0:0:
109,192,35746,1,0,0:0:0:50:Hat Open2.wav
256,192,35746,1,0,0:0:0:70:soft-hitwhistle2.wav
475,192,35746,1,0,0:0:0:70:Clap.wav
182,192,36126,1,0,0:0:0:70:soft-hitwhistle2.wav
329,192,36126,1,0,0:0:0:0:
475,192,36316,1,0,0:0:0:70:Clap.wav
36,192,36506,1,0,0:0:0:50:Hat Open2.wav
256,192,36506,1,0,0:0:0:70:Clap.wav
402,192,36506,1,0,0:0:0:0:
182,192,36886,1,0,0:0:0:0:
329,192,36886,1,0,0:0:0:0:
109,192,37075,1,0,0:0:0:0:
36,192,37265,1,0,0:0:0:50:Hat Open2.wav
256,192,37265,1,0,0:0:0:70:soft-hitwhistle2.wav
475,192,37265,1,0,0:0:0:0:
182,192,37645,1,0,0:0:0:70:soft-hitwhistle2.wav
329,192,37645,1,0,0:0:0:0:
402,192,37835,1,0,0:0:0:70:soft-hitwhistle2.wav
36,192,38025,1,0,0:0:0:50:Hat Open2.wav
256,192,38025,128,0,38405:0:0:0:70:Clap.wav
475,192,38025,1,0,0:0:0:0:
109,192,38405,1,0,0:0:0:70:LR_HiHat Click2.wav
402,192,38405,1,0,0:0:0:0:
182,192,38689,1,0,0:0:0:70:LR_HiHat Click2.wav
329,192,38689,1,0,0:0:0:0:
36,192,38974,1,2,0:0:0:0:
329,192,38974,1,0,0:0:0:0:
475,192,38974,1,0,0:0:0:0:
109,192,39164,1,0,0:0:0:20:LR_HiHat Click2.wav
329,192,39259,1,2,0:0:0:0:
475,192,39259,1,0,0:0:0:0:
182,192,39354,1,0,0:0:0:0:
256,192,39544,1,2,0:0:0:0:
402,192,39544,1,0,0:0:0:50:Hat Open2.wav
475,192,39544,1,0,0:0:0:70:Clap.wav
182,192,39734,1,0,0:0:0:0:
109,192,39924,1,0,0:0:0:70:LR_HiHat Click2.wav
329,192,39924,1,0,0:0:0:0:
36,192,40113,1,2,0:0:0:0:
182,192,40113,1,0,0:0:0:0:
475,192,40113,1,0,0:0:0:0:
402,192,40303,1,0,0:0:0:20:LR_HiHat Click2.wav
36,192,40398,1,2,0:0:0:0:
182,192,40398,1,0,0:0:0:0:
329,192,40493,1,0,0:0:0:0:
36,192,40683,1,2,0:0:0:0:
109,192,40683,1,0,0:0:0:50:Hat Open2.wav
256,192,40683,1,0,0:0:0:70:Clap.wav
329,192,40873,1,0,0:0:0:0:
182,192,41063,1,0,0:0:0:70:soft-hitwhistle2.wav
402,192,41063,1,0,0:0:0:0:
36,192,41253,1,2,0:0:0:0:
256,192,41253,1,0,0:0:0:0:
475,192,41253,1,0,0:0:0:0:
109,192,41632,1,2,0:0:0:0:
329,192,41632,1,0,0:0:0:0:
475,192,41632,1,0,0:0:0:0:
182,192,42012,1,2,0:0:0:0:
402,192,42012,1,0,0:0:0:0:
475,192,42012,1,0,0:0:0:0:
109,192,42202,1,0,0:0:0:0:
402,192,42297,1,2,0:0:0:0:
475,192,42297,1,0,0:0:0:0:
36,192,42392,1,0,0:0:0:70:LR4_SnareDropDwS.wav
256,192,42392,1,0,0:0:0:0:
109,192,42582,1,2,0:0:0:0:
402,192,42582,1,0,0:0:0:0:
475,192,42582,1,0,0:0:0:0:
182,192,42772,1,0,0:0:0:0:
402,192,42867,1,2,0:0:0:0:
475,192,42867,1,0,0:0:0:0:
256,192,42962,1,0,0:0:0:40:LR4_SnareDropDwS.wav
329,192,43151,1,0,0:0:0:75:LR4_SnareDropDwS.wav
475,192,43151,1,0,0:0:0:0:
36,192,43341,1,0,0:0:0:50:Hat Open2.wav
109,192,43341,1,0,0:0:0:70:Clap.wav
182,192,43341,1,0,0:0:0:0:
256,192,43531,128,0,45050:0:0:0:0:
475,192,43531,1,0,0:0:0:0:
402,192,43721,1,0,0:0:0:0:
329,192,43911,1,0,0:0:0:0:
36,192,44101,1,0,0:0:0:0:
109,192,44291,1,0,0:0:0:0:
182,192,44481,1,0,0:0:0:0:
329,192,44670,1,0,0:0:0:0:
402,192,44860,1,0,0:0:0:0:
36,192,45050,1,2,0:0:0:0:
182,192,45050,1,0,0:0:0:70:LR_HiHat Click2.wav
475,192,45050,1,0,0:0:0:0:
402,192,45240,1,0,0:0:0:20:LR_HiHat Click2.wav
36,192,45335,1,2,0:0:0:0:
182,192,45335,1,0,0:0:0:0:
329,192,45430,1,0,0:0:0:0:
36,192,45620,1,2,0:0:0:0:
109,192,45620,1,0,0:0:0:50:Hat Open2.wav
256,192,45620,1,0,0:0:0:70:Clap.wav
329,192,45810,1,0,0:0:0:0:
182,192,46000,1,0,0:0:0:70:LR_HiHat Click2.wav
402,192,46000,1,0,0:0:0:70:soft-hitwhistle2.wav
36,192,46189,1,2,0:0:0:0:
329,192,46189,1,0,0:0:0:20:LR_HiHat Click2.wav
475,192,46189,1,0,0:0:0:0:
109,192,46379,1,0,0:0:0:20:LR_HiHat Click2.wav
329,192,46474,1,2,0:0:0:0:
475,192,46474,1,0,0:0:0:0:
182,192,46569,1,0,0:0:0:0:
256,192,46759,1,0,0:0:0:70:Clap.wav
402,192,46759,1,0,0:0:0:50:Hat Open2.wav
475,192,46759,1,0,0:0:0:0:
182,192,46949,1,0,0:0:0:0:
109,192,47139,1,0,0:0:0:70:LR_HiHat Click2.wav
329,192,47139,1,0,0:0:0:70:soft-hitwhistle2.wav
36,192,47329,1,2,0:0:0:0:
256,192,47329,1,0,0:0:0:0:
475,192,47329,1,0,0:0:0:0:
36,192,47708,1,2,0:0:0:0:
182,192,47708,1,0,0:0:0:0:
402,192,47708,1,0,0:0:0:0:
36,192,48088,1,2,0:0:0:0:
109,192,48088,1,0,0:0:0:0:
329,192,48088,1,0,0:0:0:0:
402,192,48278,1,0,0:0:0:0:
36,192,48373,1,2,0:0:0:0:
109,192,48373,1,0,0:0:0:0:
256,192,48468,1,0,0:0:0:70:LR4_SnareDropDwS.wav
475,192,48468,1,0,0:0:0:0:
36,192,48658,1,2,0:0:0:0:
109,192,48658,1,0,0:0:0:0:
402,192,48658,1,0,0:0:0:0:
329,192,48848,1,0,0:0:0:0:
36,192,48943,1,2,0:0:0:0:
109,192,48943,1,0,0:0:0:0:
256,192,49037,1,0,0:0:0:40:LR4_SnareDropDwS.wav
36,192,49227,1,2,0:0:0:0:
182,192,49227,1,0,0:0:0:75:LR4_SnareDropDwS.wav
329,192,49417,1,0,0:0:0:70:Clap.wav
402,192,49417,128,0,49797:0:0:0:0:
475,192,49417,128,0,49797:0:0:0:0:
182,192,49797,1,0,0:0:0:30:LR4_SnareDropDwS.wav
329,192,49987,1,0,0:0:0:0:
36,192,50177,128,0,50556:0:0:0:70:Clap.wav
109,192,50177,128,0,50556:0:0:0:0:
182,192,50177,1,0,0:0:0:0:
329,192,50556,1,0,0:0:0:30:LR4_SnareDropDwS.wav
182,192,50746,1,0,0:0:0:0:
329,192,50936,1,2,0:0:0:0:
402,192,50936,1,0,0:0:0:25:Hat Open2.wav
475,192,50936,1,0,0:0:0:70:Clap.wav
36,192,51220,1,2,0:0:0:0:
109,192,51220,1,0,0:0:0:25:Hat Open2.wav
182,192,51220,1,0,0:0:0:0:
329,192,51505,1,2,0:0:0:0:
402,192,51505,1,0,0:0:0:0:
475,192,51505,1,0,0:0:0:0:
36,192,51758,1,2,0:0:0:0:
109,192,51758,1,0,0:0:0:0:
182,192,51758,1,0,0:0:0:0:
329,192,52011,1,2,0:0:0:0:
402,192,52011,1,0,0:0:0:0:
475,192,52011,1,0,0:0:0:0:
36,192,52265,1,2,0:0:0:0:
109,192,52265,1,0,0:0:0:25:Hat Open2.wav
182,192,52265,1,0,0:0:0:0:
329,192,52454,1,2,0:0:0:0:
402,192,52454,1,0,0:0:0:25:Hat Open2.wav
475,192,52454,1,0,0:0:0:0:
36,192,52645,1,2,0:0:0:0:
109,192,52645,1,0,0:0:0:25:Hat Open2.wav
182,192,52645,1,0,0:0:0:0:
329,192,52771,1,2,0:0:0:0:
402,192,52771,1,0,0:0:0:25:Hat Open2.wav
475,192,52771,1,0,0:0:0:0:
36,192,52898,1,2,0:0:0:0:
109,192,52898,1,0,0:0:0:25:Hat Open2.wav
182,192,52898,1,0,0:0:0:0:
329,192,53214,1,2,0:0:0:0:
402,192,53214,1,0,0:0:0:25:Hat Open2.wav
475,192,53214,1,0,0:0:0:0:
36,192,53341,1,2,0:0:0:0:
109,192,53341,1,0,0:0:0:25:Hat Open2.wav
182,192,53341,1,0,0:0:0:0:
329,192,53467,1,2,0:0:0:0:
402,192,53467,1,0,0:0:0:25:Hat Open2.wav
475,192,53467,1,0,0:0:0:0:
109,192,53594,1,0,0:0:0:0:
182,192,53689,1,0,0:0:0:0:
329,192,53784,1,0,0:0:0:0:
402,192,53879,1,0,0:0:0:0:
256,192,53974,128,0,55113:0:0:0:0:
109,192,54353,128,0,54733:0:0:0:15:LR_HiHat Click2.wav
402,192,54353,128,0,54733:0:0:0:0:
36,192,55113,128,0,55303:0:0:0:0:
182,192,55303,128,0,55492:0:0:0:0:
475,192,55492,128,0,55683:0:0:0:0:
36,192,55683,1,0,0:0:0:70:Clap.wav
329,192,55683,1,0,0:0:0:0:
256,192,55872,1,0,0:0:0:0:
36,192,56062,1,2,0:0:0:0:
182,192,56062,1,0,0:0:0:0:
256,192,56252,1,0,0:0:0:70:Clap.wav
402,192,56252,1,0,0:0:0:0:
475,192,56252,1,0,0:0:0:0:
109,192,56442,128,0,56632:0:0:0:30:LR_HiHat Click2.wav
329,192,56632,1,0,0:0:0:30:LR_HiHat Click2.wav
475,192,56632,1,0,0:0:0:0:
182,192,56822,1,0,0:0:0:70:LR_HiHat Click2.wav
36,192,57012,1,2,0:0:0:0:
256,192,57012,1,0,0:0:0:50:Hat Open2.wav
402,192,57012,1,0,0:0:0:0:
329,192,57391,1,0,0:0:0:0:
36,192,57581,128,0,57961:0:0:0:45:LR_HiHat Click2.wav
182,192,57581,128,0,57961:0:0:0:0:
402,192,57581,1,0,0:0:0:0:
475,192,57771,1,0,0:0:0:0:
256,192,57961,1,2,0:0:0:0:
329,192,57961,1,0,0:0:0:50:Hat Open2.wav
402,192,57961,1,0,0:0:0:0:
109,192,58341,1,2,0:0:0:0:
182,192,58341,1,0,0:0:0:50:Hat Open2.wav
256,192,58341,1,0,0:0:0:0:
36,192,58720,1,0,0:0:0:70:soft-hitwhistle2.wav
329,192,58720,128,0,59290:0:0:0:0:
475,192,58720,128,0,59290:0:0:0:0:
109,192,58910,1,0,0:0:0:0:
182,192,59100,1,0,0:0:0:45:LR_HiHat Click2.wav
36,192,59290,1,0,0:0:0:50:Hat Open2.wav
109,192,59290,1,0,0:0:0:70:soft-hitwhistle2.wav
256,192,59290,1,0,0:0:0:0:
182,192,59670,1,0,0:0:0:0:
329,192,59670,1,0,0:0:0:0:
475,192,59860,1,0,0:0:0:0:
36,192,60050,1,2,0:0:0:0:
256,192,60050,1,0,0:0:0:70:Clap.wav
402,192,60050,1,0,0:0:0:0:
109,192,60239,128,0,60619:0:0:0:0:
182,192,60239,128,0,60619:0:0:0:0:
475,192,60429,1,0,0:0:0:0:
329,192,60619,1,0,0:0:0:0:
402,192,60619,1,0,0:0:0:0:
109,192,60746,1,0,0:0:0:0:
182,192,60746,1,0,0:0:0:0:
329,192,60872,1,0,0:0:0:0:
402,192,60872,1,0,0:0:0:0:
36,192,60999,1,2,0:0:0:0:
109,192,60999,1,0,0:0:0:50:Hat Open2.wav
182,192,60999,1,0,0:0:0:70:Clap.wav
182,192,61379,1,2,0:0:0:0:
256,192,61379,1,0,0:0:0:50:Hat Open2.wav
329,192,61379,1,0,0:0:0:0:
402,192,61758,1,0,0:0:0:0:
329,192,61948,1,0,0:0:0:0:
475,192,62138,1,0,0:0:0:0:
402,192,62328,1,0,0:0:0:0:
329,192,62708,1,0,0:0:0:0:
256,192,62898,1,0,0:0:0:0:
329,192,63277,1,0,0:0:0:40:soft-hitwhistle2.wav
475,192,63277,1,0,0:0:0:0:
256,192,63467,1,0,0:0:0:40:soft-hitwhistle2.wav
402,192,63657,1,0,0:0:0:40:soft-hitwhistle2.wav
182,192,63847,1,0,0:0:0:40:soft-hitwhistle2.wav
329,192,63847,1,0,0:0:0:0:
256,192,64227,1,0,0:0:0:0:
182,192,64417,1,0,0:0:0:0:
36,192,64796,1,2,0:0:0:0:
256,192,64796,1,0,0:0:0:0:
402,192,64796,1,0,0:0:0:0:
182,192,64986,1,0,0:0:0:0:
475,192,65176,1,2,0:0:0:0:
36,192,65366,1,0,0:0:0:50:Hat Open2.wav
109,192,65366,1,0,0:0:0:70:Clap.wav
329,192,65366,1,0,0:0:0:0:
329,192,65746,1,2,0:0:0:0:
402,192,65746,1,0,0:0:0:70:LR_HiHat Click2.wav
109,192,65936,1,2,0:0:0:0:
182,192,65936,1,0,0:0:0:70:LR_HiHat Click2.wav
329,192,66126,1,0,0:0:0:70:LR_HiHat Click2.wav
36,192,66315,1,2,0:0:0:0:
256,192,66315,1,0,0:0:0:50:Hat Open2.wav
402,192,66315,1,0,0:0:0:0:
182,192,66505,1,0,0:0:0:0:
475,192,66695,1,0,0:0:0:0:
36,192,66885,1,2,0:0:0:0:
182,192,66885,1,0,0:0:0:50:Hat Open2.wav
329,192,66885,1,0,0:0:0:0:
402,192,67834,1,0,0:0:0:0:
329,192,68024,1,0,0:0:0:0:
475,192,68214,1,0,0:0:0:0:
402,192,68404,1,0,0:0:0:0:
329,192,68784,1,0,0:0:0:0:
256,192,68974,1,0,0:0:0:0:
329,192,69353,1,0,0:0:0:40:soft-hitwhistle2.wav
475,192,69353,1,0,0:0:0:0:
256,192,69543,1,0,0:0:0:40:soft-hitwhistle2.wav
402,192,69733,1,0,0:0:0:40:soft-hitwhistle2.wav
182,192,69923,1,0,0:0:0:40:soft-hitwhistle2.wav
329,192,69923,1,0,0:0:0:0:
256,192,70303,1,0,0:0:0:0:
182,192,70493,1,0,0:0:0:0:
36,192,70872,1,2,0:0:0:0:
256,192,70872,1,0,0:0:0:0:
402,192,70872,1,0,0:0:0:0:
182,192,71062,1,0,0:0:0:0:
475,192,71252,1,2,0:0:0:0:
36,192,71442,1,0,0:0:0:50:Hat Open2.wav
109,192,71442,1,0,0:0:0:0:
329,192,71442,1,0,0:0:0:0:
329,192,71822,1,2,0:0:0:0:
402,192,71822,1,0,0:0:0:40:LR_HiHat Click2.wav
109,192,72012,1,2,0:0:0:0:
182,192,72012,1,0,0:0:0:40:LR_HiHat Click2.wav
329,192,72201,1,0,0:0:0:25:LR_HiHat Click2.wav
36,192,72391,1,2,0:0:0:0:
256,192,72391,1,0,0:0:0:50:Hat Open2.wav
402,192,72391,1,0,0:0:0:0:
182,192,72581,1,0,0:0:0:0:
475,192,72771,1,0,0:0:0:0:
36,192,72961,1,0,0:0:0:0:
182,192,72961,1,0,0:0:0:0:
256,192,73056,1,0,0:0:0:0:
329,192,73151,1,0,0:0:0:0:
402,192,73246,1,0,0:0:0:0:
36,192,73341,1,0,0:0:0:0:
475,192,73341,1,0,0:0:0:0:
109,192,73436,1,0,0:0:0:0:
182,192,73531,1,0,0:0:0:0:
256,192,73626,1,0,0:0:0:0:
329,192,73721,1,0,0:0:0:0:
475,192,73721,1,0,0:0:0:0:
182,192,73910,1,0,0:0:0:0:
402,192,74100,1,0,0:0:0:0:
109,192,74290,1,0,0:0:0:0:
475,192,74480,1,0,0:0:0:0:
36,192,74670,1,0,0:0:0:0:
256,192,74860,1,0,0:0:0:0:
329,192,74986,1,0,0:0:0:0:
402,192,75113,1,0,0:0:0:0:
109,192,75239,1,0,0:0:0:0:
182,192,75366,1,0,0:0:0:0:
256,192,75493,1,0,0:0:0:0:
329,192,75619,1,0,0:0:0:0:
402,192,75809,1,0,0:0:0:0:
256,192,76569,128,0,78087:0:0:0:0:
182,192,78087,1,2,0:0:0:0:
329,192,78087,1,0,0:0:0:0:
36,192,78277,1,0,0:0:0:15:Clap.wav
109,192,78277,1,0,0:0:0:0:
402,192,78467,1,0,0:0:0:15:Clap.wav
475,192,78467,1,0,0:0:0:0:
36,192,78657,1,0,0:0:0:15:Clap.wav
109,192,78657,1,0,0:0:0:0:
402,192,78847,1,0,0:0:0:15:Clap.wav
475,192,78847,1,0,0:0:0:0:
36,192,79037,1,0,0:0:0:15:Clap.wav
109,192,79037,1,0,0:0:0:0:
402,192,79227,1,0,0:0:0:17:Clap.wav
475,192,79227,1,0,0:0:0:0:
36,192,79417,1,0,0:0:0:20:Clap.wav
109,192,79417,1,0,0:0:0:0:
475,192,79606,1,0,0:0:0:0:
402,192,79796,1,0,0:0:0:0:
329,192,79986,1,0,0:0:0:0:
36,192,80176,1,0,0:0:0:30:Clap.wav
256,192,80176,1,0,0:0:0:0:
475,192,80176,1,0,0:0:0:0:
182,192,80366,1,0,0:0:0:10:Hat Open2.wav
109,192,80556,1,0,0:0:0:45:Hat Open2.wav
36,192,80746,1,0,0:0:0:70:Clap.wav
402,192,80746,1,0,0:0:0:0:
475,192,80746,1,0,0:0:0:0:
109,192,80935,1,0,0:0:0:0:
402,192,81125,1,0,0:0:0:0:
182,192,81315,1,0,0:0:0:0:
256,192,81315,1,0,0:0:0:0:
329,192,81695,1,0,0:0:0:0:
475,192,81885,1,0,0:0:0:0:
182,192,82075,1,0,0:0:0:0:
329,192,82075,1,0,0:0:0:0:
256,192,82454,128,0,82644:0:0:0:0:
182,192,82644,1,0,0:0:0:0:
36,192,82834,1,0,0:0:0:0:
109,192,82834,1,0,0:0:0:0:
182,192,83214,1,0,0:0:0:0:
329,192,83404,1,0,0:0:0:0:
109,192,83594,1,0,0:0:0:0:
256,192,83594,1,0,0:0:0:0:
329,192,83973,1,0,0:0:0:0:
475,192,84163,1,0,0:0:0:0:
256,192,84353,1,0,0:0:0:0:
402,192,84353,1,0,0:0:0:0:
329,192,84733,1,0,0:0:0:0:
256,192,84923,1,0,0:0:0:0:
182,192,85113,1,0,0:0:0:0:
402,192,85113,1,0,0:0:0:0:
329,192,85492,1,0,0:0:0:0:
256,192,85682,1,0,0:0:0:0:
109,192,85872,1,0,0:0:0:0:
402,192,85872,1,0,0:0:0:0:
256,192,86062,128,0,86632:0:0:0:0:
402,192,86632,128,0,86821:0:0:0:0:
36,192,86821,1,2,0:0:0:0:
182,192,86821,1,0,0:0:0:0:
329,192,86821,1,0,0:0:0:0:
402,192,87011,1,0,0:0:0:25:LR_HiHat Click2.wav
36,192,87106,1,2,0:0:0:0:
182,192,87106,1,0,0:0:0:0:
475,192,87201,1,0,0:0:0:25:LR_HiHat Click2.wav
109,192,87391,1,2,0:0:0:0:
256,192,87391,1,0,0:0:0:0:
402,192,87391,1,0,0:0:0:0:
182,192,87581,1,0,0:0:0:25:LR_HiHat Click2.wav
329,192,87676,1,2,0:0:0:0:
475,192,87676,1,0,0:0:0:0:
109,192,87771,1,0,0:0:0:25:LR_HiHat Click2.wav
329,192,87866,1,2,0:0:0:0:
475,192,87866,1,0,0:0:0:0:
36,192,87961,1,2,0:0:0:0:
256,192,87961,1,0,0:0:0:0:
182,192,88151,1,0,0:0:0:50:Hat Open2.wav
402,192,88151,1,0,0:0:0:70:Clap.wav
475,192,88151,1,0,0:0:0:0:
329,192,88340,1,0,0:0:0:0:
182,192,88530,1,0,0:0:0:25:LR_HiHat Click2.wav
256,192,88530,1,0,0:0:0:70:Clap.wav
402,192,88530,128,0,88720:0:0:0:0:
36,192,88720,1,0,0:0:0:25:LR_HiHat Click2.wav
109,192,88720,1,0,0:0:0:0:
256,192,88910,1,2,0:0:0:0:
402,192,88910,1,0,0:0:0:0:
475,192,88910,1,0,0:0:0:0:
182,192,89100,128,0,89290:0:0:0:25:LR_HiHat Click2.wav
402,192,89195,1,2,0:0:0:0:
475,192,89195,1,0,0:0:0:25:LR_HiHat Click2.wav
36,192,89290,1,0,0:0:0:70:Clap.wav
109,192,89290,1,0,0:0:0:0:
329,192,89480,1,0,0:0:0:25:LR_HiHat Click2.wav
36,192,89670,1,0,0:0:0:50:Hat Open2.wav
256,192,89670,1,0,0:0:0:0:
402,192,89670,1,0,0:0:0:0:
109,192,89859,1,0,0:0:0:0:
329,192,89954,1,2,0:0:0:0:
475,192,89954,1,0,0:0:0:0:
182,192,90049,1,0,0:0:0:70:LR4_SnareDropDwS.wav
329,192,90239,1,0,0:0:0:70:Clap.wav
109,192,90429,1,0,0:0:0:50:Hat Open2.wav
256,192,90429,1,0,0:0:0:0:
402,192,90429,1,0,0:0:0:0:
182,192,90619,128,0,90809:0:0:0:25:LR_HiHat Click2.wav
402,192,90714,1,0,0:0:0:70:LR4_SnareDropDwS.wav
475,192,90714,1,0,0:0:0:0:
36,192,90809,1,0,0:0:0:45:LR4_SnareDropDwS.wav
109,192,90809,1,0,0:0:0:70:Clap.wav
329,192,90999,1,0,0:0:0:25:LR_HiHat Click2.wav
36,192,91189,1,0,0:0:0:50:Hat Open2.wav
256,192,91189,1,0,0:0:0:0:
402,192,91189,1,0,0:0:0:0:
329,192,91378,1,0,0:0:0:0:
36,192,91473,1,0,0:0:0:70:LR4_SnareDropDwS.wav
182,192,91473,1,0,0:0:0:0:
475,192,91568,1,0,0:0:0:0:
109,192,91758,1,0,0:0:0:25:LR_HiHat Click2.wav
402,192,91758,1,0,0:0:0:0:
36,192,91948,1,0,0:0:0:50:Hat Open2.wav
256,192,91948,128,0,92328:0:0:0:70:Clap.wav
475,192,91948,1,0,0:0:0:0:
109,192,92328,1,2,0:0:0:0:
402,192,92328,1,0,0:0:0:0:
182,192,92613,1,2,0:0:0:0:
329,192,92613,1,0,0:0:0:0:
36,192,92897,1,2,0:0:0:0:
256,192,92897,1,0,0:0:0:0:
475,192,92897,1,0,0:0:0:0:
182,192,93087,1,0,0:0:0:0:
256,192,93278,128,0,94796:0:0:0:0:
475,192,93278,1,0,0:0:0:0:
329,192,93467,1,0,0:0:0:0:
36,192,93657,1,0,0:0:0:0:
109,192,93847,1,0,0:0:0:0:
182,192,94037,1,0,0:0:0:0:
329,192,94227,1,0,0:0:0:0:
402,192,94417,1,0,0:0:0:25:LR_HiHat Click2.wav
475,192,94607,1,0,0:0:0:25:LR_HiHat Click2.wav
109,192,94796,1,0,0:0:0:25:LR_HiHat Click2.wav
182,192,94796,1,0,0:0:0:0:
329,192,94923,1,0,0:0:0:0:
402,192,94923,1,0,0:0:0:0:
109,192,95050,1,0,0:0:0:0:
182,192,95050,1,0,0:0:0:0:
329,192,95176,1,2,0:0:0:0:
402,192,95176,1,0,0:0:0:25:Hat Open2.wav
475,192,95176,1,0,0:0:0:0:
36,192,95461,1,2,0:0:0:0:
109,192,95461,1,0,0:0:0:25:Hat Open2.wav
182,192,95461,1,0,0:0:0:0:
329,192,95746,1,2,0:0:0:0:
402,192,95746,1,0,0:0:0:0:
475,192,95746,1,0,0:0:0:0:
36,192,95999,1,2,0:0:0:0:
109,192,95999,1,0,0:0:0:0:
182,192,95999,1,0,0:0:0:0:
329,192,96252,1,2,0:0:0:0:
402,192,96252,1,0,0:0:0:0:
475,192,96252,1,0,0:0:0:0:
36,192,96505,1,2,0:0:0:0:
109,192,96505,1,0,0:0:0:25:Hat Open2.wav
182,192,96505,1,0,0:0:0:0:
329,192,96695,1,2,0:0:0:0:
402,192,96695,1,0,0:0:0:25:Hat Open2.wav
475,192,96695,1,0,0:0:0:0:
36,192,96886,1,2,0:0:0:0:
109,192,96886,1,0,0:0:0:25:Hat Open2.wav
182,192,96886,1,0,0:0:0:25:LR_HiHat Click2.wav
329,192,97012,1,2,0:0:0:0:
402,192,97012,1,0,0:0:0:25:Hat Open2.wav
475,192,97012,1,0,0:0:0:25:LR_HiHat Click2.wav
36,192,97139,1,2,0:0:0:0:
109,192,97139,1,0,0:0:0:25:Hat Open2.wav
182,192,97139,1,0,0:0:0:25:LR_HiHat Click2.wav
329,192,97455,1,2,0:0:0:0:
402,192,97455,1,0,0:0:0:25:Hat Open2.wav
475,192,97455,1,0,0:0:0:25:LR_HiHat Click2.wav
36,192,97582,1,2,0:0:0:0:
109,192,97582,1,0,0:0:0:25:Hat Open2.wav
182,192,97582,1,0,0:0:0:25:LR_HiHat Click2.wav
329,192,97708,1,2,0:0:0:0:
402,192,97708,1,0,0:0:0:25:Hat Open2.wav
475,192,97708,1,0,0:0:0:25:LR_HiHat Click2.wav
109,192,97835,1,0,0:0:0:0:
182,192,97930,1,0,0:0:0:0:
329,192,98025,1,0,0:0:0:0:
402,192,98120,1,0,0:0:0:0:
256,192,98215,128,0,99544:0:0:0:0:
109,192,98594,128,0,98974:0:0:0:25:LR_HiHat Click2.wav
402,192,98594,128,0,98974:0:0:0:0:
475,192,99544,1,0,0:0:0:0:
36,192,99733,1,0,0:0:0:0:
182,192,99924,1,2,0:0:0:0:
256,192,99924,1,0,0:0:0:25:Hat Open2.wav
329,192,99924,1,0,0:0:0:0:
182,192,100050,1,2,0:0:0:0:
256,192,100050,1,0,0:0:0:25:Hat Open2.wav
329,192,100050,1,0,0:0:0:0:
182,192,100177,1,2,0:0:0:0:
256,192,100177,1,0,0:0:0:25:Hat Open2.wav
329,192,100177,1,0,0:0:0:0:
109,192,100493,128,0,100588:0:0:0:70:Clap.wav
402,192,100493,128,0,100588:0:0:0:0:
256,192,100683,1,0,0:0:0:0:
