osu file format v14

[General]
AudioFilename: audio.mp3
AudioLeadIn: 0
PreviewTime: 26443
Countdown: 0
SampleSet: Soft
StackLeniency: 0.7
Mode: 3
LetterboxInBreaks: 0
SpecialStyle: 0
WidescreenStoryboard: 1

[Editor]
DistanceSpacing: 0.8
BeatDivisor: 4
GridSize: 32
TimelineZoom: 1.2

[Metadata]
Title:[@__@]
TitleUnicode:[@__@]
Artist:Chroma
ArtistUnicode:黒魔
Creator:Jakads
Version:[b__b]
Source:
Tags:CHRO-0006 CHRO0006 featured artist fa electronic instrumental Robot & and Human K_a_t_a_g_i_r_i Katagiri emoticon @_@ [@_@] @-@ @--@ [@-@] [@--@] c-h-r-o-m-a くろま kuroma
BeatmapID:3553138
BeatmapSetID:1738412

[Difficulty]
HPDrainRate:6
CircleSize:7
OverallDifficulty:6
ApproachRate:5
SliderMultiplier:1.4
SliderTickRate:1

[Events]
//Background and Video events
0,0,"stream_robot_and_human.jpg",0,0
//Break Periods
2,80946,84862
//Storyboard Layer 0 (Background)
//Storyboard Layer 1 (Fail)
//Storyboard Layer 2 (Pass)
//Storyboard Layer 3 (Foreground)
//Storyboard Layer 4 (Overlay)
//Storyboard Sound Samples
Sample,29670,0,"Clap.wav",70
Sample,30430,0,"Clap.wav",45
Sample,34987,0,"soft-hitwhistle2.wav",70
Sample,35746,0,"soft-hitwhistle2.wav",70
Sample,35746,0,"Clap.wav",70
Sample,36506,0,"Clap.wav",70
Sample,37265,0,"soft-hitwhistle2.wav",70
Sample,38025,0,"Clap.wav",70
Sample,39544,0,"Hat Open2.wav",50
Sample,39544,0,"Clap.wav",70
Sample,40683,0,"Hat Open2.wav",50
Sample,40683,0,"Clap.wav",70
Sample,43341,0,"Clap.wav",70
Sample,45050,0,"LR_HiHat Click2.wav",70
Sample,45620,0,"Hat Open2.wav",50
Sample,45620,0,"Clap.wav",70
Sample,46189,0,"LR_HiHat Click2.wav",20
Sample,46759,0,"Hat Open2.wav",50
Sample,50936,0,"Clap.wav",70
Sample,52645,0,"Hat Open2.wav",25
Sample,53214,0,"Hat Open2.wav",25
Sample,57012,0,"Hat Open2.wav",50
Sample,57961,0,"Hat Open2.wav",50
Sample,58341,0,"Hat Open2.wav",50
Sample,59290,0,"soft-hitwhistle2.wav",70
Sample,60050,0,"Clap.wav",70
Sample,60999,0,"Hat Open2.wav",50
Sample,60999,0,"Clap.wav",70
Sample,61379,0,"Hat Open2.wav",50
Sample,65366,0,"Clap.wav",70
Sample,66315,0,"Hat Open2.wav",50
Sample,66885,0,"Hat Open2.wav",50
Sample,72391,0,"Hat Open2.wav",50
Sample,88151,0,"Clap.wav",70
Sample,91948,0,"Clap.wav",70
Sample,95176,0,"Hat Open2.wav",25
Sample,96886,0,"Hat Open2.wav",25
Sample,96886,0,"LR_HiHat Click2.wav",25
Sample,97455,0,"Hat Open2.wav",25
Sample,97455,0,"LR_HiHat Click2.wav",25
Sample,99924,0,"Hat Open2.wav",25

[TimingPoints]
1000,379.746835443038,4,2,1,60,1,0
50936,379.746835443038,5,2,1,60,1,0
52645,379.746835443038,4,2,1,60,1,0
53974,379.746835443038,5,2,1,60,1,0
55683,379.746835443038,4,2,1,60,1,0
73721,379.746835443038,8,2,1,60,1,0
76569,379.746835443038,4,2,1,60,1,0
80746,379.746835443038,4,2,1,60,1,0
93278,379.746835443038,5,2,1,60,1,0
96886,379.746835443038,4,2,1,60,1,0
98215,379.746835443038,5,2,1,60,1,0
99924,379.746835443038,4,2,1,60,1,0

[HitObjects]
475,192,1000,1,0,0:0:0:0:
402,192,1569,1,0,0:0:0:0:
329,192,2329,1,0,0:0:0:0:
256,192,3088,1,0,0:0:0:0:
36,192,3848,1,0,0:0:0:0:
109,192,4607,1,0,0:0:0:0:
182,192,5367,1,0,0:0:0:0:
256,192,6126,1,0,0:0:0:0:
475,192,7075,1,0,0:0:0:0:
402,192,7645,1,0,0:0:0:0:
329,192,8405,1,0,0:0:0:0:
256,192,9164,1,0,0:0:0:0:
36,192,9924,1,0,0:0:0:0:
109,192,10683,1,0,0:0:0:0:
182,192,11443,1,0,0:0:0:0:
256,192,12202,1,0,0:0:0:0:
182,192,12582,1,0,0:0:0:0:
329,192,12867,1,0,0:0:0:0:
475,192,13151,128,0,13721:0:0:0:0:
329,192,13721,1,0,0:0:0:0:
36,192,14291,128,0,14860:0:0:0:0:
182,192,14860,1,0,0:0:0:0:
109,192,15430,1,0,0:0:0:0:
256,192,15810,1,0,0:0:0:0:
402,192,16189,1,0,0:0:0:0:
109,192,16759,1,0,0:0:0:0:
329,192,17518,1,0,0:0:0:0:
475,192,19227,128,0,19797:0:0:0:0:
329,192,19797,1,0,0:0:0:0:
36,192,20367,128,0,20936:0:0:0:0:
182,192,20936,1,0,0:0:0:0:
109,192,21506,1,0,0:0:0:0:
256,192,21886,1,0,0:0:0:0:
402,192,22265,1,0,0:0:0:0:
109,192,22835,1,0,0:0:0:0:
329,192,23594,1,0,0:0:0:0:
329,192,24354,1,0,0:0:0:0:
329,192,25113,1,0,0:0:0:0:
109,192,25493,128,0,26063:0:0:0:0:
402,192,26063,128,0,26443:0:0:0:0:
256,192,26443,1,2,0:0:0:0:
36,192,26822,1,0,0:0:0:50:Hat Open2.wav
182,192,27392,1,0,0:0:0:0:
329,192,28151,1,0,0:0:0:70:Clap.wav
475,192,28911,1,0,0:0:0:50:Hat Open2.wav
109,192,29670,1,0,0:0:0:50:Hat Open2.wav
402,192,30430,1,0,0:0:0:50:Hat Open2.wav
256,192,31189,1,0,0:0:0:50:Hat Open2.wav
109,192,31949,1,0,0:0:0:50:Hat Open2.wav
36,192,32898,1,0,0:0:0:50:Hat Open2.wav
182,192,33468,1,0,0:0:0:0:
329,192,34227,1,0,0:0:0:70:Clap.wav
475,192,34987,1,0,0:0:0:50:Hat Open2.wav
109,192,35746,1,0,0:0:0:50:Hat Open2.wav
402,192,36506,1,0,0:0:0:50:Hat Open2.wav
256,192,37265,1,0,0:0:0:50:Hat Open2.wav
109,192,38025,1,0,0:0:0:50:Hat Open2.wav
182,192,38405,1,0,0:0:0:70:LR_HiHat Click2.wav
329,192,38689,1,0,0:0:0:70:LR_HiHat Click2.wav
475,192,38974,128,2,39544:0:0:0:0:
329,192,39544,1,2,0:0:0:0:
109,192,40113,128,2,40683:0:0:0:0:
256,192,40683,1,2,0:0:0:0:
109,192,41253,1,2,0:0:0:0:
256,192,41632,1,2,0:0:0:0:
402,192,42012,1,2,0:0:0:0:
182,192,42582,1,2,0:0:0:0:
329,192,43341,1,0,0:0:0:50:Hat Open2.wav
402,192,45050,128,2,45620:0:0:0:0:
256,192,45620,1,2,0:0:0:0:
36,192,46189,128,2,46759:0:0:0:0:
182,192,46759,1,0,0:0:0:70:Clap.wav
36,192,47329,1,2,0:0:0:0:
182,192,47708,1,2,0:0:0:0:
329,192,48088,1,2,0:0:0:0:
109,192,48658,1,2,0:0:0:0:
256,192,49417,1,0,0:0:0:70:Clap.wav
256,192,50177,1,0,0:0:0:70:Clap.wav
109,192,50936,128,2,52645:0:0:0:0:
402,192,50936,1,0,0:0:0:25:Hat Open2.wav
402,192,52645,128,2,53024:0:0:0:0:
109,192,53214,128,2,53594:0:0:0:0:
256,192,53974,128,0,55303:0:0:0:0:
329,192,55683,1,0,0:0:0:70:Clap.wav
182,192,56252,1,0,0:0:0:70:Clap.wav
402,192,57012,1,2,0:0:0:0:
329,192,57961,1,2,0:0:0:0:
182,192,58341,1,2,0:0:0:0:
36,192,58720,1,0,0:0:0:70:soft-hitwhistle2.wav
109,192,59290,1,0,0:0:0:50:Hat Open2.wav
256,192,60050,1,2,0:0:0:0:
402,192,60999,1,2,0:0:0:0:
109,192,61379,1,2,0:0:0:0:
475,192,61758,1,0,0:0:0:0:
329,192,62328,1,0,0:0:0:0:
329,192,63277,1,0,0:0:0:40:soft-hitwhistle2.wav
182,192,63847,1,0,0:0:0:40:soft-hitwhistle2.wav
182,192,64796,1,2,0:0:0:0:
36,192,65366,1,0,0:0:0:50:Hat Open2.wav
256,192,66315,1,2,0:0:0:0:
256,192,66885,1,2,0:0:0:0:
475,192,67834,1,0,0:0:0:0:
329,192,68404,1,0,0:0:0:0:
329,192,69353,1,0,0:0:0:40:soft-hitwhistle2.wav
182,192,69923,1,0,0:0:0:40:soft-hitwhistle2.wav
182,192,70872,1,2,0:0:0:0:
36,192,71442,1,0,0:0:0:50:Hat Open2.wav
256,192,72391,1,2,0:0:0:0:
109,192,72961,1,0,0:0:0:0:
256,192,73341,1,0,0:0:0:0:
402,192,73721,128,0,75809:0:0:0:0:
256,192,76569,128,0,78087:0:0:0:0:
36,192,78087,1,2,0:0:0:0:
475,192,78277,128,0,79606:0:0:0:15:Clap.wav
182,192,79606,128,0,80176:0:0:0:0:
329,192,80176,128,0,80746:0:0:0:30:Clap.wav
36,192,80746,1,0,0:0:0:70:Clap.wav
256,192,86062,1,0,0:0:0:0:
402,192,86821,1,2,0:0:0:0:
109,192,87391,1,2,0:0:0:0:
329,192,88151,1,0,0:0:0:50:Hat Open2.wav
182,192,88910,1,2,0:0:0:0:
475,192,89670,1,0,0:0:0:50:Hat Open2.wav
36,192,90429,1,0,0:0:0:50:Hat Open2.wav
329,192,91189,1,0,0:0:0:50:Hat Open2.wav
182,192,91948,1,0,0:0:0:50:Hat Open2.wav
402,192,92328,1,2,0:0:0:0:
256,192,92613,1,2,0:0:0:0:
109,192,92897,1,2,0:0:0:0:
256,192,93278,128,0,94796:0:0:0:0:
402,192,94796,128,0,95176:0:0:0:25:LR_HiHat Click2.wav
109,192,95176,128,2,96886:0:0:0:0:
402,192,96886,128,2,97265:0:0:0:0:
109,192,97455,128,2,97835:0:0:0:0:
256,192,98215,128,0,99544:0:0:0:0:
475,192,99544,1,0,0:0:0:0:
36,192,99733,1,0,0:0:0:0:
402,192,99924,128,2,100303:0:0:0:0:
109,192,100493,1,0,0:0:0:70:Clap.wav
256,192,100683,1,0,0:0:0:0:
