osu file format v14

[General]
AudioFilename: audio.mp3
AudioLeadIn: 0
PreviewTime: 26443
Countdown: 0
SampleSet: Soft
StackLeniency: 0.7
Mode: 3
LetterboxInBreaks: 0
SpecialStyle: 0
WidescreenStoryboard: 0

[Editor]
DistanceSpacing: 0.8
BeatDivisor: 3
GridSize: 32
TimelineZoom: 3.699998

[Metadata]
Title:[@__@]
TitleUnicode:[@__@]
Artist:Chroma
ArtistUnicode:黒魔
Creator:Jakads
Version:[x__x]
Source:
Tags:CHRO-0006 CHRO0006 featured artist fa electronic instrumental Robot & and Human K_a_t_a_g_i_r_i Katagiri emoticon @_@ [@_@] @-@ @--@ [@-@] [@--@] c-h-r-o-m-a くろま kuroma
BeatmapID:3553142
BeatmapSetID:1738412

[Difficulty]
HPDrainRate:8.5
CircleSize:7
OverallDifficulty:8.5
ApproachRate:5
SliderMultiplier:1.4
SliderTickRate:1

[Events]
//Background and Video events
0,0,"stream_robot_and_human.jpg",0,0
//Break Periods
//Storyboard Layer 0 (Background)
//Storyboard Layer 1 (Fail)
//Storyboard Layer 2 (Pass)
//Storyboard Layer 3 (Foreground)
//Storyboard Layer 4 (Overlay)
//Storyboard Sound Samples

[TimingPoints]
1000,379.746835443038,4,2,1,60,1,0
50936,379.746835443038,5,2,1,60,1,0
52645,379.746835443038,4,2,1,60,1,0
53974,379.746835443038,5,2,1,60,1,0
55683,379.746835443038,4,2,1,60,1,0
73721,379.746835443038,8,2,1,60,1,0
76569,379.746835443038,4,2,1,60,1,0
80746,379.746835443038,4,2,1,60,1,0
93278,379.746835443038,5,2,1,60,1,0
96886,379.746835443038,4,2,1,60,1,0
98215,379.746835443038,5,2,1,60,1,0
99924,379.746835443038,4,2,1,60,1,0

[HitObjects]
109,192,1000,5,0,0:0:0:0:
256,192,1000,1,0,0:0:0:0:
329,192,1000,1,0,0:0:0:0:
182,192,1189,1,0,0:0:0:0:
402,192,1379,1,0,0:0:0:0:
36,192,1569,1,0,0:0:0:0:
182,192,1569,1,0,0:0:0:0:
256,192,1569,1,0,0:0:0:0:
329,192,1949,1,0,0:0:0:0:
475,192,2139,1,0,0:0:0:0:
109,192,2329,1,0,0:0:0:0:
182,192,2329,1,0,0:0:0:0:
329,192,2329,1,0,0:0:0:0:
256,192,2708,1,0,0:0:0:0:
329,192,2772,1,0,0:0:0:0:
256,192,2835,1,0,0:0:0:0:
182,192,2898,1,0,0:0:0:0:
36,192,3088,1,0,0:0:0:0:
109,192,3088,1,0,0:0:0:0:
256,192,3088,1,0,0:0:0:0:
182,192,3468,1,0,0:0:0:0:
402,192,3658,1,0,0:0:0:0:
109,192,3848,1,0,0:0:0:0:
256,192,3848,1,0,0:0:0:0:
329,192,3848,1,0,0:0:0:0:
256,192,4227,1,0,0:0:0:0:
475,192,4417,1,0,0:0:0:0:
182,192,4607,1,0,0:0:0:0:
329,192,4607,1,0,0:0:0:0:
402,192,4607,1,0,0:0:0:0:
402,192,4987,1,0,0:0:0:0:
329,192,5177,1,0,0:0:0:0:
182,192,5367,1,0,0:0:0:0:
256,192,5367,1,0,0:0:0:0:
475,192,5367,1,0,0:0:0:0:
402,192,5746,1,0,0:0:0:0:
329,192,5936,1,0,0:0:0:0:
109,192,6126,1,0,0:0:0:0:
256,192,6126,1,0,0:0:0:0:
475,192,6126,1,0,0:0:0:0:
109,192,7075,1,0,0:0:0:0:
256,192,7075,1,0,0:0:0:0:
329,192,7075,1,0,0:0:0:0:
182,192,7265,1,0,0:0:0:0:
402,192,7455,1,0,0:0:0:0:
36,192,7645,1,0,0:0:0:0:
182,192,7645,1,0,0:0:0:0:
256,192,7645,1,0,0:0:0:0:
329,192,8025,1,0,0:0:0:0:
475,192,8215,1,0,0:0:0:0:
109,192,8405,1,0,0:0:0:0:
182,192,8405,1,0,0:0:0:0:
329,192,8405,1,0,0:0:0:0:
256,192,8784,1,0,0:0:0:0:
329,192,8848,1,0,0:0:0:0:
256,192,8911,1,0,0:0:0:0:
182,192,8974,1,0,0:0:0:0:
36,192,9164,1,0,0:0:0:0:
109,192,9164,1,0,0:0:0:0:
256,192,9164,1,0,0:0:0:0:
182,192,9544,1,0,0:0:0:0:
402,192,9734,1,0,0:0:0:0:
109,192,9924,1,0,0:0:0:0:
256,192,9924,1,0,0:0:0:0:
329,192,9924,1,0,0:0:0:0:
256,192,10303,1,0,0:0:0:0:
475,192,10493,1,0,0:0:0:0:
182,192,10683,1,0,0:0:0:0:
329,192,10683,1,0,0:0:0:0:
402,192,10683,1,0,0:0:0:0:
402,192,11063,1,0,0:0:0:0:
329,192,11253,1,0,0:0:0:0:
182,192,11443,1,0,0:0:0:0:
256,192,11443,1,0,0:0:0:0:
475,192,11443,1,0,0:0:0:0:
402,192,11822,1,0,0:0:0:0:
329,192,12012,1,0,0:0:0:0:
109,192,12202,1,0,0:0:0:0:
256,192,12202,1,0,0:0:0:0:
475,192,12202,1,0,0:0:0:0:
182,192,12582,1,0,0:0:0:0:
256,192,12582,1,0,0:0:0:0:
402,192,12582,1,0,0:0:0:0:
182,192,12867,1,0,0:0:0:0:
329,192,12867,1,0,0:0:0:0:
475,192,12867,1,0,0:0:0:0:
36,192,13151,1,0,0:0:0:0:
402,192,13151,1,0,0:0:0:0:
475,192,13151,1,0,0:0:0:0:
109,192,13246,1,0,0:0:0:0:
182,192,13341,1,0,0:0:0:0:
256,192,13436,1,0,0:0:0:0:
329,192,13531,1,0,0:0:0:0:
402,192,13626,1,0,0:0:0:0:
36,192,13721,1,0,0:0:0:0:
109,192,13721,1,0,0:0:0:0:
475,192,13721,1,0,0:0:0:0:
256,192,14101,1,0,0:0:0:0:
36,192,14291,1,0,0:0:0:0:
329,192,14291,1,0,0:0:0:0:
475,192,14291,1,0,0:0:0:0:
109,192,14386,1,0,0:0:0:0:
182,192,14481,1,0,0:0:0:0:
256,192,14575,1,0,0:0:0:0:
329,192,14670,1,0,0:0:0:0:
402,192,14765,1,0,0:0:0:0:
36,192,14860,1,0,0:0:0:0:
182,192,14860,1,0,0:0:0:0:
475,192,14860,1,0,0:0:0:0:
256,192,15240,1,0,0:0:0:0:
36,192,15430,1,0,0:0:0:0:
182,192,15430,1,0,0:0:0:0:
329,192,15430,1,0,0:0:0:0:
109,192,15810,1,0,0:0:0:0:
256,192,15810,1,0,0:0:0:0:
402,192,15810,1,0,0:0:0:0:
182,192,16189,1,0,0:0:0:0:
329,192,16189,1,0,0:0:0:0:
475,192,16189,1,0,0:0:0:0:
256,192,16379,1,0,0:0:0:0:
329,192,16569,1,0,0:0:0:0:
256,192,16759,1,0,0:0:0:0:
402,192,16759,1,0,0:0:0:0:
475,192,16759,1,0,0:0:0:0:
109,192,17139,1,0,0:0:0:0:
182,192,17518,1,0,0:0:0:0:
329,192,17518,1,0,0:0:0:0:
402,192,17518,1,0,0:0:0:0:
36,192,19227,1,0,0:0:0:0:
402,192,19227,1,0,0:0:0:0:
475,192,19227,1,0,0:0:0:0:
109,192,19322,1,0,0:0:0:0:
182,192,19417,1,0,0:0:0:0:
256,192,19512,1,0,0:0:0:0:
329,192,19607,1,0,0:0:0:0:
402,192,19702,1,0,0:0:0:0:
36,192,19797,1,0,0:0:0:0:
109,192,19797,1,0,0:0:0:0:
475,192,19797,1,0,0:0:0:0:
256,192,20177,1,0,0:0:0:0:
36,192,20367,1,0,0:0:0:0:
329,192,20367,1,0,0:0:0:0:
475,192,20367,1,0,0:0:0:0:
109,192,20462,1,0,0:0:0:0:
182,192,20556,1,0,0:0:0:0:
256,192,20651,1,0,0:0:0:0:
329,192,20746,1,0,0:0:0:0:
402,192,20841,1,0,0:0:0:0:
36,192,20936,1,0,0:0:0:0:
182,192,20936,1,0,0:0:0:0:
475,192,20936,1,0,0:0:0:0:
256,192,21316,1,0,0:0:0:0:
36,192,21506,1,0,0:0:0:0:
182,192,21506,1,0,0:0:0:0:
329,192,21506,1,0,0:0:0:0:
109,192,21886,1,0,0:0:0:0:
256,192,21886,1,0,0:0:0:0:
402,192,21886,1,0,0:0:0:0:
182,192,22265,1,0,0:0:0:0:
329,192,22265,1,0,0:0:0:0:
475,192,22265,1,0,0:0:0:0:
256,192,22455,1,0,0:0:0:0:
329,192,22645,1,0,0:0:0:0:
256,192,22835,1,0,0:0:0:0:
402,192,22835,1,0,0:0:0:0:
475,192,22835,1,0,0:0:0:0:
109,192,23215,1,0,0:0:0:0:
182,192,23594,1,0,0:0:0:0:
329,192,23594,1,0,0:0:0:0:
402,192,23594,1,0,0:0:0:0:
182,192,23974,1,0,0:0:0:0:
256,192,24164,1,0,0:0:0:0:
109,192,24354,1,0,0:0:0:0:
329,192,24354,1,0,0:0:0:0:
402,192,24354,1,0,0:0:0:0:
182,192,24734,1,0,0:0:0:0:
256,192,24924,1,0,0:0:0:0:
36,192,25113,1,0,0:0:0:0:
329,192,25113,1,0,0:0:0:0:
402,192,25113,1,0,0:0:0:0:
36,192,25493,1,0,0:0:0:0:
109,192,25517,1,0,0:0:0:0:
182,192,25683,1,0,0:0:0:0:
329,192,25707,1,0,0:0:0:0:
402,192,25873,1,0,0:0:0:0:
475,192,25897,1,0,0:0:0:0:
109,192,26063,1,0,0:0:0:0:
402,192,26158,1,0,0:0:0:0:
36,192,26253,1,0,0:0:0:25:LR_HiHat Click2.wav
109,192,26300,1,0,0:0:0:25:LR_HiHat Click2.wav
182,192,26348,1,0,0:0:0:25:LR_HiHat Click2.wav
256,192,26379,1,0,0:0:0:25:LR_HiHat Click2.wav
329,192,26411,1,0,0:0:0:25:LR_HiHat Click2.wav
36,192,26443,1,2,0:0:0:0:
109,192,26443,1,0,0:0:0:0:
402,192,26443,1,0,0:0:0:0:
475,192,26443,1,0,0:0:0:0:
36,192,26822,1,0,0:0:0:50:Hat Open2.wav
109,192,26822,1,0,0:0:0:0:
256,192,26822,1,0,0:0:0:0:
402,192,26822,1,0,0:0:0:0:
475,192,26822,1,0,0:0:0:0:
109,192,27012,1,0,0:0:0:0:
256,192,27202,1,0,0:0:0:70:soft-hitwhistle2.wav
329,192,27202,1,0,0:0:0:0:
475,192,27202,1,0,0:0:0:0:
36,192,27392,1,0,0:0:0:0:
182,192,27392,1,0,0:0:0:0:
256,192,27392,1,0,0:0:0:0:
402,192,27392,1,0,0:0:0:0:
402,192,27582,1,0,0:0:0:0:
36,192,27772,1,0,0:0:0:70:LR_HiHat Click2.wav
329,192,27772,1,0,0:0:0:0:
182,192,27867,1,0,0:0:0:70:LR_HiHat Click2.wav
329,192,27962,1,0,0:0:0:70:LR_HiHat Click2.wav
475,192,27962,1,0,0:0:0:0:
182,192,28056,1,0,0:0:0:70:LR_HiHat Click2.wav
36,192,28151,1,0,0:0:0:70:Clap.wav
109,192,28151,1,0,0:0:0:0:
256,192,28151,1,0,0:0:0:0:
402,192,28151,1,0,0:0:0:0:
256,192,28341,1,0,0:0:0:0:
109,192,28531,1,0,0:0:0:0:
182,192,28531,1,0,0:0:0:0:
329,192,28531,1,0,0:0:0:0:
402,192,28594,1,0,0:0:0:0:
329,192,28658,1,0,0:0:0:0:
36,192,28721,1,0,0:0:0:0:
256,192,28721,1,0,0:0:0:0:
36,192,28911,1,0,0:0:0:50:Hat Open2.wav
109,192,28911,1,0,0:0:0:0:
402,192,28911,1,0,0:0:0:0:
475,192,28911,1,0,0:0:0:0:
182,192,29101,1,0,0:0:0:0:
256,192,29148,1,0,0:0:0:0:
329,192,29196,1,0,0:0:0:0:
402,192,29227,1,0,0:0:0:0:
475,192,29259,1,0,0:0:0:0:
36,192,29291,1,0,0:0:0:0:
109,192,29291,1,0,0:0:0:0:
182,192,29291,1,0,0:0:0:0:
402,192,29481,1,0,0:0:0:0:
109,192,29670,1,0,0:0:0:50:Hat Open2.wav
256,192,29670,1,0,0:0:0:70:Clap.wav
329,192,29670,1,0,0:0:0:0:
475,192,29670,1,0,0:0:0:0:
109,192,29860,1,0,0:0:0:0:
182,192,30050,1,0,0:0:0:70:soft-hitwhistle2.wav
256,192,30050,1,0,0:0:0:0:
402,192,30050,1,0,0:0:0:0:
182,192,30240,1,0,0:0:0:70:Clap.wav
329,192,30240,1,0,0:0:0:0:
475,192,30240,1,0,0:0:0:0:
36,192,30430,1,0,0:0:0:50:Hat Open2.wav
109,192,30430,1,0,0:0:0:45:Clap.wav
256,192,30430,1,0,0:0:0:0:
329,192,30430,1,0,0:0:0:0:
109,192,30620,1,0,0:0:0:0:
182,192,30667,1,0,0:0:0:0:
256,192,30715,1,0,0:0:0:0:
329,192,30746,1,0,0:0:0:0:
402,192,30778,1,0,0:0:0:0:
36,192,30810,1,0,0:0:0:70:Clap.wav
182,192,30810,1,0,0:0:0:0:
475,192,30810,1,0,0:0:0:0:
402,192,31000,1,0,0:0:0:0:
109,192,31189,1,0,0:0:0:50:Hat Open2.wav
256,192,31189,1,0,0:0:0:0:
329,192,31189,1,0,0:0:0:0:
475,192,31189,1,0,0:0:0:0:
256,192,31379,1,0,0:0:0:0:
182,192,31569,1,0,0:0:0:70:soft-hitwhistle2.wav
402,192,31569,1,0,0:0:0:0:
475,192,31569,1,0,0:0:0:0:
109,192,31759,1,0,0:0:0:70:soft-hitwhistle2.wav
182,192,31759,1,0,0:0:0:0:
329,192,31759,1,0,0:0:0:0:
36,192,31949,1,0,0:0:0:50:Hat Open2.wav
256,192,31949,1,0,0:0:0:0:
329,192,31949,1,0,0:0:0:0:
475,192,31949,1,0,0:0:0:0:
109,192,32329,1,0,0:0:0:70:LR_HiHat Click2.wav
256,192,32329,128,0,32708:0:0:0:0:
402,192,32329,1,0,0:0:0:0:
109,192,32518,1,0,0:0:0:70:LR_HiHat Click2.wav
402,192,32518,1,0,0:0:0:0:
36,192,32708,1,2,0:0:0:0:
182,192,32708,1,0,0:0:0:0:
329,192,32708,1,0,0:0:0:0:
475,192,32708,1,0,0:0:0:0:
36,192,32898,1,0,0:0:0:50:Hat Open2.wav
109,192,32898,1,0,0:0:0:0:
256,192,32898,1,0,0:0:0:0:
402,192,32898,1,0,0:0:0:0:
475,192,32898,1,0,0:0:0:0:
109,192,33088,1,0,0:0:0:0:
256,192,33278,1,0,0:0:0:70:soft-hitwhistle2.wav
329,192,33278,1,0,0:0:0:0:
475,192,33278,1,0,0:0:0:0:
36,192,33468,1,0,0:0:0:0:
182,192,33468,1,0,0:0:0:0:
256,192,33468,1,0,0:0:0:0:
402,192,33468,1,0,0:0:0:0:
402,192,33658,1,0,0:0:0:0:
36,192,33848,1,0,0:0:0:70:LR_HiHat Click2.wav
329,192,33848,1,0,0:0:0:0:
182,192,33943,1,0,0:0:0:70:LR_HiHat Click2.wav
329,192,34037,1,0,0:0:0:70:LR_HiHat Click2.wav
475,192,34037,1,0,0:0:0:0:
182,192,34132,1,0,0:0:0:70:LR_HiHat Click2.wav
36,192,34227,1,0,0:0:0:70:Clap.wav
109,192,34227,1,0,0:0:0:0:
256,192,34227,1,0,0:0:0:0:
402,192,34227,1,0,0:0:0:0:
256,192,34417,1,0,0:0:0:0:
109,192,34607,1,0,0:0:0:0:
182,192,34607,1,0,0:0:0:0:
329,192,34607,1,0,0:0:0:0:
402,192,34670,1,0,0:0:0:0:
329,192,34734,1,0,0:0:0:0:
36,192,34797,1,0,0:0:0:0:
256,192,34797,1,0,0:0:0:0:
36,192,34987,1,0,0:0:0:50:Hat Open2.wav
109,192,34987,1,0,0:0:0:70:soft-hitwhistle2.wav
402,192,34987,1,0,0:0:0:0:
475,192,34987,1,0,0:0:0:0:
182,192,35177,1,0,0:0:0:0:
256,192,35224,1,0,0:0:0:0:
329,192,35272,1,0,0:0:0:0:
402,192,35303,1,0,0:0:0:0:
475,192,35335,1,0,0:0:0:0:
36,192,35367,1,0,0:0:0:0:
109,192,35367,1,0,0:0:0:0:
182,192,35367,1,0,0:0:0:0:
402,192,35556,1,0,0:0:0:0:
109,192,35746,1,0,0:0:0:50:Hat Open2.wav
256,192,35746,1,0,0:0:0:70:soft-hitwhistle2.wav
329,192,35746,1,0,0:0:0:70:Clap.wav
475,192,35746,1,0,0:0:0:0:
109,192,35936,1,0,0:0:0:0:
182,192,36126,1,0,0:0:0:70:soft-hitwhistle2.wav
256,192,36126,1,0,0:0:0:0:
402,192,36126,1,0,0:0:0:0:
182,192,36316,1,0,0:0:0:70:Clap.wav
329,192,36316,1,0,0:0:0:0:
475,192,36316,1,0,0:0:0:0:
36,192,36506,1,0,0:0:0:50:Hat Open2.wav
109,192,36506,1,0,0:0:0:70:Clap.wav
256,192,36506,1,0,0:0:0:0:
329,192,36506,1,0,0:0:0:0:
109,192,36696,1,0,0:0:0:0:
182,192,36743,1,0,0:0:0:0:
256,192,36791,1,0,0:0:0:0:
329,192,36822,1,0,0:0:0:0:
402,192,36854,1,0,0:0:0:0:
36,192,36886,1,0,0:0:0:0:
182,192,36886,1,0,0:0:0:0:
475,192,36886,1,0,0:0:0:0:
402,192,37075,1,0,0:0:0:0:
109,192,37265,1,0,0:0:0:50:Hat Open2.wav
256,192,37265,1,0,0:0:0:70:soft-hitwhistle2.wav
329,192,37265,1,0,0:0:0:0:
475,192,37265,1,0,0:0:0:0:
256,192,37455,1,0,0:0:0:0:
182,192,37645,1,0,0:0:0:70:soft-hitwhistle2.wav
402,192,37645,1,0,0:0:0:0:
475,192,37645,1,0,0:0:0:0:
109,192,37835,1,0,0:0:0:70:soft-hitwhistle2.wav
182,192,37835,1,0,0:0:0:0:
329,192,37835,1,0,0:0:0:0:
36,192,38025,1,0,0:0:0:50:Hat Open2.wav
256,192,38025,128,0,38405:0:0:0:70:Clap.wav
329,192,38025,1,0,0:0:0:0:
475,192,38025,1,0,0:0:0:0:
36,192,38405,1,0,0:0:0:70:LR_HiHat Click2.wav
109,192,38405,1,0,0:0:0:0:
402,192,38405,1,0,0:0:0:0:
475,192,38405,1,0,0:0:0:0:
109,192,38689,1,0,0:0:0:70:LR_HiHat Click2.wav
182,192,38689,1,0,0:0:0:0:
329,192,38689,1,0,0:0:0:0:
402,192,38689,1,0,0:0:0:0:
36,192,38974,1,2,0:0:0:0:
256,192,38974,1,0,0:0:0:0:
475,192,38974,1,0,0:0:0:0:
109,192,39069,1,0,0:0:0:20:LR_HiHat Click2.wav
402,192,39117,1,0,0:0:0:20:LR_HiHat Click2.wav
182,192,39164,1,0,0:0:0:20:LR_HiHat Click2.wav
329,192,39212,1,0,0:0:0:20:LR_HiHat Click2.wav
256,192,39259,1,2,0:0:0:0:
475,192,39259,1,0,0:0:0:0:
36,192,39259,1,0,0:0:0:0:
109,192,39354,1,0,0:0:0:0:
329,192,39354,1,0,0:0:0:0:
182,192,39449,1,0,0:0:0:0:
402,192,39449,1,0,0:0:0:0:
109,192,39544,1,2,0:0:0:0:
256,192,39544,1,0,0:0:0:50:Hat Open2.wav
475,192,39544,1,0,0:0:0:70:Clap.wav
402,192,39639,1,0,0:0:0:0:
329,192,39734,1,0,0:0:0:0:
256,192,39829,1,0,0:0:0:0:
182,192,39924,1,0,0:0:0:70:LR_HiHat Click2.wav
329,192,39924,1,0,0:0:0:0:
475,192,39924,1,0,0:0:0:0:
109,192,40018,1,0,0:0:0:0:
36,192,40113,1,2,0:0:0:0:
256,192,40113,1,0,0:0:0:0:
475,192,40113,1,0,0:0:0:0:
109,192,40208,1,0,0:0:0:20:LR_HiHat Click2.wav
402,192,40256,1,0,0:0:0:20:LR_HiHat Click2.wav
182,192,40303,1,0,0:0:0:20:LR_HiHat Click2.wav
329,192,40351,1,0,0:0:0:20:LR_HiHat Click2.wav
256,192,40398,1,2,0:0:0:0:
36,192,40398,1,0,0:0:0:0:
475,192,40398,1,0,0:0:0:0:
109,192,40493,1,0,0:0:0:0:
329,192,40493,1,0,0:0:0:0:
182,192,40588,1,0,0:0:0:0:
402,192,40588,1,0,0:0:0:0:
36,192,40683,1,2,0:0:0:0:
109,192,40683,1,0,0:0:0:50:Hat Open2.wav
475,192,40683,1,0,0:0:0:70:Clap.wav
402,192,40778,1,0,0:0:0:0:
329,192,40873,1,0,0:0:0:0:
256,192,40968,1,0,0:0:0:0:
182,192,41063,1,0,0:0:0:70:soft-hitwhistle2.wav
329,192,41063,1,0,0:0:0:0:
475,192,41063,1,0,0:0:0:0:
109,192,41158,1,0,0:0:0:0:
36,192,41253,1,2,0:0:0:0:
182,192,41253,1,0,0:0:0:0:
256,192,41253,1,0,0:0:0:0:
329,192,41253,1,0,0:0:0:0:
109,192,41632,1,2,0:0:0:0:
256,192,41632,1,0,0:0:0:0:
329,192,41632,1,0,0:0:0:0:
402,192,41632,1,0,0:0:0:0:
36,192,42012,1,2,0:0:0:0:
256,192,42012,1,0,0:0:0:0:
329,192,42012,1,0,0:0:0:0:
475,192,42012,1,0,0:0:0:0:
109,192,42107,1,0,0:0:0:0:
182,192,42202,1,0,0:0:0:0:
402,192,42202,1,0,0:0:0:0:
36,192,42297,1,2,0:0:0:0:
109,192,42297,1,0,0:0:0:0:
256,192,42297,1,0,0:0:0:0:
329,192,42392,1,0,0:0:0:70:LR4_SnareDropDwS.wav
402,192,42392,1,0,0:0:0:0:
475,192,42392,1,0,0:0:0:0:
182,192,42487,1,0,0:0:0:0:
109,192,42582,1,2,0:0:0:0:
256,192,42582,1,0,0:0:0:0:
475,192,42582,1,0,0:0:0:0:
402,192,42677,1,0,0:0:0:0:
329,192,42772,1,0,0:0:0:0:
36,192,42867,1,2,0:0:0:0:
109,192,42867,1,0,0:0:0:0:
256,192,42867,1,0,0:0:0:0:
182,192,42962,1,0,0:0:0:40:LR4_SnareDropDwS.wav
402,192,42962,1,0,0:0:0:0:
475,192,42962,1,0,0:0:0:0:
36,192,43056,1,0,0:0:0:55:LR4_SnareDropDwS.wav
109,192,43056,1,0,0:0:0:0:
256,192,43151,1,0,0:0:0:75:LR4_SnareDropDwS.wav
329,192,43151,1,0,0:0:0:0:
475,192,43151,1,0,0:0:0:0:
109,192,43246,1,0,0:0:0:0:
36,192,43341,1,0,0:0:0:50:Hat Open2.wav
182,192,43341,1,0,0:0:0:70:Clap.wav
329,192,43341,1,0,0:0:0:0:
402,192,43341,1,0,0:0:0:0:
109,192,43531,128,0,43784:0:0:0:0:
256,192,43531,128,0,45050:0:0:0:0:
402,192,43531,1,0,0:0:0:0:
329,192,43721,1,0,0:0:0:0:
36,192,43784,128,0,44037:0:0:0:0:
475,192,43911,1,0,0:0:0:0:
182,192,44037,128,0,44291:0:0:0:0:
402,192,44101,1,0,0:0:0:0:
109,192,44291,1,0,0:0:0:0:
329,192,44291,128,0,44544:0:0:0:0:
182,192,44481,1,0,0:0:0:0:
475,192,44544,128,0,44797:0:0:0:0:
36,192,44670,1,0,0:0:0:0:
402,192,44797,128,0,45050:0:0:0:0:
109,192,44860,1,0,0:0:0:0:
36,192,45050,1,2,0:0:0:0:
329,192,45050,1,0,0:0:0:70:LR_HiHat Click2.wav
475,192,45050,1,0,0:0:0:0:
109,192,45145,1,0,0:0:0:20:LR_HiHat Click2.wav
402,192,45193,1,0,0:0:0:20:LR_HiHat Click2.wav
182,192,45240,1,0,0:0:0:20:LR_HiHat Click2.wav
329,192,45287,1,0,0:0:0:20:LR_HiHat Click2.wav
256,192,45335,1,2,0:0:0:0:
36,192,45335,1,0,0:0:0:0:
475,192,45335,1,0,0:0:0:0:
109,192,45430,1,0,0:0:0:0:
329,192,45430,1,0,0:0:0:0:
182,192,45525,1,0,0:0:0:0:
402,192,45525,1,0,0:0:0:0:
109,192,45620,1,2,0:0:0:0:
256,192,45620,1,0,0:0:0:50:Hat Open2.wav
475,192,45620,1,0,0:0:0:70:Clap.wav
402,192,45715,1,0,0:0:0:0:
329,192,45810,1,0,0:0:0:0:
256,192,45905,1,0,0:0:0:0:
182,192,46000,1,0,0:0:0:70:LR_HiHat Click2.wav
329,192,46000,1,0,0:0:0:70:soft-hitwhistle2.wav
475,192,46000,1,0,0:0:0:0:
109,192,46094,1,0,0:0:0:0:
36,192,46189,1,2,0:0:0:0:
256,192,46189,1,0,0:0:0:20:LR_HiHat Click2.wav
475,192,46189,1,0,0:0:0:0:
109,192,46284,1,0,0:0:0:20:LR_HiHat Click2.wav
402,192,46332,1,0,0:0:0:20:LR_HiHat Click2.wav
182,192,46379,1,0,0:0:0:20:LR_HiHat Click2.wav
329,192,46427,1,0,0:0:0:20:LR_HiHat Click2.wav
256,192,46474,1,2,0:0:0:0:
36,192,46474,1,0,0:0:0:0:
475,192,46474,1,0,0:0:0:0:
109,192,46569,1,0,0:0:0:0:
329,192,46569,1,0,0:0:0:0:
182,192,46664,1,0,0:0:0:0:
402,192,46664,1,0,0:0:0:0:
109,192,46759,1,0,0:0:0:50:Hat Open2.wav
36,192,46759,1,0,0:0:0:70:Clap.wav
475,192,46759,1,0,0:0:0:0:
402,192,46854,1,0,0:0:0:0:
329,192,46949,1,0,0:0:0:0:
256,192,47044,1,0,0:0:0:0:
182,192,47139,1,0,0:0:0:70:LR_HiHat Click2.wav
329,192,47139,1,0,0:0:0:70:soft-hitwhistle2.wav
475,192,47139,1,0,0:0:0:0:
109,192,47234,1,0,0:0:0:0:
36,192,47329,1,2,0:0:0:0:
182,192,47329,1,0,0:0:0:0:
256,192,47329,1,0,0:0:0:0:
329,192,47329,1,0,0:0:0:0:
109,192,47708,1,2,0:0:0:0:
256,192,47708,1,0,0:0:0:0:
329,192,47708,1,0,0:0:0:0:
402,192,47708,1,0,0:0:0:0:
36,192,48088,1,2,0:0:0:0:
256,192,48088,1,0,0:0:0:0:
329,192,48088,1,0,0:0:0:0:
475,192,48088,1,0,0:0:0:0:
109,192,48183,1,0,0:0:0:0:
182,192,48278,1,0,0:0:0:0:
402,192,48278,1,0,0:0:0:0:
36,192,48373,1,2,0:0:0:0:
109,192,48373,1,0,0:0:0:0:
256,192,48373,1,0,0:0:0:0:
329,192,48468,1,0,0:0:0:70:LR4_SnareDropDwS.wav
402,192,48468,1,0,0:0:0:0:
475,192,48468,1,0,0:0:0:0:
182,192,48563,1,0,0:0:0:0:
109,192,48658,1,2,0:0:0:0:
256,192,48658,1,0,0:0:0:0:
475,192,48658,1,0,0:0:0:0:
402,192,48753,1,0,0:0:0:0:
329,192,48848,1,0,0:0:0:0:
36,192,48943,1,2,0:0:0:0:
109,192,48943,1,0,0:0:0:0:
256,192,48943,1,0,0:0:0:0:
182,192,49037,1,0,0:0:0:40:LR4_SnareDropDwS.wav
402,192,49037,1,0,0:0:0:0:
475,192,49037,1,0,0:0:0:0:
36,192,49132,1,0,0:0:0:55:LR4_SnareDropDwS.wav
109,192,49132,1,0,0:0:0:0:
256,192,49227,1,2,0:0:0:0:
329,192,49227,1,0,0:0:0:75:LR4_SnareDropDwS.wav
475,192,49227,1,0,0:0:0:0:
109,192,49322,1,0,0:0:0:0:
36,192,49417,128,0,49797:0:0:0:70:Clap.wav
182,192,49417,128,0,49797:0:0:0:0:
329,192,49417,128,0,49797:0:0:0:0:
402,192,49417,128,0,49797:0:0:0:0:
475,192,49417,1,0,0:0:0:0:
109,192,49797,1,0,0:0:0:30:LR4_SnareDropDwS.wav
256,192,49797,1,0,0:0:0:0:
182,192,49987,1,0,0:0:0:0:
329,192,49987,1,0,0:0:0:0:
36,192,50177,128,0,50556:0:0:0:70:Clap.wav
109,192,50177,128,0,50556:0:0:0:0:
256,192,50177,128,0,50556:0:0:0:0:
402,192,50177,128,0,50556:0:0:0:0:
475,192,50177,1,0,0:0:0:0:
182,192,50556,1,0,0:0:0:30:LR4_SnareDropDwS.wav
329,192,50556,1,0,0:0:0:0:
256,192,50746,1,0,0:0:0:0:
402,192,50746,1,0,0:0:0:0:
36,192,50936,1,2,0:0:0:0:
109,192,50936,1,0,0:0:0:25:Hat Open2.wav
182,192,50936,1,0,0:0:0:70:Clap.wav
256,192,50936,1,0,0:0:0:0:
329,192,50936,1,0,0:0:0:0:
475,192,51078,1,0,0:0:0:0:
36,192,51220,1,2,0:0:0:0:
109,192,51220,1,0,0:0:0:25:Hat Open2.wav
182,192,51220,1,0,0:0:0:0:
256,192,51220,1,0,0:0:0:0:
329,192,51220,1,0,0:0:0:0:
402,192,51363,1,0,0:0:0:10:LR_HiHat Click2.wav
36,192,51505,1,2,0:0:0:0:
109,192,51505,1,0,0:0:0:0:
182,192,51505,1,0,0:0:0:0:
256,192,51505,1,0,0:0:0:0:
329,192,51505,1,0,0:0:0:0:
475,192,51632,1,0,0:0:0:10:LR_HiHat Click2.wav
36,192,51758,1,2,0:0:0:0:
109,192,51758,1,0,0:0:0:0:
182,192,51758,1,0,0:0:0:0:
256,192,51758,1,0,0:0:0:0:
329,192,51758,1,0,0:0:0:0:
402,192,51885,1,0,0:0:0:10:LR_HiHat Click2.wav
36,192,52011,1,2,0:0:0:0:
109,192,52011,1,0,0:0:0:0:
182,192,52011,1,0,0:0:0:0:
256,192,52011,1,0,0:0:0:0:
329,192,52011,1,0,0:0:0:0:
475,192,52138,1,0,0:0:0:10:LR_HiHat Click2.wav
36,192,52265,1,2,0:0:0:0:
109,192,52265,1,0,0:0:0:25:Hat Open2.wav
182,192,52265,1,0,0:0:0:0:
256,192,52265,1,0,0:0:0:0:
329,192,52265,1,0,0:0:0:0:
402,192,52360,1,0,0:0:0:10:LR_HiHat Click2.wav
36,192,52454,1,2,0:0:0:0:
109,192,52454,1,0,0:0:0:25:Hat Open2.wav
182,192,52454,1,0,0:0:0:0:
256,192,52454,1,0,0:0:0:0:
329,192,52454,1,0,0:0:0:0:
475,192,52549,1,0,0:0:0:10:LR_HiHat Click2.wav
36,192,52645,1,2,0:0:0:0:
109,192,52645,1,0,0:0:0:25:Hat Open2.wav
182,192,52645,1,0,0:0:0:0:
256,192,52645,1,0,0:0:0:0:
329,192,52645,1,0,0:0:0:0:
36,192,52771,1,2,0:0:0:0:
109,192,52771,1,0,0:0:0:25:Hat Open2.wav
182,192,52771,1,0,0:0:0:0:
256,192,52771,1,0,0:0:0:0:
329,192,52771,1,0,0:0:0:0:
36,192,52898,1,2,0:0:0:0:
109,192,52898,1,0,0:0:0:25:Hat Open2.wav
182,192,52898,1,0,0:0:0:0:
256,192,52898,1,0,0:0:0:0:
329,192,52898,1,0,0:0:0:0:
475,192,53024,1,0,0:0:0:20:LR_HiHat Click2.wav
402,192,53072,1,0,0:0:0:20:LR_HiHat Click2.wav
36,192,53119,1,0,0:0:0:20:LR_HiHat Click2.wav
109,192,53167,1,0,0:0:0:20:LR_HiHat Click2.wav
182,192,53214,1,2,0:0:0:0:
256,192,53214,1,0,0:0:0:25:Hat Open2.wav
329,192,53214,1,0,0:0:0:0:
402,192,53214,1,0,0:0:0:0:
475,192,53214,1,0,0:0:0:0:
182,192,53341,1,2,0:0:0:0:
256,192,53341,1,0,0:0:0:25:Hat Open2.wav
329,192,53341,1,0,0:0:0:0:
402,192,53341,1,0,0:0:0:0:
475,192,53341,1,0,0:0:0:0:
182,192,53467,1,2,0:0:0:0:
256,192,53467,1,0,0:0:0:25:Hat Open2.wav
329,192,53467,1,0,0:0:0:0:
402,192,53467,1,0,0:0:0:0:
475,192,53467,1,0,0:0:0:0:
36,192,53594,1,0,0:0:0:0:
182,192,53689,1,0,0:0:0:0:
329,192,53784,1,0,0:0:0:0:
475,192,53879,1,0,0:0:0:0:
256,192,53974,128,0,55113:0:0:0:0:
36,192,54258,1,0,0:0:0:10:LR_HiHat Click2.wav
109,192,54306,1,0,0:0:0:10:LR_HiHat Click2.wav
182,192,54353,1,0,0:0:0:15:LR_HiHat Click2.wav
329,192,54401,1,0,0:0:0:15:LR_HiHat Click2.wav
402,192,54448,1,0,0:0:0:25:LR_HiHat Click2.wav
475,192,54496,1,0,0:0:0:25:LR_HiHat Click2.wav
36,192,54543,1,0,0:0:0:25:LR_HiHat Click2.wav
109,192,54591,1,0,0:0:0:25:LR_HiHat Click2.wav
182,192,54638,1,0,0:0:0:25:LR_HiHat Click2.wav
329,192,54686,1,0,0:0:0:25:LR_HiHat Click2.wav
475,192,54733,1,0,0:0:0:25:LR_HiHat Click2.wav
402,192,54780,1,0,0:0:0:15:LR_HiHat Click2.wav
329,192,54828,1,0,0:0:0:15:LR_HiHat Click2.wav
182,192,54875,1,0,0:0:0:15:LR_HiHat Click2.wav
109,192,54923,1,0,0:0:0:15:LR_HiHat Click2.wav
36,192,54970,1,0,0:0:0:10:LR_HiHat Click2.wav
475,192,55018,1,0,0:0:0:10:LR_HiHat Click2.wav
402,192,55065,1,0,0:0:0:10:LR_HiHat Click2.wav
36,192,55113,1,0,0:0:0:0:
329,192,55113,1,0,0:0:0:0:
109,192,55160,1,0,0:0:0:0:
182,192,55208,1,0,0:0:0:0:
256,192,55255,1,0,0:0:0:0:
329,192,55303,1,0,0:0:0:0:
402,192,55303,1,0,0:0:0:0:
109,192,55398,1,0,0:0:0:0:
402,192,55492,1,0,0:0:0:0:
475,192,55492,1,0,0:0:0:0:
182,192,55587,1,0,0:0:0:0:
109,192,55683,1,0,0:0:0:70:Clap.wav
256,192,55683,1,0,0:0:0:0:
329,192,55683,1,0,0:0:0:0:
475,192,55683,1,0,0:0:0:0:
402,192,55872,1,0,0:0:0:0:
36,192,56062,1,2,0:0:0:0:
182,192,56062,1,0,0:0:0:0:
36,192,56252,1,0,0:0:0:70:Clap.wav
109,192,56252,1,0,0:0:0:0:
256,192,56252,1,0,0:0:0:0:
402,192,56252,1,0,0:0:0:0:
182,192,56442,1,0,0:0:0:30:LR_HiHat Click2.wav
329,192,56505,1,0,0:0:0:30:LR_HiHat Click2.wav
182,192,56569,1,0,0:0:0:30:LR_HiHat Click2.wav
109,192,56632,1,0,0:0:0:30:LR_HiHat Click2.wav
402,192,56632,1,0,0:0:0:0:
475,192,56632,1,0,0:0:0:0:
402,192,56822,1,0,0:0:0:70:LR_HiHat Click2.wav
329,192,56822,1,0,0:0:0:0:
109,192,56885,1,0,0:0:0:70:LR_HiHat Click2.wav
402,192,56948,1,0,0:0:0:70:LR_HiHat Click2.wav
36,192,57012,1,2,0:0:0:0:
182,192,57012,1,0,0:0:0:50:Hat Open2.wav
256,192,57012,1,0,0:0:0:0:
329,192,57012,1,0,0:0:0:0:
402,192,57328,1,0,0:0:0:45:LR_HiHat Click2.wav
36,192,57391,1,0,0:0:0:0:
402,192,57455,1,0,0:0:0:45:LR_HiHat Click2.wav
256,192,57581,1,0,0:0:0:45:LR_HiHat Click2.wav
402,192,57581,1,0,0:0:0:0:
109,192,57708,1,0,0:0:0:45:LR_HiHat Click2.wav
182,192,57708,1,0,0:0:0:0:
475,192,57771,1,0,0:0:0:0:
109,192,57834,1,0,0:0:0:45:LR_HiHat Click2.wav
182,192,57834,1,0,0:0:0:0:
109,192,57961,1,2,0:0:0:0:
182,192,57961,1,0,0:0:0:50:Hat Open2.wav
256,192,57961,1,0,0:0:0:0:
402,192,57961,1,0,0:0:0:0:
329,192,58151,1,0,0:0:0:60:LR_HiHat Click2.wav
182,192,58214,1,0,0:0:0:60:LR_HiHat Click2.wav
329,192,58277,1,0,0:0:0:60:LR_HiHat Click2.wav
36,192,58341,1,2,0:0:0:0:
109,192,58341,1,0,0:0:0:50:Hat Open2.wav
256,192,58341,1,0,0:0:0:0:
475,192,58341,1,0,0:0:0:0:
475,192,58531,1,0,0:0:0:0:
402,192,58578,1,0,0:0:0:0:
109,192,58594,1,0,0:0:0:45:LR_HiHat Click2.wav
329,192,58626,1,0,0:0:0:0:
256,192,58673,1,0,0:0:0:0:
109,192,58720,1,0,0:0:0:70:soft-hitwhistle2.wav
182,192,58720,1,0,0:0:0:0:
402,192,58847,1,0,0:0:0:45:LR_HiHat Click2.wav
475,192,58847,1,0,0:0:0:0:
256,192,58910,1,0,0:0:0:0:
402,192,58974,1,0,0:0:0:45:LR_HiHat Click2.wav
475,192,58974,1,0,0:0:0:0:
36,192,59100,1,0,0:0:0:45:LR_HiHat Click2.wav
109,192,59100,1,0,0:0:0:0:
329,192,59100,1,0,0:0:0:0:
36,192,59195,1,0,0:0:0:45:LR_HiHat Click2.wav
109,192,59195,1,0,0:0:0:0:
182,192,59290,1,0,0:0:0:50:Hat Open2.wav
256,192,59290,1,0,0:0:0:70:soft-hitwhistle2.wav
402,192,59290,1,0,0:0:0:0:
475,192,59290,1,0,0:0:0:0:
36,192,59480,1,0,0:0:0:0:
182,192,59670,1,0,0:0:0:0:
329,192,59670,1,0,0:0:0:0:
36,192,59860,1,0,0:0:0:0:
329,192,59860,1,0,0:0:0:0:
475,192,59860,1,0,0:0:0:0:
36,192,60050,1,2,0:0:0:0:
109,192,60050,1,0,0:0:0:70:Clap.wav
256,192,60050,1,0,0:0:0:0:
402,192,60050,1,0,0:0:0:0:
329,192,60239,1,0,0:0:0:0:
475,192,60239,1,0,0:0:0:0:
36,192,60366,1,0,0:0:0:0:
182,192,60366,1,0,0:0:0:0:
402,192,60429,1,0,0:0:0:0:
182,192,60493,1,0,0:0:0:0:
329,192,60493,1,0,0:0:0:0:
256,192,60619,1,0,0:0:0:0:
329,192,60619,1,0,0:0:0:0:
475,192,60619,1,0,0:0:0:0:
36,192,60746,1,0,0:0:0:0:
109,192,60746,1,0,0:0:0:0:
402,192,60809,1,0,0:0:0:0:
36,192,60872,1,0,0:0:0:0:
109,192,60872,1,0,0:0:0:0:
256,192,60872,1,0,0:0:0:0:
329,192,60904,1,0,0:0:0:0:
402,192,60951,1,0,0:0:0:0:
36,192,60999,1,2,0:0:0:0:
109,192,60999,1,0,0:0:0:50:Hat Open2.wav
182,192,60999,1,0,0:0:0:70:Clap.wav
475,192,60999,1,0,0:0:0:0:
36,192,61379,1,2,0:0:0:0:
329,192,61379,1,0,0:0:0:50:Hat Open2.wav
402,192,61379,1,0,0:0:0:0:
475,192,61379,1,0,0:0:0:0:
109,192,61569,1,0,0:0:0:0:
182,192,61616,1,0,0:0:0:0:
256,192,61664,1,0,0:0:0:0:
329,192,61711,1,0,0:0:0:0:
402,192,61758,1,0,0:0:0:0:
475,192,61758,1,0,0:0:0:0:
329,192,61948,1,0,0:0:0:0:
475,192,62138,1,0,0:0:0:0:
256,192,62328,1,0,0:0:0:0:
402,192,62328,1,0,0:0:0:0:
329,192,62708,1,0,0:0:0:0:
256,192,62898,1,0,0:0:0:0:
36,192,63088,1,0,0:0:0:70:LR_HiHat Click2.wav
109,192,63183,1,0,0:0:0:70:LR_HiHat Click2.wav
182,192,63277,1,0,0:0:0:40:soft-hitwhistle2.wav
402,192,63277,1,0,0:0:0:0:
475,192,63277,1,0,0:0:0:0:
329,192,63341,1,0,0:0:0:70:LR_HiHat Click2.wav
256,192,63404,1,0,0:0:0:70:LR_HiHat Click2.wav
182,192,63467,1,0,0:0:0:40:soft-hitwhistle2.wav
402,192,63467,1,0,0:0:0:0:
256,192,63562,1,0,0:0:0:25:soft-hitwhistle2.wav
329,192,63657,1,0,0:0:0:40:soft-hitwhistle2.wav
475,192,63657,1,0,0:0:0:0:
182,192,63847,1,0,0:0:0:40:soft-hitwhistle2.wav
329,192,63847,1,0,0:0:0:0:
402,192,63847,1,0,0:0:0:0:
256,192,64227,1,0,0:0:0:0:
475,192,64251,1,0,0:0:0:0:
182,192,64417,1,0,0:0:0:0:
475,192,64440,1,0,0:0:0:0:
402,192,64559,1,0,0:0:0:0:
329,192,64607,1,0,0:0:0:70:LR_HiHat Click2.wav
256,192,64654,1,0,0:0:0:0:
182,192,64701,1,0,0:0:0:70:LR_HiHat Click2.wav
109,192,64749,1,0,0:0:0:0:
36,192,64796,1,2,0:0:0:0:
329,192,64796,1,0,0:0:0:0:
475,192,64796,1,0,0:0:0:0:
256,192,64860,1,0,0:0:0:70:LR_HiHat Click2.wav
182,192,64923,1,0,0:0:0:70:LR_HiHat Click2.wav
109,192,64986,1,0,0:0:0:0:
329,192,64986,1,0,0:0:0:0:
402,192,64986,1,0,0:0:0:0:
182,192,65081,1,0,0:0:0:0:
36,192,65176,1,2,0:0:0:0:
256,192,65176,1,0,0:0:0:25:Hat Open2.wav
475,192,65176,1,0,0:0:0:0:
182,192,65271,1,0,0:0:0:0:
36,192,65366,1,0,0:0:0:50:Hat Open2.wav
109,192,65366,1,0,0:0:0:70:Clap.wav
256,192,65366,1,0,0:0:0:0:
402,192,65366,1,0,0:0:0:0:
36,192,65746,1,2,0:0:0:0:
182,192,65746,1,0,0:0:0:70:LR_HiHat Click2.wav
256,192,65746,1,0,0:0:0:0:
402,192,65746,1,0,0:0:0:0:
36,192,65936,1,2,0:0:0:0:
182,192,65936,1,0,0:0:0:70:LR_HiHat Click2.wav
256,192,65936,1,0,0:0:0:0:
329,192,65936,1,0,0:0:0:0:
109,192,66126,1,0,0:0:0:70:LR_HiHat Click2.wav
402,192,66126,1,0,0:0:0:0:
182,192,66189,1,0,0:0:0:70:LR_HiHat Click2.wav
256,192,66252,1,0,0:0:0:70:LR_HiHat Click2.wav
36,192,66315,1,2,0:0:0:0:
109,192,66315,1,0,0:0:0:50:Hat Open2.wav
329,192,66315,1,0,0:0:0:0:
402,192,66315,1,0,0:0:0:0:
475,192,66315,1,0,0:0:0:0:
182,192,66505,1,0,0:0:0:0:
329,192,66505,1,0,0:0:0:0:
182,192,66695,1,0,0:0:0:0:
402,192,66695,1,0,0:0:0:0:
36,192,66885,1,2,0:0:0:0:
109,192,66885,1,0,0:0:0:50:Hat Open2.wav
256,192,66885,1,0,0:0:0:0:
402,192,66885,1,0,0:0:0:0:
475,192,66885,1,0,0:0:0:0:
402,192,67834,1,0,0:0:0:0:
475,192,67834,1,0,0:0:0:0:
329,192,68024,1,0,0:0:0:0:
475,192,68214,1,0,0:0:0:0:
256,192,68404,1,0,0:0:0:0:
402,192,68404,1,0,0:0:0:0:
329,192,68784,1,0,0:0:0:0:
256,192,68974,1,0,0:0:0:0:
36,192,69164,1,0,0:0:0:70:LR_HiHat Click2.wav
109,192,69258,1,0,0:0:0:70:LR_HiHat Click2.wav
182,192,69353,1,0,0:0:0:40:soft-hitwhistle2.wav
402,192,69353,1,0,0:0:0:0:
475,192,69353,1,0,0:0:0:0:
329,192,69417,1,0,0:0:0:70:LR_HiHat Click2.wav
256,192,69480,1,0,0:0:0:70:LR_HiHat Click2.wav
182,192,69543,1,0,0:0:0:40:soft-hitwhistle2.wav
402,192,69543,1,0,0:0:0:0:
256,192,69638,1,0,0:0:0:25:soft-hitwhistle2.wav
329,192,69733,1,0,0:0:0:40:soft-hitwhistle2.wav
475,192,69733,1,0,0:0:0:0:
182,192,69923,1,0,0:0:0:40:soft-hitwhistle2.wav
329,192,69923,1,0,0:0:0:0:
402,192,69923,1,0,0:0:0:0:
256,192,70303,1,0,0:0:0:0:
475,192,70326,1,0,0:0:0:0:
182,192,70493,1,0,0:0:0:0:
475,192,70516,1,0,0:0:0:0:
402,192,70635,1,0,0:0:0:0:
329,192,70683,1,0,0:0:0:70:LR_HiHat Click2.wav
256,192,70730,1,0,0:0:0:0:
182,192,70777,1,0,0:0:0:70:LR_HiHat Click2.wav
109,192,70825,1,0,0:0:0:0:
36,192,70872,1,2,0:0:0:0:
329,192,70872,1,0,0:0:0:0:
475,192,70872,1,0,0:0:0:0:
256,192,70936,1,0,0:0:0:70:LR_HiHat Click2.wav
182,192,70999,1,0,0:0:0:70:LR_HiHat Click2.wav
109,192,71062,1,0,0:0:0:0:
329,192,71062,1,0,0:0:0:0:
402,192,71062,1,0,0:0:0:0:
182,192,71157,1,0,0:0:0:0:
36,192,71252,1,2,0:0:0:0:
256,192,71252,1,0,0:0:0:50:Hat Open2.wav
475,192,71252,1,0,0:0:0:0:
182,192,71347,1,0,0:0:0:70:LR_HiHat Click2.wav
36,192,71442,1,0,0:0:0:50:Hat Open2.wav
109,192,71442,1,0,0:0:0:0:
256,192,71442,1,0,0:0:0:0:
402,192,71442,1,0,0:0:0:0:
36,192,71822,1,2,0:0:0:0:
182,192,71822,1,0,0:0:0:40:LR_HiHat Click2.wav
256,192,71822,1,0,0:0:0:0:
402,192,71822,1,0,0:0:0:0:
36,192,72012,1,2,0:0:0:0:
182,192,72012,1,0,0:0:0:40:LR_HiHat Click2.wav
256,192,72012,1,0,0:0:0:0:
329,192,72012,1,0,0:0:0:0:
109,192,72201,1,0,0:0:0:25:LR_HiHat Click2.wav
402,192,72201,1,0,0:0:0:0:
182,192,72265,1,0,0:0:0:25:LR_HiHat Click2.wav
256,192,72328,1,0,0:0:0:25:LR_HiHat Click2.wav
36,192,72391,1,2,0:0:0:0:
109,192,72391,1,0,0:0:0:50:Hat Open2.wav
329,192,72391,1,0,0:0:0:0:
402,192,72391,1,0,0:0:0:0:
475,192,72391,1,0,0:0:0:0:
182,192,72581,1,0,0:0:0:0:
402,192,72581,1,0,0:0:0:0:
256,192,72676,1,0,0:0:0:0:
109,192,72771,1,0,0:0:0:0:
329,192,72771,1,0,0:0:0:0:
402,192,72866,1,0,0:0:0:0:
256,192,72961,1,0,0:0:0:0:
329,192,72961,1,0,0:0:0:0:
475,192,72961,1,0,0:0:0:0:
36,192,73056,1,0,0:0:0:0:
109,192,73103,1,0,0:0:0:0:
182,192,73151,1,0,0:0:0:0:
402,192,73151,1,0,0:0:0:0:
256,192,73198,1,0,0:0:0:0:
329,192,73246,1,0,0:0:0:0:
402,192,73293,1,0,0:0:0:0:
109,192,73341,1,0,0:0:0:0:
182,192,73341,1,0,0:0:0:0:
475,192,73341,1,0,0:0:0:0:
36,192,73436,1,0,0:0:0:0:
109,192,73483,1,0,0:0:0:0:
182,192,73531,1,0,0:0:0:0:
475,192,73531,1,0,0:0:0:0:
256,192,73578,1,0,0:0:0:0:
329,192,73626,1,0,0:0:0:0:
402,192,73673,1,0,0:0:0:0:
36,192,73721,1,0,0:0:0:0:
109,192,73721,1,0,0:0:0:0:
475,192,73721,1,0,0:0:0:0:
256,192,73815,1,0,0:0:0:0:
182,192,73910,1,0,0:0:0:0:
329,192,73910,1,0,0:0:0:0:
475,192,74005,1,0,0:0:0:0:
36,192,74100,1,0,0:0:0:0:
256,192,74100,1,0,0:0:0:0:
402,192,74195,1,0,0:0:0:0:
182,192,74290,1,0,0:0:0:0:
329,192,74290,1,0,0:0:0:0:
36,192,74385,1,0,0:0:0:0:
109,192,74480,1,0,0:0:0:0:
256,192,74480,1,0,0:0:0:0:
402,192,74575,1,0,0:0:0:0:
36,192,74670,1,0,0:0:0:0:
329,192,74670,1,0,0:0:0:0:
475,192,74765,1,0,0:0:0:0:
256,192,74860,1,0,0:0:0:0:
36,192,74986,1,0,0:0:0:0:
109,192,75113,1,0,0:0:0:0:
182,192,75239,1,0,0:0:0:0:
256,192,75366,1,0,0:0:0:0:
329,192,75493,1,0,0:0:0:0:
402,192,75619,1,0,0:0:0:0:
475,192,75809,1,0,0:0:0:0:
256,192,76569,128,0,78087:0:0:0:0:
36,192,78087,1,2,0:0:0:0:
182,192,78087,1,0,0:0:0:0:
329,192,78087,1,0,0:0:0:0:
475,192,78087,1,0,0:0:0:0:
109,192,78277,1,0,0:0:0:15:Clap.wav
182,192,78277,1,0,0:0:0:0:
329,192,78277,1,0,0:0:0:0:
402,192,78277,1,0,0:0:0:0:
109,192,78467,128,0,78515:0:0:0:15:Clap.wav
182,192,78467,128,0,78515:0:0:0:0:
329,192,78467,128,0,78515:0:0:0:0:
402,192,78467,128,0,78515:0:0:0:0:
109,192,78657,128,0,78728:0:0:0:15:Clap.wav
182,192,78657,128,0,78728:0:0:0:0:
329,192,78657,128,0,78728:0:0:0:0:
402,192,78657,128,0,78728:0:0:0:0:
109,192,78847,128,0,78942:0:0:0:15:Clap.wav
182,192,78847,128,0,78942:0:0:0:0:
329,192,78847,128,0,78942:0:0:0:0:
402,192,78847,128,0,78942:0:0:0:0:
109,192,79037,128,0,79156:0:0:0:15:Clap.wav
182,192,79037,128,0,79156:0:0:0:0:
329,192,79037,128,0,79156:0:0:0:0:
402,192,79037,128,0,79156:0:0:0:0:
109,192,79227,128,0,79369:0:0:0:17:Clap.wav
182,192,79227,128,0,79369:0:0:0:0:
329,192,79227,128,0,79369:0:0:0:0:
402,192,79227,128,0,79369:0:0:0:0:
109,192,79417,128,0,79606:0:0:0:20:Clap.wav
182,192,79417,128,0,79606:0:0:0:0:
329,192,79417,128,0,79606:0:0:0:0:
402,192,79417,128,0,79606:0:0:0:0:
36,192,79606,1,0,0:0:0:0:
475,192,79606,1,0,0:0:0:0:
402,192,79796,1,0,0:0:0:0:
475,192,79796,1,0,0:0:0:0:
329,192,79986,1,0,0:0:0:0:
402,192,79986,1,0,0:0:0:0:
182,192,80176,1,0,0:0:0:30:Clap.wav
256,192,80176,1,0,0:0:0:0:
329,192,80176,1,0,0:0:0:0:
109,192,80366,1,0,0:0:0:10:Hat Open2.wav
182,192,80366,1,0,0:0:0:0:
36,192,80556,1,0,0:0:0:45:Hat Open2.wav
109,192,80556,1,0,0:0:0:0:
36,192,80746,1,0,0:0:0:70:Clap.wav
256,192,80746,1,0,0:0:0:0:
402,192,80746,1,0,0:0:0:0:
475,192,80746,1,0,0:0:0:0:
109,192,80935,1,0,0:0:0:0:
402,192,81125,1,0,0:0:0:0:
182,192,81315,1,0,0:0:0:0:
256,192,81315,1,0,0:0:0:0:
329,192,81695,1,0,0:0:0:0:
475,192,81885,1,0,0:0:0:0:
182,192,82075,1,0,0:0:0:0:
329,192,82075,1,0,0:0:0:0:
109,192,82454,1,0,0:0:0:0:
329,192,82518,1,0,0:0:0:0:
256,192,82581,1,0,0:0:0:0:
182,192,82644,1,0,0:0:0:0:
36,192,82834,1,0,0:0:0:0:
109,192,82834,1,0,0:0:0:0:
182,192,83214,1,0,0:0:0:0:
329,192,83404,1,0,0:0:0:0:
109,192,83594,1,0,0:0:0:0:
256,192,83594,1,0,0:0:0:0:
329,192,83973,1,0,0:0:0:0:
475,192,84163,1,0,0:0:0:0:
256,192,84353,1,0,0:0:0:0:
402,192,84353,1,0,0:0:0:0:
329,192,84733,1,0,0:0:0:0:
256,192,84923,1,0,0:0:0:0:
182,192,85113,1,0,0:0:0:0:
402,192,85113,1,0,0:0:0:0:
329,192,85492,1,0,0:0:0:0:
256,192,85682,1,0,0:0:0:0:
109,192,85872,1,0,0:0:0:0:
402,192,85872,1,0,0:0:0:0:
256,192,86062,128,0,86632:0:0:0:0:
182,192,86632,1,0,0:0:0:0:
329,192,86679,1,0,0:0:0:0:
182,192,86727,1,0,0:0:0:0:
329,192,86774,1,0,0:0:0:0:
36,192,86821,1,2,0:0:0:0:
109,192,86821,1,0,0:0:0:0:
402,192,86821,1,0,0:0:0:0:
475,192,86821,1,0,0:0:0:0:
182,192,86885,1,0,0:0:0:25:LR_HiHat Click2.wav
256,192,86948,1,0,0:0:0:25:LR_HiHat Click2.wav
329,192,87011,1,0,0:0:0:25:LR_HiHat Click2.wav
475,192,87011,1,0,0:0:0:0:
36,192,87106,1,2,0:0:0:0:
109,192,87106,1,0,0:0:0:0:
256,192,87106,1,0,0:0:0:0:
182,192,87201,1,0,0:0:0:25:LR_HiHat Click2.wav
402,192,87201,1,0,0:0:0:0:
256,192,87296,1,0,0:0:0:25:LR_HiHat Click2.wav
109,192,87391,1,2,0:0:0:0:
329,192,87391,1,0,0:0:0:0:
402,192,87391,1,0,0:0:0:0:
475,192,87391,1,0,0:0:0:0:
256,192,87581,1,0,0:0:0:25:LR_HiHat Click2.wav
402,192,87581,1,0,0:0:0:0:
36,192,87676,1,2,0:0:0:0:
109,192,87676,1,0,0:0:0:0:
182,192,87676,1,0,0:0:0:0:
256,192,87771,1,0,0:0:0:25:LR_HiHat Click2.wav
475,192,87771,1,0,0:0:0:0:
402,192,87834,1,0,0:0:0:25:LR_HiHat Click2.wav
36,192,87866,1,2,0:0:0:0:
109,192,87866,1,0,0:0:0:0:
329,192,87897,1,0,0:0:0:25:LR_HiHat Click2.wav
36,192,87961,1,2,0:0:0:0:
109,192,87961,1,0,0:0:0:0:
256,192,87961,1,0,0:0:0:0:
475,192,87961,1,0,0:0:0:0:
329,192,88056,1,0,0:0:0:25:LR_HiHat Click2.wav
36,192,88151,1,0,0:0:0:50:Hat Open2.wav
182,192,88151,1,0,0:0:0:70:Clap.wav
402,192,88151,1,0,0:0:0:0:
475,192,88151,1,0,0:0:0:0:
182,192,88340,1,0,0:0:0:0:
36,192,88530,1,0,0:0:0:25:LR_HiHat Click2.wav
109,192,88530,1,0,0:0:0:70:Clap.wav
256,192,88530,1,0,0:0:0:0:
475,192,88530,1,0,0:0:0:0:
402,192,88594,1,0,0:0:0:25:LR_HiHat Click2.wav
329,192,88657,1,0,0:0:0:25:LR_HiHat Click2.wav
109,192,88720,1,0,0:0:0:25:LR_HiHat Click2.wav
256,192,88720,1,0,0:0:0:0:
182,192,88815,1,0,0:0:0:25:LR_HiHat Click2.wav
36,192,88910,1,2,0:0:0:0:
109,192,88910,1,0,0:0:0:0:
329,192,88910,1,0,0:0:0:0:
475,192,88910,1,0,0:0:0:0:
402,192,89005,1,0,0:0:0:25:LR_HiHat Click2.wav
36,192,89100,1,0,0:0:0:25:LR_HiHat Click2.wav
109,192,89147,1,0,0:0:0:25:LR_HiHat Click2.wav
182,192,89195,1,2,0:0:0:0:
475,192,89195,1,0,0:0:0:25:LR_HiHat Click2.wav
402,192,89227,1,0,0:0:0:25:LR_HiHat Click2.wav
329,192,89258,1,0,0:0:0:25:LR_HiHat Click2.wav
256,192,89290,1,0,0:0:0:70:Clap.wav
36,192,89314,1,0,0:0:0:0:
109,192,89314,1,0,0:0:0:0:
182,192,89385,1,0,0:0:0:0:
329,192,89480,1,0,0:0:0:25:LR_HiHat Click2.wav
475,192,89480,1,0,0:0:0:0:
402,192,89575,1,0,0:0:0:25:LR_HiHat Click2.wav
36,192,89670,1,0,0:0:0:50:Hat Open2.wav
182,192,89670,1,0,0:0:0:0:
256,192,89670,1,0,0:0:0:0:
329,192,89670,1,0,0:0:0:0:
256,192,89859,1,0,0:0:0:0:
36,192,89954,1,2,0:0:0:0:
109,192,89954,1,0,0:0:0:0:
182,192,90049,1,0,0:0:0:70:LR4_SnareDropDwS.wav
329,192,90049,1,0,0:0:0:0:
475,192,90049,1,0,0:0:0:0:
256,192,90239,1,0,0:0:0:70:Clap.wav
402,192,90239,1,0,0:0:0:0:
475,192,90239,1,0,0:0:0:0:
36,192,90429,1,0,0:0:0:50:Hat Open2.wav
182,192,90429,1,0,0:0:0:0:
256,192,90429,1,0,0:0:0:0:
329,192,90429,1,0,0:0:0:0:
109,192,90571,1,0,0:0:0:25:LR_HiHat Click2.wav
182,192,90619,1,0,0:0:0:25:LR_HiHat Click2.wav
256,192,90651,1,0,0:0:0:25:LR_HiHat Click2.wav
329,192,90682,1,0,0:0:0:25:LR_HiHat Click2.wav
36,192,90714,1,0,0:0:0:70:LR4_SnareDropDwS.wav
475,192,90738,1,0,0:0:0:0:
402,192,90738,1,0,0:0:0:0:
182,192,90809,1,0,0:0:0:45:LR4_SnareDropDwS.wav
329,192,90809,1,0,0:0:0:70:Clap.wav
36,192,90999,1,0,0:0:0:25:LR_HiHat Click2.wav
402,192,90999,1,0,0:0:0:0:
109,192,91062,1,0,0:0:0:25:LR_HiHat Click2.wav
182,192,91125,1,0,0:0:0:25:LR_HiHat Click2.wav
36,192,91189,1,0,0:0:0:50:Hat Open2.wav
256,192,91189,1,0,0:0:0:0:
329,192,91189,1,0,0:0:0:0:
475,192,91189,1,0,0:0:0:0:
329,192,91378,1,0,0:0:0:0:
36,192,91473,1,0,0:0:0:70:LR4_SnareDropDwS.wav
182,192,91473,1,0,0:0:0:0:
475,192,91473,1,0,0:0:0:0:
256,192,91568,1,0,0:0:0:0:
402,192,91568,1,0,0:0:0:0:
36,192,91758,1,0,0:0:0:25:LR_HiHat Click2.wav
256,192,91758,1,0,0:0:0:0:
402,192,91758,1,0,0:0:0:0:
329,192,91806,1,0,0:0:0:25:LR_HiHat Click2.wav
109,192,91853,1,0,0:0:0:25:LR_HiHat Click2.wav
182,192,91901,1,0,0:0:0:25:LR_HiHat Click2.wav
36,192,91948,1,0,0:0:0:50:Hat Open2.wav
256,192,91948,128,0,92328:0:0:0:70:Clap.wav
402,192,91948,1,0,0:0:0:0:
475,192,91948,1,0,0:0:0:0:
36,192,92328,1,2,0:0:0:0:
109,192,92328,1,0,0:0:0:0:
402,192,92328,1,0,0:0:0:0:
475,192,92328,1,0,0:0:0:0:
109,192,92613,1,2,0:0:0:0:
182,192,92613,1,0,0:0:0:0:
329,192,92613,1,0,0:0:0:0:
402,192,92613,1,0,0:0:0:0:
36,192,92897,1,2,0:0:0:0:
182,192,92897,1,0,0:0:0:0:
256,192,92897,1,0,0:0:0:0:
329,192,92897,1,0,0:0:0:0:
475,192,92897,1,0,0:0:0:0:
182,192,93087,1,0,0:0:0:0:
329,192,93087,1,0,0:0:0:0:
256,192,93278,128,0,94796:0:0:0:0:
109,192,93278,128,0,93531:0:0:0:0:
402,192,93278,1,0,0:0:0:0:
329,192,93467,1,0,0:0:0:0:
36,192,93531,128,0,93784:0:0:0:0:
475,192,93657,1,0,0:0:0:0:
182,192,93784,128,0,94037:0:0:0:0:
402,192,93847,1,0,0:0:0:0:
109,192,94037,1,0,0:0:0:0:
329,192,94037,128,0,94290:0:0:0:0:
182,192,94227,1,0,0:0:0:0:
475,192,94290,1,0,0:0:0:0:
36,192,94369,1,0,0:0:0:25:LR_HiHat Click2.wav
109,192,94417,1,0,0:0:0:25:LR_HiHat Click2.wav
182,192,94464,1,0,0:0:0:25:LR_HiHat Click2.wav
329,192,94512,1,0,0:0:0:25:LR_HiHat Click2.wav
402,192,94559,1,0,0:0:0:25:LR_HiHat Click2.wav
475,192,94607,1,0,0:0:0:25:LR_HiHat Click2.wav
36,192,94654,1,0,0:0:0:25:LR_HiHat Click2.wav
109,192,94702,1,0,0:0:0:25:LR_HiHat Click2.wav
182,192,94749,1,0,0:0:0:25:LR_HiHat Click2.wav
329,192,94796,1,0,0:0:0:0:
475,192,94796,1,0,0:0:0:25:LR_HiHat Click2.wav
109,192,94923,1,0,0:0:0:0:
182,192,94923,1,0,0:0:0:0:
329,192,95050,1,0,0:0:0:0:
402,192,95050,1,0,0:0:0:0:
36,192,95176,1,2,0:0:0:0:
109,192,95176,1,0,0:0:0:25:Hat Open2.wav
329,192,95176,1,0,0:0:0:0:
402,192,95176,1,0,0:0:0:0:
475,192,95176,1,0,0:0:0:0:
182,192,95176,1,0,0:0:0:0:
256,192,95319,1,0,0:0:0:25:LR_HiHat Click2.wav
36,192,95461,1,2,0:0:0:0:
109,192,95461,1,0,0:0:0:25:Hat Open2.wav
182,192,95461,1,0,0:0:0:0:
402,192,95461,1,0,0:0:0:0:
475,192,95461,1,0,0:0:0:0:
329,192,95461,1,0,0:0:0:0:
256,192,95603,1,0,0:0:0:25:LR_HiHat Click2.wav
36,192,95746,1,2,0:0:0:0:
109,192,95746,1,0,0:0:0:0:
182,192,95746,1,0,0:0:0:0:
402,192,95746,1,0,0:0:0:0:
475,192,95746,1,0,0:0:0:0:
329,192,95746,1,0,0:0:0:0:
256,192,95872,1,0,0:0:0:25:LR_HiHat Click2.wav
36,192,95999,1,2,0:0:0:0:
109,192,95999,1,0,0:0:0:0:
182,192,95999,1,0,0:0:0:0:
402,192,95999,1,0,0:0:0:0:
475,192,95999,1,0,0:0:0:0:
329,192,95999,1,0,0:0:0:0:
256,192,96126,1,0,0:0:0:25:LR_HiHat Click2.wav
36,192,96252,1,2,0:0:0:0:
109,192,96252,1,0,0:0:0:0:
182,192,96252,1,0,0:0:0:0:
402,192,96252,1,0,0:0:0:0:
475,192,96252,1,0,0:0:0:0:
329,192,96252,1,0,0:0:0:0:
256,192,96379,1,0,0:0:0:25:LR_HiHat Click2.wav
36,192,96505,1,2,0:0:0:0:
109,192,96505,1,0,0:0:0:25:Hat Open2.wav
182,192,96505,1,0,0:0:0:0:
402,192,96505,1,0,0:0:0:0:
475,192,96505,1,0,0:0:0:0:
329,192,96505,1,0,0:0:0:0:
256,192,96600,1,0,0:0:0:25:LR_HiHat Click2.wav
36,192,96695,1,2,0:0:0:0:
109,192,96695,1,0,0:0:0:25:Hat Open2.wav
182,192,96695,1,0,0:0:0:0:
402,192,96695,1,0,0:0:0:0:
475,192,96695,1,0,0:0:0:0:
329,192,96695,1,0,0:0:0:0:
256,192,96790,1,0,0:0:0:25:LR_HiHat Click2.wav
182,192,96886,1,0,0:0:0:25:LR_HiHat Click2.wav
36,192,96886,1,2,0:0:0:0:
109,192,96886,1,0,0:0:0:25:Hat Open2.wav
402,192,96886,1,0,0:0:0:0:
475,192,96886,1,0,0:0:0:0:
329,192,96886,1,0,0:0:0:0:
36,192,97012,1,2,0:0:0:0:
109,192,97012,1,0,0:0:0:25:Hat Open2.wav
182,192,97012,1,0,0:0:0:25:LR_HiHat Click2.wav
402,192,97012,1,0,0:0:0:0:
475,192,97012,1,0,0:0:0:0:
329,192,97012,1,0,0:0:0:0:
36,192,97139,1,2,0:0:0:0:
109,192,97139,1,0,0:0:0:25:Hat Open2.wav
329,192,97139,1,0,0:0:0:25:LR_HiHat Click2.wav
402,192,97139,1,0,0:0:0:0:
475,192,97139,1,0,0:0:0:0:
182,192,97139,1,0,0:0:0:0:
329,192,97265,1,0,0:0:0:25:LR_HiHat Click2.wav
182,192,97313,1,0,0:0:0:25:LR_HiHat Click2.wav
402,192,97360,1,0,0:0:0:25:LR_HiHat Click2.wav
109,192,97408,1,0,0:0:0:25:LR_HiHat Click2.wav
36,192,97455,1,2,0:0:0:0:
182,192,97455,1,0,0:0:0:25:Hat Open2.wav
256,192,97455,1,0,0:0:0:25:LR_HiHat Click2.wav
329,192,97455,1,0,0:0:0:0:
475,192,97455,1,0,0:0:0:0:
36,192,97582,1,2,0:0:0:0:
182,192,97582,1,0,0:0:0:25:Hat Open2.wav
256,192,97582,1,0,0:0:0:25:LR_HiHat Click2.wav
329,192,97582,1,0,0:0:0:0:
475,192,97582,1,0,0:0:0:0:
36,192,97708,1,2,0:0:0:0:
256,192,97708,1,0,0:0:0:25:Hat Open2.wav
329,192,97708,1,0,0:0:0:25:LR_HiHat Click2.wav
475,192,97708,1,0,0:0:0:0:
182,192,97708,1,0,0:0:0:0:
109,192,97835,1,0,0:0:0:0:
182,192,97930,1,0,0:0:0:0:
329,192,98025,1,0,0:0:0:0:
402,192,98120,1,0,0:0:0:0:
256,192,98215,128,0,99544:0:0:0:0:
36,192,98499,1,0,0:0:0:25:LR_HiHat Click2.wav
109,192,98547,1,0,0:0:0:25:LR_HiHat Click2.wav
182,192,98594,1,0,0:0:0:25:LR_HiHat Click2.wav
329,192,98642,1,0,0:0:0:25:LR_HiHat Click2.wav
402,192,98689,1,0,0:0:0:25:LR_HiHat Click2.wav
475,192,98737,1,0,0:0:0:25:LR_HiHat Click2.wav
36,192,98784,1,0,0:0:0:25:LR_HiHat Click2.wav
109,192,98832,1,0,0:0:0:25:LR_HiHat Click2.wav
182,192,98879,1,0,0:0:0:25:LR_HiHat Click2.wav
329,192,98927,1,0,0:0:0:25:LR_HiHat Click2.wav
402,192,98974,1,0,0:0:0:25:LR_HiHat Click2.wav
475,192,99021,1,0,0:0:0:25:LR_HiHat Click2.wav
402,192,99069,1,0,0:0:0:25:LR_HiHat Click2.wav
329,192,99116,1,0,0:0:0:25:LR_HiHat Click2.wav
182,192,99164,1,0,0:0:0:25:LR_HiHat Click2.wav
109,192,99211,1,0,0:0:0:25:LR_HiHat Click2.wav
36,192,99259,1,0,0:0:0:25:LR_HiHat Click2.wav
475,192,99306,1,0,0:0:0:25:LR_HiHat Click2.wav
402,192,99354,1,0,0:0:0:25:LR_HiHat Click2.wav
329,192,99401,1,0,0:0:0:25:LR_HiHat Click2.wav
182,192,99449,1,0,0:0:0:25:LR_HiHat Click2.wav
109,192,99496,1,0,0:0:0:25:LR_HiHat Click2.wav
36,192,99544,1,0,0:0:0:0:
329,192,99544,1,0,0:0:0:0:
475,192,99544,1,0,0:0:0:0:
36,192,99733,1,0,0:0:0:0:
182,192,99733,1,0,0:0:0:0:
475,192,99733,1,0,0:0:0:0:
36,192,99924,1,2,0:0:0:0:
109,192,99924,1,0,0:0:0:25:Hat Open2.wav
182,192,99924,1,0,0:0:0:0:
256,192,99924,1,0,0:0:0:0:
329,192,99924,1,0,0:0:0:0:
402,192,99924,1,0,0:0:0:0:
475,192,99924,1,0,0:0:0:0:
36,192,100050,1,2,0:0:0:0:
109,192,100050,1,0,0:0:0:25:Hat Open2.wav
182,192,100050,1,0,0:0:0:0:
256,192,100050,1,0,0:0:0:0:
329,192,100050,1,0,0:0:0:0:
402,192,100050,1,0,0:0:0:0:
475,192,100050,1,0,0:0:0:0:
36,192,100177,1,2,0:0:0:0:
109,192,100177,1,0,0:0:0:25:Hat Open2.wav
182,192,100177,1,0,0:0:0:0:
256,192,100177,1,0,0:0:0:0:
329,192,100177,1,0,0:0:0:0:
402,192,100177,1,0,0:0:0:0:
475,192,100177,1,0,0:0:0:0:
36,192,100493,128,0,100588:0:0:0:70:Clap.wav
109,192,100493,128,0,100588:0:0:0:0:
182,192,100493,128,0,100588:0:0:0:0:
329,192,100493,128,0,100588:0:0:0:0:
402,192,100493,128,0,100588:0:0:0:0:
475,192,100493,128,0,100588:0:0:0:0:
256,192,100683,1,0,0:0:0:0:
