osu file format v14

[General]
AudioFilename: audio.mp3
AudioLeadIn: 0
PreviewTime: 26629
Countdown: 0
SampleSet: Normal
StackLeniency: 0.7
Mode: 1
LetterboxInBreaks: 0
WidescreenStoryboard: 0

[Editor]
Bookmarks: 26822,86820
DistanceSpacing: 0.8
BeatDivisor: 6
GridSize: 32
TimelineZoom: 1.8

[Metadata]
Title:[@__@]
TitleUnicode:[@__@]
Artist:Chroma
ArtistUnicode:黒魔
Creator:Faputa
Version:Muzukashii
Source:
Tags:CHRO-0006 CHRO0006 Dizzy emoticon @_@ [@_@] @-@ @--@ [@-@] [@--@] c-h-r-o-m-a くろま kuroma じたばたP JitabataP Jitabata-P osu! featured artist fa mappers' guild mpg mg Robot & and Human Electronic Chiptune Instrumental
BeatmapID:2194488
BeatmapSetID:1048153

[Difficulty]
HPDrainRate:6
CircleSize:2
OverallDifficulty:5
ApproachRate:10
SliderMultiplier:1.4
SliderTickRate:1

[Events]
//Background and Video events
0,0,"BG.jpg",0,0
//Break Periods
2,80945,86181
//Storyboard Layer 0 (Background)
//Storyboard Layer 1 (Fail)
//Storyboard Layer 2 (Pass)
//Storyboard Layer 3 (Foreground)
//Storyboard Layer 4 (Overlay)
//Storyboard Sound Samples

[TimingPoints]
1000,379.746835443038,4,1,0,70,1,0
1000,-100,4,1,0,70,0,0
13151,379.746835443038,6,1,0,70,1,0
19226,379.746835443038,6,1,0,70,1,0
23782,379.746835443038,4,1,0,70,1,0
25490,-100,4,1,0,75,0,0
26819,379.746835443038,4,1,0,80,1,0
38970,379.746835443038,6,1,0,80,1,8
38973,379.746835443038,6,1,0,80,1,0
43435,-100,6,1,0,30,0,0
44953,-100,4,1,0,80,0,0
45048,379.746835443038,6,1,0,80,1,0
50934,379.746835443038,4,1,0,80,1,0
51076,-100,4,1,0,60,0,0
54035,-100,4,1,0,30,0,0
54225,-100,4,1,0,40,0,0
54415,-100,4,1,0,50,0,0
54605,-100,4,1,0,40,0,0
54794,-100,4,1,0,30,0,0
54984,-100,4,1,0,70,0,0
55488,379.746835443038,4,1,0,70,1,8
55678,379.746835443038,4,1,0,70,1,0
57260,-100,4,1,0,40,0,0
57386,-100,4,1,0,45,0,0
57513,-100,4,1,0,50,0,0
57640,-100,4,1,0,55,0,0
57766,-100,4,1,0,60,0,0
57861,-100,4,1,0,70,0,0
58652,-100,4,1,0,45,0,0
58779,-100,4,1,0,50,0,0
58905,-100,4,1,0,55,0,0
59032,-100,4,1,0,60,0,0
59190,-100,4,1,0,70,0,0
61564,-100,4,1,0,60,0,0
76753,-100,4,1,0,30,0,0
78024,-100,3,1,0,70,0,0
78088,379.746835443038,4,1,0,70,1,0
80745,379.746835443038,4,1,0,70,1,0
80934,-100,4,1,0,50,0,0
85998,-100,4,1,0,30,0,0
86567,-100,4,1,0,80,0,0
86820,-100,4,1,0,80,0,1
92896,379.746835443038,6,1,0,60,1,0
92990,-100,6,1,0,30,0,0
94320,-100,6,1,0,60,0,0
95174,379.746835443038,4,1,0,60,1,0
98275,-100,4,1,0,30,0,0
98465,-100,4,1,0,40,0,0
98655,-100,4,1,0,50,0,0
98844,-100,4,1,0,60,0,0
99034,-100,4,1,0,50,0,0
99224,-100,4,1,0,40,0,0
99414,-100,4,1,0,60,0,0
99825,-100,4,1,0,80,0,0
99920,-100,4,1,0,80,0,1
100870,-100,4,1,0,80,0,0

[HitObjects]
256,192,1000,5,8,0:0:0:0:
256,192,1379,1,8,0:0:0:0:
256,192,1569,1,8,0:0:0:0:
256,192,2139,1,8,0:0:0:0:
256,192,2329,1,8,0:0:0:0:
256,192,2708,1,0,0:0:0:0:
256,192,2803,1,0,0:0:0:0:
256,192,2898,1,0,0:0:0:0:
256,192,3088,1,8,0:0:0:0:
256,192,3658,1,8,0:0:0:0:
256,192,3848,1,8,0:0:0:0:
256,192,4417,1,8,0:0:0:0:
256,192,4607,1,8,0:0:0:0:
256,192,5177,1,0,0:0:0:0:
256,192,5367,1,8,0:0:0:0:
256,192,5936,1,8,0:0:0:0:
256,192,6126,1,8,0:0:0:0:
256,192,7075,1,8,0:0:0:0:
256,192,7455,1,8,0:0:0:0:
256,192,7645,1,8,0:0:0:0:
256,192,8215,1,8,0:0:0:0:
256,192,8405,1,8,0:0:0:0:
256,192,8784,1,0,0:0:0:0:
256,192,8879,1,0,0:0:0:0:
256,192,8974,1,0,0:0:0:0:
256,192,9164,1,8,0:0:0:0:
256,192,9734,1,8,0:0:0:0:
256,192,9924,1,8,0:0:0:0:
256,192,10493,1,8,0:0:0:0:
256,192,10683,1,8,0:0:0:0:
256,192,11253,1,0,0:0:0:0:
256,192,11443,1,8,0:0:0:0:
256,192,12012,1,8,0:0:0:0:
256,192,12202,1,8,0:0:0:0:
256,192,12582,1,8,0:0:0:0:
256,192,12867,1,8,0:0:0:0:
256,192,13151,1,8,0:0:0:0:
256,192,13436,1,0,0:0:0:0:
256,192,13721,1,8,0:0:0:0:
256,192,14101,1,8,0:0:0:0:
256,192,14291,1,8,0:0:0:0:
256,192,14575,1,0,0:0:0:0:
256,192,14860,1,8,0:0:0:0:
256,192,15240,1,8,0:0:0:0:
256,192,15430,1,0,0:0:0:0:
256,192,15810,1,8,0:0:0:0:
256,192,16189,1,0,0:0:0:0:
256,192,16569,1,8,0:0:0:0:
256,192,16759,1,8,0:0:0:0:
256,192,17139,1,0,0:0:0:0:
256,192,17518,1,8,0:0:0:0:
256,192,19226,1,8,0:0:0:0:
256,192,19510,1,0,0:0:0:0:
256,192,19795,1,8,0:0:0:0:
256,192,20175,1,8,0:0:0:0:
256,192,20365,1,8,0:0:0:0:
256,192,20650,1,0,0:0:0:0:
256,192,20934,1,8,0:0:0:0:
256,192,21314,1,8,0:0:0:0:
256,192,21504,1,0,0:0:0:0:
256,192,21884,1,8,0:0:0:0:
256,192,22263,1,0,0:0:0:0:
256,192,22643,1,8,0:0:0:0:
256,192,22833,1,8,0:0:0:0:
256,192,23213,1,0,0:0:0:0:
256,192,23593,1,8,0:0:0:0:
256,192,23971,1,0,0:0:0:0:
256,192,24161,1,0,0:0:0:0:
256,192,24351,1,8,0:0:0:0:
256,192,24731,1,0,0:0:0:0:
256,192,24921,1,0,0:0:0:0:
256,192,25111,1,8,0:0:0:0:
256,192,25490,1,8,0:0:0:0:
256,192,25680,1,8,0:0:0:0:
256,192,25870,1,0,0:0:0:0:
256,192,26060,1,8,0:0:0:0:
256,192,26155,1,8,0:0:0:0:
256,192,26250,1,8,0:0:0:0:
256,192,26440,1,0,0:0:0:0:
256,192,26819,1,12,0:0:0:0:
256,192,27388,1,8,0:0:0:0:
256,192,27768,1,0,0:0:0:0:
256,192,27958,1,8,0:0:0:0:
256,192,28148,1,8,0:0:0:0:
256,192,28527,1,0,0:0:0:0:
256,192,28622,1,0,0:0:0:0:
256,192,28717,1,0,0:0:0:0:
256,192,28907,1,12,0:0:0:0:
256,192,29287,1,8,0:0:0:0:
256,192,29667,1,4,0:0:0:0:
256,192,30046,1,0,0:0:0:0:
256,192,30236,1,8,0:0:0:0:
256,192,30426,1,12,0:0:0:0:
256,192,30806,1,8,0:0:0:0:
256,192,31186,1,4,0:0:0:0:
256,192,31565,1,0,0:0:0:0:
256,192,31755,1,0,0:0:0:0:
256,192,31945,1,12,0:0:0:0:
256,192,32325,1,8,0:0:0:0:
256,192,32515,1,8,0:0:0:0:
256,192,32705,1,0,0:0:0:0:
256,192,32894,1,12,0:0:0:0:
256,192,33463,1,8,0:0:0:0:
256,192,33843,1,0,0:0:0:0:
256,192,34033,1,8,0:0:0:0:
256,192,34223,1,0,0:0:0:0:
256,192,34603,1,0,0:0:0:0:
256,192,34698,1,0,0:0:0:0:
256,192,34792,1,0,0:0:0:0:
256,192,34982,1,12,0:0:0:0:
256,192,35362,1,0,0:0:0:0:
256,192,35742,1,4,0:0:0:0:
256,192,36121,1,0,0:0:0:0:
256,192,36311,1,8,0:0:0:0:
256,192,36501,1,12,0:0:0:0:
256,192,36881,1,8,0:0:0:0:
256,192,37261,1,4,0:0:0:0:
256,192,37640,1,0,0:0:0:0:
256,192,37830,1,0,0:0:0:0:
256,192,38020,1,12,0:0:0:0:
256,192,38400,1,8,0:0:0:0:
256,192,38686,1,8,0:0:0:0:
256,192,38973,1,0,0:0:0:0:
256,192,39257,1,0,0:0:0:0:
256,192,39542,1,8,0:0:0:0:
256,192,40112,1,8,0:0:0:0:
256,192,40397,1,0,0:0:0:0:
256,192,40681,1,8,0:0:0:0:
256,192,41251,1,0,0:0:0:0:
256,192,41631,1,8,0:0:0:0:
256,192,42010,1,0,0:0:0:0:
256,192,42390,1,8,0:0:0:0:
256,192,42580,1,8,0:0:0:0:
256,192,42960,1,0,0:0:0:0:
256,192,43340,1,12,0:0:0:0:
256,192,43529,12,0,44669,0:0:0:0:
256,192,45049,5,0,0:0:0:0:
256,192,45333,1,0,0:0:0:0:
256,192,45618,1,8,0:0:0:0:
256,192,46188,1,8,0:0:0:0:
256,192,46472,1,0,0:0:0:0:
256,192,46756,1,8,0:0:0:0:
256,192,47327,1,0,0:0:0:0:
256,192,47707,1,8,0:0:0:0:
256,192,48086,1,0,0:0:0:0:
256,192,48466,1,8,0:0:0:0:
256,192,48655,1,8,0:0:0:0:
256,192,49035,1,0,0:0:0:0:
256,192,49416,1,12,0:0:0:0:
256,192,49794,1,0,0:0:0:0:
256,192,49984,1,0,0:0:0:0:
256,192,50174,1,12,0:0:0:0:
256,192,50554,1,0,0:0:0:0:
256,192,50744,1,8,0:0:0:0:
256,192,50933,1,4,0:0:0:0:
256,192,51218,1,0,0:0:0:0:
256,192,51503,1,8,0:0:0:0:
256,192,51756,1,0,0:0:0:0:
256,192,52009,1,8,0:0:0:0:
256,192,52263,1,0,0:0:0:0:
256,192,52641,1,8,0:0:0:0:
256,192,52768,1,8,0:0:0:0:
256,192,52895,1,8,0:0:0:0:
256,192,53211,1,8,0:0:0:0:
256,192,53339,1,8,0:0:0:0:
256,192,53465,1,8,0:0:0:0:
256,192,53971,12,0,54731,0:0:0:0:
256,192,55111,5,8,0:0:0:0:
256,192,55206,1,8,0:0:0:0:
256,192,55301,1,8,0:0:0:0:
256,192,55488,1,0,0:0:0:0:
256,192,55677,1,8,0:0:0:0:
256,192,56247,1,8,0:0:0:0:
256,192,56627,1,8,0:0:0:0:
256,192,56817,1,0,0:0:0:0:
256,192,57007,1,12,0:0:0:0:
256,192,57386,1,0,0:0:0:0:
256,192,57576,1,0,0:0:0:0:
256,192,57766,1,8,0:0:0:0:
256,192,57956,1,4,0:0:0:0:
256,192,58336,1,4,0:0:0:0:
256,192,58715,1,8,0:0:0:0:
256,192,59285,1,12,0:0:0:0:
256,192,59665,1,8,0:0:0:0:
256,192,59855,1,8,0:0:0:0:
256,192,60045,1,4,0:0:0:0:
256,192,60424,1,8,0:0:0:0:
256,192,60614,1,8,0:0:0:0:
256,192,60994,1,4,0:0:0:0:
256,192,61374,1,4,0:0:0:0:
256,192,61753,1,8,0:0:0:0:
256,192,62323,1,8,0:0:0:0:
256,192,62703,1,8,0:0:0:0:
256,192,62893,1,0,0:0:0:0:
256,192,63272,1,8,0:0:0:0:
256,192,63842,1,8,0:0:0:0:
256,192,64222,1,0,0:0:0:0:
256,192,64412,1,0,0:0:0:0:
256,192,64791,1,8,0:0:0:0:
256,192,65171,1,0,0:0:0:0:
256,192,65361,1,12,0:0:0:0:
256,192,65741,1,8,0:0:0:0:
256,192,65931,1,0,0:0:0:0:
256,192,66310,1,4,0:0:0:0:
256,192,66880,1,4,0:0:0:0:
256,192,67829,1,8,0:0:0:0:
256,192,68399,1,8,0:0:0:0:
256,192,68779,1,8,0:0:0:0:
256,192,68969,1,0,0:0:0:0:
256,192,69348,1,8,0:0:0:0:
256,192,69918,1,8,0:0:0:0:
256,192,70298,1,0,0:0:0:0:
256,192,70488,1,0,0:0:0:0:
256,192,70867,1,8,0:0:0:0:
256,192,71247,1,0,0:0:0:0:
256,192,71437,1,12,0:0:0:0:
256,192,71817,1,0,0:0:0:0:
256,192,72007,1,0,0:0:0:0:
256,192,72386,1,4,0:0:0:0:
256,192,72576,1,8,0:0:0:0:
256,192,72956,1,0,0:0:0:0:
256,192,73336,1,0,0:0:0:0:
256,192,73715,1,8,0:0:0:0:
256,192,74000,1,0,0:0:0:0:
256,192,74190,1,8,0:0:0:0:
256,192,74570,1,0,0:0:0:0:
256,192,74760,1,8,0:0:0:0:
256,192,75234,1,0,0:0:0:0:
256,192,75488,1,8,0:0:0:0:
256,192,75804,1,8,0:0:0:0:
256,192,76943,12,0,77703,0:0:0:0:
256,192,78088,5,4,0:0:0:0:
256,192,78467,1,8,0:0:0:0:
256,192,78657,1,8,0:0:0:0:
256,192,78847,1,8,0:0:0:0:
256,192,79037,1,8,0:0:0:0:
256,192,79227,1,8,0:0:0:0:
256,192,79417,1,8,0:0:0:0:
256,192,80175,1,4,0:0:0:0:
256,192,80745,1,12,0:0:0:0:
256,192,86631,5,8,0:0:0:0:
256,192,86726,1,8,0:0:0:0:
256,192,86820,1,8,0:0:0:0:
256,192,87390,1,8,0:0:0:0:
256,192,87770,1,8,0:0:0:0:
256,192,87960,1,8,0:0:0:0:
256,192,88150,1,4,0:0:0:0:
256,192,88529,1,0,0:0:0:0:
256,192,88624,1,0,0:0:0:0:
256,192,88719,1,0,0:0:0:0:
256,192,88909,1,8,0:0:0:0:
256,192,89289,1,8,0:0:0:0:
256,192,89479,1,8,0:0:0:0:
256,192,89669,1,4,0:0:0:0:
256,192,90048,1,0,0:0:0:0:
256,192,90238,1,8,0:0:0:0:
256,192,90428,1,8,0:0:0:0:
256,192,90808,1,0,0:0:0:0:
256,192,90998,1,8,0:0:0:0:
256,192,91188,1,4,0:0:0:0:
256,192,91567,1,8,0:0:0:0:
256,192,91757,1,0,0:0:0:0:
256,192,91947,1,12,0:0:0:0:
256,192,92327,1,8,0:0:0:0:
256,192,92612,1,8,0:0:0:0:
256,192,92896,1,8,0:0:0:0:
256,192,93085,12,0,94225,0:0:0:0:
256,160,94794,5,8,0:0:0:0:
256,160,95174,1,4,0:0:0:0:
256,160,95458,1,0,0:0:0:0:
256,160,95743,1,8,0:0:0:0:
256,160,95996,1,0,0:0:0:0:
256,160,96249,1,8,0:0:0:0:
256,160,96503,1,0,0:0:0:0:
256,160,96882,1,8,0:0:0:0:
256,160,97009,1,8,0:0:0:0:
256,160,97136,1,8,0:0:0:0:
256,160,97452,1,8,0:0:0:0:
256,160,97579,1,8,0:0:0:0:
256,160,97705,1,8,0:0:0:0:
256,192,98211,12,0,99161,0:0:0:0:
256,192,99920,5,8,0:0:0:0:
256,192,100047,1,8,0:0:0:0:
256,192,100174,1,8,0:0:0:0:
256,192,100490,1,4,0:0:0:0:
