osu file format v14

[General]
AudioFilename: audio.mp3
AudioLeadIn: 0
PreviewTime: 26629
Countdown: 0
SampleSet: Normal
StackLeniency: 0.7
Mode: 1
LetterboxInBreaks: 0
WidescreenStoryboard: 0

[Editor]
Bookmarks: 26822,86820
DistanceSpacing: 0.8
BeatDivisor: 8
GridSize: 32
TimelineZoom: 2.2

[Metadata]
Title:[@__@]
TitleUnicode:[@__@]
Artist:Chroma
ArtistUnicode:黒魔
Creator:Faputa
Version:Inner Oni
Source:
Tags:CHRO-0006 CHRO0006 Dizzy emoticon @_@ [@_@] @-@ @--@ [@-@] [@--@] c-h-r-o-m-a くろま kuroma じたばたP JitabataP Jitabata-P osu! featured artist fa mappers' guild mpg mg Robot & and Human Electronic Chiptune Instrumental
BeatmapID:2190876
BeatmapSetID:1048153

[Difficulty]
HPDrainRate:6
CircleSize:2
OverallDifficulty:6.5
ApproachRate:10
SliderMultiplier:1.4
SliderTickRate:1

[Events]
//Background and Video events
0,0,"BG.jpg",0,0
//Break Periods
//Storyboard Layer 0 (Background)
//Storyboard Layer 1 (Fail)
//Storyboard Layer 2 (Pass)
//Storyboard Layer 3 (Foreground)
//Storyboard Layer 4 (Overlay)
//Storyboard Sound Samples

[TimingPoints]
1000,379.746835443038,4,1,0,70,1,0
1000,-200,4,1,0,70,0,0
13151,379.746835443038,6,1,0,70,1,0
13151,-200,6,1,0,70,0,0
19226,379.746835443038,6,1,0,70,1,0
19226,-200,6,1,0,70,0,0
23782,379.746835443038,4,1,0,70,1,0
23782,-200,4,1,0,70,0,0
25490,-166.666666666667,4,1,0,75,0,0
25538,-161.290322580645,4,1,0,75,0,0
25680,-153.846153846154,4,1,0,75,0,0
25728,-149.253731343284,4,1,0,75,0,0
25870,-142.857142857143,4,1,0,75,0,0
25918,-138.888888888889,4,1,0,75,0,0
26060,-135.135135135135,4,1,0,75,0,0
26155,-133.333333333333,4,1,0,75,0,0
26250,-131.578947368421,4,1,0,75,0,0
26297,-129.87012987013,4,1,0,75,0,0
26345,-128.205128205128,4,1,0,75,0,0
26392,-126.582278481013,4,1,0,75,0,0
26440,-125,4,1,0,75,0,0
26819,379.746835443038,4,1,0,75,1,0
26819,-111.111111111111,4,1,0,80,0,0
38211,-107.181136120043,4,1,0,80,0,0
38686,-103.51966873706,4,1,0,80,0,0
38970,379.746835443038,6,1,0,80,1,8
38973,379.746835443038,6,1,0,80,1,0
43435,-100,6,1,0,30,0,0
44953,-100,4,1,0,80,0,0
45048,379.746835443038,6,1,0,80,1,0
50934,379.746835443038,4,1,0,80,1,0
51123,-97.0873786407767,4,1,0,60,0,0
51502,-94.3396226415094,4,1,0,60,0,0
51755,-91.743119266055,4,1,0,60,0,0
52009,-89.2857142857143,4,1,0,60,0,0
52262,-86.9565217391304,4,1,0,60,0,0
52452,-84.7457627118644,4,1,0,60,0,0
52641,-82.6446280991736,4,1,0,60,0,0
52768,-80.6451612903226,4,1,0,60,0,0
52895,-78.7401574803149,4,1,0,60,0,0
53022,-76.9230769230769,4,1,0,60,0,0
53070,-76.0456273764259,4,1,0,60,0,0
53117,-75.187969924812,4,1,0,60,0,0
53165,-74.3494423791822,4,1,0,60,0,0
53211,-73.5294117647059,4,1,0,60,0,0
53338,-71.9424460431655,4,1,0,60,0,0
53465,-70.4225352112676,4,1,0,60,0,0
53592,-100,4,1,0,60,0,0
54035,-100,4,1,0,30,0,0
54225,-100,4,1,0,40,0,0
54415,-100,4,1,0,50,0,0
54605,-100,4,1,0,40,0,0
54794,-100,4,1,0,30,0,0
54984,-111.111111111111,4,1,0,70,0,0
55488,379.746835443038,4,1,0,70,1,8
55488,-111.111111111111,4,1,0,70,0,0
55678,379.746835443038,4,1,0,70,1,0
55678,-111.111111111111,4,1,0,70,0,0
57196,-125,4,1,0,70,0,0
57260,-125,4,1,0,40,0,0
57386,-121.212121212121,4,1,0,45,0,0
57513,-117.647058823529,4,1,0,50,0,0
57640,-114.285714285714,4,1,0,55,0,0
57766,-111.111111111111,4,1,0,60,0,0
57909,-108.108108108108,4,1,0,65,0,0
58051,-102.564102564103,4,1,0,70,0,0
58241,-97.5609756097561,4,1,0,70,0,0
58652,-122.699386503067,4,1,0,45,0,0
58779,-120.481927710843,4,1,0,50,0,0
58905,-118.343195266272,4,1,0,55,0,0
59032,-116.279069767442,4,1,0,60,0,0
59143,-113.636363636364,4,1,0,65,0,0
59238,-111.111111111111,4,1,0,70,0,0
61565,-125,4,1,0,60,0,0
71912,-121.212121212121,4,1,0,60,0,0
72102,-117.647058823529,4,1,0,60,0,0
72386,-114.285714285714,4,1,0,60,0,0
72576,-105.263157894737,4,1,0,60,0,0
72671,-103.820274646155,4,1,0,60,0,0
72766,-102.416412844657,4,1,0,60,0,0
72861,-101.050010660776,4,1,0,60,0,0
72956,-99.7195885170899,4,1,0,60,0,0
73051,-98.4237437439408,4,1,0,60,0,0
73098,-97.5783969235483,4,1,0,60,0,0
73146,-96.7474475604647,4,1,0,60,0,0
73193,-96.6183574879227,4,1,0,60,0,0
73241,-95.9305309467096,4,1,0,60,0,0
73336,-94.7307893064096,4,1,0,60,0,0
73431,-93.5605982638895,4,1,0,60,0,0
73478,-92.7964009843842,4,1,0,60,0,0
73526,-92.044586397651,4,1,0,60,0,0
73573,-91.324200913242,4,1,0,60,0,0
73620,-91.3048559574592,4,1,0,60,0,0
73715,-90.2172883389644,4,1,0,60,0,0
73810,-89.1553246234525,4,1,0,60,0,0
73905,-88.1180711659166,4,1,0,60,0,0
74000,-87.1046754305584,4,1,0,60,0,0
74095,-86.1143236537963,4,1,0,60,0,0
74190,-85.146238664907,4,1,0,60,0,0
74285,-84.1996778520325,4,1,0,60,0,0
74380,-83.2739312623662,4,1,0,60,0,0
74475,-82.3683198263017,4,1,0,60,0,0
74570,-81.4821936962116,4,1,0,60,0,0
74665,-80.6149306913133,4,1,0,60,0,0
74760,-79.7659984668975,4,1,0,60,0,0
74855,-78.9346973249031,4,1,0,60,0,0
74981,-77.8528798558788,4,1,0,60,0,0
75045,-77.5193798449612,4,1,0,60,0,0
75108,-76.8003145740885,4,1,0,60,0,0
75234,-75.7758308440973,4,1,0,60,0,0
75361,-74.7783196713343,4,1,0,60,0,0
75488,-73.8067296976138,4,1,0,60,0,0
75614,-72.8600635048313,4,1,0,60,0,0
75804,-71.4847380084352,4,1,0,60,0,0
76753,-100,4,1,0,30,0,0
78024,-100,3,1,0,70,0,0
78088,379.746835443038,4,1,0,70,1,0
78088,-68.9655172413793,4,1,0,70,0,0
78277,-71.7488789237668,4,1,0,70,0,0
78467,-74.7663551401869,4,1,0,70,0,0
78657,-78.0487804878049,4,1,0,70,0,0
78847,-81.6326530612245,4,1,0,70,0,0
79037,-85.5614973262032,4,1,0,70,0,0
79227,-89.8876404494382,4,1,0,70,0,0
79417,-94.6745562130178,4,1,0,70,0,0
79606,-100,4,1,0,70,0,0
80745,379.746835443038,4,1,0,70,1,0
80934,-200,4,1,0,50,0,0
85998,-200,4,1,0,30,0,0
86567,-90.9090909090909,4,1,0,80,0,0
86820,-90.9090909090909,4,1,0,80,0,1
92327,-94.3396226415094,4,1,0,80,0,1
92612,-97.0873786407767,4,1,0,80,0,1
92896,379.746835443038,6,1,0,60,1,0
92990,-100,6,1,0,30,0,0
94320,-100,6,1,0,60,0,0
95174,379.746835443038,4,1,0,60,1,0
95363,-97.0873786407767,4,1,0,60,0,0
95648,-94.3396226415094,4,1,0,60,0,0
95933,-91.743119266055,4,1,0,60,0,0
96218,-89.2857142857143,4,1,0,60,0,0
96503,-86.9565217391304,4,1,0,60,0,0
96692,-84.7457627118644,4,1,0,60,0,0
96882,-82.6446280991736,4,1,0,60,0,0
97009,-80.6451612903226,4,1,0,60,0,0
97136,-78.7401574803149,4,1,0,60,0,0
97262,-76.9230769230769,4,1,0,60,0,0
97310,-76.0456273764259,4,1,0,60,0,0
97357,-75.187969924812,4,1,0,60,0,0
97405,-74.3494423791822,4,1,0,60,0,0
97452,-73.5294117647059,4,1,0,60,0,0
97579,-71.9424460431655,4,1,0,60,0,0
97705,-70.4225352112676,4,1,0,60,0,0
97832,-100,4,1,0,60,0,0
98275,-100,4,1,0,30,0,0
98465,-100,4,1,0,40,0,0
98655,-100,4,1,0,50,0,0
98844,-100,4,1,0,60,0,0
99034,-100,4,1,0,50,0,0
99224,-100,4,1,0,40,0,0
99414,-100,4,1,0,60,0,0
99825,-100,4,1,0,80,0,0
99920,-74.0740740740741,4,1,0,80,0,1
100490,-57.1428571428571,4,1,0,80,0,1
100870,-57.1428571428571,4,1,0,80,0,0

[HitObjects]
256,192,1000,5,8,0:0:0:0:
256,192,1189,1,0,0:0:0:0:
256,192,1379,1,8,0:0:0:0:
256,192,1569,1,8,0:0:0:0:
256,192,1949,1,0,0:0:0:0:
256,192,2139,1,8,0:0:0:0:
256,192,2329,1,8,0:0:0:0:
256,192,2708,1,0,0:0:0:0:
256,192,2772,1,8,0:0:0:0:
256,192,2835,1,8,0:0:0:0:
256,192,2898,1,0,0:0:0:0:
256,192,3088,1,8,0:0:0:0:
256,192,3468,1,0,0:0:0:0:
256,192,3658,1,8,0:0:0:0:
256,192,3848,1,8,0:0:0:0:
256,192,4227,1,0,0:0:0:0:
256,192,4417,1,8,0:0:0:0:
256,192,4607,1,0,0:0:0:0:
256,192,4987,1,8,0:0:0:0:
256,192,5177,1,0,0:0:0:0:
256,192,5367,1,8,0:0:0:0:
256,192,5746,1,0,0:0:0:0:
256,192,5936,1,0,0:0:0:0:
256,192,6126,1,8,0:0:0:0:
256,192,7075,1,8,0:0:0:0:
256,192,7265,1,0,0:0:0:0:
256,192,7455,1,8,0:0:0:0:
256,192,7645,1,8,0:0:0:0:
256,192,8025,1,0,0:0:0:0:
256,192,8215,1,8,0:0:0:0:
256,192,8405,1,8,0:0:0:0:
256,192,8784,1,0,0:0:0:0:
256,192,8848,1,8,0:0:0:0:
256,192,8911,1,8,0:0:0:0:
256,192,8974,1,0,0:0:0:0:
256,192,9164,1,8,0:0:0:0:
256,192,9544,1,0,0:0:0:0:
256,192,9734,1,8,0:0:0:0:
256,192,9924,1,0,0:0:0:0:
256,192,10303,1,8,0:0:0:0:
256,192,10493,1,8,0:0:0:0:
256,192,10683,1,0,0:0:0:0:
256,192,11063,1,8,0:0:0:0:
256,192,11253,1,0,0:0:0:0:
256,192,11443,1,8,0:0:0:0:
256,192,11822,1,0,0:0:0:0:
256,192,12012,1,0,0:0:0:0:
256,192,12202,1,8,0:0:0:0:
256,192,12582,1,8,0:0:0:0:
256,192,12867,1,8,0:0:0:0:
256,192,13151,1,8,0:0:0:0:
256,192,13341,1,0,0:0:0:0:
256,192,13436,1,0,0:0:0:0:
256,192,13531,1,0,0:0:0:0:
256,192,13626,1,0,0:0:0:0:
256,192,13721,1,8,0:0:0:0:
256,192,14101,1,8,0:0:0:0:
256,192,14291,1,8,0:0:0:0:
256,192,14481,1,0,0:0:0:0:
256,192,14575,1,8,0:0:0:0:
256,192,14670,1,0,0:0:0:0:
256,192,14765,1,0,0:0:0:0:
256,192,14860,1,8,0:0:0:0:
256,192,15240,1,8,0:0:0:0:
256,192,15430,1,0,0:0:0:0:
256,192,15810,1,8,0:0:0:0:
256,192,16189,1,0,0:0:0:0:
256,192,16379,1,0,0:0:0:0:
256,192,16569,1,8,0:0:0:0:
256,192,16759,1,8,0:0:0:0:
256,192,17139,1,0,0:0:0:0:
256,192,17518,1,8,0:0:0:0:
256,192,19226,1,8,0:0:0:0:
256,192,19415,1,0,0:0:0:0:
256,192,19510,1,0,0:0:0:0:
256,192,19605,1,0,0:0:0:0:
256,192,19700,1,0,0:0:0:0:
256,192,19795,1,8,0:0:0:0:
256,192,20175,1,8,0:0:0:0:
256,192,20365,1,8,0:0:0:0:
256,192,20555,1,0,0:0:0:0:
256,192,20650,1,8,0:0:0:0:
256,192,20744,1,0,0:0:0:0:
256,192,20839,1,0,0:0:0:0:
256,192,20934,1,8,0:0:0:0:
256,192,21314,1,8,0:0:0:0:
256,192,21504,1,0,0:0:0:0:
256,192,21884,1,8,0:0:0:0:
256,192,22263,1,0,0:0:0:0:
256,192,22453,1,0,0:0:0:0:
256,192,22643,1,8,0:0:0:0:
256,192,22833,1,8,0:0:0:0:
256,192,23213,1,0,0:0:0:0:
256,192,23593,1,8,0:0:0:0:
256,192,23971,1,0,0:0:0:0:
256,192,24161,1,0,0:0:0:0:
256,192,24351,1,8,0:0:0:0:
256,192,24731,1,8,0:0:0:0:
256,192,24921,1,0,0:0:0:0:
256,192,25111,1,8,0:0:0:0:
256,192,25490,1,8,0:0:0:0:
256,192,25538,1,8,0:0:0:0:
256,192,25680,1,8,0:0:0:0:
256,192,25728,1,8,0:0:0:0:
256,192,25870,1,0,0:0:0:0:
256,192,25918,1,0,0:0:0:0:
256,192,26060,1,8,0:0:0:0:
256,192,26155,1,8,0:0:0:0:
256,192,26250,1,0,0:0:0:0:
256,192,26297,1,0,0:0:0:0:
256,192,26345,1,8,0:0:0:0:
256,192,26392,1,8,0:0:0:0:
256,192,26440,1,0,0:0:0:0:
256,192,26819,1,12,0:0:0:0:
256,192,27008,1,0,0:0:0:0:
256,192,27198,1,8,0:0:0:0:
256,192,27388,1,8,0:0:0:0:
256,192,27578,1,0,0:0:0:0:
256,192,27768,1,8,0:0:0:0:
256,192,27863,1,0,0:0:0:0:
256,192,27958,1,8,0:0:0:0:
256,192,28148,1,4,0:0:0:0:
256,192,28337,1,8,0:0:0:0:
256,192,28527,1,0,0:0:0:0:
256,192,28591,1,8,0:0:0:0:
256,192,28654,1,8,0:0:0:0:
256,192,28717,1,0,0:0:0:0:
256,192,28907,1,8,0:0:0:0:
256,192,29097,1,0,0:0:0:0:
256,192,29144,1,0,0:0:0:0:
256,192,29192,1,8,0:0:0:0:
256,192,29239,1,8,0:0:0:0:
256,192,29287,1,0,0:0:0:0:
256,192,29477,1,8,0:0:0:0:
256,192,29667,1,4,0:0:0:0:
256,192,29856,1,8,0:0:0:0:
256,192,30046,1,0,0:0:0:0:
256,192,30236,1,8,0:0:0:0:
256,192,30284,1,8,0:0:0:0:
256,192,30426,1,8,0:0:0:0:
256,192,30474,1,8,0:0:0:0:
256,192,30616,1,0,0:0:0:0:
256,192,30663,1,0,0:0:0:0:
256,192,30711,1,8,0:0:0:0:
256,192,30758,1,8,0:0:0:0:
256,192,30806,1,0,0:0:0:0:
256,192,30996,1,8,0:0:0:0:
256,192,31186,1,4,0:0:0:0:
256,192,31375,1,8,0:0:0:0:
256,192,31565,1,0,0:0:0:0:
256,192,31755,1,0,0:0:0:0:
256,192,31945,1,12,0:0:0:0:
256,192,32325,1,8,0:0:0:0:
256,192,32515,1,8,0:0:0:0:
256,192,32705,1,0,0:0:0:0:
256,192,32894,1,12,0:0:0:0:
256,192,33083,1,0,0:0:0:0:
256,192,33273,1,8,0:0:0:0:
256,192,33463,1,8,0:0:0:0:
256,192,33653,1,0,0:0:0:0:
256,192,33843,1,8,0:0:0:0:
256,192,33938,1,0,0:0:0:0:
256,192,34033,1,8,0:0:0:0:
256,192,34223,1,4,0:0:0:0:
256,192,34412,1,8,0:0:0:0:
256,192,34602,1,0,0:0:0:0:
256,192,34666,1,8,0:0:0:0:
256,192,34729,1,8,0:0:0:0:
256,192,34792,1,0,0:0:0:0:
256,192,34982,1,8,0:0:0:0:
256,192,35172,1,0,0:0:0:0:
256,192,35220,1,0,0:0:0:0:
256,192,35268,1,8,0:0:0:0:
256,192,35315,1,8,0:0:0:0:
256,192,35362,1,0,0:0:0:0:
256,192,35552,1,8,0:0:0:0:
256,192,35742,1,4,0:0:0:0:
256,192,35931,1,8,0:0:0:0:
256,192,36121,1,0,0:0:0:0:
256,192,36311,1,8,0:0:0:0:
256,192,36360,1,8,0:0:0:0:
256,192,36501,1,8,0:0:0:0:
256,192,36550,1,8,0:0:0:0:
256,192,36691,1,0,0:0:0:0:
256,192,36739,1,0,0:0:0:0:
256,192,36787,1,8,0:0:0:0:
256,192,36834,1,8,0:0:0:0:
256,192,36881,1,0,0:0:0:0:
256,192,37071,1,8,0:0:0:0:
256,192,37261,1,4,0:0:0:0:
256,192,37450,1,8,0:0:0:0:
256,192,37640,1,0,0:0:0:0:
256,192,37830,1,0,0:0:0:0:
256,192,38020,1,12,0:0:0:0:
256,192,38400,1,8,0:0:0:0:
256,192,38686,1,8,0:0:0:0:
256,192,38973,1,0,0:0:0:0:
256,192,39067,1,8,0:0:0:0:
256,192,39115,1,8,0:0:0:0:
256,192,39162,1,8,0:0:0:0:
256,192,39210,1,8,0:0:0:0:
256,192,39257,1,0,0:0:0:0:
256,192,39352,1,0,0:0:0:0:
256,192,39447,1,0,0:0:0:0:
256,192,39542,1,8,0:0:0:0:
256,192,39637,1,8,0:0:0:0:
256,192,39732,1,8,0:0:0:0:
256,192,39827,1,0,0:0:0:0:
256,192,39922,1,8,0:0:0:0:
256,192,40112,1,8,0:0:0:0:
256,192,40207,1,0,0:0:0:0:
256,192,40254,1,0,0:0:0:0:
256,192,40302,1,0,0:0:0:0:
256,192,40349,1,0,0:0:0:0:
256,192,40397,1,8,0:0:0:0:
256,192,40491,1,8,0:0:0:0:
256,192,40586,1,0,0:0:0:0:
256,192,40681,1,8,0:0:0:0:
256,192,40776,1,8,0:0:0:0:
256,192,40871,1,0,0:0:0:0:
256,192,40966,1,0,0:0:0:0:
256,192,41061,1,8,0:0:0:0:
256,192,41156,1,8,0:0:0:0:
256,192,41251,1,0,0:0:0:0:
256,192,41631,1,8,0:0:0:0:
256,192,42010,1,0,0:0:0:0:
256,192,42200,1,0,0:0:0:0:
256,192,42295,1,0,0:0:0:0:
256,192,42390,1,8,0:0:0:0:
256,192,42485,1,0,0:0:0:0:
256,192,42580,1,8,0:0:0:0:
256,192,42675,1,0,0:0:0:0:
256,192,42770,1,0,0:0:0:0:
256,192,42865,1,8,0:0:0:0:
256,192,42960,1,8,0:0:0:0:
256,192,43055,1,8,0:0:0:0:
256,192,43150,1,0,0:0:0:0:
256,192,43340,1,12,0:0:0:0:
256,192,43529,12,0,44858,0:0:0:0:
256,192,45048,5,0,0:0:0:0:
256,192,45143,1,8,0:0:0:0:
256,192,45190,1,8,0:0:0:0:
256,192,45237,1,8,0:0:0:0:
256,192,45285,1,8,0:0:0:0:
256,192,45333,1,0,0:0:0:0:
256,192,45428,1,0,0:0:0:0:
256,192,45523,1,0,0:0:0:0:
256,192,45618,1,8,0:0:0:0:
256,192,45713,1,8,0:0:0:0:
256,192,45808,1,8,0:0:0:0:
256,192,45903,1,0,0:0:0:0:
256,192,45998,1,8,0:0:0:0:
256,192,46188,1,8,0:0:0:0:
256,192,46283,1,0,0:0:0:0:
256,192,46329,1,0,0:0:0:0:
256,192,46377,1,0,0:0:0:0:
256,192,46424,1,0,0:0:0:0:
256,192,46473,1,8,0:0:0:0:
256,192,46567,1,8,0:0:0:0:
256,192,46662,1,0,0:0:0:0:
256,192,46757,1,8,0:0:0:0:
256,192,46852,1,8,0:0:0:0:
256,192,46947,1,0,0:0:0:0:
256,192,47042,1,0,0:0:0:0:
256,192,47137,1,8,0:0:0:0:
256,192,47232,1,8,0:0:0:0:
256,192,47327,1,0,0:0:0:0:
256,192,47707,1,8,0:0:0:0:
256,192,48086,1,0,0:0:0:0:
256,192,48276,1,0,0:0:0:0:
256,192,48371,1,0,0:0:0:0:
256,192,48466,1,8,0:0:0:0:
256,192,48561,1,0,0:0:0:0:
256,192,48656,1,8,0:0:0:0:
256,192,48751,1,0,0:0:0:0:
256,192,48846,1,0,0:0:0:0:
256,192,48941,1,8,0:0:0:0:
256,192,49036,1,8,0:0:0:0:
256,192,49131,1,8,0:0:0:0:
256,192,49226,1,0,0:0:0:0:
256,192,49416,1,12,0:0:0:0:
256,192,49794,1,0,0:0:0:0:
256,192,49984,1,0,0:0:0:0:
256,192,50174,1,12,0:0:0:0:
256,192,50554,1,0,0:0:0:0:
256,192,50744,1,8,0:0:0:0:
256,192,50933,1,4,0:0:0:0:
256,192,51217,1,8,0:0:0:0:
256,192,51502,1,8,0:0:0:0:
256,192,51755,1,8,0:0:0:0:
256,192,52009,1,8,0:0:0:0:
256,192,52262,1,8,0:0:0:0:
256,192,52452,1,8,0:0:0:0:
256,192,52641,1,8,0:0:0:0:
256,192,52768,1,8,0:0:0:0:
256,192,52895,1,8,0:0:0:0:
256,192,53022,1,0,0:0:0:0:
256,192,53070,1,0,0:0:0:0:
256,192,53117,1,0,0:0:0:0:
256,192,53165,1,0,0:0:0:0:
256,192,53211,1,8,0:0:0:0:
256,192,53338,1,8,0:0:0:0:
256,192,53465,1,8,0:0:0:0:
256,192,53592,1,0,0:0:0:0:
256,192,53686,1,0,0:0:0:0:
256,192,53781,1,8,0:0:0:0:
256,192,53876,1,8,0:0:0:0:
256,192,53971,1,0,0:0:0:0:
256,192,54066,12,0,54920,0:0:0:0:
256,192,55111,5,8,0:0:0:0:
256,192,55158,1,8,0:0:0:0:
256,192,55206,1,0,0:0:0:0:
256,192,55253,1,0,0:0:0:0:
256,192,55301,1,8,0:0:0:0:
256,192,55396,1,0,0:0:0:0:
256,192,55488,1,8,0:0:0:0:
256,192,55582,1,0,0:0:0:0:
256,192,55677,1,8,0:0:0:0:
256,192,55725,1,8,0:0:0:0:
256,192,55867,1,8,0:0:0:0:
256,192,56057,1,0,0:0:0:0:
256,192,56247,1,8,0:0:0:0:
256,192,56295,1,8,0:0:0:0:
256,192,56437,1,0,0:0:0:0:
256,192,56500,1,0,0:0:0:0:
256,192,56564,1,0,0:0:0:0:
256,192,56627,1,8,0:0:0:0:
256,192,56817,1,0,0:0:0:0:
256,192,57007,1,12,0:0:0:0:
256,192,57323,1,0,0:0:0:0:
256,192,57450,1,0,0:0:0:0:
256,192,57576,1,0,0:0:0:0:
256,192,57703,1,0,0:0:0:0:
256,192,57829,1,8,0:0:0:0:
256,192,57956,1,4,0:0:0:0:
256,192,58146,1,8,0:0:0:0:
256,192,58336,1,4,0:0:0:0:
256,192,58715,1,8,0:0:0:0:
256,192,58842,1,8,0:0:0:0:
256,192,58969,1,8,0:0:0:0:
256,192,59095,1,0,0:0:0:0:
256,192,59190,1,0,0:0:0:0:
256,192,59285,1,12,0:0:0:0:
256,192,59475,1,0,0:0:0:0:
256,192,59665,1,8,0:0:0:0:
256,192,59855,1,8,0:0:0:0:
256,192,60045,1,4,0:0:0:0:
256,192,60234,1,8,0:0:0:0:
256,192,60282,1,8,0:0:0:0:
256,192,60361,1,0,0:0:0:0:
256,192,60488,1,0,0:0:0:0:
256,192,60614,1,0,0:0:0:0:
256,192,60741,1,8,0:0:0:0:
256,192,60804,1,8,0:0:0:0:
256,192,60867,1,8,0:0:0:0:
256,192,60994,1,4,0:0:0:0:
256,192,61374,1,4,0:0:0:0:
256,192,61753,1,8,0:0:0:0:
256,192,61943,1,0,0:0:0:0:
256,192,62133,1,8,0:0:0:0:
256,192,62323,1,8,0:0:0:0:
256,192,62703,1,8,0:0:0:0:
256,192,62893,1,0,0:0:0:0:
256,192,63083,1,8,0:0:0:0:
256,192,63178,1,8,0:0:0:0:
256,192,63272,1,8,0:0:0:0:
256,192,63462,1,8,0:0:0:0:
256,192,63557,1,0,0:0:0:0:
256,192,63652,1,0,0:0:0:0:
256,192,63842,1,8,0:0:0:0:
256,192,64222,1,0,0:0:0:0:
256,192,64269,1,0,0:0:0:0:
256,192,64412,1,0,0:0:0:0:
256,192,64459,1,0,0:0:0:0:
256,192,64602,1,8,0:0:0:0:
256,192,64696,1,8,0:0:0:0:
256,192,64791,1,8,0:0:0:0:
256,192,64981,1,0,0:0:0:0:
256,192,65076,1,8,0:0:0:0:
256,192,65171,1,0,0:0:0:0:
256,192,65361,1,12,0:0:0:0:
256,192,65741,1,0,0:0:0:0:
256,192,65931,1,0,0:0:0:0:
256,192,66120,1,8,0:0:0:0:
256,192,66310,1,4,0:0:0:0:
256,192,66500,1,8,0:0:0:0:
256,192,66690,1,8,0:0:0:0:
256,192,66880,1,4,0:0:0:0:
256,192,67829,1,8,0:0:0:0:
256,192,68019,1,0,0:0:0:0:
256,192,68209,1,8,0:0:0:0:
256,192,68399,1,8,0:0:0:0:
256,192,68779,1,8,0:0:0:0:
256,192,68969,1,0,0:0:0:0:
256,192,69159,1,8,0:0:0:0:
256,192,69253,1,8,0:0:0:0:
256,192,69348,1,8,0:0:0:0:
256,192,69538,1,8,0:0:0:0:
256,192,69633,1,0,0:0:0:0:
256,192,69728,1,0,0:0:0:0:
256,192,69918,1,8,0:0:0:0:
256,192,70298,1,0,0:0:0:0:
256,192,70345,1,0,0:0:0:0:
256,192,70488,1,0,0:0:0:0:
256,192,70535,1,0,0:0:0:0:
256,192,70678,1,8,0:0:0:0:
256,192,70772,1,8,0:0:0:0:
256,192,70867,1,8,0:0:0:0:
256,192,71057,1,0,0:0:0:0:
256,192,71152,1,8,0:0:0:0:
256,192,71247,1,0,0:0:0:0:
256,192,71437,1,12,0:0:0:0:
256,192,71817,1,0,0:0:0:0:
256,192,72007,1,0,0:0:0:0:
256,192,72196,1,8,0:0:0:0:
256,192,72386,1,4,0:0:0:0:
256,192,72576,1,8,0:0:0:0:
256,192,72671,1,8,0:0:0:0:
256,192,72766,1,8,0:0:0:0:
256,192,72861,1,8,0:0:0:0:
256,192,72956,1,0,0:0:0:0:
256,192,73051,1,8,0:0:0:0:
256,192,73098,1,8,0:0:0:0:
256,192,73146,1,8,0:0:0:0:
256,192,73193,1,8,0:0:0:0:
256,192,73241,1,0,0:0:0:0:
256,192,73336,1,0,0:0:0:0:
256,192,73431,1,8,0:0:0:0:
256,192,73478,1,8,0:0:0:0:
256,192,73526,1,8,0:0:0:0:
256,192,73573,1,8,0:0:0:0:
256,192,73620,1,0,0:0:0:0:
256,192,73715,1,8,0:0:0:0:
256,192,73810,1,0,0:0:0:0:
256,192,73905,1,8,0:0:0:0:
256,192,74000,1,8,0:0:0:0:
256,192,74095,1,0,0:0:0:0:
256,192,74190,1,8,0:0:0:0:
256,192,74285,1,0,0:0:0:0:
256,192,74380,1,0,0:0:0:0:
256,192,74475,1,8,0:0:0:0:
256,192,74570,1,8,0:0:0:0:
256,192,74665,1,0,0:0:0:0:
256,192,74760,1,8,0:0:0:0:
256,192,74855,1,8,0:0:0:0:
256,192,74981,1,0,0:0:0:0:
256,192,75108,1,8,0:0:0:0:
256,192,75234,1,0,0:0:0:0:
256,192,75361,1,0,0:0:0:0:
256,192,75488,1,8,0:0:0:0:
256,192,75614,1,8,0:0:0:0:
256,192,75804,1,8,0:0:0:0:
256,192,76943,12,0,77892,0:0:0:0:
256,192,78088,5,4,0:0:0:0:
256,192,78277,1,8,0:0:0:0:
256,192,78467,1,8,0:0:0:0:
256,192,78657,1,8,0:0:0:0:
256,192,78847,1,8,0:0:0:0:
256,192,79037,1,8,0:0:0:0:
256,192,79227,1,8,0:0:0:0:
256,192,79417,1,8,0:0:0:0:
256,192,79606,1,0,0:0:0:0:
256,192,79795,1,0,0:0:0:0:
256,192,79985,1,8,0:0:0:0:
256,192,80033,1,8,0:0:0:0:
256,192,80175,1,4,0:0:0:0:
256,192,80365,1,0,0:0:0:0:
256,192,80555,1,0,0:0:0:0:
256,192,80745,1,12,0:0:0:0:
256,192,81314,1,0,0:0:0:0:
256,192,82074,1,8,0:0:0:0:
256,192,82833,1,0,0:0:0:0:
256,192,83593,1,8,0:0:0:0:
256,192,84352,1,8,0:0:0:0:
256,192,85112,1,0,0:0:0:0:
256,192,85871,1,8,0:0:0:0:
256,192,86156,12,0,86536,0:0:0:0:
256,192,86631,5,0,0:0:0:0:
256,192,86678,1,0,0:0:0:0:
256,192,86726,1,0,0:0:0:0:
256,192,86773,1,0,0:0:0:0:
256,192,86820,1,8,0:0:0:0:
256,192,87010,1,0,0:0:0:0:
256,192,87105,1,0,0:0:0:0:
256,192,87200,1,8,0:0:0:0:
256,192,87295,1,0,0:0:0:0:
256,192,87390,1,8,0:0:0:0:
256,192,87580,1,8,0:0:0:0:
256,192,87675,1,0,0:0:0:0:
256,192,87770,1,8,0:0:0:0:
256,192,87865,1,8,0:0:0:0:
256,192,87960,1,8,0:0:0:0:
256,192,88150,1,4,0:0:0:0:
256,192,88339,1,8,0:0:0:0:
256,192,88529,1,0,0:0:0:0:
256,192,88593,1,8,0:0:0:0:
256,192,88656,1,8,0:0:0:0:
256,192,88719,1,0,0:0:0:0:
256,192,88814,1,0,0:0:0:0:
256,192,88909,1,8,0:0:0:0:
256,192,89004,1,8,0:0:0:0:
256,192,89099,1,0,0:0:0:0:
256,192,89146,1,0,0:0:0:0:
256,192,89194,1,8,0:0:0:0:
256,192,89241,1,8,0:0:0:0:
256,192,89289,1,0,0:0:0:0:
256,192,89479,1,8,0:0:0:0:
256,192,89574,1,8,0:0:0:0:
256,192,89669,1,4,0:0:0:0:
256,192,89858,1,8,0:0:0:0:
256,192,89953,1,0,0:0:0:0:
256,192,90048,1,0,0:0:0:0:
256,192,90238,1,8,0:0:0:0:
256,192,90286,1,8,0:0:0:0:
256,192,90428,1,8,0:0:0:0:
256,192,90476,1,8,0:0:0:0:
256,192,90618,1,0,0:0:0:0:
256,192,90665,1,0,0:0:0:0:
256,192,90713,1,8,0:0:0:0:
256,192,90760,1,8,0:0:0:0:
256,192,90808,1,0,0:0:0:0:
256,192,90998,1,8,0:0:0:0:
256,192,91093,1,8,0:0:0:0:
256,192,91188,1,4,0:0:0:0:
256,192,91377,1,8,0:0:0:0:
256,192,91472,1,0,0:0:0:0:
256,192,91567,1,0,0:0:0:0:
256,192,91662,1,8,0:0:0:0:
256,192,91757,1,0,0:0:0:0:
256,192,91947,1,12,0:0:0:0:
256,192,92327,1,8,0:0:0:0:
256,192,92612,1,8,0:0:0:0:
256,192,92896,1,8,0:0:0:0:
256,192,93085,12,0,94225,0:0:0:0:
256,160,94414,5,8,0:0:0:0:
256,160,94462,1,8,0:0:0:0:
256,160,94509,1,8,0:0:0:0:
256,160,94604,1,0,0:0:0:0:
256,160,94699,1,0,0:0:0:0:
256,160,94794,1,8,0:0:0:0:
256,160,94921,1,8,0:0:0:0:
256,160,95047,1,8,0:0:0:0:
256,160,95174,1,4,0:0:0:0:
256,160,95458,1,8,0:0:0:0:
256,160,95743,1,8,0:0:0:0:
256,160,95996,1,8,0:0:0:0:
256,160,96249,1,8,0:0:0:0:
256,160,96503,1,8,0:0:0:0:
256,160,96692,1,8,0:0:0:0:
256,160,96882,1,8,0:0:0:0:
256,160,97009,1,8,0:0:0:0:
256,160,97136,1,8,0:0:0:0:
256,160,97262,1,0,0:0:0:0:
256,160,97310,1,0,0:0:0:0:
256,160,97357,1,0,0:0:0:0:
256,160,97405,1,0,0:0:0:0:
256,160,97452,1,8,0:0:0:0:
256,160,97579,1,8,0:0:0:0:
256,160,97705,1,8,0:0:0:0:
256,160,97832,1,0,0:0:0:0:
256,160,97927,1,0,0:0:0:0:
256,160,98022,1,8,0:0:0:0:
256,160,98117,1,8,0:0:0:0:
256,160,98211,1,0,0:0:0:0:
256,192,98306,12,0,99351,0:0:0:0:
256,192,99541,5,0,0:0:0:0:
256,192,99730,1,0,0:0:0:0:
256,192,99920,1,12,0:0:0:0:
256,192,100047,1,12,0:0:0:0:
256,192,100174,1,12,0:0:0:0:
256,192,100490,1,4,0:0:0:0:
