osu file format v14

[General]
AudioFilename: audio.mp3
AudioLeadIn: 0
PreviewTime: 26789
Countdown: 0
SampleSet: Normal
StackLeniency: 0.7
Mode: 3
LetterboxInBreaks: 0
SpecialStyle: 0
WidescreenStoryboard: 1

[Editor]
Bookmarks: 13144,38963
DistanceSpacing: 0.8
BeatDivisor: 4
GridSize: 32
TimelineZoom: 2.7

[Metadata]
Title:[@__@]
TitleUnicode:[@__@]
Artist:Chroma
ArtistUnicode:黒魔
Creator:AHHHHHHHHHHHHHH
Version:Normal
Source:
Tags:ahx14 Robot & Human fa featured artist mappers' guild mg CHRO-0006 electronic instrumental kuroma 関川聖城 Masaki Sekikawa
BeatmapID:3527482
BeatmapSetID:1726083

[Difficulty]
HPDrainRate:7
CircleSize:4
OverallDifficulty:7
ApproachRate:5
SliderMultiplier:1.4
SliderTickRate:1

[Events]
//Background and Video events
0,0,"chroma.png",0,0
//Break Periods
//Storyboard Layer 0 (Background)
//Storyboard Layer 1 (Fail)
//Storyboard Layer 2 (Pass)
//Storyboard Layer 3 (Foreground)
//Storyboard Layer 4 (Overlay)
//Storyboard Sound Samples

[TimingPoints]
993,379.746835443038,4,1,1,50,1,0
13144,379.746835443038,6,1,1,50,1,0
19219,379.746835443038,6,1,1,50,1,0
23775,379.746835443038,4,1,1,50,1,0
26812,379.746835443038,4,1,1,50,1,0
38963,379.746835443038,6,1,1,50,1,0
45038,379.746835443038,6,1,1,50,1,0
50924,379.746835443038,4,1,1,50,1,0
55480,379.746835443038,4,1,1,50,1,8
55668,379.746835443038,4,1,1,50,1,0
78073,379.746835443038,4,1,1,50,1,0
80731,379.746835443038,4,1,1,50,1,0
86806,-100,4,1,1,50,0,1
92882,379.746835443038,6,1,1,50,1,0
95160,379.746835443038,4,1,1,50,1,0

[HitObjects]
320,192,993,5,0,0:0:0:0:
64,192,993,1,0,0:0:0:0:
192,192,1182,1,0,0:0:0:0:
448,192,1372,1,0,0:0:0:0:
192,192,1562,1,0,0:0:0:0:
320,192,1562,1,0,0:0:0:0:
192,192,1942,1,0,0:0:0:0:
448,192,2132,1,0,0:0:0:0:
320,192,2322,1,0,0:0:0:0:
64,192,2322,1,0,0:0:0:0:
64,192,2701,1,0,0:0:0:0:
192,192,2765,1,0,0:0:0:0:
448,192,2828,1,0,0:0:0:0:
320,192,2891,1,0,0:0:0:0:
64,192,3081,1,0,0:0:0:0:
192,192,3081,1,0,0:0:0:0:
64,192,3461,1,0,0:0:0:0:
448,192,3651,1,0,0:0:0:0:
320,192,3841,1,0,0:0:0:0:
64,192,3841,1,0,0:0:0:0:
192,192,4220,1,0,0:0:0:0:
448,192,4410,1,0,0:0:0:0:
320,192,4600,1,0,0:0:0:0:
192,192,4600,1,0,0:0:0:0:
320,192,4980,1,0,0:0:0:0:
64,192,5170,1,0,0:0:0:0:
320,192,5360,1,0,0:0:0:0:
448,192,5360,1,0,0:0:0:0:
320,192,5739,1,0,0:0:0:0:
64,192,5929,1,0,0:0:0:0:
192,192,6119,1,0,0:0:0:0:
320,192,6119,1,0,0:0:0:0:
320,192,7068,5,0,0:0:0:0:
64,192,7068,1,0,0:0:0:0:
192,192,7258,1,0,0:0:0:0:
448,192,7448,1,0,0:0:0:0:
192,192,7638,1,0,0:0:0:0:
320,192,7638,1,0,0:0:0:0:
192,192,8018,1,0,0:0:0:0:
448,192,8208,1,0,0:0:0:0:
320,192,8398,1,0,0:0:0:0:
64,192,8398,1,0,0:0:0:0:
64,192,8777,1,0,0:0:0:0:
192,192,8841,1,0,0:0:0:0:
448,192,8904,1,0,0:0:0:0:
320,192,8967,1,0,0:0:0:0:
64,192,9157,1,0,0:0:0:0:
192,192,9157,1,0,0:0:0:0:
64,192,9537,1,0,0:0:0:0:
448,192,9727,1,0,0:0:0:0:
320,192,9917,1,0,0:0:0:0:
64,192,9917,1,0,0:0:0:0:
192,192,10296,1,0,0:0:0:0:
448,192,10486,1,0,0:0:0:0:
320,192,10676,1,0,0:0:0:0:
192,192,10676,1,0,0:0:0:0:
320,192,11056,1,0,0:0:0:0:
64,192,11246,1,0,0:0:0:0:
320,192,11436,1,0,0:0:0:0:
448,192,11436,1,0,0:0:0:0:
320,192,11815,1,0,0:0:0:0:
64,192,12005,1,0,0:0:0:0:
448,192,12195,1,0,0:0:0:0:
320,192,12195,1,0,0:0:0:0:
320,192,12575,1,0,0:0:0:0:
192,192,12575,1,0,0:0:0:0:
64,192,12860,1,0,0:0:0:0:
320,192,12860,1,0,0:0:0:0:
192,192,13144,1,0,0:0:0:0:
64,192,13144,1,0,0:0:0:0:
320,192,13238,1,0,0:0:0:0:
448,192,13333,1,0,0:0:0:0:
192,192,13428,1,0,0:0:0:0:
64,192,13523,1,0,0:0:0:0:
320,192,13618,1,0,0:0:0:0:
64,192,13713,1,0,0:0:0:0:
448,192,13713,1,0,0:0:0:0:
320,192,14093,1,0,0:0:0:0:
64,192,14283,1,0,0:0:0:0:
448,192,14283,1,0,0:0:0:0:
192,192,14378,1,0,0:0:0:0:
320,192,14473,1,0,0:0:0:0:
64,192,14568,1,0,0:0:0:0:
192,192,14662,1,0,0:0:0:0:
448,192,14757,1,0,0:0:0:0:
320,192,14852,1,0,0:0:0:0:
64,192,14852,1,0,0:0:0:0:
448,192,15232,1,0,0:0:0:0:
192,192,15422,1,0,0:0:0:0:
64,192,15422,1,0,0:0:0:0:
320,192,15802,1,0,0:0:0:0:
64,192,15802,1,0,0:0:0:0:
320,192,16181,1,0,0:0:0:0:
192,192,16181,1,0,0:0:0:0:
64,192,16371,1,0,0:0:0:0:
448,192,16561,1,0,0:0:0:0:
320,192,16751,1,0,0:0:0:0:
64,192,16751,1,0,0:0:0:0:
64,192,17131,1,0,0:0:0:0:
192,192,17511,1,0,0:0:0:0:
448,192,17511,1,0,0:0:0:0:
192,192,19219,1,0,0:0:0:0:
64,192,19219,1,0,0:0:0:0:
320,192,19313,1,0,0:0:0:0:
448,192,19408,1,0,0:0:0:0:
192,192,19503,1,0,0:0:0:0:
64,192,19598,1,0,0:0:0:0:
320,192,19693,1,0,0:0:0:0:
64,192,19788,1,0,0:0:0:0:
448,192,19788,1,0,0:0:0:0:
320,192,20168,1,0,0:0:0:0:
64,192,20358,1,0,0:0:0:0:
448,192,20358,1,0,0:0:0:0:
192,192,20453,1,0,0:0:0:0:
320,192,20548,1,0,0:0:0:0:
64,192,20643,1,0,0:0:0:0:
192,192,20737,1,0,0:0:0:0:
448,192,20832,1,0,0:0:0:0:
320,192,20927,1,0,0:0:0:0:
64,192,20927,1,0,0:0:0:0:
448,192,21307,1,0,0:0:0:0:
192,192,21497,1,0,0:0:0:0:
64,192,21497,1,0,0:0:0:0:
320,192,21877,1,0,0:0:0:0:
64,192,21877,1,0,0:0:0:0:
320,192,22256,1,0,0:0:0:0:
192,192,22256,1,0,0:0:0:0:
64,192,22446,1,0,0:0:0:0:
448,192,22636,1,0,0:0:0:0:
320,192,22826,1,0,0:0:0:0:
64,192,22826,1,0,0:0:0:0:
64,192,23206,1,0,0:0:0:0:
192,192,23586,1,0,0:0:0:0:
448,192,23586,1,0,0:0:0:0:
64,192,23964,1,0,0:0:0:0:
320,192,24154,1,0,0:0:0:0:
192,192,24344,1,0,0:0:0:0:
448,192,24344,1,0,0:0:0:0:
64,192,24724,1,0,0:0:0:0:
320,192,24914,1,0,0:0:0:0:
192,192,25104,1,0,0:0:0:0:
448,192,25104,1,0,0:0:0:0:
64,192,25483,1,0,0:0:0:0:
448,192,25673,1,0,0:0:0:0:
64,192,25863,1,0,0:0:0:0:
320,192,26053,1,0,0:0:0:0:
192,192,26148,1,0,0:0:0:0:
320,192,26243,128,0,26433:0:0:0:0:
192,192,26433,1,0,0:0:0:0:
64,192,26433,1,0,0:0:0:0:
320,192,26812,5,0,0:0:0:0:
64,192,26812,1,0,0:0:0:0:
192,192,27001,1,0,0:0:0:0:
448,192,27191,1,0,0:0:0:0:
192,192,27381,1,0,0:0:0:0:
320,192,27381,1,0,0:0:0:0:
64,192,27571,1,0,0:0:0:0:
192,192,27761,1,0,0:0:0:0:
320,192,27856,1,0,0:0:0:0:
448,192,27951,1,0,0:0:0:0:
192,192,28046,1,0,0:0:0:0:
320,192,28141,1,0,0:0:0:0:
64,192,28141,1,0,0:0:0:0:
448,192,28330,1,0,0:0:0:0:
64,192,28520,1,0,0:0:0:0:
192,192,28584,1,0,0:0:0:0:
448,192,28647,1,0,0:0:0:0:
320,192,28710,1,0,0:0:0:0:
192,192,28900,1,0,0:0:0:0:
64,192,28900,128,0,29090:0:0:0:0:
448,192,29090,1,0,0:0:0:0:
320,192,29185,1,0,0:0:0:0:
64,192,29280,1,0,0:0:0:0:
192,192,29280,1,0,0:0:0:0:
448,192,29470,1,0,0:0:0:0:
320,192,29660,1,0,0:0:0:0:
64,192,29660,1,0,0:0:0:0:
448,192,29849,1,0,0:0:0:0:
192,192,30039,1,0,0:0:0:0:
448,192,30229,1,0,0:0:0:0:
320,192,30419,1,0,0:0:0:0:
192,192,30419,1,0,0:0:0:0:
64,192,30609,1,0,0:0:0:0:
192,192,30704,1,0,0:0:0:0:
320,192,30799,1,0,0:0:0:0:
448,192,30799,1,0,0:0:0:0:
64,192,30989,1,0,0:0:0:0:
320,192,31179,1,0,0:0:0:0:
448,192,31179,1,0,0:0:0:0:
192,192,31368,1,0,0:0:0:0:
320,192,31558,1,0,0:0:0:0:
64,192,31748,1,0,0:0:0:0:
192,192,31938,1,0,0:0:0:0:
320,192,31938,1,0,0:0:0:0:
448,192,32318,128,0,32698:0:0:0:0:
64,192,32508,128,0,32698:0:0:0:0:
192,192,32698,1,0,0:0:0:0:
320,192,32887,5,0,0:0:0:0:
64,192,32887,1,0,0:0:0:0:
192,192,33077,1,0,0:0:0:0:
448,192,33267,1,0,0:0:0:0:
192,192,33457,1,0,0:0:0:0:
320,192,33457,1,0,0:0:0:0:
64,192,33647,1,0,0:0:0:0:
192,192,33837,1,0,0:0:0:0:
320,192,33932,1,0,0:0:0:0:
448,192,34027,1,0,0:0:0:0:
192,192,34122,1,0,0:0:0:0:
320,192,34217,1,0,0:0:0:0:
64,192,34217,1,0,0:0:0:0:
448,192,34406,1,0,0:0:0:0:
64,192,34596,1,0,0:0:0:0:
192,192,34660,1,0,0:0:0:0:
448,192,34723,1,0,0:0:0:0:
320,192,34786,1,0,0:0:0:0:
192,192,34976,1,0,0:0:0:0:
64,192,34976,128,0,35166:0:0:0:0:
448,192,35166,1,0,0:0:0:0:
320,192,35261,1,0,0:0:0:0:
64,192,35356,1,0,0:0:0:0:
192,192,35356,1,0,0:0:0:0:
448,192,35546,1,0,0:0:0:0:
320,192,35736,1,0,0:0:0:0:
64,192,35736,1,0,0:0:0:0:
448,192,35925,1,0,0:0:0:0:
192,192,36115,1,0,0:0:0:0:
448,192,36305,1,0,0:0:0:0:
320,192,36495,1,0,0:0:0:0:
192,192,36495,1,0,0:0:0:0:
64,192,36685,1,0,0:0:0:0:
192,192,36780,1,0,0:0:0:0:
320,192,36875,1,0,0:0:0:0:
448,192,36875,1,0,0:0:0:0:
64,192,37065,1,0,0:0:0:0:
320,192,37255,1,0,0:0:0:0:
448,192,37255,1,0,0:0:0:0:
192,192,37444,1,0,0:0:0:0:
320,192,37634,1,0,0:0:0:0:
64,192,37824,1,0,0:0:0:0:
448,192,38014,1,0,0:0:0:0:
320,192,38014,1,0,0:0:0:0:
320,192,38394,1,0,0:0:0:0:
192,192,38394,1,0,0:0:0:0:
64,192,38679,1,0,0:0:0:0:
320,192,38679,1,0,0:0:0:0:
192,192,38963,1,0,0:0:0:0:
64,192,38963,1,0,0:0:0:0:
320,192,39057,1,0,0:0:0:0:
448,192,39152,1,0,0:0:0:0:
192,192,39247,1,0,0:0:0:0:
64,192,39342,1,0,0:0:0:0:
320,192,39437,1,0,0:0:0:0:
448,192,39532,1,0,0:0:0:0:
64,192,39532,128,0,39722:0:0:0:0:
192,192,39722,128,0,39912:0:0:0:0:
320,192,39912,128,0,40102:0:0:0:0:
64,192,40102,1,0,0:0:0:0:
448,192,40102,1,0,0:0:0:0:
192,192,40197,1,0,0:0:0:0:
320,192,40292,1,0,0:0:0:0:
64,192,40387,1,0,0:0:0:0:
192,192,40481,1,0,0:0:0:0:
448,192,40576,1,0,0:0:0:0:
64,192,40671,1,0,0:0:0:0:
320,192,40671,128,0,40861:0:0:0:0:
192,192,40861,128,0,41051:0:0:0:0:
448,192,41051,128,0,41241:0:0:0:0:
192,192,41241,1,0,0:0:0:0:
64,192,41241,1,0,0:0:0:0:
320,192,41621,1,0,0:0:0:0:
64,192,41621,1,0,0:0:0:0:
320,192,42000,1,0,0:0:0:0:
192,192,42000,1,0,0:0:0:0:
448,192,42095,1,0,0:0:0:0:
64,192,42190,1,0,0:0:0:0:
192,192,42285,1,0,0:0:0:0:
448,192,42380,1,0,0:0:0:0:
320,192,42570,1,0,0:0:0:0:
64,192,42570,1,0,0:0:0:0:
192,192,42760,1,0,0:0:0:0:
448,192,42855,1,0,0:0:0:0:
64,192,42950,1,0,0:0:0:0:
320,192,43045,1,0,0:0:0:0:
192,192,43140,1,0,0:0:0:0:
64,192,43140,1,0,0:0:0:0:
448,192,43330,1,0,0:0:0:0:
320,192,43330,1,0,0:0:0:0:
64,192,43519,1,0,0:0:0:0:
192,192,43709,1,0,0:0:0:0:
448,192,43899,1,0,0:0:0:0:
320,192,44089,1,0,0:0:0:0:
64,192,44279,128,0,44469:0:0:0:0:
192,192,44469,128,0,44659:0:0:0:0:
320,192,44659,128,0,44849:0:0:0:0:
448,192,44849,128,0,45038:0:0:0:0:
192,192,45038,1,0,0:0:0:0:
64,192,45038,1,0,0:0:0:0:
320,192,45132,1,0,0:0:0:0:
448,192,45227,1,0,0:0:0:0:
192,192,45322,1,0,0:0:0:0:
64,192,45417,1,0,0:0:0:0:
320,192,45512,1,0,0:0:0:0:
448,192,45607,1,0,0:0:0:0:
64,192,45607,128,0,45797:0:0:0:0:
192,192,45797,128,0,45987:0:0:0:0:
320,192,45987,128,0,46177:0:0:0:0:
64,192,46177,1,0,0:0:0:0:
448,192,46177,1,0,0:0:0:0:
192,192,46272,1,0,0:0:0:0:
320,192,46367,1,0,0:0:0:0:
64,192,46462,1,0,0:0:0:0:
192,192,46556,1,0,0:0:0:0:
448,192,46651,1,0,0:0:0:0:
64,192,46746,1,0,0:0:0:0:
320,192,46746,128,0,46936:0:0:0:0:
192,192,46936,128,0,47126:0:0:0:0:
448,192,47126,128,0,47316:0:0:0:0:
192,192,47316,1,0,0:0:0:0:
64,192,47316,1,0,0:0:0:0:
320,192,47696,1,0,0:0:0:0:
64,192,47696,1,0,0:0:0:0:
320,192,48075,1,0,0:0:0:0:
192,192,48075,1,0,0:0:0:0:
448,192,48170,1,0,0:0:0:0:
64,192,48265,1,0,0:0:0:0:
192,192,48360,1,0,0:0:0:0:
448,192,48455,1,0,0:0:0:0:
320,192,48645,1,0,0:0:0:0:
64,192,48645,1,0,0:0:0:0:
192,192,48835,1,0,0:0:0:0:
448,192,48930,1,0,0:0:0:0:
64,192,49025,1,0,0:0:0:0:
320,192,49120,1,0,0:0:0:0:
192,192,49215,1,0,0:0:0:0:
64,192,49215,1,0,0:0:0:0:
448,192,49405,128,0,49784:0:0:0:0:
320,192,49405,128,0,49784:0:0:0:0:
64,192,49784,1,0,0:0:0:0:
192,192,49974,1,0,0:0:0:0:
64,192,50164,128,0,50544:0:0:0:0:
192,192,50164,128,0,50544:0:0:0:0:
448,192,50544,1,0,0:0:0:0:
320,192,50734,1,0,0:0:0:0:
448,192,50924,1,0,0:0:0:0:
320,192,50924,1,0,0:0:0:0:
320,192,51208,1,0,0:0:0:0:
448,192,51208,1,0,0:0:0:0:
448,192,51493,1,0,0:0:0:0:
192,192,51493,1,0,0:0:0:0:
448,192,51746,1,0,0:0:0:0:
192,192,51746,1,0,0:0:0:0:
320,192,51999,1,0,0:0:0:0:
64,192,51999,1,0,0:0:0:0:
320,192,52253,1,0,0:0:0:0:
64,192,52253,1,0,0:0:0:0:
192,192,52442,1,0,0:0:0:0:
64,192,52442,1,0,0:0:0:0:
448,192,52632,1,0,0:0:0:0:
320,192,52632,1,0,0:0:0:0:
192,192,52759,1,0,0:0:0:0:
320,192,52886,1,0,0:0:0:0:
448,192,52886,1,0,0:0:0:0:
192,192,53202,1,0,0:0:0:0:
64,192,53202,1,0,0:0:0:0:
448,192,53329,1,0,0:0:0:0:
192,192,53455,1,0,0:0:0:0:
64,192,53455,1,0,0:0:0:0:
320,192,53582,128,0,53961:0:0:0:0:
192,192,53961,128,0,54721:0:0:0:0:
448,192,54341,128,0,55101:0:0:0:0:
64,192,55101,1,0,0:0:0:0:
192,192,55196,1,0,0:0:0:0:
320,192,55291,1,0,0:0:0:0:
64,192,55386,1,0,0:0:0:0:
448,192,55480,1,0,0:0:0:0:
320,192,55668,1,0,0:0:0:0:
64,192,55668,1,0,0:0:0:0:
192,192,55857,1,0,0:0:0:0:
64,192,56047,1,0,0:0:0:0:
320,192,56237,1,0,0:0:0:0:
448,192,56237,1,0,0:0:0:0:
192,192,56427,1,0,0:0:0:0:
320,192,56522,1,0,0:0:0:0:
448,192,56617,1,0,0:0:0:0:
192,192,56807,1,0,0:0:0:0:
448,192,56997,1,0,0:0:0:0:
64,192,56997,1,0,0:0:0:0:
320,192,57313,1,0,0:0:0:0:
192,192,57440,1,0,0:0:0:0:
320,192,57566,1,0,0:0:0:0:
64,192,57693,1,0,0:0:0:0:
320,192,57819,1,0,0:0:0:0:
64,192,57946,1,0,0:0:0:0:
448,192,57946,1,0,0:0:0:0:
192,192,58136,1,0,0:0:0:0:
448,192,58231,1,0,0:0:0:0:
320,192,58326,1,0,0:0:0:0:
64,192,58326,1,0,0:0:0:0:
320,192,58537,1,0,0:0:0:0:
192,192,58621,1,0,0:0:0:0:
64,192,58705,1,0,0:0:0:0:
448,192,58832,1,0,0:0:0:0:
192,192,58959,1,0,0:0:0:0:
448,192,59085,1,0,0:0:0:0:
320,192,59180,1,0,0:0:0:0:
64,192,59275,1,0,0:0:0:0:
192,192,59275,1,0,0:0:0:0:
448,192,59465,1,0,0:0:0:0:
64,192,59655,1,0,0:0:0:0:
448,192,59845,1,0,0:0:0:0:
320,192,60035,1,0,0:0:0:0:
192,192,60035,1,0,0:0:0:0:
64,192,60224,1,0,0:0:0:0:
320,192,60351,1,0,0:0:0:0:
64,192,60478,1,0,0:0:0:0:
192,192,60604,1,0,0:0:0:0:
320,192,60731,1,0,0:0:0:0:
448,192,60794,1,0,0:0:0:0:
64,192,60857,1,0,0:0:0:0:
320,192,60984,1,0,0:0:0:0:
448,192,60984,1,0,0:0:0:0:
192,192,61364,1,0,0:0:0:0:
448,192,61364,1,0,0:0:0:0:
320,192,61743,1,0,0:0:0:0:
64,192,61933,1,0,0:0:0:0:
448,192,62123,1,0,0:0:0:0:
320,192,62313,1,0,0:0:0:0:
192,192,62313,1,0,0:0:0:0:
320,192,62693,1,0,0:0:0:0:
64,192,62883,1,0,0:0:0:0:
192,192,63073,1,0,0:0:0:0:
448,192,63168,1,0,0:0:0:0:
320,192,63262,1,0,0:0:0:0:
192,192,63452,1,0,0:0:0:0:
64,192,63547,1,0,0:0:0:0:
320,192,63642,1,0,0:0:0:0:
448,192,63832,1,0,0:0:0:0:
192,192,63832,1,0,0:0:0:0:
320,192,64212,1,0,0:0:0:0:
64,192,64402,1,0,0:0:0:0:
192,192,64592,1,0,0:0:0:0:
320,192,64686,1,0,0:0:0:0:
448,192,64781,1,0,0:0:0:0:
64,192,64781,1,0,0:0:0:0:
320,192,64971,1,0,0:0:0:0:
192,192,65161,1,0,0:0:0:0:
448,192,65351,1,0,0:0:0:0:
320,192,65351,1,0,0:0:0:0:
192,192,65731,1,0,0:0:0:0:
64,192,65921,1,0,0:0:0:0:
320,192,66111,1,0,0:0:0:0:
192,192,66300,1,0,0:0:0:0:
448,192,66300,1,0,0:0:0:0:
64,192,66490,1,0,0:0:0:0:
448,192,66680,1,0,0:0:0:0:
448,192,66870,1,0,0:0:0:0:
192,192,66870,1,0,0:0:0:0:
320,192,67819,1,0,0:0:0:0:
64,192,68009,1,0,0:0:0:0:
448,192,68199,1,0,0:0:0:0:
320,192,68389,1,0,0:0:0:0:
192,192,68389,1,0,0:0:0:0:
320,192,68769,1,0,0:0:0:0:
64,192,68959,1,0,0:0:0:0:
192,192,69149,1,0,0:0:0:0:
448,192,69243,1,0,0:0:0:0:
320,192,69338,1,0,0:0:0:0:
192,192,69528,1,0,0:0:0:0:
64,192,69623,1,0,0:0:0:0:
320,192,69718,1,0,0:0:0:0:
448,192,69908,1,0,0:0:0:0:
192,192,69908,1,0,0:0:0:0:
320,192,70288,1,0,0:0:0:0:
64,192,70478,1,0,0:0:0:0:
192,192,70668,1,0,0:0:0:0:
320,192,70762,1,0,0:0:0:0:
448,192,70857,1,0,0:0:0:0:
64,192,70857,1,0,0:0:0:0:
320,192,71047,1,0,0:0:0:0:
192,192,71237,1,0,0:0:0:0:
448,192,71427,1,0,0:0:0:0:
320,192,71427,1,0,0:0:0:0:
192,192,71807,1,0,0:0:0:0:
64,192,71997,1,0,0:0:0:0:
320,192,72186,1,0,0:0:0:0:
192,192,72376,1,0,0:0:0:0:
448,192,72376,1,0,0:0:0:0:
64,192,72566,1,0,0:0:0:0:
192,192,72661,1,0,0:0:0:0:
320,192,72756,1,0,0:0:0:0:
64,192,72851,1,0,0:0:0:0:
192,192,72946,1,0,0:0:0:0:
448,192,72946,128,0,73136:0:0:0:0:
320,192,73136,1,0,0:0:0:0:
192,192,73231,1,0,0:0:0:0:
448,192,73326,1,0,0:0:0:0:
64,192,73326,128,0,73516:0:0:0:0:
192,192,73516,1,0,0:0:0:0:
320,192,73611,1,0,0:0:0:0:
448,192,73705,1,0,0:0:0:0:
64,192,73705,1,0,0:0:0:0:
64,192,73895,1,0,0:0:0:0:
320,192,74085,1,0,0:0:0:0:
192,192,74275,1,0,0:0:0:0:
64,192,74465,1,0,0:0:0:0:
320,192,74560,1,0,0:0:0:0:
192,192,74750,1,0,0:0:0:0:
448,192,74845,1,0,0:0:0:0:
320,192,74971,1,0,0:0:0:0:
64,192,75098,1,0,0:0:0:0:
192,192,75224,1,0,0:0:0:0:
320,192,75351,1,0,0:0:0:0:
64,192,75478,1,0,0:0:0:0:
320,192,75604,1,0,0:0:0:0:
448,192,75794,1,0,0:0:0:0:
448,192,76554,128,0,78073:0:0:0:0:
192,192,78073,1,0,0:0:0:0:
64,192,78073,1,0,0:0:0:0:
320,192,78262,1,0,0:0:0:0:
320,192,78452,1,0,0:0:0:0:
64,192,78642,1,0,0:0:0:0:
64,192,78832,1,0,0:0:0:0:
320,192,79022,128,0,79212:0:0:0:0:
64,192,79212,128,0,79591:0:0:0:0:
320,192,79402,128,0,79591:0:0:0:0:
448,192,79591,1,0,0:0:0:0:
192,192,79781,1,0,0:0:0:0:
320,192,79971,1,0,0:0:0:0:
192,192,80161,1,0,0:0:0:0:
64,192,80161,1,0,0:0:0:0:
448,192,80351,1,0,0:0:0:0:
448,192,80541,1,0,0:0:0:0:
64,192,80731,1,0,0:0:0:0:
192,192,80920,1,0,0:0:0:0:
448,192,81110,1,0,0:0:0:0:
320,192,81300,1,0,0:0:0:0:
192,192,81680,1,0,0:0:0:0:
448,192,81870,1,0,0:0:0:0:
320,192,82060,1,0,0:0:0:0:
64,192,82439,1,0,0:0:0:0:
192,192,82503,1,0,0:0:0:0:
448,192,82566,1,0,0:0:0:0:
320,192,82629,1,0,0:0:0:0:
64,192,82819,1,0,0:0:0:0:
64,192,83199,1,0,0:0:0:0:
448,192,83389,1,0,0:0:0:0:
320,192,83579,1,0,0:0:0:0:
192,192,83958,1,0,0:0:0:0:
448,192,84148,1,0,0:0:0:0:
320,192,84338,1,0,0:0:0:0:
320,192,84718,1,0,0:0:0:0:
64,192,84908,1,0,0:0:0:0:
448,192,85098,1,0,0:0:0:0:
320,192,85477,1,0,0:0:0:0:
64,192,85667,1,0,0:0:0:0:
192,192,85857,1,0,0:0:0:0:
320,192,86047,128,0,86617:0:0:0:0:
64,192,86617,1,0,0:0:0:0:
192,192,86680,1,0,0:0:0:0:
320,192,86743,1,0,0:0:0:0:
448,192,86806,1,0,0:0:0:0:
64,192,86806,1,0,0:0:0:0:
192,192,86996,1,0,0:0:0:0:
320,192,87091,1,0,0:0:0:0:
64,192,87091,1,0,0:0:0:0:
448,192,87186,1,0,0:0:0:0:
192,192,87376,1,0,0:0:0:0:
320,192,87376,1,0,0:0:0:0:
64,192,87566,1,0,0:0:0:0:
448,192,87661,1,0,0:0:0:0:
320,192,87661,1,0,0:0:0:0:
192,192,87851,1,0,0:0:0:0:
448,192,87946,1,0,0:0:0:0:
320,192,87946,1,0,0:0:0:0:
320,192,88136,1,0,0:0:0:0:
64,192,88136,1,0,0:0:0:0:
448,192,88325,1,0,0:0:0:0:
64,192,88515,1,0,0:0:0:0:
192,192,88579,1,0,0:0:0:0:
448,192,88642,1,0,0:0:0:0:
320,192,88705,1,0,0:0:0:0:
192,192,88895,1,0,0:0:0:0:
64,192,88895,128,0,89085:0:0:0:0:
448,192,89085,1,0,0:0:0:0:
320,192,89180,1,0,0:0:0:0:
192,192,89180,1,0,0:0:0:0:
64,192,89275,1,0,0:0:0:0:
448,192,89465,1,0,0:0:0:0:
320,192,89655,1,0,0:0:0:0:
64,192,89655,1,0,0:0:0:0:
448,192,89844,1,0,0:0:0:0:
64,192,89939,1,0,0:0:0:0:
192,192,90034,1,0,0:0:0:0:
448,192,90224,1,0,0:0:0:0:
320,192,90414,1,0,0:0:0:0:
192,192,90414,1,0,0:0:0:0:
64,192,90604,1,0,0:0:0:0:
192,192,90699,1,0,0:0:0:0:
320,192,90794,1,0,0:0:0:0:
448,192,90794,1,0,0:0:0:0:
64,192,90984,1,0,0:0:0:0:
320,192,91174,1,0,0:0:0:0:
448,192,91174,1,0,0:0:0:0:
192,192,91363,1,0,0:0:0:0:
448,192,91458,1,0,0:0:0:0:
320,192,91553,1,0,0:0:0:0:
64,192,91743,1,0,0:0:0:0:
192,192,91838,1,0,0:0:0:0:
448,192,91933,1,0,0:0:0:0:
320,192,91933,1,0,0:0:0:0:
320,192,92313,1,0,0:0:0:0:
192,192,92313,1,0,0:0:0:0:
64,192,92598,1,0,0:0:0:0:
320,192,92598,1,0,0:0:0:0:
192,192,92882,1,0,0:0:0:0:
64,192,92882,1,0,0:0:0:0:
64,192,93071,1,0,0:0:0:0:
192,192,93261,1,0,0:0:0:0:
448,192,93451,1,0,0:0:0:0:
320,192,93641,1,0,0:0:0:0:
64,192,93831,128,0,94021:0:0:0:0:
192,192,94021,128,0,94211:0:0:0:0:
320,192,94211,128,0,94400:0:0:0:0:
448,192,94400,1,0,0:0:0:0:
192,192,94495,1,0,0:0:0:0:
64,192,94590,1,0,0:0:0:0:
320,192,94685,1,0,0:0:0:0:
448,192,94780,1,0,0:0:0:0:
192,192,94907,1,0,0:0:0:0:
320,192,95033,1,0,0:0:0:0:
64,192,95160,1,0,0:0:0:0:
192,192,95160,1,0,0:0:0:0:
192,192,95444,1,0,0:0:0:0:
64,192,95444,1,0,0:0:0:0:
64,192,95729,1,0,0:0:0:0:
320,192,95729,1,0,0:0:0:0:
64,192,95982,1,0,0:0:0:0:
320,192,95982,1,0,0:0:0:0:
192,192,96235,1,0,0:0:0:0:
448,192,96235,1,0,0:0:0:0:
192,192,96489,1,0,0:0:0:0:
448,192,96489,1,0,0:0:0:0:
320,192,96678,1,0,0:0:0:0:
448,192,96678,1,0,0:0:0:0:
64,192,96868,1,0,0:0:0:0:
192,192,96868,1,0,0:0:0:0:
320,192,96995,1,0,0:0:0:0:
192,192,97122,1,0,0:0:0:0:
64,192,97122,1,0,0:0:0:0:
320,192,97438,1,0,0:0:0:0:
448,192,97438,1,0,0:0:0:0:
64,192,97565,1,0,0:0:0:0:
320,192,97691,1,0,0:0:0:0:
448,192,97691,1,0,0:0:0:0:
192,192,97818,128,0,98197:0:0:0:0:
320,192,98197,128,0,98957:0:0:0:0:
64,192,98577,128,0,99527:0:0:0:0:
448,192,99527,1,0,0:0:0:0:
192,192,99716,1,0,0:0:0:0:
448,192,99906,1,0,0:0:0:0:
320,192,99906,1,0,0:0:0:0:
192,192,100033,1,0,0:0:0:0:
64,192,100033,1,0,0:0:0:0:
320,192,100160,1,0,0:0:0:0:
448,192,100160,1,0,0:0:0:0:
64,192,100476,1,0,0:0:0:0:
