osu file format v14

[General]
AudioFilename: audio.mp3
AudioLeadIn: 0
PreviewTime: 26789
Countdown: 0
SampleSet: Normal
StackLeniency: 0.7
Mode: 3
LetterboxInBreaks: 0
SpecialStyle: 0
WidescreenStoryboard: 1

[Editor]
Bookmarks: 13144,38963
DistanceSpacing: 0.8
BeatDivisor: 3
GridSize: 32
TimelineZoom: 2.7

[Metadata]
Title:[@__@]
TitleUnicode:[@__@]
Artist:Chroma
ArtistUnicode:黒魔
Creator:AHHHHHHHHHHHHHH
Version:[OwO]
Source:
Tags:ahx14 Robot & Human fa featured artist mappers' guild mg CHRO-0006 electronic instrumental kuroma 関川聖城 Masaki Sekikawa
BeatmapID:3527480
BeatmapSetID:1726083

[Difficulty]
HPDrainRate:8
CircleSize:4
OverallDifficulty:8
ApproachRate:5
SliderMultiplier:1.4
SliderTickRate:1

[Events]
//Background and Video events
0,0,"chroma.png",0,0
//Break Periods
//Storyboard Layer 0 (Background)
//Storyboard Layer 1 (Fail)
//Storyboard Layer 2 (Pass)
//Storyboard Layer 3 (Foreground)
//Storyboard Layer 4 (Overlay)
//Storyboard Sound Samples

[TimingPoints]
993,379.746835443038,4,1,1,50,1,0
1562,-200,4,1,1,50,0,0
1752,-142.857142857143,4,1,1,50,0,0
1815,-100,4,1,1,50,0,0
1879,-76.9230769230769,4,1,1,50,0,0
1942,-100,4,1,1,50,0,0
2322,-200,4,1,1,50,0,0
2512,-142.857142857143,4,1,1,50,0,0
2575,-100,4,1,1,50,0,0
2639,-76.9230769230769,4,1,1,50,0,0
2702,-100,4,1,1,50,0,0
3081,-200,4,1,1,50,0,0
3271,-142.857142857143,4,1,1,50,0,0
3334,-100,4,1,1,50,0,0
3398,-76.9230769230769,4,1,1,50,0,0
3461,-100,4,1,1,50,0,0
3841,-200,4,1,1,50,0,0
4031,-142.857142857143,4,1,1,50,0,0
4094,-100,4,1,1,50,0,0
4158,-76.9230769230769,4,1,1,50,0,0
4221,-100,4,1,1,50,0,0
4600,-200,4,1,1,50,0,0
4790,-142.857142857143,4,1,1,50,0,0
4853,-100,4,1,1,50,0,0
4917,-76.9230769230769,4,1,1,50,0,0
4980,-100,4,1,1,50,0,0
5360,-200,4,1,1,50,0,0
5550,-142.857142857143,4,1,1,50,0,0
5613,-100,4,1,1,50,0,0
5677,-76.9230769230769,4,1,1,50,0,0
5740,-100,4,1,1,50,0,0
6119,-1000,4,1,1,50,0,0
6689,-500,4,1,1,50,0,0
6752,-333.333333333333,4,1,1,50,0,0
6815,-200,4,1,1,50,0,0
6879,-142.857142857143,4,1,1,50,0,0
6942,-100,4,1,1,50,0,0
7005,-76.9230769230769,4,1,1,50,0,0
7068,-100,4,1,1,50,0,0
7638,-200,4,1,1,50,0,0
7828,-142.857142857143,4,1,1,50,0,0
7891,-100,4,1,1,50,0,0
7955,-76.9230769230769,4,1,1,50,0,0
8018,-100,4,1,1,50,0,0
8398,-200,4,1,1,50,0,0
8588,-142.857142857143,4,1,1,50,0,0
8651,-100,4,1,1,50,0,0
8715,-76.9230769230769,4,1,1,50,0,0
8778,-100,4,1,1,50,0,0
9157,-200,4,1,1,50,0,0
9347,-142.857142857143,4,1,1,50,0,0
9410,-100,4,1,1,50,0,0
9474,-76.9230769230769,4,1,1,50,0,0
9537,-100,4,1,1,50,0,0
9917,-200,4,1,1,50,0,0
10107,-142.857142857143,4,1,1,50,0,0
10170,-100,4,1,1,50,0,0
10234,-76.9230769230769,4,1,1,50,0,0
10297,-100,4,1,1,50,0,0
10676,-200,4,1,1,50,0,0
10866,-142.857142857143,4,1,1,50,0,0
10929,-100,4,1,1,50,0,0
10993,-76.9230769230769,4,1,1,50,0,0
11056,-100,4,1,1,50,0,0
11436,-200,4,1,1,50,0,0
11626,-142.857142857143,4,1,1,50,0,0
11689,-100,4,1,1,50,0,0
11753,-76.9230769230769,4,1,1,50,0,0
11816,-100,4,1,1,50,0,0
12195,-10,4,1,1,50,0,0
12207,-250,4,1,1,50,0,0
12385,-166.666666666667,4,1,1,50,0,0
12432,-111.111111111111,4,1,1,50,0,0
12480,-83.3333333333333,4,1,1,50,0,0
12527,-66.6666666666667,4,1,1,50,0,0
12575,-29.4117647058824,4,1,1,50,0,0
12599,-500,4,1,1,50,0,0
12670,-250,4,1,1,50,0,0
12717,-125,4,1,1,50,0,0
12765,-83.3333333333333,4,1,1,50,0,0
12812,-62.5,4,1,1,50,0,0
12860,-29.4117647058824,4,1,1,50,0,0
12884,-500,4,1,1,50,0,0
12955,-250,4,1,1,50,0,0
13002,-125,4,1,1,50,0,0
13050,-83.3333333333333,4,1,1,50,0,0
13097,-62.5,4,1,1,50,0,0
13144,379.746835443038,6,1,1,50,1,0
13144,-90.9090909090909,6,1,1,50,0,0
13191,-111.111111111111,6,1,1,50,0,0
13238,-80,6,1,1,50,0,0
13286,-133.333333333333,6,1,1,50,0,0
13333,-71.4285714285714,6,1,1,50,0,0
13381,-166.666666666667,6,1,1,50,0,0
13428,-64.5161290322581,6,1,1,50,0,0
13476,-222.222222222222,6,1,1,50,0,0
13523,-58.8235294117647,6,1,1,50,0,0
13571,-333.333333333333,6,1,1,50,0,0
13618,-54.054054054054,6,1,1,50,0,0
13666,-666.666666666667,6,1,1,50,0,0
13713,-200,4,1,1,50,0,0
13903,-142.857142857143,4,1,1,50,0,0
13966,-100,4,1,1,50,0,0
14030,-76.9230769230769,4,1,1,50,0,0
14093,-66.6666666666667,4,1,1,50,0,0
14188,-200,4,1,1,50,0,0
14283,-83.3333333333333,6,1,1,50,0,0
14330,-125,6,1,1,50,0,0
14377,-71.4285714285714,6,1,1,50,0,0
14425,-166.666666666667,6,1,1,50,0,0
14472,-62.5,6,1,1,50,0,0
14520,-250,6,1,1,50,0,0
14567,-58.8235294117647,6,1,1,50,0,0
14615,-333.333333333333,6,1,1,50,0,0
14662,-55.5555555555556,6,1,1,50,0,0
14710,-500,6,1,1,50,0,0
14757,-52.6315789473684,6,1,1,50,0,0
14805,-1000,6,1,1,50,0,0
14852,-200,4,1,1,50,0,0
15042,-142.857142857143,4,1,1,50,0,0
15105,-100,4,1,1,50,0,0
15169,-76.9230769230769,4,1,1,50,0,0
15232,-66.6666666666667,4,1,1,50,0,0
15327,-200,4,1,1,50,0,0
15422,-10,4,1,1,50,0,0
15434,-250,4,1,1,50,0,0
15612,-166.666666666667,4,1,1,50,0,0
15659,-111.111111111111,4,1,1,50,0,0
15707,-83.3333333333333,4,1,1,50,0,0
15754,-66.6666666666667,4,1,1,50,0,0
15802,-10,4,1,1,50,0,0
15814,-250,4,1,1,50,0,0
15992,-166.666666666667,4,1,1,50,0,0
16039,-111.111111111111,4,1,1,50,0,0
16087,-83.3333333333333,4,1,1,50,0,0
16134,-66.6666666666667,4,1,1,50,0,0
16181,-100,4,1,1,50,0,0
16751,-200,4,1,1,50,0,0
16941,-142.857142857143,4,1,1,50,0,0
17004,-100,4,1,1,50,0,0
17068,-76.9230769230769,4,1,1,50,0,0
17131,-200,4,1,1,50,0,0
17321,-142.857142857143,4,1,1,50,0,0
17384,-100,4,1,1,50,0,0
17448,-76.9230769230769,4,1,1,50,0,0
17511,-10000,4,1,1,50,0,0
18713,-2000,4,1,1,50,0,0
18776,-1000,4,1,1,50,0,0
18840,-500,4,1,1,50,0,0
18903,-333.333333333333,4,1,1,50,0,0
18966,-200,4,1,1,50,0,0
19030,-142.857142857143,4,1,1,50,0,0
19093,-100,4,1,1,50,0,0
19156,-76.9230769230769,4,1,1,50,0,0
19219,379.746835443038,6,1,1,50,1,0
19219,-90.9090909090909,6,1,1,50,0,0
19266,-111.111111111111,6,1,1,50,0,0
19313,-80,6,1,1,50,0,0
19361,-133.333333333333,6,1,1,50,0,0
19408,-71.4285714285714,6,1,1,50,0,0
19456,-166.666666666667,6,1,1,50,0,0
19503,-64.5161290322581,6,1,1,50,0,0
19551,-222.222222222222,6,1,1,50,0,0
19598,-58.8235294117647,6,1,1,50,0,0
19646,-333.333333333333,6,1,1,50,0,0
19693,-54.054054054054,6,1,1,50,0,0
19741,-666.666666666667,6,1,1,50,0,0
19788,-200,4,1,1,50,0,0
19978,-142.857142857143,4,1,1,50,0,0
20041,-100,4,1,1,50,0,0
20105,-76.9230769230769,4,1,1,50,0,0
20168,-66.6666666666667,4,1,1,50,0,0
20263,-200,4,1,1,50,0,0
20358,-83.3333333333333,6,1,1,50,0,0
20405,-125,6,1,1,50,0,0
20452,-71.4285714285714,6,1,1,50,0,0
20500,-166.666666666667,6,1,1,50,0,0
20547,-62.5,6,1,1,50,0,0
20595,-250,6,1,1,50,0,0
20642,-58.8235294117647,6,1,1,50,0,0
20690,-333.333333333333,6,1,1,50,0,0
20737,-55.5555555555556,6,1,1,50,0,0
20785,-500,6,1,1,50,0,0
20832,-52.6315789473684,6,1,1,50,0,0
20880,-1000,6,1,1,50,0,0
20927,-200,4,1,1,50,0,0
21117,-142.857142857143,4,1,1,50,0,0
21180,-100,4,1,1,50,0,0
21244,-76.9230769230769,4,1,1,50,0,0
21307,-66.6666666666667,4,1,1,50,0,0
21402,-200,4,1,1,50,0,0
21497,-10,4,1,1,50,0,0
21509,-250,4,1,1,50,0,0
21687,-166.666666666667,4,1,1,50,0,0
21734,-111.111111111111,4,1,1,50,0,0
21782,-83.3333333333333,4,1,1,50,0,0
21829,-66.6666666666667,4,1,1,50,0,0
21877,-10,4,1,1,50,0,0
21889,-250,4,1,1,50,0,0
22067,-166.666666666667,4,1,1,50,0,0
22114,-111.111111111111,4,1,1,50,0,0
22162,-83.3333333333333,4,1,1,50,0,0
22209,-66.6666666666667,4,1,1,50,0,0
22256,-100,4,1,1,50,0,0
22826,-200,4,1,1,50,0,0
23016,-142.857142857143,4,1,1,50,0,0
23079,-100,4,1,1,50,0,0
23143,-76.9230769230769,4,1,1,50,0,0
23206,-200,4,1,1,50,0,0
23396,-142.857142857143,4,1,1,50,0,0
23459,-100,4,1,1,50,0,0
23523,-76.9230769230769,4,1,1,50,0,0
23586,-200,4,1,1,50,0,0
23775,379.746835443038,4,1,1,50,1,0
23776,-142.857142857143,4,1,1,50,0,0
23839,-100,4,1,1,50,0,0
23903,-76.9230769230769,4,1,1,50,0,0
23964,-100,4,1,1,50,0,0
24344,-200,4,1,1,50,0,0
24534,-142.857142857143,4,1,1,50,0,0
24597,-100,4,1,1,50,0,0
24661,-76.9230769230769,4,1,1,50,0,0
24724,-100,4,1,1,50,0,0
25104,-200,4,1,1,50,0,0
25294,-142.857142857143,4,1,1,50,0,0
25357,-100,4,1,1,50,0,0
25421,-76.9230769230769,4,1,1,50,0,0
25483,-100,4,1,1,50,0,0
25531,-250,4,1,1,50,0,0
25626,-45.4545454545455,4,1,1,50,0,0
25673,-100,4,1,1,50,0,0
25721,-250,4,1,1,50,0,0
25816,-45.4545454545455,4,1,1,50,0,0
25863,-100,4,1,1,50,0,0
25911,-250,4,1,1,50,0,0
26006,-45.4545454545455,4,1,1,50,0,0
26053,-50,4,1,1,50,0,0
26085,-200,4,1,1,50,0,0
26148,-52.6315789473684,4,1,1,50,0,0
26172,-1000,4,1,1,50,0,0
26195,-58.8235294117647,4,1,1,50,0,0
26219,-333.333333333333,4,1,1,50,0,0
26243,-58.8235294117647,4,1,1,50,0,0
26267,-333.333333333333,4,1,1,50,0,0
26290,-58.8235294117647,4,1,1,50,0,0
26314,-333.333333333333,4,1,1,50,0,0
26338,-58.8235294117647,4,1,1,50,0,0
26362,-333.333333333333,4,1,1,50,0,0
26385,-58.8235294117647,4,1,1,50,0,0
26409,-333.333333333333,4,1,1,50,0,0
26433,-10,4,1,1,50,0,0
26448,-1000,4,1,1,50,0,0
26575,-400,4,1,1,50,0,0
26623,-250,4,1,1,50,0,0
26670,-142.857142857143,4,1,1,50,0,0
26718,-105.263157894737,4,1,1,50,0,0
26765,-83.3333333333333,4,1,1,50,0,0
26812,379.746835443038,4,1,1,50,1,0
26812,-20,4,1,1,50,0,0
26835,-1000,4,1,1,50,0,0
26858.8333333333,-476.190476190476,4,1,1,50,0,0
26882.6666666667,-322.58064516129,4,1,1,50,0,0
26906.5,-238.095238095238,4,1,1,50,0,0
26930.3333333333,-188.679245283019,4,1,1,50,0,0
26954.1666666667,-158.730158730159,4,1,1,50,0,0
26978,-135.135135135135,4,1,1,50,0,0
27001,-100,4,1,1,50,0,0
27191,-25.1889168765743,4,1,1,50,0,0
27207,-10000,4,1,1,50,0,0
27255,-100,4,1,1,50,0,0
27381,-32.258064516129,4,1,1,50,0,0
27405,-1000,4,1,1,50,0,0
27429,-333.333333333333,4,1,1,50,0,0
27452,-200,4,1,1,50,0,0
27476,-142.857142857143,4,1,1,50,0,0
27508,-100,4,1,1,50,0,0
27539,-76.9230769230769,4,1,1,50,0,0
27571,-100,4,1,1,50,0,0
27761,-40,4,1,1,50,0,0
27793,-400,4,1,1,50,0,0
27824,-133.333333333333,4,1,1,50,0,0
27856,-66.6666666666667,4,1,1,50,0,0
27903,-200,4,1,1,50,0,0
27951,-66.6666666666667,4,1,1,50,0,0
27998,-200,4,1,1,50,0,0
28046,-66.6666666666667,4,1,1,50,0,0
28093,-200,4,1,1,50,0,0
28141,-20,4,1,1,50,0,0
28164,-1000,4,1,1,50,0,0
28187.8333333333,-476.190476190476,4,1,1,50,0,0
28211.6666666667,-322.58064516129,4,1,1,50,0,0
28235.5,-238.095238095238,4,1,1,50,0,0
28259.3333333333,-188.679245283019,4,1,1,50,0,0
28283.1666666667,-158.730158730159,4,1,1,50,0,0
28307,-135.135135135135,4,1,1,50,0,0
28330,-100,4,1,1,50,0,0
28520,-52.6315789473684,4,1,1,50,0,0
28552,-1000,4,1,1,50,0,0
28584,-58.8235294117647,4,1,1,50,0,0
28615,-333.333333333333,4,1,1,50,0,0
28647,-58.8235294117647,4,1,1,50,0,0
28679,-333.333333333333,4,1,1,50,0,0
28710,-50.251256281407,4,1,1,50,0,0
28722,-10000,4,1,1,50,0,0
28734,-50.251256281407,4,1,1,50,0,0
28746,-10000,4,1,1,50,0,0
28758,-200,4,1,1,50,0,0
28805,-142.857142857143,4,1,1,50,0,0
28837,-100,4,1,1,50,0,0
28868,-76.9230769230769,4,1,1,50,0,0
28900,-40,4,1,1,50,0,0
28924,-200,4,1,1,50,0,0
28995,-76.9230769230769,4,1,1,50,0,0
29019,-142.857142857143,4,1,1,50,0,0
29043,-66.6666666666667,4,1,1,50,0,0
29066,-200,4,1,1,50,0,0
29090,-58.8235294117647,4,1,1,50,0,0
29114,-333.333333333333,4,1,1,50,0,0
29137,-55.5555555555556,4,1,1,50,0,0
29161,-500,4,1,1,50,0,0
29185,-52.6315789473684,4,1,1,50,0,0
29209,-1000,4,1,1,50,0,0
29232,-50.251256281407,4,1,1,50,0,0
29256,-10000,4,1,1,50,0,0
29280,-100,4,1,1,50,0,0
29303,-47.6190476190476,4,1,1,50,0,0
29327,-333.333333333333,4,1,1,50,0,0
29350,-200,4,1,1,50,0,0
29374,-142.857142857143,4,1,1,50,0,0
29406,-100,4,1,1,50,0,0
29437,-76.9230769230769,4,1,1,50,0,0
29469,-100,4,1,1,50,0,0
29660,-20,4,1,1,50,0,0
29683,-1000,4,1,1,50,0,0
29706.8333333333,-476.190476190476,4,1,1,50,0,0
29730.6666666667,-322.58064516129,4,1,1,50,0,0
29754.5,-238.095238095238,4,1,1,50,0,0
29778.3333333333,-188.679245283019,4,1,1,50,0,0
29802.1666666667,-158.730158730159,4,1,1,50,0,0
29826,-135.135135135135,4,1,1,50,0,0
29849,-100,4,1,1,50,0,0
30039,-25.1889168765743,4,1,1,50,0,0
30055,-10000,4,1,1,50,0,0
30134,-250,4,1,1,50,0,0
30166,-166.666666666667,4,1,1,50,0,0
30198,-50,4,1,1,50,0,0
30229,-100,4,1,1,50,0,0
30277,-384.615384615385,4,1,1,50,0,0
30324,-166.666666666667,4,1,1,50,0,0
30356,-125,4,1,1,50,0,0
30387,-45.4545454545455,4,1,1,50,0,0
30419,-100,4,1,1,50,0,0
30482,-250,4,1,1,50,0,0
30513,-166.666666666667,4,1,1,50,0,0
30545,-125,4,1,1,50,0,0
30576,-45.4545454545455,4,1,1,50,0,0
30609,-58.8235294117647,4,1,1,50,0,0
30633,-333.333333333333,4,1,1,50,0,0
30656,-55.5555555555556,4,1,1,50,0,0
30680,-500,4,1,1,50,0,0
30704,-52.6315789473684,4,1,1,50,0,0
30728,-1000,4,1,1,50,0,0
30751,-50.251256281407,4,1,1,50,0,0
30775,-10000,4,1,1,50,0,0
30799,-100,4,1,1,50,0,0
30823,-45.4545454545455,4,1,1,50,0,0
30847,-333.333333333333,4,1,1,50,0,0
30870,-200,4,1,1,50,0,0
30894,-142.857142857143,4,1,1,50,0,0
30926,-100,4,1,1,50,0,0
30957,-76.9230769230769,4,1,1,50,0,0
30989,-100,4,1,1,50,0,0
31179,-32.258064516129,4,1,1,50,0,0
31203,-1000,4,1,1,50,0,0
31227,-333.333333333333,4,1,1,50,0,0
31250,-200,4,1,1,50,0,0
31274,-142.857142857143,4,1,1,50,0,0
31306,-100,4,1,1,50,0,0
31337,-76.9230769230769,4,1,1,50,0,0
31368,-100,4,1,1,50,0,0
31558,-25.1889168765743,4,1,1,50,0,0
31574,-10000,4,1,1,50,0,0
31622,-100,4,1,1,50,0,0
31748,-25.1889168765743,4,1,1,50,0,0
31764,-10000,4,1,1,50,0,0
31812,-100,4,1,1,50,0,0
31938,-10,4,1,1,50,0,0
31953,-200,4,1,1,50,0,0
32128,-181.818181818182,4,1,1,50,0,0
32175,-166.666666666667,4,1,1,50,0,0
32223,-153.846153846154,4,1,1,50,0,0
32270,-142.857142857143,4,1,1,50,0,0
32318,-20,4,1,1,50,0,0
32328,-133.333333333334,4,1,1,50,0,0
32365,-125,4,1,1,50,0,0
32413,-117.647058823529,4,1,1,50,0,0
32460,-111.111111111111,4,1,1,50,0,0
32508,-14.2857142857143,4,1,1,50,0,0
32518,-105.263157894737,4,1,1,50,0,0
32555,-99.9999999999999,4,1,1,50,0,0
32603,-90.9090909090909,4,1,1,50,0,0
32650,-83.3333333333333,4,1,1,50,0,0
32698,-21.978021978022,4,1,1,50,0,0
32729,-153.846153846154,4,1,1,50,0,0
32887,-20,4,1,1,50,0,0
32910,-1000,4,1,1,50,0,0
32933.8333333333,-476.190476190476,4,1,1,50,0,0
32957.6666666667,-322.58064516129,4,1,1,50,0,0
32981.5,-238.095238095238,4,1,1,50,0,0
33005.3333333333,-188.679245283019,4,1,1,50,0,0
33029.1666666667,-158.730158730159,4,1,1,50,0,0
33053,-135.135135135135,4,1,1,50,0,0
33076,-100,4,1,1,50,0,0
33266,-25.1889168765743,4,1,1,50,0,0
33282,-10000,4,1,1,50,0,0
33330,-100,4,1,1,50,0,0
33456,-32.258064516129,4,1,1,50,0,0
33480,-1000,4,1,1,50,0,0
33504,-333.333333333333,4,1,1,50,0,0
33527,-200,4,1,1,50,0,0
33551,-142.857142857143,4,1,1,50,0,0
33583,-100,4,1,1,50,0,0
33614,-76.9230769230769,4,1,1,50,0,0
33646,-100,4,1,1,50,0,0
33836,-40,4,1,1,50,0,0
33868,-400,4,1,1,50,0,0
33899,-133.333333333333,4,1,1,50,0,0
33931,-66.6666666666667,4,1,1,50,0,0
33978,-200,4,1,1,50,0,0
34026,-66.6666666666667,4,1,1,50,0,0
34073,-200,4,1,1,50,0,0
34121,-66.6666666666667,4,1,1,50,0,0
34168,-200,4,1,1,50,0,0
34216,-20,4,1,1,50,0,0
34239,-1000,4,1,1,50,0,0
34262.8333333333,-476.190476190476,4,1,1,50,0,0
34286.6666666667,-322.58064516129,4,1,1,50,0,0
34310.5,-238.095238095238,4,1,1,50,0,0
34334.3333333333,-188.679245283019,4,1,1,50,0,0
34358.1666666667,-158.730158730159,4,1,1,50,0,0
34382,-135.135135135135,4,1,1,50,0,0
34405,-100,4,1,1,50,0,0
34595,-52.6315789473684,4,1,1,50,0,0
34627,-1000,4,1,1,50,0,0
34659,-58.8235294117647,4,1,1,50,0,0
34690,-333.333333333333,4,1,1,50,0,0
34722,-58.8235294117647,4,1,1,50,0,0
34754,-333.333333333333,4,1,1,50,0,0
34785,-50.251256281407,4,1,1,50,0,0
34797,-10000,4,1,1,50,0,0
34809,-50.251256281407,4,1,1,50,0,0
34821,-10000,4,1,1,50,0,0
34833,-200,4,1,1,50,0,0
34880,-142.857142857143,4,1,1,50,0,0
34912,-100,4,1,1,50,0,0
34943,-76.9230769230769,4,1,1,50,0,0
34975,-40,4,1,1,50,0,0
34999,-200,4,1,1,50,0,0
35070,-76.9230769230769,4,1,1,50,0,0
35094,-142.857142857143,4,1,1,50,0,0
35118,-66.6666666666667,4,1,1,50,0,0
35141,-200,4,1,1,50,0,0
35165,-58.8235294117647,4,1,1,50,0,0
35189,-333.333333333333,4,1,1,50,0,0
35212,-55.5555555555556,4,1,1,50,0,0
35236,-500,4,1,1,50,0,0
35260,-52.6315789473684,4,1,1,50,0,0
35284,-1000,4,1,1,50,0,0
35307,-50.251256281407,4,1,1,50,0,0
35331,-10000,4,1,1,50,0,0
35356,-100,4,1,1,50,0,0
35379,-47.6190476190476,4,1,1,50,0,0
35403,-333.333333333333,4,1,1,50,0,0
35426,-200,4,1,1,50,0,0
35450,-142.857142857143,4,1,1,50,0,0
35482,-100,4,1,1,50,0,0
35513,-76.9230769230769,4,1,1,50,0,0
35545,-100,4,1,1,50,0,0
35735,-20,4,1,1,50,0,0
35758,-1000,4,1,1,50,0,0
35781.8333333333,-476.190476190476,4,1,1,50,0,0
35805.6666666667,-322.58064516129,4,1,1,50,0,0
35829.5,-238.095238095238,4,1,1,50,0,0
35853.3333333333,-188.679245283019,4,1,1,50,0,0
35877.1666666667,-158.730158730159,4,1,1,50,0,0
35901,-135.135135135135,4,1,1,50,0,0
35924,-100,4,1,1,50,0,0
36114,-25.1889168765743,4,1,1,50,0,0
36130,-10000,4,1,1,50,0,0
36209,-250,4,1,1,50,0,0
36241,-166.666666666667,4,1,1,50,0,0
36273,-50,4,1,1,50,0,0
36304,-100,4,1,1,50,0,0
36353,-384.615384615385,4,1,1,50,0,0
36399,-166.666666666667,4,1,1,50,0,0
36431,-125,4,1,1,50,0,0
36462,-45.4545454545455,4,1,1,50,0,0
36494,-100,4,1,1,50,0,0
36557,-250,4,1,1,50,0,0
36588,-166.666666666667,4,1,1,50,0,0
36620,-125,4,1,1,50,0,0
36651,-45.4545454545455,4,1,1,50,0,0
36684,-58.8235294117647,4,1,1,50,0,0
36708,-333.333333333333,4,1,1,50,0,0
36731,-55.5555555555556,4,1,1,50,0,0
36755,-500,4,1,1,50,0,0
36779,-52.6315789473684,4,1,1,50,0,0
36803,-1000,4,1,1,50,0,0
36826,-50.251256281407,4,1,1,50,0,0
36850,-10000,4,1,1,50,0,0
36875,-100,4,1,1,50,0,0
36898,-47.6190476190476,4,1,1,50,0,0
36922,-333.333333333333,4,1,1,50,0,0
36945,-200,4,1,1,50,0,0
36969,-142.857142857143,4,1,1,50,0,0
37001,-100,4,1,1,50,0,0
37032,-76.9230769230769,4,1,1,50,0,0
37064,-100,4,1,1,50,0,0
37254,-32.258064516129,4,1,1,50,0,0
37278,-1000,4,1,1,50,0,0
37302,-333.333333333333,4,1,1,50,0,0
37325,-200,4,1,1,50,0,0
37349,-142.857142857143,4,1,1,50,0,0
37381,-100,4,1,1,50,0,0
37412,-76.9230769230769,4,1,1,50,0,0
37443,-100,4,1,1,50,0,0
37633,-25.1889168765743,4,1,1,50,0,0
37649,-10000,4,1,1,50,0,0
37697,-100,4,1,1,50,0,0
37823,-25.1889168765743,4,1,1,50,0,0
37839,-10000,4,1,1,50,0,0
37887,-100,4,1,1,50,0,0
38014,-10,4,1,1,50,0,0
38024,-200,4,1,1,50,0,0
38062,-166.666666666667,4,1,1,50,0,0
38109,-133.333333333333,4,1,1,50,0,0
38156,-111.111111111111,4,1,1,50,0,0
38204,-95.2380952380952,4,1,1,50,0,0
38251,-83.3333333333333,4,1,1,50,0,0
38299,-76.9230769230769,4,1,1,50,0,0
38346,-71.4285714285714,4,1,1,50,0,0
38394,-29.4117647058824,4,1,1,50,0,0
38418,-500,4,1,1,50,0,0
38489,-250,4,1,1,50,0,0
38536,-125,4,1,1,50,0,0
38584,-83.3333333333333,4,1,1,50,0,0
38631,-62.5,4,1,1,50,0,0
38679,-29.4117647058824,4,1,1,50,0,0
38703,-500,4,1,1,50,0,0
38774,-250,4,1,1,50,0,0
38821,-125,4,1,1,50,0,0
38869,-83.3333333333333,4,1,1,50,0,0
38916,-62.5,4,1,1,50,0,0
38963,379.746835443038,6,1,1,50,1,0
38963,-27.7777777777778,6,1,1,50,0,0
38986,-1000,6,1,1,50,0,0
39010,-500.000000000003,6,1,1,50,0,0
39034,-333.333333333333,6,1,1,50,0,0
39057,-100,6,1,1,50,0,0
39247,-27.7777777777778,6,1,1,50,0,0
39270,-1000,6,1,1,50,0,0
39294,-500.000000000003,6,1,1,50,0,0
39318,-333.333333333333,6,1,1,50,0,0
39341,-100,6,1,1,50,0,0
39532,-50.251256281407,6,1,1,50,0,0
39548,-10000,6,1,1,50,0,0
39580,-50.251256281407,6,1,1,50,0,0
39611,-10000,6,1,1,50,0,0
39627,-25.1889168765743,6,1,1,50,0,0
39651,-10000,6,1,1,50,0,0
39722,-100,6,1,1,50,0,0
40102,-27.7777777777778,6,1,1,50,0,0
40125,-1000,6,1,1,50,0,0
40149,-500.000000000003,6,1,1,50,0,0
40173,-333.333333333333,6,1,1,50,0,0
40196,-100,6,1,1,50,0,0
40387,-27.7777777777778,6,1,1,50,0,0
40410,-1000,6,1,1,50,0,0
40434,-500.000000000003,6,1,1,50,0,0
40458,-333.333333333333,6,1,1,50,0,0
40481,-100,6,1,1,50,0,0
40671,-50.251256281407,6,1,1,50,0,0
40687,-10000,6,1,1,50,0,0
40719,-50.251256281407,6,1,1,50,0,0
40750,-10000,6,1,1,50,0,0
40766,-25.1889168765743,6,1,1,50,0,0
40790,-10000,6,1,1,50,0,0
40861,-100,6,1,1,50,0,0
41288,-25,6,1,1,50,0,0
41336,-1000,4,1,1,50,0,0
41383.4,-384.615384615385,4,1,1,50,0,0
41430.8,-238.095238095238,4,1,1,50,0,0
41478.2,-172.413793103448,4,1,1,50,0,0
41525.6,-135.135135135135,4,1,1,50,0,0
41573,-111.111111111111,4,1,1,50,0,0
41621,-100,6,1,1,50,0,0
41668,-25,6,1,1,50,0,0
41716,-1000,4,1,1,50,0,0
41763.4,-384.615384615385,4,1,1,50,0,0
41810.8,-238.095238095238,4,1,1,50,0,0
41858.2,-172.413793103448,4,1,1,50,0,0
41905.6,-135.135135135135,4,1,1,50,0,0
41953,-111.111111111111,4,1,1,50,0,0
42000,-27.7777777777778,6,1,1,50,0,0
42023,-1000,6,1,1,50,0,0
42047,-500.000000000003,6,1,1,50,0,0
42071,-333.333333333333,6,1,1,50,0,0
42094,-100,6,1,1,50,0,0
42285,-27.7777777777778,6,1,1,50,0,0
42308,-1000,6,1,1,50,0,0
42332,-500.000000000003,6,1,1,50,0,0
42356,-333.333333333333,6,1,1,50,0,0
42379,-100,6,1,1,50,0,0
42570,-27.7777777777778,6,1,1,50,0,0
42593,-1000,6,1,1,50,0,0
42617,-500.000000000003,6,1,1,50,0,0
42641,-333.333333333333,6,1,1,50,0,0
42664,-100,6,1,1,50,0,0
42855,-27.7777777777778,6,1,1,50,0,0
42878,-1000,6,1,1,50,0,0
42902,-500.000000000003,6,1,1,50,0,0
42926,-333.333333333333,6,1,1,50,0,0
42950,-40,6,1,1,50,0,0
42981,-400,6,1,1,50,0,0
43045,-40,6,1,1,50,0,0
43076,-400,6,1,1,50,0,0
43140,-30.7692307692308,6,1,1,50,0,0
43203,-400,6,1,1,50,0,0
43330,-13.6986301369863,4,1,1,50,0,0
43354,-1000,4,1,1,50,0,0
43519,-14.2857142857143,4,1,1,50,0,0
43529,-166.666666666667,4,1,1,50,0,0
43709,-163.934426229508,4,1,1,50,0,0
43804,-158.730158730159,4,1,1,50,0,0
43899,-151.515151515152,4,1,1,50,0,0
43994,-144.927536231884,4,1,1,50,0,0
44089,-136.986301369863,4,1,1,50,0,0
44184,-129.87012987013,4,1,1,50,0,0
44279,-120.481927710843,4,1,1,50,0,0
44374,-112.359550561798,4,1,1,50,0,0
44469,-104.166666666667,4,1,1,50,0,0
44564,-97.0873786407767,4,1,1,50,0,0
44659,-90.0900900900901,4,1,1,50,0,0
44754,-83.3333333333333,4,1,1,50,0,0
44849,-76.9230769230769,4,1,1,50,0,0
44944,-71.4285714285714,4,1,1,50,0,0
45038,379.746835443038,6,1,1,50,1,0
45038,-27.7777777777778,6,1,1,50,0,0
45061,-1000,6,1,1,50,0,0
45085,-500.000000000003,6,1,1,50,0,0
45109,-333.333333333333,6,1,1,50,0,0
45132,-100,6,1,1,50,0,0
45322,-27.7777777777778,6,1,1,50,0,0
45345,-1000,6,1,1,50,0,0
45369,-500.000000000003,6,1,1,50,0,0
45393,-333.333333333333,6,1,1,50,0,0
45416,-100,6,1,1,50,0,0
45607,-50.251256281407,6,1,1,50,0,0
45623,-10000,6,1,1,50,0,0
45655,-50.251256281407,6,1,1,50,0,0
45686,-10000,6,1,1,50,0,0
45702,-25.1889168765743,6,1,1,50,0,0
45726,-10000,6,1,1,50,0,0
45797,-100,6,1,1,50,0,0
46177,-27.7777777777778,6,1,1,50,0,0
46200,-1000,6,1,1,50,0,0
46224,-500.000000000003,6,1,1,50,0,0
46248,-333.333333333333,6,1,1,50,0,0
46271,-100,6,1,1,50,0,0
46462,-27.7777777777778,6,1,1,50,0,0
46485,-1000,6,1,1,50,0,0
46509,-500.000000000003,6,1,1,50,0,0
46533,-333.333333333333,6,1,1,50,0,0
46556,-100,6,1,1,50,0,0
46746,-50.251256281407,6,1,1,50,0,0
46762,-10000,6,1,1,50,0,0
46794,-50.251256281407,6,1,1,50,0,0
46825,-10000,6,1,1,50,0,0
46841,-25.1889168765743,6,1,1,50,0,0
46865,-10000,6,1,1,50,0,0
46936,-100,6,1,1,50,0,0
47363,-25,6,1,1,50,0,0
47411,-1000,4,1,1,50,0,0
47458.4,-384.615384615385,4,1,1,50,0,0
47505.8,-238.095238095238,4,1,1,50,0,0
47553.2,-172.413793103448,4,1,1,50,0,0
47600.6,-135.135135135135,4,1,1,50,0,0
47648,-111.111111111111,4,1,1,50,0,0
47696,-100,6,1,1,50,0,0
47743,-25,6,1,1,50,0,0
47791,-1000,4,1,1,50,0,0
47838.4,-384.615384615385,4,1,1,50,0,0
47885.8,-238.095238095238,4,1,1,50,0,0
47933.2,-172.413793103448,4,1,1,50,0,0
47980.6,-135.135135135135,4,1,1,50,0,0
48028,-111.111111111111,4,1,1,50,0,0
48075,-27.7777777777778,6,1,1,50,0,0
48098,-1000,6,1,1,50,0,0
48122,-500.000000000003,6,1,1,50,0,0
48146,-333.333333333333,6,1,1,50,0,0
48169,-100,6,1,1,50,0,0
48360,-27.7777777777778,6,1,1,50,0,0
48383,-1000,6,1,1,50,0,0
48407,-500.000000000003,6,1,1,50,0,0
48431,-333.333333333333,6,1,1,50,0,0
48454,-100,6,1,1,50,0,0
48645,-27.7777777777778,6,1,1,50,0,0
48668,-1000,6,1,1,50,0,0
48692,-500.000000000003,6,1,1,50,0,0
48716,-333.333333333333,6,1,1,50,0,0
48739,-100,6,1,1,50,0,0
48930,-27.7777777777778,6,1,1,50,0,0
48953,-1000,6,1,1,50,0,0
48977,-500.000000000003,6,1,1,50,0,0
49001,-333.333333333333,6,1,1,50,0,0
49025,-40,6,1,1,50,0,0
49056,-400,6,1,1,50,0,0
49120,-40,6,1,1,50,0,0
49151,-400,6,1,1,50,0,0
49215,-14.2857142857143,6,1,1,50,0,0
49238,-10000,6,1,1,50,0,0
49381,-25.1889168765743,6,1,1,50,0,0
49405,-50,6,1,1,50,0,0
49415,-100,6,1,1,50,0,0
49784,-50,6,1,1,50,0,0
49816,-333.333333333333,6,1,1,50,0,0
49848,-142.857142857143,6,1,1,50,0,0
49879,-100,6,1,1,50,0,0
49974,-50.251256281407,6,1,1,50,0,0
50022,-10000,6,1,1,50,0,0
50140,-25.1889168765743,6,1,1,50,0,0
50164,-50,6,1,1,50,0,0
50174,-100,6,1,1,50,0,0
50543,-50,6,1,1,50,0,0
50575,-333.333333333333,6,1,1,50,0,0
50607,-142.857142857143,6,1,1,50,0,0
50638,-100,6,1,1,50,0,0
50733,-50.251256281407,6,1,1,50,0,0
50781,-10000,6,1,1,50,0,0
50899,-25.1889168765743,6,1,1,50,0,0
50924,379.746835443038,4,1,1,50,1,0
50924,-40,4,1,1,50,0,0
50971,-200,4,1,1,50,0,0
51137,-66.6666666666667,4,1,1,50,0,0
51208,-35.7142857142857,4,1,1,50,0,0
51255,-285.714285714286,4,1,1,50,0,0
51421,-60.6060606060606,4,1,1,50,0,0
51493,-29.4117647058824,4,1,1,50,0,0
51525,-500,4,1,1,50,0,0
51683,-55.5555555555556,4,1,1,50,0,0
51746,-28.169014084507,4,1,1,50,0,0
51778,-666.666666666667,4,1,1,50,0,0
51936,-54.054054054054,4,1,1,50,0,0
51999,-27.027027027027,4,1,1,50,0,0
52031,-1000,4,1,1,50,0,0
52189,-52.6315789473684,4,1,1,50,0,0
52253,-50.251256281407,4,1,1,50,0,0
52276,-10000,4,1,1,50,0,0
52300,-166.666666666667,4,1,1,50,0,0
52324,-71.4285714285714,4,1,1,50,0,0
52348,-83.3333333333333,4,1,1,50,0,0
52379,-100,4,1,1,50,0,0
52411,-125,4,1,1,50,0,0
52442,-25.1889168765743,6,1,1,50,0,0
52466,-10000,6,1,1,50,0,0
52608,-25.1889168765743,6,1,1,50,0,0
52632,-40,6,1,1,50,0,0
52664,-200,6,1,1,50,0,0
52759,-40,6,1,1,50,0,0
52791,-200,6,1,1,50,0,0
52886,-40,6,1,1,50,0,0
52917,-200,6,1,1,50,0,0
53012,-50.251256281407,6,1,1,50,0,0
53036,-10000,6,1,1,50,0,0
53060,-50.251256281407,6,1,1,50,0,0
53083,-10000,6,1,1,50,0,0
53107,-50.251256281407,6,1,1,50,0,0
53131,-10000,6,1,1,50,0,0
53155,-50.251256281407,6,1,1,50,0,0
53178,-10000,6,1,1,50,0,0
53202,-30.7692307692308,6,1,1,50,0,0
53234,-400,6,1,1,50,0,0
53329,-30.7692307692308,6,1,1,50,0,0
53360,-400,6,1,1,50,0,0
53455,-30.7692307692308,6,1,1,50,0,0
53487,-400,6,1,1,50,0,0
53582,-20,6,1,1,50,0,0
53592,-142.857142857143,6,1,1,50,0,0
53677,-125,6,1,1,50,0,0
53772,-111.111111111111,6,1,1,50,0,0
53867,-100,6,1,1,50,0,0
53961,-111.111111111111,6,1,1,50,0,0
54009,-125,6,1,1,50,0,0
54056,-142.857142857143,4,1,1,50,0,0
54103.5454545455,-133.333333333333,4,1,1,50,0,0
54151.0909090909,-123.456790123457,4,1,1,50,0,0
54198.6363636364,-116.279069767442,4,1,1,50,0,0
54246.1818181818,-108.695652173913,4,1,1,50,0,0
54293.7272727273,-103.092783505155,4,1,1,50,0,0
54341.2727272727,-97.0873786407767,4,1,1,50,0,0
54388.8181818182,-92.5925925925926,4,1,1,50,0,0
54436.3636363636,-87.719298245614,4,1,1,50,0,0
54483.9090909091,-84.0336134453782,4,1,1,50,0,0
54531.4545454545,-80,4,1,1,50,0,0
54579,-76.9230769230769,4,1,1,50,0,0
54626.4,-77.5193798449612,4,1,1,50,0,0
54673.8,-78.125,4,1,1,50,0,0
54721.2,-80,4,1,1,50,0,0
54768.6,-83.3333333333333,4,1,1,50,0,0
54816,-86.9565217391304,4,1,1,50,0,0
54863.4,-92.5925925925926,4,1,1,50,0,0
54910.8,-99.009900990099,4,1,1,50,0,0
54958.2,-108.695652173913,4,1,1,50,0,0
55005.6,-123.456790123457,4,1,1,50,0,0
55053,-142.857142857143,4,1,1,50,0,0
55101,-73.5294117647059,4,1,1,50,0,0
55124,-416.666666666667,4,1,1,50,0,0
55148,-65.359477124183,4,1,1,50,0,0
55172,-370.37037037037,4,1,1,50,0,0
55196,-58.8235294117647,4,1,1,50,0,0
55219,-333.333333333333,4,1,1,50,0,0
55243,-53.475935828877,4,1,1,50,0,0
55267,-303.030303030303,4,1,1,50,0,0
55291,-100,4,1,1,50,0,0
55480,379.746835443038,4,1,1,50,1,8
55668,379.746835443038,4,1,1,50,1,0
55668,-32.258064516129,4,1,1,50,0,0
55692,-1000,4,1,1,50,0,0
55716,-333.333333333333,4,1,1,50,0,0
55739,-200,4,1,1,50,0,0
55763,-142.857142857143,4,1,1,50,0,0
55795,-100,4,1,1,50,0,0
55826,-76.9230769230769,4,1,1,50,0,0
55857,-100,4,1,1,50,0,0
56047,-27.7777777777778,6,1,1,50,0,0
56070,-1000,6,1,1,50,0,0
56094,-500.000000000003,6,1,1,50,0,0
56118,-333.333333333333,6,1,1,50,0,0
56141,-100,6,1,1,50,0,0
56237,-20,4,1,1,50,0,0
56260,-1000,4,1,1,50,0,0
56283.8333333333,-476.190476190476,4,1,1,50,0,0
56307.6666666667,-322.58064516129,4,1,1,50,0,0
56331.5,-238.095238095238,4,1,1,50,0,0
56355.3333333333,-188.679245283019,4,1,1,50,0,0
56379.1666666667,-158.730158730159,4,1,1,50,0,0
56403,-135.135135135135,4,1,1,50,0,0
56427,-50.251256281407,4,1,1,50,0,0
56459,-10000,4,1,1,50,0,0
56490,-50.251256281407,4,1,1,50,0,0
56522,-10000,4,1,1,50,0,0
56554,-50.251256281407,4,1,1,50,0,0
56585,-10000,4,1,1,50,0,0
56617,-20,4,1,1,50,0,0
56627,-100,4,1,1,50,0,0
56807,-66.6666666666667,4,1,1,50,0,0
56838,-200,4,1,1,50,0,0
56870,-66.6666666666667,4,1,1,50,0,0
56902,-200,4,1,1,50,0,0
56933,-66.6666666666667,4,1,1,50,0,0
56965,-200,4,1,1,50,0,0
56997,-10,4,1,1,50,0,0
57008,-200,4,1,1,50,0,0
57020,-142.857142857143,4,1,1,50,0,0
57313,-100,4,1,1,50,0,0
57345,-166.666666666667,4,1,1,50,0,0
57408,-100,4,1,1,50,0,0
57440,-74.0740740740741,4,1,1,50,0,0
57503,-222.222222222222,4,1,1,50,0,0
57566,-57.1428571428571,4,1,1,50,0,0
57630,-400,4,1,1,50,0,0
57693,-50.761421319797,4,1,1,50,0,0
57724,-769.230769230769,4,1,1,50,0,0
57788,-50.761421319797,4,1,1,50,0,0
57819,-45.662100456621,4,1,1,50,0,0
57883,-10000,4,1,1,50,0,0
57946,-10,4,1,1,50,0,0
57951,-40,4,1,1,50,0,0
57978,-200,4,1,1,50,0,0
58041,-133.333333333333,4,1,1,50,0,0
58073,-100,4,1,1,50,0,0
58104,-80,4,1,1,50,0,0
58136,-66.6666666666667,4,1,1,50,0,0
58168,-200,4,1,1,50,0,0
58199,-66.6666666666667,4,1,1,50,0,0
58231,-200,4,1,1,50,0,0
58262,-66.6666666666667,4,1,1,50,0,0
58294,-200,4,1,1,50,0,0
58326,-10,4,1,1,50,0,0
58331,-50,4,1,1,50,0,0
58368,-200,4,1,1,50,0,0
58452,-125,4,1,1,50,0,0
58495,-83.3333333333333,4,1,1,50,0,0
58537,-100,4,1,1,50,0,0
58705,-62.5,4,1,1,50,0,0
58737,-125,4,1,1,50,0,0
58832,-58.8235294117647,4,1,1,50,0,0
58864,-333.333333333334,4,1,1,50,0,0
58927,-58.8235294117647,4,1,1,50,0,0
58959,-35.7142857142857,4,1,1,50,0,0
58990,-250,4,1,1,50,0,0
59085,-29.4117647058824,4,1,1,50,0,0
59109,-500,4,1,1,50,0,0
59180,-25.1889168765743,4,1,1,50,0,0
59204,-10000,4,1,1,50,0,0
59275,-32.258064516129,6,1,1,50,0,0
59298,-500,6,1,1,50,0,0
59322,-333.333333333334,6,1,1,50,0,0
59346,-250,6,1,1,50,0,0
59369,-100,6,1,1,50,0,0
59465,-20,6,1,1,50,0,0
59475,-100,6,1,1,50,0,0
59655,-33.3333333333333,6,1,1,50,0,0
59665,-100,6,1,1,50,0,0
59845,-14.2857142857143,6,1,1,50,0,0
59855,-100,6,1,1,50,0,0
60035,-16.6666666666667,4,1,1,50,0,0
60058,-1000,4,1,1,50,0,0
60081.8333333333,-476.190476190476,4,1,1,50,0,0
60105.6666666667,-322.58064516129,4,1,1,50,0,0
60129.5,-238.095238095238,4,1,1,50,0,0
60153.3333333333,-188.679245283019,4,1,1,50,0,0
60177.1666666667,-158.730158730159,4,1,1,50,0,0
60201,-135.135135135135,4,1,1,50,0,0
60224,-50.251256281407,4,1,1,50,0,0
60240,-10000,4,1,1,50,0,0
60256,-50.251256281407,4,1,1,50,0,0
60272,-10000,4,1,1,50,0,0
60319,-50.251256281407,4,1,1,50,0,0
60351,-58.8235294117647,4,1,1,50,0,0
60383,-333.333333333333,4,1,1,50,0,0
60446,-58.8235294117647,4,1,1,50,0,0
60478,-66.6666666666667,4,1,1,50,0,0
60541,-200,4,1,1,50,0,0
60604,-76.9230769230769,4,1,1,50,0,0
60668,-142.857142857143,4,1,1,50,0,0
60731,-10,4,1,1,50,0,0
60736,-416.666666666667,4,1,1,50,0,0
60794,-100,4,1,1,50,0,0
60857,-50.251256281407,4,1,1,50,0,0
60878,-10000,4,1,1,50,0,0
60900,-50.251256281407,4,1,1,50,0,0
60921,-10000,4,1,1,50,0,0
60942,-50.251256281407,4,1,1,50,0,0
60963,-10000,4,1,1,50,0,0
60984,-10,4,1,1,50,0,0
60997,-250,4,1,1,50,0,0
61174,-166.666666666667,4,1,1,50,0,0
61221,-111.111111111111,4,1,1,50,0,0
61269,-83.3333333333333,4,1,1,50,0,0
61316,-66.6666666666667,4,1,1,50,0,0
61364,-10,4,1,1,50,0,0
61374,-250,4,1,1,50,0,0
61554,-166.666666666667,4,1,1,50,0,0
61601,-111.111111111111,4,1,1,50,0,0
61649,-83.3333333333333,4,1,1,50,0,0
61696,-66.6666666666667,4,1,1,50,0,0
61743,-100,4,1,1,50,0,0
62313,-200,4,1,1,50,0,0
62503,-142.857142857143,4,1,1,50,0,0
62566,-100,4,1,1,50,0,0
62630,-76.9230769230769,4,1,1,50,0,0
62693,-100,4,1,1,50,0,0
63073,-10,4,1,1,50,0,0
63076,-140.845070422535,4,1,1,50,0,0
63168,-10,4,1,1,50,0,0
63171,-140.845070422535,4,1,1,50,0,0
63262,-100,4,1,1,50,0,0
63452,-40,4,1,1,50,0,0
63476,-200,4,1,1,50,0,0
63547,-40,4,1,1,50,0,0
63571,-200,4,1,1,50,0,0
63642,-44.4444444444445,4,1,1,50,0,0
63674,-133.333333333333,4,1,1,50,0,0
63832,-40,4,1,1,50,0,0
63880,-200,4,1,1,50,0,0
64022,-142.857142857143,4,1,1,50,0,0
64085,-100,4,1,1,50,0,0
64149,-76.9230769230769,4,1,1,50,0,0
64212,-52.6315789473684,4,1,1,50,0,0
64236,-1000,4,1,1,50,0,0
64259,-23.8095238095238,4,1,1,50,0,0
64283,-333.333333333333,4,1,1,50,0,0
64402,-52.6315789473684,4,1,1,50,0,0
64425,-10000,4,1,1,50,0,0
64449,-62.5,4,1,1,50,0,0
64473,-250,4,1,1,50,0,0
64497,-142.857142857143,4,1,1,50,0,0
64544,-71.4285714285714,4,1,1,50,0,0
64592,-200,4,1,1,50,0,0
64615,-58.8235294117647,4,1,1,50,0,0
64639,-250,4,1,1,50,0,0
64663,-52.6315789473684,4,1,1,50,0,0
64686,-333.333333333333,4,1,1,50,0,0
64710,-47.6190476190476,4,1,1,50,0,0
64734,-500,4,1,1,50,0,0
64758,-43.4782608695652,4,1,1,50,0,0
64781,-27.7777777777778,4,1,1,50,0,0
64797,-1000,4,1,1,50,0,0
64813,-500,4,1,1,50,0,0
64829,-333.333333333333,4,1,1,50,0,0
64845,-100,4,1,1,50,0,0
64971,-40,4,1,1,50,0,0
64995,-200,4,1,1,50,0,0
65066,-100,4,1,1,50,0,0
65161,-25.1889168765743,4,1,1,50,0,0
65185,-10000,4,1,1,50,0,0
65256,-100,4,1,1,50,0,0
65351,-20,4,1,1,50,0,0
65375,-200,4,1,1,50,0,0
65541,-142.857142857143,4,1,1,50,0,0
65604,-100,4,1,1,50,0,0
65668,-76.9230769230769,4,1,1,50,0,0
65731,-27.7777777777778,4,1,1,50,0,0
65778,-1000,4,1,1,50,0,0
65826,-500,4,1,1,50,0,0
65873,-333.333333333333,4,1,1,50,0,0
65921,-27.7777777777778,4,1,1,50,0,0
65968,-1000,4,1,1,50,0,0
66016,-500,4,1,1,50,0,0
66063,-333.333333333333,4,1,1,50,0,0
66111,-100,4,1,1,50,0,0
66300,-32.258064516129,4,1,1,50,0,0
66348,-500,4,1,1,50,0,0
66395,-333.333333333333,4,1,1,50,0,0
66443,-250,4,1,1,50,0,0
66490,-100,4,1,1,50,0,0
66870,-10,4,1,1,50,0,0
66894,-10000,4,1,1,50,0,0
67313,-2000,4,1,1,50,0,0
67376,-1000,4,1,1,50,0,0
67440,-500,4,1,1,50,0,0
67503,-333.333333333333,4,1,1,50,0,0
67566,-200,4,1,1,50,0,0
67630,-142.857142857143,4,1,1,50,0,0
67693,-100,4,1,1,50,0,0
67756,-76.9230769230769,4,1,1,50,0,0
67819,-100,4,1,1,50,0,0
68389,-200,4,1,1,50,0,0
68579,-142.857142857143,4,1,1,50,0,0
68642,-100,4,1,1,50,0,0
68706,-76.9230769230769,4,1,1,50,0,0
68769,-100,4,1,1,50,0,0
69149,-10,4,1,1,50,0,0
69152,-140.845070422535,4,1,1,50,0,0
69244,-10,4,1,1,50,0,0
69247,-140.845070422535,4,1,1,50,0,0
69338,-100,4,1,1,50,0,0
69528,-40,4,1,1,50,0,0
69552,-200,4,1,1,50,0,0
69623,-40,4,1,1,50,0,0
69647,-200,4,1,1,50,0,0
69718,-44.4444444444445,4,1,1,50,0,0
69750,-133.333333333333,4,1,1,50,0,0
69908,-40,4,1,1,50,0,0
69956,-200,4,1,1,50,0,0
70098,-142.857142857143,4,1,1,50,0,0
70161,-100,4,1,1,50,0,0
70225,-76.9230769230769,4,1,1,50,0,0
70288,-52.6315789473684,4,1,1,50,0,0
70312,-1000,4,1,1,50,0,0
70335,-23.8095238095238,4,1,1,50,0,0
70359,-333.333333333333,4,1,1,50,0,0
70478,-52.6315789473684,4,1,1,50,0,0
70501,-10000,4,1,1,50,0,0
70525,-62.5,4,1,1,50,0,0
70549,-250,4,1,1,50,0,0
70573,-142.857142857143,4,1,1,50,0,0
70620,-71.4285714285714,4,1,1,50,0,0
70668,-200,4,1,1,50,0,0
70691,-58.8235294117647,4,1,1,50,0,0
70715,-250,4,1,1,50,0,0
70739,-52.6315789473684,4,1,1,50,0,0
70762,-333.333333333333,4,1,1,50,0,0
70786,-47.6190476190476,4,1,1,50,0,0
70810,-500,4,1,1,50,0,0
70834,-43.4782608695652,4,1,1,50,0,0
70857,-27.7777777777778,4,1,1,50,0,0
70873,-1000,4,1,1,50,0,0
70889,-500,4,1,1,50,0,0
70905,-333.333333333333,4,1,1,50,0,0
70921,-100,4,1,1,50,0,0
71047,-40,4,1,1,50,0,0
71071,-200,4,1,1,50,0,0
71142,-100,4,1,1,50,0,0
71237,-25.1889168765743,4,1,1,50,0,0
71261,-10000,4,1,1,50,0,0
71332,-100,4,1,1,50,0,0
71427,-20,4,1,1,50,0,0
71451,-200,4,1,1,50,0,0
71617,-142.857142857143,4,1,1,50,0,0
71680,-100,4,1,1,50,0,0
71744,-76.9230769230769,4,1,1,50,0,0
71807,-27.7777777777778,4,1,1,50,0,0
71854,-1000,4,1,1,50,0,0
71902,-500,4,1,1,50,0,0
71949,-333.333333333333,4,1,1,50,0,0
71997,-27.7777777777778,4,1,1,50,0,0
72044,-1000,4,1,1,50,0,0
72092,-500,4,1,1,50,0,0
72139,-333.333333333333,4,1,1,50,0,0
72187,-100,4,1,1,50,0,0
72376,-32.258064516129,4,1,1,50,0,0
72424,-500,4,1,1,50,0,0
72471,-333.333333333333,4,1,1,50,0,0
72519,-250,4,1,1,50,0,0
72566,-100,4,1,1,50,0,0
72946,-58.8235294117647,4,1,1,50,0,0
72993,-285.714285714286,4,1,1,50,0,0
73041,-95.2380952380952,4,1,1,50,0,0
73326,-55.5555555555556,4,1,1,50,0,0
73373,-285.714285714286,4,1,1,50,0,0
73421,-90.9090909090909,4,1,1,50,0,0
73705,-52.6315789473684,4,1,1,50,0,0
73753,-285.714285714286,4,1,1,50,0,0
73800,-55.5555555555556,4,1,1,50,0,0
73848,-250,4,1,1,50,0,0
73895,-57.1428571428571,4,1,1,50,0,0
73943,-250,4,1,1,50,0,0
73990,-58.8235294117647,4,1,1,50,0,0
74038,-250,4,1,1,50,0,0
74085,-60.6060606060606,4,1,1,50,0,0
74133,-250,4,1,1,50,0,0
74180,-62.5,4,1,1,50,0,0
74228,-250,4,1,1,50,0,0
74275,-50,4,1,1,50,0,0
74307,-200,4,1,1,50,0,0
74370,-55.5555555555556,4,1,1,50,0,0
74402,-166.666666666667,4,1,1,50,0,0
74465,-49.7512437810945,4,1,1,50,0,0
74489,-151.515151515152,4,1,1,50,0,0
74560,-40.8163265306122,4,1,1,50,0,0
74584,-181.818181818182,4,1,1,50,0,0
74655,-33.3333333333333,4,1,1,50,0,0
74679,-250,4,1,1,50,0,0
74750,-29.4117647058824,4,1,1,50,0,0
74774,-333.333333333333,4,1,1,50,0,0
74845,-32.258064516129,4,1,1,50,0,0
74876,-250,4,1,1,50,0,0
74971,-31.7460317460317,4,1,1,50,0,0
75003,-250,4,1,1,50,0,0
75098,-31.25,4,1,1,50,0,0
75130,-250,4,1,1,50,0,0
75224,-30.7692307692308,4,1,1,50,0,0
75256,-250,4,1,1,50,0,0
75351,-30.3030303030303,4,1,1,50,0,0
75383,-250,4,1,1,50,0,0
75478,-29.8507462686567,4,1,1,50,0,0
75509,-250,4,1,1,50,0,0
75604,-19.6078431372549,4,1,1,50,0,0
75636,-250,4,1,1,50,0,0
75794,-10,4,1,1,50,0,0
75814,-666.666666666667,4,1,1,50,0,0
76743.8,-625,4,1,1,50,0,0
76838.7,-588.235294117647,4,1,1,50,0,0
76933.6,-555.555555555556,4,1,1,50,0,0
77028.5,-526.315789473684,4,1,1,50,0,0
77123.4,-500,4,1,1,50,0,0
77218.3,-476.190476190476,4,1,1,50,0,0
77313.2,-434.782608695652,4,1,1,50,0,0
77408.1,-384.615384615385,4,1,1,50,0,0
77503,-333.333333333333,4,1,1,50,0,0
77550.4545454545,-322.58064516129,4,1,1,50,0,0
77597.9090909091,-294.117647058824,4,1,1,50,0,0
77645.3636363636,-256.410256410256,4,1,1,50,0,0
77692.8181818182,-217.391304347826,4,1,1,50,0,0
77740.2727272727,-181.818181818182,4,1,1,50,0,0
77787.7272727273,-151.515151515152,4,1,1,50,0,0
77835.1818181818,-126.582278481013,4,1,1,50,0,0
77882.6363636364,-107.52688172043,4,1,1,50,0,0
77930.0909090909,-90.9090909090909,4,1,1,50,0,0
77977.5454545455,-77.5193798449612,4,1,1,50,0,0
78025,-66.6666666666667,4,1,1,50,0,0
78073,379.746835443038,4,1,1,50,1,0
78073,-10,4,1,1,50,0,0
78096,-200,4,1,1,50,0,0
78262,-100,4,1,1,50,0,0
78272,-153.846153846154,4,1,1,50,0,0
78452,-50,4,1,1,50,0,0
78462,-125,4,1,1,50,0,0
78642,-33.3333333333333,4,1,1,50,0,0
78652,-105.263157894737,4,1,1,50,0,0
78832,-25,4,1,1,50,0,0
78842,-90.9090909090909,4,1,1,50,0,0
79022,-20,4,1,1,50,0,0
79032,-83.3333333333333,4,1,1,50,0,0
79212,-16.6666666666667,4,1,1,50,0,0
79222,-80,4,1,1,50,0,0
79402,-14.2857142857143,4,1,1,50,0,0
79412,-76.9230769230769,4,1,1,50,0,0
79591,-20,6,1,1,50,0,0
79601,-100,6,1,1,50,0,0
79781,-20,6,1,1,50,0,0
79791,-111.111111111111,6,1,1,50,0,0
79971,-100,4,1,1,50,0,0
80035,-250,4,1,1,50,0,0
80129,-35.7142857142857,4,1,1,50,0,0
80161,-28.5714285714286,4,1,1,50,0,0
80193,-200,4,1,1,50,0,0
80351,-42.0168067226891,4,1,1,50,0,0
80398,-212.765957446809,4,1,1,50,0,0
80541,-44.4444444444445,4,1,1,50,0,0
80588,-222.222222222222,4,1,1,50,0,0
80731,379.746835443038,4,1,1,50,1,0
80731,-50.251256281407,6,1,1,50,0,0
80747,-10000,6,1,1,50,0,0
80779,-50.251256281407,6,1,1,50,0,0
80794,-35.84229390681,6,1,1,50,0,0
80825,-370.37037037037,6,1,1,50,0,0
80920,-125,6,1,1,50,0,0
81300,-250,4,1,1,50,0,0
81490,-178.571428571429,4,1,1,50,0,0
81553,-125,4,1,1,50,0,0
81617,-96.1538461538461,4,1,1,50,0,0
81680,-125,4,1,1,50,0,0
82060,-250,4,1,1,50,0,0
82249,-178.571428571429,4,1,1,50,0,0
82312,-125,4,1,1,50,0,0
82376,-96.1538461538461,4,1,1,50,0,0
82439,-125,4,1,1,50,0,0
82819,-250,4,1,1,50,0,0
83009,-178.571428571429,4,1,1,50,0,0
83072,-125,4,1,1,50,0,0
83136,-96.1538461538461,4,1,1,50,0,0
83199,-125,4,1,1,50,0,0
83579,-250,4,1,1,50,0,0
83768,-178.571428571429,4,1,1,50,0,0
83831,-125,4,1,1,50,0,0
83895,-96.1538461538461,4,1,1,50,0,0
83958,-125,4,1,1,50,0,0
84338,-250,4,1,1,50,0,0
84528,-178.571428571429,4,1,1,50,0,0
84591,-125,4,1,1,50,0,0
84655,-96.1538461538461,4,1,1,50,0,0
84718,-125,4,1,1,50,0,0
85098,-250,4,1,1,50,0,0
85287,-178.571428571429,4,1,1,50,0,0
85350,-125,4,1,1,50,0,0
85414,-96.1538461538461,4,1,1,50,0,0
85477,-125,4,1,1,50,0,0
85857,-22.2222222222222,4,1,1,50,0,0
85882,-250,4,1,1,50,0,0
86189,-222.222222222222,4,1,1,50,0,0
86237,-200,4,1,1,50,0,0
86285,-166.666666666667,4,1,1,50,0,0
86332,-133.333333333333,4,1,1,50,0,0
86379,-111.111111111111,4,1,1,50,0,0
86427,-95.2380952380952,4,1,1,50,0,0
86474,-83.3333333333333,4,1,1,50,0,0
86522,-76.9230769230769,4,1,1,50,0,0
86569,-71.4285714285714,4,1,1,50,0,0
86617,-27.027027027027,4,1,1,50,0,0
86628,-500,4,1,1,50,0,0
86664,-27.027027027027,4,1,1,50,0,0
86676,-500,4,1,1,50,0,0
86712,-27.027027027027,4,1,1,50,0,0
86723,-500,4,1,1,50,0,0
86759,-27.027027027027,4,1,1,50,0,0
86771,-500,4,1,1,50,0,0
86806,-27.7777777777778,4,1,1,50,0,1
86822,-1000,4,1,1,50,0,1
86838,-500,4,1,1,50,0,1
86854,-333.333333333333,4,1,1,50,0,1
86870,-100,4,1,1,50,0,1
87091,-27.7777777777778,6,1,1,50,0,1
87114,-1000,6,1,1,50,0,1
87138,-500.000000000003,6,1,1,50,0,1
87162,-333.333333333333,6,1,1,50,0,1
87186,-100,6,1,1,50,0,1
87376,-32.258064516129,4,1,1,50,0,1
87400,-1000,4,1,1,50,0,1
87424,-333.333333333333,4,1,1,50,0,1
87447,-200,4,1,1,50,0,1
87471,-142.857142857143,4,1,1,50,0,1
87503,-100,4,1,1,50,0,1
87534,-76.9230769230769,4,1,1,50,0,1
87566,-40,4,1,1,50,0,1
87590,-200,4,1,1,50,0,1
87661,-27.7777777777778,6,1,1,50,0,1
87684,-1000,6,1,1,50,0,1
87708,-500.000000000003,6,1,1,50,0,1
87732,-333.333333333333,6,1,1,50,0,1
87756,-100,6,1,1,50,0,1
87851,-27.7777777777778,6,1,1,50,0,1
87874,-1000,6,1,1,50,0,1
87898,-500.000000000003,6,1,1,50,0,1
87922,-333.333333333333,6,1,1,50,0,1
87946,-27.7777777777778,6,1,1,50,0,1
87969,-1000,6,1,1,50,0,1
87993,-500.000000000003,6,1,1,50,0,1
88017,-333.333333333333,6,1,1,50,0,1
88041,-100,6,1,1,50,0,1
88136,-20,4,1,1,50,0,1
88159,-1000,4,1,1,50,0,1
88182.8333333333,-476.190476190476,4,1,1,50,0,1
88206.6666666667,-322.58064516129,4,1,1,50,0,1
88230.5,-238.095238095238,4,1,1,50,0,1
88254.3333333333,-188.679245283019,4,1,1,50,0,1
88278.1666666667,-158.730158730159,4,1,1,50,0,1
88302,-135.135135135135,4,1,1,50,0,1
88325,-100,4,1,1,50,0,1
88515,-52.6315789473684,4,1,1,50,0,1
88547,-1000,4,1,1,50,0,1
88579,-58.8235294117647,4,1,1,50,0,1
88610,-333.333333333333,4,1,1,50,0,1
88642,-58.8235294117647,4,1,1,50,0,1
88674,-333.333333333333,4,1,1,50,0,1
88705,-50.251256281407,4,1,1,50,0,1
88717,-10000,4,1,1,50,0,1
88729,-50.251256281407,4,1,1,50,0,1
88741,-10000,4,1,1,50,0,1
88753,-58.8235294117647,4,1,1,50,0,1
88776,-333.333333333333,4,1,1,50,0,1
88800,-200,4,1,1,50,0,1
88824,-120.481927710843,4,1,1,50,0,1
88848,-85.4700854700855,4,1,1,50,0,1
88871,-66.6666666666667,4,1,1,50,0,1
88895,-27.7777777777778,6,1,1,50,0,1
88918,-1000,6,1,1,50,0,1
88942,-500.000000000003,6,1,1,50,0,1
88966,-333.333333333333,6,1,1,50,0,1
88990,-76.9230769230769,4,1,1,50,0,1
89014,-142.857142857143,4,1,1,50,0,1
89038,-66.6666666666667,4,1,1,50,0,1
89061,-200,4,1,1,50,0,1
89085,-58.8235294117647,4,1,1,50,0,1
89109,-333.333333333333,4,1,1,50,0,1
89132,-55.5555555555556,4,1,1,50,0,1
89156,-500,4,1,1,50,0,1
89180,-27.7777777777778,6,1,1,50,0,1
89192,-1000,6,1,1,50,0,1
89204,-500,6,1,1,50,0,1
89215,-333.333333333333,6,1,1,50,0,1
89227,-58.8235294117647,4,1,1,50,0,1
89251,-333.333333333333,4,1,1,50,0,1
89275,-100,4,1,1,50,0,1
89298,-47.6190476190476,4,1,1,50,0,1
89322,-333.333333333333,4,1,1,50,0,1
89345,-200,4,1,1,50,0,1
89370,-100,4,1,1,50,0,1
89655,-20,4,1,1,50,0,1
89678,-1000,4,1,1,50,0,1
89701.8333333333,-476.190476190476,4,1,1,50,0,1
89725.6666666667,-322.58064516129,4,1,1,50,0,1
89749.5,-238.095238095238,4,1,1,50,0,1
89773.3333333333,-188.679245283019,4,1,1,50,0,1
89797.1666666667,-158.730158730159,4,1,1,50,0,1
89821,-135.135135135135,4,1,1,50,0,1
89844,-100,4,1,1,50,0,1
89939,-45.4545454545455,4,1,1,50,0,1
89963,-166.666666666667,4,1,1,50,0,1
90034,-28.5714285714286,4,1,1,50,0,1
90066,-200,4,1,1,50,0,1
90224,-100,4,1,1,50,0,1
90272,-384.615384615385,4,1,1,50,0,1
90319,-166.666666666667,4,1,1,50,0,1
90351,-125,4,1,1,50,0,1
90382,-45.4545454545455,4,1,1,50,0,1
90414,-100,4,1,1,50,0,1
90477,-250,4,1,1,50,0,1
90509,-166.666666666667,4,1,1,50,0,1
90541,-31.9488817891374,4,1,1,50,0,1
90556,-58.8235294117647,4,1,1,50,0,1
90580,-333.333333333333,4,1,1,50,0,1
90604,-55.5555555555556,4,1,1,50,0,1
90628,-500,4,1,1,50,0,1
90651,-52.6315789473684,4,1,1,50,0,1
90675,-1000,4,1,1,50,0,1
90699,-100,4,1,1,50,0,1
90722,-47.6190476190476,4,1,1,50,0,1
90746,-333.333333333333,4,1,1,50,0,1
90769,-200,4,1,1,50,0,1
90794,-100,4,1,1,50,0,1
90825,-38.4615384615385,4,1,1,50,0,1
90857,-333.333333333333,4,1,1,50,0,1
90889,-200,4,1,1,50,0,1
90920,-142.857142857143,4,1,1,50,0,1
90952,-111.111111111111,4,1,1,50,0,1
90984,-58.8235294117647,4,1,1,50,0,1
91015,-333.333333333333,4,1,1,50,0,1
91047,-58.8235294117647,4,1,1,50,0,1
91078,-333.333333333333,4,1,1,50,0,1
91110,-58.8235294117647,4,1,1,50,0,1
91141,-333.333333333333,4,1,1,50,0,1
91174,-32.258064516129,4,1,1,50,0,1
91198,-1000,4,1,1,50,0,1
91222,-333.333333333333,4,1,1,50,0,1
91245,-200,4,1,1,50,0,1
91269,-142.857142857143,4,1,1,50,0,1
91301,-100,4,1,1,50,0,1
91332,-76.9230769230769,4,1,1,50,0,1
91363,-100,4,1,1,50,0,1
91458,-45.4545454545455,4,1,1,50,0,1
91482,-166.666666666667,4,1,1,50,0,1
91553,-100,4,1,1,50,0,1
91743,-58.8235294117647,4,1,1,50,0,1
91767,-333.333333333333,4,1,1,50,0,1
91791,-58.8235294117647,4,1,1,50,0,1
91815,-333.333333333333,4,1,1,50,0,1
91838,-58.8235294117647,4,1,1,50,0,1
91862,-333.333333333333,4,1,1,50,0,1
91886,-58.8235294117647,4,1,1,50,0,1
91910,-333.333333333333,4,1,1,50,0,1
91933,-10,4,1,1,50,0,1
91943,-200,4,1,1,50,0,1
91981,-166.666666666667,4,1,1,50,0,1
92028,-133.333333333333,4,1,1,50,0,1
92075,-111.111111111111,4,1,1,50,0,1
92123,-95.2380952380952,4,1,1,50,0,1
92170,-83.3333333333333,4,1,1,50,0,1
92218,-76.9230769230769,4,1,1,50,0,1
92265,-71.4285714285714,4,1,1,50,0,1
92313,-29.4117647058824,4,1,1,50,0,1
92337,-500,4,1,1,50,0,1
92408,-250,4,1,1,50,0,1
92455,-125,4,1,1,50,0,1
92503,-83.3333333333333,4,1,1,50,0,1
92550,-62.5,4,1,1,50,0,1
92598,-29.4117647058824,4,1,1,50,0,1
92622,-500,4,1,1,50,0,1
92693,-250,4,1,1,50,0,1
92740,-125,4,1,1,50,0,1
92788,-83.3333333333333,4,1,1,50,0,1
92835,-62.5,4,1,1,50,0,1
92882,379.746835443038,6,1,1,50,1,0
92882,-10,4,1,1,50,0,0
92892,-166.666666666667,4,1,1,50,0,0
93072,-163.934426229508,4,1,1,50,0,0
93167,-158.730158730159,4,1,1,50,0,0
93262,-151.515151515152,4,1,1,50,0,0
93357,-144.927536231884,4,1,1,50,0,0
93452,-136.986301369863,4,1,1,50,0,0
93547,-129.87012987013,4,1,1,50,0,0
93642,-120.481927710843,4,1,1,50,0,0
93737,-112.359550561798,4,1,1,50,0,0
93832,-104.166666666667,4,1,1,50,0,0
93927,-100,4,1,1,50,0,0
94022,-97.0873786407767,4,1,1,50,0,0
94116,-94.3396226415094,4,1,1,50,0,0
94211,-87.719298245614,4,1,1,50,0,0
94234,-97.0873786407767,4,1,1,50,0,0
94258,-84.7457627118644,4,1,1,50,0,0
94282,-94.3396226415094,4,1,1,50,0,0
94306,-81.3008130081301,4,1,1,50,0,0
94329,-99.009900990099,4,1,1,50,0,0
94353,-77.5193798449612,4,1,1,50,0,0
94377,-105.263157894737,4,1,1,50,0,0
94400,-72.463768115942,4,1,1,50,0,0
94424,-108.695652173913,4,1,1,50,0,0
94448,-66.6666666666667,4,1,1,50,0,0
94472,-125,4,1,1,50,0,0
94495,-60.6060606060606,4,1,1,50,0,0
94519,-142.857142857143,4,1,1,50,0,0
94543,-56.4971751412429,4,1,1,50,0,0
94567,-169.491525423729,4,1,1,50,0,0
94590,-51.5463917525773,4,1,1,50,0,0
94614,-208.333333333333,4,1,1,50,0,0
94638,-48.5436893203883,4,1,1,50,0,0
94662,-277.777777777778,4,1,1,50,0,0
94685,-44.8430493273543,4,1,1,50,0,0
94709,-400,4,1,1,50,0,0
94733,-42.3728813559322,4,1,1,50,0,0
94757,-833.333333333333,4,1,1,50,0,0
94780,-33.3333333333333,4,1,1,50,0,0
94812,-166.666666666667,4,1,1,50,0,0
94907,-36.3636363636364,4,1,1,50,0,0
94938,-181.818181818182,4,1,1,50,0,0
95033,-40,4,1,1,50,0,0
95065,-200,4,1,1,50,0,0
95160,379.746835443038,4,1,1,50,1,0
95160,-40,4,1,1,50,0,0
95207,-200,4,1,1,50,0,0
95373,-66.6666666666667,4,1,1,50,0,0
95444,-35.7142857142857,4,1,1,50,0,0
95491,-285.714285714286,4,1,1,50,0,0
95657,-60.6060606060606,4,1,1,50,0,0
95729,-29.4117647058824,4,1,1,50,0,0
95761,-500,4,1,1,50,0,0
95919,-55.5555555555556,4,1,1,50,0,0
95982,-28.169014084507,4,1,1,50,0,0
96014,-666.666666666667,4,1,1,50,0,0
96172,-54.054054054054,4,1,1,50,0,0
96235,-27.027027027027,4,1,1,50,0,0
96267,-1000,4,1,1,50,0,0
96425,-52.6315789473684,4,1,1,50,0,0
96489,-50.251256281407,4,1,1,50,0,0
96512,-10000,4,1,1,50,0,0
96536,-166.666666666667,4,1,1,50,0,0
96560,-71.4285714285714,4,1,1,50,0,0
96584,-83.3333333333333,4,1,1,50,0,0
96615,-100,4,1,1,50,0,0
96647,-125,4,1,1,50,0,0
96678,-25.1889168765743,6,1,1,50,0,0
96702,-10000,6,1,1,50,0,0
96844,-25.1889168765743,6,1,1,50,0,0
96868,-40,6,1,1,50,0,0
96900,-200,6,1,1,50,0,0
96995,-40,6,1,1,50,0,0
97027,-200,6,1,1,50,0,0
97122,-40,6,1,1,50,0,0
97153,-200,6,1,1,50,0,0
97248,-50.251256281407,6,1,1,50,0,0
97272,-10000,6,1,1,50,0,0
97296,-50.251256281407,6,1,1,50,0,0
97319,-10000,6,1,1,50,0,0
97343,-50.251256281407,6,1,1,50,0,0
97367,-10000,6,1,1,50,0,0
97391,-50.251256281407,6,1,1,50,0,0
97414,-10000,6,1,1,50,0,0
97438,-30.7692307692308,6,1,1,50,0,0
97470,-400,6,1,1,50,0,0
97565,-30.7692307692308,6,1,1,50,0,0
97596,-400,6,1,1,50,0,0
97691,-30.7692307692308,6,1,1,50,0,0
97723,-400,6,1,1,50,0,0
97818,-20,6,1,1,50,0,0
97828,-142.857142857143,6,1,1,50,0,0
97913,-125,6,1,1,50,0,0
98008,-111.111111111111,6,1,1,50,0,0
98103,-100,6,1,1,50,0,0
98197,-111.111111111111,6,1,1,50,0,0
98245,-125,6,1,1,50,0,0
98292,-142.857142857143,4,1,1,50,0,0
98339.5454545455,-133.333333333333,4,1,1,50,0,0
98387.0909090909,-123.456790123457,4,1,1,50,0,0
98434.6363636364,-116.279069767442,4,1,1,50,0,0
98482.1818181818,-108.695652173913,4,1,1,50,0,0
98529.7272727273,-103.092783505155,4,1,1,50,0,0
98577.2727272727,-97.0873786407767,4,1,1,50,0,0
98624.8181818182,-92.5925925925926,4,1,1,50,0,0
98672.3636363636,-87.719298245614,4,1,1,50,0,0
98719.9090909091,-84.0336134453782,4,1,1,50,0,0
98767.4545454545,-80,4,1,1,50,0,0
98815,-76.9230769230769,4,1,1,50,0,0
98862.4,-77.5193798449612,4,1,1,50,0,0
98909.8,-78.125,4,1,1,50,0,0
98957.2,-80,4,1,1,50,0,0
99004.6,-83.3333333333333,4,1,1,50,0,0
99052,-86.9565217391304,4,1,1,50,0,0
99099.4,-92.5925925925926,4,1,1,50,0,0
99146.8,-99.009900990099,4,1,1,50,0,0
99194.2,-108.695652173913,4,1,1,50,0,0
99241.6,-123.456790123457,4,1,1,50,0,0
99289,-142.857142857143,4,1,1,50,0,0
99337,-163.934426229508,4,1,1,50,0,0
99384,-200,4,1,1,50,0,0
99432,-166.666666666667,4,1,1,50,0,0
99527,-20,4,1,1,50,0,0
99537,-142.857142857143,4,1,1,50,0,0
99558,-125,4,1,1,50,0,0
99590,-111.111111111111,4,1,1,50,0,0
99622,-100,4,1,1,50,0,0
99653,-90.9090909090909,4,1,1,50,0,0
99685,-83.3333333333333,4,1,1,50,0,0
99716,-33.3333333333333,4,1,1,50,0,0
99726,-90.9090909090909,4,1,1,50,0,0
99748,-100,4,1,1,50,0,0
99906,-25.1889168765743,4,1,1,50,0,0
99938,-10000,4,1,1,50,0,0
100033,-25.1889168765743,4,1,1,50,0,0
100065,-10000,4,1,1,50,0,0
100160,-10,4,1,1,50,0,0
100170,-142.857142857143,4,1,1,50,0,0
100476,-50.251256281407,6,1,1,50,0,0
100492,-10000,6,1,1,50,0,0
100524,-50.251256281407,6,1,1,50,0,0

[HitObjects]
192,192,993,5,0,0:0:0:0:
64,192,993,1,0,0:0:0:0:
192,192,1182,1,0,0:0:0:0:
448,192,1372,1,0,0:0:0:0:
192,192,1562,1,0,0:0:0:0:
320,192,1562,1,0,0:0:0:0:
320,192,1942,1,0,0:0:0:0:
448,192,2132,1,0,0:0:0:0:
448,192,2322,1,0,0:0:0:0:
192,192,2322,1,0,0:0:0:0:
320,192,2701,1,0,0:0:0:0:
448,192,2765,1,0,0:0:0:0:
320,192,2828,1,0,0:0:0:0:
192,192,2891,1,0,0:0:0:0:
64,192,3081,1,0,0:0:0:0:
192,192,3081,1,0,0:0:0:0:
64,192,3461,1,0,0:0:0:0:
448,192,3651,1,0,0:0:0:0:
448,192,3841,1,0,0:0:0:0:
64,192,3841,1,0,0:0:0:0:
320,192,4220,1,0,0:0:0:0:
448,192,4410,1,0,0:0:0:0:
448,192,4600,1,0,0:0:0:0:
192,192,4600,1,0,0:0:0:0:
320,192,4980,1,0,0:0:0:0:
64,192,5170,1,0,0:0:0:0:
320,192,5360,1,0,0:0:0:0:
448,192,5360,1,0,0:0:0:0:
320,192,5739,1,0,0:0:0:0:
64,192,5929,1,0,0:0:0:0:
192,192,6119,1,0,0:0:0:0:
320,192,6119,1,0,0:0:0:0:
192,192,7068,1,0,0:0:0:0:
64,192,7068,1,0,0:0:0:0:
192,192,7258,1,0,0:0:0:0:
448,192,7448,1,0,0:0:0:0:
192,192,7638,1,0,0:0:0:0:
320,192,7638,1,0,0:0:0:0:
320,192,8018,1,0,0:0:0:0:
448,192,8208,1,0,0:0:0:0:
448,192,8398,1,0,0:0:0:0:
192,192,8398,1,0,0:0:0:0:
320,192,8777,1,0,0:0:0:0:
448,192,8841,1,0,0:0:0:0:
320,192,8904,1,0,0:0:0:0:
192,192,8967,1,0,0:0:0:0:
64,192,9157,1,0,0:0:0:0:
192,192,9157,1,0,0:0:0:0:
64,192,9537,1,0,0:0:0:0:
448,192,9727,1,0,0:0:0:0:
448,192,9917,1,0,0:0:0:0:
64,192,9917,1,0,0:0:0:0:
320,192,10296,1,0,0:0:0:0:
448,192,10486,1,0,0:0:0:0:
448,192,10676,1,0,0:0:0:0:
192,192,10676,1,0,0:0:0:0:
320,192,11056,1,0,0:0:0:0:
64,192,11246,1,0,0:0:0:0:
320,192,11436,1,0,0:0:0:0:
448,192,11436,1,0,0:0:0:0:
320,192,11815,1,0,0:0:0:0:
64,192,12005,1,0,0:0:0:0:
320,192,12195,1,0,0:0:0:0:
448,192,12195,1,0,0:0:0:0:
320,192,12575,1,0,0:0:0:0:
192,192,12575,1,0,0:0:0:0:
64,192,12860,1,0,0:0:0:0:
320,192,12860,1,0,0:0:0:0:
64,192,13144,1,0,0:0:0:0:
192,192,13144,1,0,0:0:0:0:
320,192,13238,1,0,0:0:0:0:
320,192,13333,1,0,0:0:0:0:
64,192,13428,1,0,0:0:0:0:
320,192,13523,1,0,0:0:0:0:
192,192,13618,1,0,0:0:0:0:
448,192,13713,1,0,0:0:0:0:
320,192,13713,1,0,0:0:0:0:
192,192,14093,1,0,0:0:0:0:
448,192,14093,1,0,0:0:0:0:
320,192,14283,1,0,0:0:0:0:
192,192,14283,1,0,0:0:0:0:
64,192,14378,1,0,0:0:0:0:
64,192,14473,1,0,0:0:0:0:
320,192,14568,1,0,0:0:0:0:
64,192,14662,1,0,0:0:0:0:
448,192,14757,1,0,0:0:0:0:
64,192,14852,1,0,0:0:0:0:
192,192,14852,1,0,0:0:0:0:
320,192,15232,1,0,0:0:0:0:
192,192,15232,1,0,0:0:0:0:
64,192,15422,1,0,0:0:0:0:
320,192,15422,1,0,0:0:0:0:
192,192,15802,1,0,0:0:0:0:
320,192,15802,1,0,0:0:0:0:
192,192,16181,1,0,0:0:0:0:
448,192,16181,1,0,0:0:0:0:
192,192,16371,1,0,0:0:0:0:
448,192,16561,1,0,0:0:0:0:
320,192,16751,1,0,0:0:0:0:
64,192,16751,1,0,0:0:0:0:
64,192,17131,1,0,0:0:0:0:
192,192,17511,1,0,0:0:0:0:
320,192,17511,1,0,0:0:0:0:
64,192,19219,1,0,0:0:0:0:
192,192,19219,1,0,0:0:0:0:
320,192,19313,1,0,0:0:0:0:
320,192,19408,1,0,0:0:0:0:
64,192,19503,1,0,0:0:0:0:
320,192,19598,1,0,0:0:0:0:
192,192,19693,1,0,0:0:0:0:
448,192,19788,1,0,0:0:0:0:
320,192,19788,1,0,0:0:0:0:
192,192,20168,1,0,0:0:0:0:
448,192,20168,1,0,0:0:0:0:
320,192,20358,1,0,0:0:0:0:
192,192,20358,1,0,0:0:0:0:
64,192,20453,1,0,0:0:0:0:
64,192,20548,1,0,0:0:0:0:
320,192,20643,1,0,0:0:0:0:
64,192,20737,1,0,0:0:0:0:
448,192,20832,1,0,0:0:0:0:
64,192,20927,1,0,0:0:0:0:
192,192,20927,1,0,0:0:0:0:
320,192,21307,1,0,0:0:0:0:
192,192,21307,1,0,0:0:0:0:
320,192,21497,1,0,0:0:0:0:
64,192,21497,1,0,0:0:0:0:
192,192,21877,1,0,0:0:0:0:
320,192,21877,1,0,0:0:0:0:
192,192,22256,1,0,0:0:0:0:
448,192,22256,1,0,0:0:0:0:
192,192,22446,1,0,0:0:0:0:
448,192,22636,1,0,0:0:0:0:
320,192,22826,1,0,0:0:0:0:
64,192,22826,1,0,0:0:0:0:
64,192,23206,1,0,0:0:0:0:
192,192,23586,1,0,0:0:0:0:
320,192,23586,1,0,0:0:0:0:
64,192,23964,1,0,0:0:0:0:
320,192,24154,1,0,0:0:0:0:
320,192,24344,1,0,0:0:0:0:
192,192,24344,1,0,0:0:0:0:
64,192,24724,1,0,0:0:0:0:
320,192,24914,1,0,0:0:0:0:
320,192,25104,1,0,0:0:0:0:
192,192,25104,1,0,0:0:0:0:
448,192,25483,1,0,0:0:0:0:
320,192,25507,1,0,0:0:0:0:
192,192,25531,1,0,0:0:0:0:
64,192,25673,1,0,0:0:0:0:
192,192,25697,1,0,0:0:0:0:
320,192,25721,1,0,0:0:0:0:
320,192,25863,1,0,0:0:0:0:
192,192,25887,1,0,0:0:0:0:
64,192,25911,1,0,0:0:0:0:
448,192,26053,1,0,0:0:0:0:
192,192,26148,1,0,0:0:0:0:
448,192,26195,1,0,0:0:0:0:
64,192,26243,1,0,0:0:0:0:
320,192,26290,1,0,0:0:0:0:
192,192,26338,1,0,0:0:0:0:
448,192,26385,1,0,0:0:0:0:
192,192,26433,1,0,0:0:0:0:
64,192,26433,1,0,0:0:0:0:
448,192,26812,1,0,0:0:0:0:
192,192,26812,1,0,0:0:0:0:
64,192,26812,1,0,0:0:0:0:
192,192,27001,1,0,0:0:0:0:
448,192,27191,1,0,0:0:0:0:
320,192,27191,1,0,0:0:0:0:
192,192,27381,1,0,0:0:0:0:
320,192,27381,1,0,0:0:0:0:
192,192,27571,1,0,0:0:0:0:
64,192,27761,1,0,0:0:0:0:
320,192,27761,1,0,0:0:0:0:
64,192,27856,1,0,0:0:0:0:
448,192,27951,1,0,0:0:0:0:
64,192,28046,1,0,0:0:0:0:
448,192,28141,1,0,0:0:0:0:
192,192,28141,1,0,0:0:0:0:
320,192,28141,1,0,0:0:0:0:
448,192,28330,1,0,0:0:0:0:
320,192,28520,1,0,0:0:0:0:
64,192,28520,1,0,0:0:0:0:
448,192,28584,1,0,0:0:0:0:
192,192,28647,1,0,0:0:0:0:
64,192,28710,1,0,0:0:0:0:
448,192,28734,1,0,0:0:0:0:
320,192,28758,1,0,0:0:0:0:
64,192,28900,1,0,0:0:0:0:
320,192,28900,1,0,0:0:0:0:
192,192,28995,1,0,0:0:0:0:
64,192,29043,1,0,0:0:0:0:
320,192,29090,1,0,0:0:0:0:
448,192,29137,1,0,0:0:0:0:
192,192,29185,1,0,0:0:0:0:
320,192,29232,1,0,0:0:0:0:
64,192,29280,1,0,0:0:0:0:
192,192,29304,1,0,0:0:0:0:
448,192,29470,1,0,0:0:0:0:
448,192,29660,1,0,0:0:0:0:
64,192,29660,1,0,0:0:0:0:
320,192,29660,1,0,0:0:0:0:
192,192,29849,1,0,0:0:0:0:
320,192,30039,1,0,0:0:0:0:
64,192,30039,1,0,0:0:0:0:
448,192,30229,1,0,0:0:0:0:
320,192,30229,1,0,0:0:0:0:
192,192,30277,1,0,0:0:0:0:
448,192,30419,1,0,0:0:0:0:
192,192,30419,1,0,0:0:0:0:
320,192,30451,1,0,0:0:0:0:
64,192,30482,1,0,0:0:0:0:
192,192,30609,1,0,0:0:0:0:
64,192,30656,1,0,0:0:0:0:
320,192,30704,1,0,0:0:0:0:
192,192,30751,1,0,0:0:0:0:
448,192,30799,1,0,0:0:0:0:
320,192,30823,1,0,0:0:0:0:
64,192,30989,1,0,0:0:0:0:
320,192,31179,1,0,0:0:0:0:
448,192,31179,1,0,0:0:0:0:
448,192,31368,1,0,0:0:0:0:
320,192,31558,1,0,0:0:0:0:
64,192,31558,1,0,0:0:0:0:
64,192,31748,1,0,0:0:0:0:
192,192,31748,1,0,0:0:0:0:
192,192,31938,1,0,0:0:0:0:
320,192,31938,1,0,0:0:0:0:
448,192,31938,1,0,0:0:0:0:
64,192,32318,1,0,0:0:0:0:
320,192,32318,128,0,32698:0:0:0:0:
64,192,32508,1,0,0:0:0:0:
448,192,32698,1,0,0:0:0:0:
192,192,32698,1,0,0:0:0:0:
448,192,32887,1,0,0:0:0:0:
192,192,32887,1,0,0:0:0:0:
64,192,32887,1,0,0:0:0:0:
192,192,33077,1,0,0:0:0:0:
448,192,33267,1,0,0:0:0:0:
320,192,33267,1,0,0:0:0:0:
192,192,33457,1,0,0:0:0:0:
320,192,33457,1,0,0:0:0:0:
192,192,33647,1,0,0:0:0:0:
64,192,33837,1,0,0:0:0:0:
320,192,33837,1,0,0:0:0:0:
64,192,33932,1,0,0:0:0:0:
448,192,34027,1,0,0:0:0:0:
64,192,34122,1,0,0:0:0:0:
448,192,34217,1,0,0:0:0:0:
192,192,34217,1,0,0:0:0:0:
320,192,34217,1,0,0:0:0:0:
448,192,34406,1,0,0:0:0:0:
320,192,34596,1,0,0:0:0:0:
64,192,34596,1,0,0:0:0:0:
448,192,34660,1,0,0:0:0:0:
192,192,34723,1,0,0:0:0:0:
64,192,34786,1,0,0:0:0:0:
448,192,34810,1,0,0:0:0:0:
320,192,34834,1,0,0:0:0:0:
64,192,34976,1,0,0:0:0:0:
320,192,34976,1,0,0:0:0:0:
192,192,35071,1,0,0:0:0:0:
64,192,35118,1,0,0:0:0:0:
320,192,35166,1,0,0:0:0:0:
448,192,35213,1,0,0:0:0:0:
192,192,35261,1,0,0:0:0:0:
320,192,35308,1,0,0:0:0:0:
64,192,35356,1,0,0:0:0:0:
192,192,35380,1,0,0:0:0:0:
448,192,35546,1,0,0:0:0:0:
448,192,35736,1,0,0:0:0:0:
64,192,35736,1,0,0:0:0:0:
320,192,35736,1,0,0:0:0:0:
192,192,35925,1,0,0:0:0:0:
320,192,36115,1,0,0:0:0:0:
64,192,36115,1,0,0:0:0:0:
448,192,36305,1,0,0:0:0:0:
320,192,36305,1,0,0:0:0:0:
192,192,36353,1,0,0:0:0:0:
448,192,36495,1,0,0:0:0:0:
192,192,36495,1,0,0:0:0:0:
320,192,36527,1,0,0:0:0:0:
64,192,36558,1,0,0:0:0:0:
448,192,36685,1,0,0:0:0:0:
64,192,36732,1,0,0:0:0:0:
320,192,36780,1,0,0:0:0:0:
192,192,36827,1,0,0:0:0:0:
448,192,36875,1,0,0:0:0:0:
320,192,36899,1,0,0:0:0:0:
64,192,37065,1,0,0:0:0:0:
320,192,37255,1,0,0:0:0:0:
448,192,37255,1,0,0:0:0:0:
448,192,37444,1,0,0:0:0:0:
320,192,37634,1,0,0:0:0:0:
64,192,37634,1,0,0:0:0:0:
64,192,37824,1,0,0:0:0:0:
192,192,37824,1,0,0:0:0:0:
192,192,38014,1,0,0:0:0:0:
320,192,38014,1,0,0:0:0:0:
448,192,38014,128,0,38394:0:0:0:0:
320,192,38394,1,0,0:0:0:0:
192,192,38394,1,0,0:0:0:0:
64,192,38679,1,0,0:0:0:0:
320,192,38679,1,0,0:0:0:0:
64,192,38963,1,0,0:0:0:0:
192,192,38963,1,0,0:0:0:0:
320,192,39057,1,0,0:0:0:0:
64,192,39105,1,0,0:0:0:0:
320,192,39152,1,0,0:0:0:0:
192,192,39200,1,0,0:0:0:0:
64,192,39247,1,0,0:0:0:0:
448,192,39247,1,0,0:0:0:0:
320,192,39342,1,0,0:0:0:0:
192,192,39437,1,0,0:0:0:0:
448,192,39532,1,0,0:0:0:0:
320,192,39532,1,0,0:0:0:0:
64,192,39564,1,0,0:0:0:0:
192,192,39595,1,0,0:0:0:0:
448,192,39627,1,0,0:0:0:0:
320,192,39722,1,0,0:0:0:0:
64,192,39817,1,0,0:0:0:0:
192,192,39912,1,0,0:0:0:0:
448,192,39912,1,0,0:0:0:0:
448,192,40007,1,0,0:0:0:0:
320,192,40102,1,0,0:0:0:0:
192,192,40102,1,0,0:0:0:0:
64,192,40197,1,0,0:0:0:0:
448,192,40244,1,0,0:0:0:0:
64,192,40292,1,0,0:0:0:0:
320,192,40339,1,0,0:0:0:0:
448,192,40387,1,0,0:0:0:0:
192,192,40387,1,0,0:0:0:0:
64,192,40481,1,0,0:0:0:0:
448,192,40576,1,0,0:0:0:0:
64,192,40671,1,0,0:0:0:0:
192,192,40671,1,0,0:0:0:0:
320,192,40703,1,0,0:0:0:0:
448,192,40735,1,0,0:0:0:0:
192,192,40766,1,0,0:0:0:0:
320,192,40861,1,0,0:0:0:0:
64,192,40956,1,0,0:0:0:0:
192,192,41051,1,0,0:0:0:0:
320,192,41051,1,0,0:0:0:0:
320,192,41146,1,0,0:0:0:0:
448,192,41241,1,0,0:0:0:0:
64,192,41241,1,0,0:0:0:0:
192,192,41288,1,0,0:0:0:0:
192,192,41621,1,0,0:0:0:0:
448,192,41621,1,0,0:0:0:0:
320,192,41668,1,0,0:0:0:0:
192,192,42000,1,0,0:0:0:0:
448,192,42000,1,0,0:0:0:0:
320,192,42095,1,0,0:0:0:0:
192,192,42190,1,0,0:0:0:0:
320,192,42285,1,0,0:0:0:0:
64,192,42285,1,0,0:0:0:0:
448,192,42380,1,0,0:0:0:0:
192,192,42380,1,0,0:0:0:0:
448,192,42475,1,0,0:0:0:0:
320,192,42570,1,0,0:0:0:0:
64,192,42570,1,0,0:0:0:0:
192,192,42665,1,0,0:0:0:0:
448,192,42760,1,0,0:0:0:0:
320,192,42855,1,0,0:0:0:0:
192,192,42855,1,0,0:0:0:0:
64,192,42950,1,0,0:0:0:0:
320,192,43045,1,0,0:0:0:0:
320,192,43140,1,0,0:0:0:0:
64,192,43140,1,0,0:0:0:0:
448,192,43140,1,0,0:0:0:0:
192,192,43330,1,0,0:0:0:0:
320,192,43330,1,0,0:0:0:0:
64,192,43519,1,0,0:0:0:0:
320,192,43709,1,0,0:0:0:0:
448,192,43899,128,0,44279:0:0:0:0:
64,192,44089,128,0,44944:0:0:0:0:
192,192,44279,128,0,44944:0:0:0:0:
448,192,44469,128,0,44754:0:0:0:0:
320,192,44659,128,0,44944:0:0:0:0:
448,192,44849,128,0,44944:0:0:0:0:
64,192,45038,1,0,0:0:0:0:
192,192,45038,1,0,0:0:0:0:
320,192,45132,1,0,0:0:0:0:
64,192,45180,1,0,0:0:0:0:
320,192,45227,1,0,0:0:0:0:
192,192,45275,1,0,0:0:0:0:
64,192,45322,1,0,0:0:0:0:
448,192,45322,1,0,0:0:0:0:
320,192,45417,1,0,0:0:0:0:
192,192,45512,1,0,0:0:0:0:
448,192,45607,1,0,0:0:0:0:
320,192,45607,1,0,0:0:0:0:
64,192,45639,1,0,0:0:0:0:
192,192,45670,1,0,0:0:0:0:
448,192,45702,1,0,0:0:0:0:
320,192,45797,1,0,0:0:0:0:
64,192,45892,1,0,0:0:0:0:
192,192,45987,1,0,0:0:0:0:
448,192,45987,1,0,0:0:0:0:
448,192,46082,1,0,0:0:0:0:
320,192,46177,1,0,0:0:0:0:
192,192,46177,1,0,0:0:0:0:
64,192,46272,1,0,0:0:0:0:
448,192,46319,1,0,0:0:0:0:
64,192,46367,1,0,0:0:0:0:
320,192,46414,1,0,0:0:0:0:
448,192,46462,1,0,0:0:0:0:
192,192,46462,1,0,0:0:0:0:
64,192,46556,1,0,0:0:0:0:
448,192,46651,1,0,0:0:0:0:
64,192,46746,1,0,0:0:0:0:
192,192,46746,1,0,0:0:0:0:
320,192,46778,1,0,0:0:0:0:
448,192,46810,1,0,0:0:0:0:
192,192,46841,1,0,0:0:0:0:
320,192,46936,1,0,0:0:0:0:
64,192,47031,1,0,0:0:0:0:
192,192,47126,1,0,0:0:0:0:
320,192,47126,1,0,0:0:0:0:
320,192,47221,1,0,0:0:0:0:
448,192,47316,1,0,0:0:0:0:
64,192,47316,1,0,0:0:0:0:
192,192,47363,1,0,0:0:0:0:
192,192,47696,1,0,0:0:0:0:
448,192,47696,1,0,0:0:0:0:
320,192,47743,1,0,0:0:0:0:
192,192,48075,1,0,0:0:0:0:
448,192,48075,1,0,0:0:0:0:
320,192,48170,1,0,0:0:0:0:
192,192,48265,1,0,0:0:0:0:
320,192,48360,1,0,0:0:0:0:
64,192,48360,1,0,0:0:0:0:
448,192,48455,1,0,0:0:0:0:
192,192,48455,1,0,0:0:0:0:
448,192,48550,1,0,0:0:0:0:
320,192,48645,1,0,0:0:0:0:
64,192,48645,1,0,0:0:0:0:
192,192,48740,1,0,0:0:0:0:
448,192,48835,1,0,0:0:0:0:
320,192,48930,1,0,0:0:0:0:
192,192,48930,1,0,0:0:0:0:
64,192,49025,1,0,0:0:0:0:
320,192,49120,1,0,0:0:0:0:
320,192,49215,1,0,0:0:0:0:
64,192,49215,1,0,0:0:0:0:
448,192,49215,1,0,0:0:0:0:
320,192,49405,1,0,0:0:0:0:
192,192,49405,128,0,49689:0:0:0:0:
64,192,49500,128,0,49642:0:0:0:0:
320,192,49547,128,0,49737:0:0:0:0:
448,192,49594,128,0,49784:0:0:0:0:
64,192,49784,1,0,0:0:0:0:
192,192,49974,1,0,0:0:0:0:
320,192,50164,128,0,50449:0:0:0:0:
192,192,50164,1,0,0:0:0:0:
448,192,50259,128,0,50401:0:0:0:0:
192,192,50306,128,0,50496:0:0:0:0:
64,192,50354,128,0,50544:0:0:0:0:
448,192,50544,1,0,0:0:0:0:
320,192,50734,1,0,0:0:0:0:
448,192,50924,1,0,0:0:0:0:
64,192,50924,1,0,0:0:0:0:
64,192,51066,1,0,0:0:0:0:
64,192,51208,1,0,0:0:0:0:
448,192,51208,1,0,0:0:0:0:
448,192,51351,1,0,0:0:0:0:
448,192,51493,1,0,0:0:0:0:
64,192,51493,1,0,0:0:0:0:
64,192,51620,1,0,0:0:0:0:
64,192,51746,1,0,0:0:0:0:
448,192,51746,1,0,0:0:0:0:
448,192,51873,1,0,0:0:0:0:
64,192,51999,1,0,0:0:0:0:
448,192,51999,1,0,0:0:0:0:
64,192,52126,1,0,0:0:0:0:
64,192,52253,1,0,0:0:0:0:
320,192,52253,1,0,0:0:0:0:
320,192,52348,1,0,0:0:0:0:
64,192,52442,1,0,0:0:0:0:
320,192,52442,1,0,0:0:0:0:
192,192,52632,1,0,0:0:0:0:
448,192,52632,1,0,0:0:0:0:
448,192,52759,1,0,0:0:0:0:
192,192,52759,1,0,0:0:0:0:
192,192,52886,1,0,0:0:0:0:
448,192,52886,1,0,0:0:0:0:
320,192,53012,1,0,0:0:0:0:
64,192,53060,1,0,0:0:0:0:
448,192,53107,1,0,0:0:0:0:
192,192,53155,1,0,0:0:0:0:
320,192,53202,1,0,0:0:0:0:
448,192,53202,1,0,0:0:0:0:
448,192,53329,1,0,0:0:0:0:
320,192,53329,1,0,0:0:0:0:
448,192,53455,1,0,0:0:0:0:
320,192,53455,1,0,0:0:0:0:
192,192,53582,1,0,0:0:0:0:
64,192,53677,1,0,0:0:0:0:
192,192,53772,1,0,0:0:0:0:
192,192,53867,1,0,0:0:0:0:
320,192,53961,128,0,54199:0:0:0:0:
64,192,54151,1,0,0:0:0:0:
448,192,54199,1,0,0:0:0:0:
192,192,54246,1,0,0:0:0:0:
320,192,54294,1,0,0:0:0:0:
64,192,54341,1,0,0:0:0:0:
192,192,54389,1,0,0:0:0:0:
320,192,54436,1,0,0:0:0:0:
448,192,54484,1,0,0:0:0:0:
64,192,54531,1,0,0:0:0:0:
192,192,54579,1,0,0:0:0:0:
320,192,54626,1,0,0:0:0:0:
448,192,54674,1,0,0:0:0:0:
64,192,54721,1,0,0:0:0:0:
448,192,54768,1,0,0:0:0:0:
320,192,54816,1,0,0:0:0:0:
192,192,54863,1,0,0:0:0:0:
64,192,54911,1,0,0:0:0:0:
448,192,54958,1,0,0:0:0:0:
320,192,55006,1,0,0:0:0:0:
64,192,55053,1,0,0:0:0:0:
192,192,55101,1,0,0:0:0:0:
448,192,55148,1,0,0:0:0:0:
64,192,55196,1,0,0:0:0:0:
320,192,55243,1,0,0:0:0:0:
448,192,55291,1,0,0:0:0:0:
64,192,55386,1,0,0:0:0:0:
192,192,55480,1,0,0:0:0:0:
448,192,55480,1,0,0:0:0:0:
448,192,55574,1,0,0:0:0:0:
64,192,55668,1,0,0:0:0:0:
320,192,55668,1,0,0:0:0:0:
192,192,55857,1,0,0:0:0:0:
192,192,56047,1,0,0:0:0:0:
64,192,56047,1,0,0:0:0:0:
320,192,56237,1,0,0:0:0:0:
448,192,56237,1,0,0:0:0:0:
64,192,56237,1,0,0:0:0:0:
448,192,56427,1,0,0:0:0:0:
64,192,56490,1,0,0:0:0:0:
448,192,56554,1,0,0:0:0:0:
64,192,56617,1,0,0:0:0:0:
320,192,56807,1,0,0:0:0:0:
64,192,56870,1,0,0:0:0:0:
448,192,56933,1,0,0:0:0:0:
192,192,56997,1,0,0:0:0:0:
64,192,56997,1,0,0:0:0:0:
320,192,57313,1,0,0:0:0:0:
64,192,57376,1,0,0:0:0:0:
320,192,57440,1,0,0:0:0:0:
320,192,57566,1,0,0:0:0:0:
192,192,57566,1,0,0:0:0:0:
320,192,57693,1,0,0:0:0:0:
64,192,57756,1,0,0:0:0:0:
320,192,57819,1,0,0:0:0:0:
192,192,57819,1,0,0:0:0:0:
64,192,57946,1,0,0:0:0:0:
192,192,57946,1,0,0:0:0:0:
448,192,57946,1,0,0:0:0:0:
320,192,58136,1,0,0:0:0:0:
64,192,58199,1,0,0:0:0:0:
192,192,58262,1,0,0:0:0:0:
320,192,58326,1,0,0:0:0:0:
448,192,58326,1,0,0:0:0:0:
64,192,58326,1,0,0:0:0:0:
448,192,58537,1,0,0:0:0:0:
192,192,58579,1,0,0:0:0:0:
320,192,58621,1,0,0:0:0:0:
448,192,58663,1,0,0:0:0:0:
192,192,58705,1,0,0:0:0:0:
64,192,58705,1,0,0:0:0:0:
64,192,58832,1,0,0:0:0:0:
320,192,58895,1,0,0:0:0:0:
64,192,58959,1,0,0:0:0:0:
64,192,59085,1,0,0:0:0:0:
448,192,59085,1,0,0:0:0:0:
64,192,59180,1,0,0:0:0:0:
320,192,59275,1,0,0:0:0:0:
448,192,59275,1,0,0:0:0:0:
320,192,59465,1,0,0:0:0:0:
192,192,59655,1,0,0:0:0:0:
192,192,59845,1,0,0:0:0:0:
448,192,59845,1,0,0:0:0:0:
64,192,60035,1,0,0:0:0:0:
320,192,60035,1,0,0:0:0:0:
448,192,60035,1,0,0:0:0:0:
64,192,60224,1,0,0:0:0:0:
320,192,60256,1,0,0:0:0:0:
448,192,60288,1,0,0:0:0:0:
320,192,60351,1,0,0:0:0:0:
64,192,60414,1,0,0:0:0:0:
192,192,60478,1,0,0:0:0:0:
64,192,60604,1,0,0:0:0:0:
448,192,60731,1,0,0:0:0:0:
320,192,60731,1,0,0:0:0:0:
192,192,60794,1,0,0:0:0:0:
448,192,60857,1,0,0:0:0:0:
320,192,60900,1,0,0:0:0:0:
192,192,60942,1,0,0:0:0:0:
320,192,60984,1,0,0:0:0:0:
448,192,60984,1,0,0:0:0:0:
64,192,60984,1,0,0:0:0:0:
448,192,61364,1,0,0:0:0:0:
64,192,61364,1,0,0:0:0:0:
192,192,61743,1,0,0:0:0:0:
448,192,61743,1,0,0:0:0:0:
64,192,61933,1,0,0:0:0:0:
448,192,62123,1,0,0:0:0:0:
64,192,62313,1,0,0:0:0:0:
448,192,62313,1,0,0:0:0:0:
192,192,62693,1,0,0:0:0:0:
64,192,62883,1,0,0:0:0:0:
320,192,63073,1,0,0:0:0:0:
320,192,63168,1,0,0:0:0:0:
192,192,63262,1,0,0:0:0:0:
64,192,63262,1,0,0:0:0:0:
448,192,63326,1,0,0:0:0:0:
320,192,63389,1,0,0:0:0:0:
192,192,63452,1,0,0:0:0:0:
192,192,63547,1,0,0:0:0:0:
320,192,63642,1,0,0:0:0:0:
448,192,63642,1,0,0:0:0:0:
64,192,63832,1,0,0:0:0:0:
192,192,63832,1,0,0:0:0:0:
320,192,64212,1,0,0:0:0:0:
192,192,64259,1,0,0:0:0:0:
320,192,64402,1,0,0:0:0:0:
192,192,64449,1,0,0:0:0:0:
64,192,64497,1,0,0:0:0:0:
192,192,64592,1,0,0:0:0:0:
448,192,64639,1,0,0:0:0:0:
320,192,64686,1,0,0:0:0:0:
192,192,64734,1,0,0:0:0:0:
64,192,64781,1,0,0:0:0:0:
448,192,64781,1,0,0:0:0:0:
320,192,64845,1,0,0:0:0:0:
448,192,64908,1,0,0:0:0:0:
64,192,64971,1,0,0:0:0:0:
192,192,65066,1,0,0:0:0:0:
320,192,65161,1,0,0:0:0:0:
448,192,65161,1,0,0:0:0:0:
192,192,65256,1,0,0:0:0:0:
320,192,65351,1,0,0:0:0:0:
64,192,65351,1,0,0:0:0:0:
192,192,65731,1,0,0:0:0:0:
448,192,65731,1,0,0:0:0:0:
192,192,65921,1,0,0:0:0:0:
64,192,65921,1,0,0:0:0:0:
64,192,66111,1,0,0:0:0:0:
320,192,66174,1,0,0:0:0:0:
64,192,66237,1,0,0:0:0:0:
192,192,66300,1,0,0:0:0:0:
320,192,66300,1,0,0:0:0:0:
192,192,66490,1,0,0:0:0:0:
448,192,66680,1,0,0:0:0:0:
448,192,66870,1,0,0:0:0:0:
320,192,66870,1,0,0:0:0:0:
192,192,67819,1,0,0:0:0:0:
448,192,67819,1,0,0:0:0:0:
64,192,68009,1,0,0:0:0:0:
448,192,68199,1,0,0:0:0:0:
64,192,68389,1,0,0:0:0:0:
448,192,68389,1,0,0:0:0:0:
192,192,68769,1,0,0:0:0:0:
64,192,68959,1,0,0:0:0:0:
320,192,69149,1,0,0:0:0:0:
320,192,69243,1,0,0:0:0:0:
192,192,69338,1,0,0:0:0:0:
64,192,69338,1,0,0:0:0:0:
448,192,69402,1,0,0:0:0:0:
320,192,69465,1,0,0:0:0:0:
192,192,69528,1,0,0:0:0:0:
192,192,69623,1,0,0:0:0:0:
320,192,69718,1,0,0:0:0:0:
448,192,69718,1,0,0:0:0:0:
64,192,69908,1,0,0:0:0:0:
192,192,69908,1,0,0:0:0:0:
320,192,70288,1,0,0:0:0:0:
192,192,70335,1,0,0:0:0:0:
320,192,70478,1,0,0:0:0:0:
192,192,70525,1,0,0:0:0:0:
64,192,70573,1,0,0:0:0:0:
192,192,70668,1,0,0:0:0:0:
448,192,70715,1,0,0:0:0:0:
320,192,70762,1,0,0:0:0:0:
192,192,70810,1,0,0:0:0:0:
64,192,70857,1,0,0:0:0:0:
448,192,70857,1,0,0:0:0:0:
320,192,70921,1,0,0:0:0:0:
448,192,70984,1,0,0:0:0:0:
64,192,71047,1,0,0:0:0:0:
192,192,71142,1,0,0:0:0:0:
320,192,71237,1,0,0:0:0:0:
448,192,71237,1,0,0:0:0:0:
192,192,71332,1,0,0:0:0:0:
320,192,71427,1,0,0:0:0:0:
64,192,71427,1,0,0:0:0:0:
192,192,71807,1,0,0:0:0:0:
448,192,71807,1,0,0:0:0:0:
192,192,71997,1,0,0:0:0:0:
64,192,71997,1,0,0:0:0:0:
64,192,72186,1,0,0:0:0:0:
192,192,72250,1,0,0:0:0:0:
64,192,72313,1,0,0:0:0:0:
192,192,72376,1,0,0:0:0:0:
320,192,72376,1,0,0:0:0:0:
64,192,72566,1,0,0:0:0:0:
320,192,72661,1,0,0:0:0:0:
192,192,72756,1,0,0:0:0:0:
448,192,72851,1,0,0:0:0:0:
320,192,72946,1,0,0:0:0:0:
448,192,72946,1,0,0:0:0:0:
192,192,73041,1,0,0:0:0:0:
64,192,73088,1,0,0:0:0:0:
320,192,73136,1,0,0:0:0:0:
192,192,73183,1,0,0:0:0:0:
448,192,73231,1,0,0:0:0:0:
320,192,73278,1,0,0:0:0:0:
448,192,73326,1,0,0:0:0:0:
64,192,73326,1,0,0:0:0:0:
320,192,73421,1,0,0:0:0:0:
448,192,73468,1,0,0:0:0:0:
192,192,73516,1,0,0:0:0:0:
320,192,73563,1,0,0:0:0:0:
64,192,73611,1,0,0:0:0:0:
192,192,73658,1,0,0:0:0:0:
64,192,73705,1,0,0:0:0:0:
448,192,73705,1,0,0:0:0:0:
192,192,73800,1,0,0:0:0:0:
320,192,73895,1,0,0:0:0:0:
192,192,73990,1,0,0:0:0:0:
64,192,74085,1,0,0:0:0:0:
448,192,74180,1,0,0:0:0:0:
192,192,74275,1,0,0:0:0:0:
64,192,74370,1,0,0:0:0:0:
192,192,74465,1,0,0:0:0:0:
320,192,74560,1,0,0:0:0:0:
64,192,74655,1,0,0:0:0:0:
448,192,74750,1,0,0:0:0:0:
192,192,74845,1,0,0:0:0:0:
64,192,74971,1,0,0:0:0:0:
320,192,75098,1,0,0:0:0:0:
192,192,75224,1,0,0:0:0:0:
320,192,75351,1,0,0:0:0:0:
64,192,75478,1,0,0:0:0:0:
320,192,75604,1,0,0:0:0:0:
448,192,75794,1,0,0:0:0:0:
448,192,76554,128,0,78073:0:0:0:0:
64,192,78073,1,0,0:0:0:0:
192,192,78073,1,0,0:0:0:0:
320,192,78262,128,0,78310:0:0:0:0:
320,192,78452,128,0,78523:0:0:0:0:
320,192,78642,128,0,78737:0:0:0:0:
64,192,78832,128,0,78951:0:0:0:0:
320,192,78832,128,0,78951:0:0:0:0:
64,192,79022,128,0,79164:0:0:0:0:
320,192,79022,128,0,79164:0:0:0:0:
64,192,79212,128,0,79370:0:0:0:0:
320,192,79212,128,0,79370:0:0:0:0:
64,192,79402,128,0,79591:0:0:0:0:
320,192,79402,128,0,79591:0:0:0:0:
448,192,79591,1,0,0:0:0:0:
192,192,79781,1,0,0:0:0:0:
320,192,79971,1,0,0:0:0:0:
192,192,80003,1,0,0:0:0:0:
64,192,80035,1,0,0:0:0:0:
64,192,80161,1,0,0:0:0:0:
448,192,80161,1,0,0:0:0:0:
320,192,80351,1,0,0:0:0:0:
192,192,80351,1,0,0:0:0:0:
192,192,80541,1,0,0:0:0:0:
64,192,80541,1,0,0:0:0:0:
448,192,80731,1,0,0:0:0:0:
64,192,80731,1,0,0:0:0:0:
320,192,80762,1,0,0:0:0:0:
192,192,80794,1,0,0:0:0:0:
64,192,80920,1,0,0:0:0:0:
448,192,81110,1,0,0:0:0:0:
192,192,81300,1,0,0:0:0:0:
320,192,81680,1,0,0:0:0:0:
448,192,81870,1,0,0:0:0:0:
192,192,82060,1,0,0:0:0:0:
320,192,82439,1,0,0:0:0:0:
448,192,82503,1,0,0:0:0:0:
320,192,82566,1,0,0:0:0:0:
192,192,82629,1,0,0:0:0:0:
64,192,82819,1,0,0:0:0:0:
192,192,83199,1,0,0:0:0:0:
448,192,83389,1,0,0:0:0:0:
64,192,83579,1,0,0:0:0:0:
320,192,83958,1,0,0:0:0:0:
448,192,84148,1,0,0:0:0:0:
192,192,84338,1,0,0:0:0:0:
320,192,84718,1,0,0:0:0:0:
64,192,84908,1,0,0:0:0:0:
448,192,85098,1,0,0:0:0:0:
320,192,85477,1,0,0:0:0:0:
64,192,85667,1,0,0:0:0:0:
320,192,85857,1,0,0:0:0:0:
192,192,86047,128,0,86617:0:0:0:0:
448,192,86617,1,0,0:0:0:0:
192,192,86664,1,0,0:0:0:0:
320,192,86712,1,0,0:0:0:0:
64,192,86759,1,0,0:0:0:0:
192,192,86806,1,0,0:0:0:0:
448,192,86806,1,0,0:0:0:0:
64,192,86870,1,0,0:0:0:0:
320,192,86933,1,0,0:0:0:0:
192,192,86996,1,0,0:0:0:0:
64,192,87091,1,0,0:0:0:0:
448,192,87091,1,0,0:0:0:0:
448,192,87186,1,0,0:0:0:0:
64,192,87281,1,0,0:0:0:0:
192,192,87376,1,0,0:0:0:0:
320,192,87376,1,0,0:0:0:0:
192,192,87566,1,0,0:0:0:0:
320,192,87661,1,0,0:0:0:0:
448,192,87661,1,0,0:0:0:0:
64,192,87756,1,0,0:0:0:0:
448,192,87851,1,0,0:0:0:0:
320,192,87851,1,0,0:0:0:0:
448,192,87946,1,0,0:0:0:0:
320,192,87946,1,0,0:0:0:0:
64,192,88041,1,0,0:0:0:0:
448,192,88136,1,0,0:0:0:0:
192,192,88136,1,0,0:0:0:0:
320,192,88136,1,0,0:0:0:0:
448,192,88325,1,0,0:0:0:0:
320,192,88515,1,0,0:0:0:0:
64,192,88515,1,0,0:0:0:0:
448,192,88579,1,0,0:0:0:0:
192,192,88642,1,0,0:0:0:0:
64,192,88705,1,0,0:0:0:0:
448,192,88729,1,0,0:0:0:0:
320,192,88753,1,0,0:0:0:0:
64,192,88895,1,0,0:0:0:0:
320,192,88895,1,0,0:0:0:0:
192,192,88990,1,0,0:0:0:0:
64,192,89037,1,0,0:0:0:0:
320,192,89085,1,0,0:0:0:0:
448,192,89132,1,0,0:0:0:0:
192,192,89180,1,0,0:0:0:0:
320,192,89227,1,0,0:0:0:0:
64,192,89275,1,0,0:0:0:0:
192,192,89299,1,0,0:0:0:0:
320,192,89370,1,0,0:0:0:0:
448,192,89465,1,0,0:0:0:0:
192,192,89560,1,0,0:0:0:0:
448,192,89655,1,0,0:0:0:0:
64,192,89655,1,0,0:0:0:0:
320,192,89655,1,0,0:0:0:0:
192,192,89844,1,0,0:0:0:0:
448,192,89939,1,0,0:0:0:0:
320,192,89939,1,0,0:0:0:0:
64,192,90034,1,0,0:0:0:0:
320,192,90034,1,0,0:0:0:0:
448,192,90224,1,0,0:0:0:0:
320,192,90224,1,0,0:0:0:0:
192,192,90272,1,0,0:0:0:0:
448,192,90414,1,0,0:0:0:0:
192,192,90414,1,0,0:0:0:0:
320,192,90446,1,0,0:0:0:0:
64,192,90477,1,0,0:0:0:0:
192,192,90556,1,0,0:0:0:0:
448,192,90604,1,0,0:0:0:0:
192,192,90651,1,0,0:0:0:0:
320,192,90699,1,0,0:0:0:0:
448,192,90723,1,0,0:0:0:0:
64,192,90794,1,0,0:0:0:0:
192,192,90825,1,0,0:0:0:0:
64,192,90984,1,0,0:0:0:0:
320,192,91047,1,0,0:0:0:0:
64,192,91110,1,0,0:0:0:0:
320,192,91174,1,0,0:0:0:0:
448,192,91174,1,0,0:0:0:0:
448,192,91363,1,0,0:0:0:0:
192,192,91458,1,0,0:0:0:0:
64,192,91458,1,0,0:0:0:0:
320,192,91553,1,0,0:0:0:0:
192,192,91743,1,0,0:0:0:0:
448,192,91791,1,0,0:0:0:0:
64,192,91838,1,0,0:0:0:0:
320,192,91886,1,0,0:0:0:0:
64,192,91933,1,0,0:0:0:0:
192,192,91933,1,0,0:0:0:0:
448,192,91933,128,0,92313:0:0:0:0:
320,192,92313,1,0,0:0:0:0:
192,192,92313,1,0,0:0:0:0:
64,192,92598,1,0,0:0:0:0:
320,192,92598,1,0,0:0:0:0:
64,192,92882,1,0,0:0:0:0:
192,192,92882,1,0,0:0:0:0:
320,192,93071,1,0,0:0:0:0:
448,192,93261,128,0,93641:0:0:0:0:
64,192,93451,128,0,94163:0:0:0:0:
192,192,93641,128,0,94211:0:0:0:0:
448,192,93831,128,0,94116:0:0:0:0:
320,192,94021,128,0,94258:0:0:0:0:
448,192,94211,128,0,94306:0:0:0:0:
64,192,94258,1,0,0:0:0:0:
192,192,94306,1,0,0:0:0:0:
320,192,94353,1,0,0:0:0:0:
448,192,94400,1,0,0:0:0:0:
64,192,94448,1,0,0:0:0:0:
320,192,94495,1,0,0:0:0:0:
192,192,94543,1,0,0:0:0:0:
448,192,94590,1,0,0:0:0:0:
192,192,94638,1,0,0:0:0:0:
320,192,94685,1,0,0:0:0:0:
64,192,94733,1,0,0:0:0:0:
320,192,94780,1,0,0:0:0:0:
448,192,94780,1,0,0:0:0:0:
320,192,94907,1,0,0:0:0:0:
192,192,94907,1,0,0:0:0:0:
192,192,95033,1,0,0:0:0:0:
64,192,95033,1,0,0:0:0:0:
64,192,95160,1,0,0:0:0:0:
448,192,95160,1,0,0:0:0:0:
64,192,95302,1,0,0:0:0:0:
448,192,95444,1,0,0:0:0:0:
64,192,95444,1,0,0:0:0:0:
448,192,95587,1,0,0:0:0:0:
64,192,95729,1,0,0:0:0:0:
448,192,95729,1,0,0:0:0:0:
64,192,95856,1,0,0:0:0:0:
448,192,95982,1,0,0:0:0:0:
64,192,95982,1,0,0:0:0:0:
448,192,96109,1,0,0:0:0:0:
448,192,96235,1,0,0:0:0:0:
64,192,96235,1,0,0:0:0:0:
64,192,96362,1,0,0:0:0:0:
320,192,96489,1,0,0:0:0:0:
64,192,96489,1,0,0:0:0:0:
320,192,96584,1,0,0:0:0:0:
320,192,96678,1,0,0:0:0:0:
64,192,96678,1,0,0:0:0:0:
448,192,96868,1,0,0:0:0:0:
192,192,96868,1,0,0:0:0:0:
192,192,96995,1,0,0:0:0:0:
448,192,96995,1,0,0:0:0:0:
448,192,97122,1,0,0:0:0:0:
192,192,97122,1,0,0:0:0:0:
320,192,97248,1,0,0:0:0:0:
64,192,97296,1,0,0:0:0:0:
448,192,97343,1,0,0:0:0:0:
192,192,97391,1,0,0:0:0:0:
448,192,97438,1,0,0:0:0:0:
320,192,97438,1,0,0:0:0:0:
320,192,97565,1,0,0:0:0:0:
448,192,97565,1,0,0:0:0:0:
320,192,97691,1,0,0:0:0:0:
448,192,97691,1,0,0:0:0:0:
192,192,97818,1,0,0:0:0:0:
64,192,97913,1,0,0:0:0:0:
192,192,98008,1,0,0:0:0:0:
192,192,98103,1,0,0:0:0:0:
320,192,98197,128,0,98435:0:0:0:0:
64,192,98387,1,0,0:0:0:0:
448,192,98435,1,0,0:0:0:0:
192,192,98482,1,0,0:0:0:0:
320,192,98530,1,0,0:0:0:0:
64,192,98577,1,0,0:0:0:0:
192,192,98625,1,0,0:0:0:0:
320,192,98672,1,0,0:0:0:0:
448,192,98720,1,0,0:0:0:0:
64,192,98767,1,0,0:0:0:0:
192,192,98815,1,0,0:0:0:0:
320,192,98862,1,0,0:0:0:0:
448,192,98910,1,0,0:0:0:0:
64,192,98957,1,0,0:0:0:0:
448,192,99004,1,0,0:0:0:0:
320,192,99052,1,0,0:0:0:0:
192,192,99099,1,0,0:0:0:0:
64,192,99147,1,0,0:0:0:0:
448,192,99194,1,0,0:0:0:0:
320,192,99242,1,0,0:0:0:0:
64,192,99289,1,0,0:0:0:0:
192,192,99337,1,0,0:0:0:0:
448,192,99384,1,0,0:0:0:0:
320,192,99432,1,0,0:0:0:0:
448,192,99527,1,0,0:0:0:0:
192,192,99716,1,0,0:0:0:0:
448,192,99906,1,0,0:0:0:0:
320,192,99906,1,0,0:0:0:0:
64,192,99906,1,0,0:0:0:0:
192,192,99906,1,0,0:0:0:0:
320,192,100033,1,0,0:0:0:0:
448,192,100033,1,0,0:0:0:0:
64,192,100033,1,0,0:0:0:0:
192,192,100033,1,0,0:0:0:0:
448,192,100160,1,0,0:0:0:0:
320,192,100160,1,0,0:0:0:0:
64,192,100160,1,0,0:0:0:0:
192,192,100160,1,0,0:0:0:0:
64,192,100476,1,0,0:0:0:0:
320,192,100476,1,0,0:0:0:0:
448,192,100508,1,0,0:0:0:0:
192,192,100539,1,0,0:0:0:0:
