osu file format v14

[General]
AudioFilename: audio.mp3
AudioLeadIn: 0
PreviewTime: 26771
Countdown: 0
SampleSet: Normal
StackLeniency: 0.7
Mode: 1
LetterboxInBreaks: 0
WidescreenStoryboard: 1

[Editor]
DistanceSpacing: 0.8
BeatDivisor: 4
GridSize: 32
TimelineZoom: 2.3

[Metadata]
Title:[@__@]
TitleUnicode:[@__@]
Artist:Chroma
ArtistUnicode:黒魔
Creator:-Dusk
Version:Oni
Source:
Tags:@_@ Robot & and Human featured artist mappers' guild electronic instrumental osu! hivie fa mpg くろま CHRO-0006
BeatmapID:3328815
BeatmapSetID:1630622

[Difficulty]
HPDrainRate:5
CircleSize:5
OverallDifficulty:5.5
ApproachRate:9
SliderMultiplier:1.4
SliderTickRate:1

[Events]
//Background and Video events
0,0,"@_@.png",0,0
//Break Periods
//Storyboard Layer 0 (Background)
//Storyboard Layer 1 (Fail)
//Storyboard Layer 2 (Pass)
//Storyboard Layer 3 (Foreground)
//Storyboard Layer 4 (Overlay)
//Storyboard Sound Samples

[TimingPoints]
1000,379.746835443038,4,1,0,60,1,0
1000,-125,4,1,0,60,0,0
13151,379.746835443038,6,1,0,60,1,0
13151,-125,6,1,0,60,0,0
19226,379.746835443038,6,1,0,60,1,0
19226,-125,6,1,0,60,0,0
23782,379.746835443038,4,1,0,60,1,0
23782,-125,4,1,0,60,0,0
25490,-83.3333333333333,4,1,0,60,0,0
25538,-84.0840638837084,4,1,0,60,0,0
25680,-86.4197424173157,4,1,0,60,0,0
25728,-87.2273817218511,4,1,0,60,0,0
25870,-89.7435667324188,4,1,0,60,0,0
25918,-90.6149219216525,4,1,0,60,0,0
26060,-93.3332960000149,4,1,0,60,0,0
26155,-95.2380952380952,4,1,0,60,0,0
26250,-97.2222627314984,4,1,0,60,0,0
26313,-98.5915215235151,4,1,0,60,0,0
26376,-100,4,1,0,60,0,0
26440,-101.449304767914,4,1,0,60,0,0
26819,379.746835443038,4,1,0,60,1,0
26819,-111.111111111111,4,1,0,60,0,0
32325,-133.333333333333,4,1,0,60,0,0
32515,-125,4,1,0,60,0,0
32705,-117.647058823529,4,1,0,60,0,0
32894,-111.111111111111,4,1,0,60,0,0
38970,379.746835443038,6,1,0,60,1,8
38973,379.746835443038,6,1,0,60,1,0
38973,-82.6446280991736,6,1,0,60,0,8
39067,-83.3333333333333,6,1,0,60,0,8
39115,-83.9646777393686,6,1,0,60,0,8
39162,-84.6055898913241,6,1,0,60,0,8
39257,-85.9172960108599,6,1,0,60,0,8
39352,-87.2703154385552,6,1,0,60,0,8
39447,-88.6666312000142,6,1,0,60,0,8
39542,-90.108436492475,6,1,0,60,0,8
39732,-93.1372731641712,6,1,0,60,0,8
39827,-94.7293535005812,6,1,0,60,0,8
39922,-96.3768101974375,6,1,0,60,0,8
40017,-98.0392156862745,6,1,0,60,0,8
40112,-83.3333333333333,6,1,0,60,0,8
40207,-84.5070660583285,6,1,0,60,0,8
40254,-85.1063829787234,6,1,0,60,0,8
40302,-85.7142612244968,6,1,0,60,0,8
40397,-86.9565217391304,6,1,0,60,0,8
40491,-88.2353200692118,6,1,0,60,0,8
40586,-89.5522120739665,6,1,0,60,0,8
40681,-90.9090909090909,6,1,0,60,0,8
40871,-93.7499707031342,6,1,0,60,0,8
40966,-95.2380952380952,6,1,0,60,0,8
41061,-96.774224765879,6,1,0,60,0,8
41156,-98.3606234883202,6,1,0,60,0,8
41251,-100,6,1,0,60,0,8
41631,-111.111111111111,6,1,0,60,0,8
42010,-100,6,1,0,60,0,8
43340,-100,6,1,0,60,0,8
43529,-103.448240190262,6,1,0,30,0,8
43719,-107.142895408177,6,1,0,30,0,8
43909,-111.111111111111,6,1,0,30,0,8
44099,-115.384571005934,6,1,0,30,0,8
44289,-120.000048000019,6,1,0,30,0,8
44479,-125,6,1,0,30,0,8
45048,379.746835443038,6,1,0,60,1,0
45048,-82.6446280991736,6,1,0,60,0,0
45142,-83.3333333333333,6,1,0,60,0,8
45190,-83.9646777393686,6,1,0,60,0,8
45237,-84.6055898913241,6,1,0,60,0,8
45332,-85.9172960108599,6,1,0,60,0,8
45427,-87.2703154385552,6,1,0,60,0,8
45522,-88.6666312000142,6,1,0,60,0,8
45617,-90.108436492475,6,1,0,60,0,8
45807,-93.1372731641712,6,1,0,60,0,8
45902,-94.7293535005812,6,1,0,60,0,8
45997,-96.3768101974375,6,1,0,60,0,8
46092,-98.0825835737174,6,1,0,60,0,8
46187,-83.3333333333333,6,1,0,60,0,8
46282,-84.5070660583285,6,1,0,60,0,8
46329,-85.1063829787234,6,1,0,60,0,8
46377,-85.7142612244968,6,1,0,60,0,8
46472,-86.9565217391304,6,1,0,60,0,8
46566,-88.2353200692118,6,1,0,60,0,8
46661,-89.5522120739665,6,1,0,60,0,8
46756,-90.9090909090909,6,1,0,60,0,8
46946,-93.7499707031342,6,1,0,60,0,8
47041,-95.2380952380952,6,1,0,60,0,8
47136,-96.774224765879,6,1,0,60,0,8
47231,-98.3606234883202,6,1,0,60,0,8
47326,-100,6,1,0,60,0,8
47706,-111.111111111111,6,1,0,60,0,8
48085,-100,6,1,0,60,0,8
49415,-83.3333333333333,6,1,0,60,0,8
49604,-100,6,1,0,60,0,8
50174,-83.3333333333333,6,1,0,60,0,8
50554,-100,6,1,0,60,0,8
50934,379.746835443038,4,1,0,60,1,0
50934,-100,4,1,0,60,0,0
51218,-94.6745562130178,4,1,0,60,0,0
51503,-89.8876404494382,4,1,0,60,0,0
51756,-86.0215053763441,4,1,0,60,0,0
52009,-82.4742268041237,4,1,0,60,0,0
52263,-79.2079207920792,4,1,0,60,0,0
52452,-76.9230769230769,4,1,0,60,0,0
52642,-74.7663551401869,4,1,0,60,0,0
52769,-73.394495412844,4,1,0,60,0,0
52896,-72.0720720720721,4,1,0,60,0,0
53212,-68.9655172413793,4,1,0,60,0,0
53339,-67.7966101694915,4,1,0,60,0,0
53465,-66.6666666666667,4,1,0,60,0,0
53592,-66.2251655629139,4,1,0,60,0,0
53687,-65.7894736842105,4,1,0,60,0,0
53782,-65.359477124183,4,1,0,60,0,0
53877,-64.9350649350649,4,1,0,60,0,0
53924,-50,4,1,0,30,0,0
55063,-100,4,1,0,60,0,0
55488,379.746835443038,4,1,0,60,1,8
55678,379.746835443038,4,1,0,60,1,0
61753,-111.111111111111,4,1,0,60,0,0
72576,-108.695652173913,4,1,0,60,0,0
72671,-106.382978723404,4,1,0,60,0,0
72766,-104.166666666667,4,1,0,60,0,0
72861,-102.040816326531,4,1,0,60,0,0
72956,-100,4,1,0,60,0,0
73146,-98.0392156862745,4,1,0,60,0,0
73241,-96.1538461538461,4,1,0,60,0,0
73336,-94.3396226415094,4,1,0,60,0,0
73526,-92.5925925925926,4,1,0,60,0,0
73621,-90.9090909090909,4,1,0,60,0,0
73715,-89.2857142857143,4,1,0,60,0,0
73905,-87.719298245614,4,1,0,60,0,0
74000,-86.2068965517241,4,1,0,60,0,0
74190,-84.7457627118644,4,1,0,60,0,0
74285,-83.3333333333333,4,1,0,60,0,0
74475,-81.9672131147541,4,1,0,60,0,0
74570,-82.8953007482959,4,1,0,60,0,0
74665,-84.5360702731445,4,1,0,60,0,0
74760,-86.2431781646072,4,1,0,60,0,0
74855,-88.0205756897732,4,1,0,40,0,0
74981,-90.5077302652419,4,1,0,40,0,0
75108,-93.1394418525808,4,1,0,40,0,0
75234,-95.9288744952942,4,1,0,40,0,0
75361,-98.8904491604201,4,1,0,40,0,0
75424,-100,4,1,0,40,0,0
75488,-102.040816326531,4,1,0,30,0,0
75614,-105.398511773014,4,1,0,30,0,0
75804,-110.8707679242,4,1,0,20,0,0
75899,-124.695897879048,4,1,0,20,0,0
76943,-124.695897879048,4,1,0,25,0,0
77038,-110.8707679242,4,1,0,30,0,0
77133,-110.8707679242,4,1,0,35,0,0
77228,-110.8707679242,4,1,0,40,0,0
77323,-110.8707679242,4,1,0,45,0,0
77418,-110.8707679242,4,1,0,50,0,0
77513,-110.8707679242,4,1,0,55,0,0
77608,-110.8707679242,4,1,0,60,0,0
78088,379.746835443038,4,1,0,60,1,0
78088,-166.666666666667,4,1,0,60,0,0
78277,-142.857142857143,4,1,0,60,0,0
78467,-127.057215134547,4,1,0,60,0,0
78657,-114.404302517009,4,1,0,60,0,0
78847,-104.04311546705,4,1,0,60,0,0
79037,-95.4028241143994,4,1,0,60,0,0
79227,-88.0876436819578,4,1,0,60,0,0
79417,-81.8143142324181,4,1,0,60,0,0
79606,-76.3358778625954,4,1,0,60,0,0
79796,-82.7106599152712,4,1,0,60,0,0
79986,-90.2470875008686,4,1,0,60,0,0
80176,-99.2947096771631,4,1,0,60,0,0
80366,-110.358466370465,4,1,0,60,0,0
80556,-124.197065968514,4,1,0,60,0,0
80745,379.746835443038,4,1,0,60,1,0
80839,-142.003700616438,4,1,0,20,0,0
86536,-142.857142857143,4,1,0,60,0,0
86631,-97.0873786407767,4,1,0,60,0,0
86726,-96.1538461538461,4,1,0,60,0,0
86820,-95.2380952380952,4,1,0,60,0,1
92327,-95.2380952380952,4,1,0,60,0,0
92896,379.746835443038,6,1,0,60,1,0
92896,-125,6,1,0,60,0,0
92990,-125,6,1,0,30,0,0
93275,-125,6,1,0,30,0,0
93465,-121.96356460471,6,1,0,30,0,0
93655,-119.071149774836,6,1,0,30,0,0
93845,-116.312746364936,6,1,0,30,0,0
94035,-113.679251717693,6,1,0,30,0,0
94225,-111.16236931474,6,1,0,30,0,0
94414,-108.75452146923,6,1,0,30,0,0
94509,-107.52688172043,6,1,0,30,0,0
94604,-106.382978723404,6,1,0,30,0,0
94699,-105.263157894737,6,1,0,30,0,0
94794,-104.238765145893,6,1,0,30,0,0
94921,-102.815711063176,6,1,0,30,0,0
95047,-101.430988384123,6,1,0,30,0,0
95174,379.746835443038,4,1,0,60,1,0
95174,-100,4,1,0,60,0,0
95458,-94.6745562130178,4,1,0,60,0,0
95743,-89.8876404494382,4,1,0,60,0,0
95996,-86.0215053763441,4,1,0,60,0,0
96249,-82.4742268041237,4,1,0,60,0,0
96503,-79.2079207920792,4,1,0,60,0,0
96692,-76.9230769230769,4,1,0,60,0,0
96882,-74.7663551401869,4,1,0,60,0,0
97009,-73.394495412844,4,1,0,60,0,0
97136,-72.0720720720721,4,1,0,60,0,0
97452,-68.9655172413793,4,1,0,60,0,0
97579,-67.7966101694915,4,1,0,60,0,0
97705,-66.6666666666667,4,1,0,60,0,0
97832,-66.2251655629139,4,1,0,60,0,0
97927,-65.7894736842105,4,1,0,60,0,0
98022,-65.359477124183,4,1,0,60,0,0
98117,-64.9350649350649,4,1,0,60,0,0
98164,-50,4,1,0,30,0,0
99446,-100,4,1,0,60,0,0
99920,-67.5675675675676,4,1,0,60,0,0
100490,-50,4,1,0,60,0,0

[HitObjects]
256,192,1000,5,0,0:0:0:0:
256,192,1189,1,0,0:0:0:0:
256,192,1379,1,8,0:0:0:0:
256,192,1569,1,0,0:0:0:0:
256,192,1949,1,0,0:0:0:0:
256,192,2139,1,8,0:0:0:0:
256,192,2329,1,8,0:0:0:0:
256,192,2708,1,0,0:0:0:0:
256,192,2803,1,8,0:0:0:0:
256,192,2898,1,0,0:0:0:0:
256,192,3088,1,0,0:0:0:0:
256,192,3468,1,0,0:0:0:0:
256,192,3658,1,8,0:0:0:0:
256,192,3848,1,0,0:0:0:0:
256,192,4227,1,0,0:0:0:0:
256,192,4417,1,8,0:0:0:0:
256,192,4607,1,8,0:0:0:0:
256,192,4987,1,8,0:0:0:0:
256,192,5177,1,0,0:0:0:0:
256,192,5367,1,8,0:0:0:0:
256,192,5746,1,0,0:0:0:0:
256,192,5936,1,0,0:0:0:0:
256,192,6126,1,8,0:0:0:0:
256,192,7075,1,0,0:0:0:0:
256,192,7265,1,0,0:0:0:0:
256,192,7455,1,8,0:0:0:0:
256,192,7645,1,0,0:0:0:0:
256,192,8025,1,0,0:0:0:0:
256,192,8215,1,8,0:0:0:0:
256,192,8405,1,0,0:0:0:0:
256,192,8784,1,8,0:0:0:0:
256,192,8879,1,0,0:0:0:0:
256,192,8974,1,8,0:0:0:0:
256,192,9164,1,0,0:0:0:0:
256,192,9544,1,8,0:0:0:0:
256,192,9734,1,8,0:0:0:0:
256,192,9924,1,0,0:0:0:0:
256,192,10303,1,0,0:0:0:0:
256,192,10493,1,8,0:0:0:0:
256,192,10683,1,8,0:0:0:0:
256,192,11063,1,8,0:0:0:0:
256,192,11253,1,0,0:0:0:0:
256,192,11443,1,8,0:0:0:0:
256,192,11822,1,0,0:0:0:0:
256,192,12012,1,0,0:0:0:0:
256,192,12202,1,8,0:0:0:0:
256,192,12582,1,8,0:0:0:0:
256,192,12867,1,8,0:0:0:0:
256,192,13151,1,0,0:0:0:0:
256,192,13340,1,0,0:0:0:0:
256,192,13435,1,0,0:0:0:0:
256,192,13530,1,0,0:0:0:0:
256,192,13625,1,0,0:0:0:0:
256,192,13720,1,8,0:0:0:0:
256,192,14100,1,8,0:0:0:0:
256,192,14290,1,0,0:0:0:0:
256,192,14480,1,0,0:0:0:0:
256,192,14575,1,0,0:0:0:0:
256,192,14669,1,0,0:0:0:0:
256,192,14764,1,0,0:0:0:0:
256,192,14859,1,8,0:0:0:0:
256,192,15239,1,8,0:0:0:0:
256,192,15429,1,0,0:0:0:0:
256,192,15809,1,8,0:0:0:0:
256,192,16188,1,8,0:0:0:0:
256,192,16378,1,0,0:0:0:0:
256,192,16568,1,0,0:0:0:0:
256,192,16758,1,8,0:0:0:0:
256,192,17138,1,0,0:0:0:0:
256,192,17518,1,8,0:0:0:0:
256,192,19226,1,0,0:0:0:0:
256,192,19415,1,8,0:0:0:0:
256,192,19510,1,8,0:0:0:0:
256,192,19605,1,8,0:0:0:0:
256,192,19700,1,8,0:0:0:0:
256,192,19795,1,0,0:0:0:0:
256,192,20175,1,8,0:0:0:0:
256,192,20365,1,0,0:0:0:0:
256,192,20555,1,8,0:0:0:0:
256,192,20650,1,8,0:0:0:0:
256,192,20744,1,8,0:0:0:0:
256,192,20839,1,8,0:0:0:0:
256,192,20934,1,0,0:0:0:0:
256,192,21314,1,8,0:0:0:0:
256,192,21504,1,0,0:0:0:0:
256,192,21884,1,8,0:0:0:0:
256,192,22263,1,8,0:0:0:0:
256,192,22453,1,8,0:0:0:0:
256,192,22643,1,8,0:0:0:0:
256,192,22833,1,0,0:0:0:0:
256,192,23213,1,0,0:0:0:0:
256,192,23593,1,8,0:0:0:0:
256,192,23971,1,0,0:0:0:0:
256,192,24161,1,0,0:0:0:0:
256,192,24351,1,8,0:0:0:0:
256,192,24731,1,0,0:0:0:0:
256,192,24921,1,0,0:0:0:0:
256,192,25111,1,8,0:0:0:0:
256,192,25490,1,8,0:0:0:0:
256,192,25680,1,8,0:0:0:0:
256,192,25870,1,8,0:0:0:0:
256,192,26060,1,8,0:0:0:0:
256,192,26155,1,8,0:0:0:0:
256,192,26250,1,0,0:0:0:0:
256,192,26345,1,8,0:0:0:0:
256,192,26440,1,0,0:0:0:0:
256,192,26819,1,8,0:0:0:0:
256,192,27008,1,0,0:0:0:0:
256,192,27198,1,0,0:0:0:0:
256,192,27388,1,8,0:0:0:0:
256,192,27768,1,8,0:0:0:0:
256,192,27863,1,0,0:0:0:0:
256,192,27958,1,8,0:0:0:0:
256,192,28148,1,0,0:0:0:0:
256,192,28337,1,8,0:0:0:0:
256,192,28527,1,0,0:0:0:0:
256,192,28622,1,8,0:0:0:0:
256,192,28717,1,0,0:0:0:0:
256,192,28907,1,0,0:0:0:0:
256,192,29097,1,0,0:0:0:0:
256,192,29192,1,0,0:0:0:0:
256,192,29287,1,8,0:0:0:0:
256,192,29477,1,0,0:0:0:0:
256,192,29667,1,8,0:0:0:0:
256,192,30046,1,0,0:0:0:0:
256,192,30236,1,8,0:0:0:0:
256,192,30426,1,8,0:0:0:0:
256,192,30616,1,0,0:0:0:0:
256,192,30711,1,8,0:0:0:0:
256,192,30806,1,8,0:0:0:0:
256,192,30996,1,0,0:0:0:0:
256,192,31186,1,8,0:0:0:0:
256,192,31565,1,0,0:0:0:0:
256,192,31755,1,0,0:0:0:0:
256,192,31945,1,8,0:0:0:0:
256,192,32325,1,8,0:0:0:0:
256,192,32515,1,8,0:0:0:0:
256,192,32705,1,0,0:0:0:0:
256,192,32894,1,8,0:0:0:0:
256,192,33084,1,0,0:0:0:0:
256,192,33274,1,8,0:0:0:0:
256,192,33464,1,8,0:0:0:0:
256,192,33844,1,8,0:0:0:0:
256,192,33939,1,8,0:0:0:0:
256,192,34034,1,0,0:0:0:0:
256,192,34224,1,8,0:0:0:0:
256,192,34413,1,0,0:0:0:0:
256,192,34603,5,8,0:0:0:0:
256,192,34698,1,0,0:0:0:0:
256,192,34793,1,8,0:0:0:0:
256,192,34983,1,0,0:0:0:0:
256,192,35173,1,0,0:0:0:0:
256,192,35268,1,0,0:0:0:0:
256,192,35363,1,8,0:0:0:0:
256,192,35553,1,0,0:0:0:0:
256,192,35743,1,8,0:0:0:0:
256,192,36122,1,8,0:0:0:0:
256,192,36312,1,8,0:0:0:0:
256,192,36502,1,0,0:0:0:0:
256,192,36692,1,0,0:0:0:0:
256,192,36787,1,8,0:0:0:0:
256,192,36882,1,0,0:0:0:0:
256,192,37072,1,0,0:0:0:0:
256,192,37262,1,8,0:0:0:0:
256,192,37641,1,8,0:0:0:0:
256,192,37831,1,0,0:0:0:0:
256,192,38021,1,8,0:0:0:0:
256,192,38401,1,8,0:0:0:0:
256,192,38686,1,8,0:0:0:0:
256,192,38973,1,0,0:0:0:0:
256,192,39162,1,0,0:0:0:0:
256,192,39257,1,8,0:0:0:0:
256,192,39352,1,0,0:0:0:0:
256,192,39447,1,0,0:0:0:0:
256,192,39542,1,8,0:0:0:0:
256,192,39732,1,8,0:0:0:0:
256,192,39827,1,8,0:0:0:0:
256,192,39922,1,0,0:0:0:0:
256,192,40112,1,8,0:0:0:0:
256,192,40302,1,8,0:0:0:0:
256,192,40397,1,0,0:0:0:0:
256,192,40491,1,8,0:0:0:0:
256,192,40586,1,8,0:0:0:0:
256,192,40681,1,0,0:0:0:0:
256,192,40871,1,0,0:0:0:0:
256,192,40966,1,0,0:0:0:0:
256,192,41061,1,8,0:0:0:0:
256,192,41251,1,0,0:0:0:0:
256,192,41631,1,0,0:0:0:0:
256,192,42010,1,0,0:0:0:0:
256,192,42200,1,0,0:0:0:0:
256,192,42295,1,0,0:0:0:0:
256,192,42390,1,8,0:0:0:0:
256,192,42580,1,0,0:0:0:0:
256,192,42770,1,8,0:0:0:0:
256,192,42865,1,8,0:0:0:0:
256,192,42960,1,0,0:0:0:0:
256,192,43055,1,0,0:0:0:0:
256,192,43150,1,0,0:0:0:0:
256,192,43340,1,8,0:0:0:0:
256,192,43529,1,0,0:0:0:0:
256,192,43719,1,0,0:0:0:0:
256,192,43909,1,8,0:0:0:0:
256,192,44099,1,0,0:0:0:0:
256,192,44289,1,8,0:0:0:0:
256,192,44479,1,8,0:0:0:0:
256,192,45048,1,0,0:0:0:0:
256,192,45237,1,8,0:0:0:0:
256,192,45332,1,8,0:0:0:0:
256,192,45427,1,0,0:0:0:0:
256,192,45522,1,0,0:0:0:0:
256,192,45617,1,8,0:0:0:0:
256,192,45807,1,8,0:0:0:0:
256,192,45902,1,0,0:0:0:0:
256,192,45997,1,8,0:0:0:0:
256,192,46187,1,0,0:0:0:0:
256,192,46377,1,0,0:0:0:0:
256,192,46472,1,0,0:0:0:0:
256,192,46566,1,8,0:0:0:0:
256,192,46661,1,8,0:0:0:0:
256,192,46756,1,0,0:0:0:0:
256,192,46946,1,0,0:0:0:0:
256,192,47041,1,8,0:0:0:0:
256,192,47136,1,0,0:0:0:0:
256,192,47326,1,8,0:0:0:0:
256,192,47706,1,0,0:0:0:0:
256,192,48085,1,0,0:0:0:0:
256,192,48275,1,8,0:0:0:0:
256,192,48370,1,8,0:0:0:0:
256,192,48465,1,0,0:0:0:0:
256,192,48655,1,8,0:0:0:0:
256,192,48845,1,0,0:0:0:0:
256,192,48940,1,0,0:0:0:0:
256,192,49035,1,8,0:0:0:0:
256,192,49130,1,8,0:0:0:0:
256,192,49225,1,8,0:0:0:0:
256,192,49415,1,12,0:0:0:0:
256,192,49794,1,0,0:0:0:0:
256,192,49984,1,0,0:0:0:0:
256,192,50174,1,12,0:0:0:0:
256,192,50554,1,0,0:0:0:0:
256,192,50744,1,0,0:0:0:0:
256,192,50934,1,8,0:0:0:0:
256,192,51218,1,8,0:0:0:0:
256,192,51503,1,8,0:0:0:0:
256,192,51756,1,8,0:0:0:0:
256,192,52009,1,8,0:0:0:0:
256,192,52263,1,8,0:0:0:0:
256,192,52452,1,8,0:0:0:0:
256,192,52642,1,8,0:0:0:0:
256,192,52769,1,8,0:0:0:0:
256,192,52896,1,8,0:0:0:0:
256,192,53212,1,8,0:0:0:0:
256,192,53339,1,8,0:0:0:0:
256,192,53465,1,8,0:0:0:0:
256,192,53971,12,0,54731,0:0:0:0:
256,192,55111,5,8,0:0:0:0:
256,192,55206,1,8,0:0:0:0:
256,192,55301,1,0,0:0:0:0:
256,192,55396,1,0,0:0:0:0:
256,192,55488,1,8,0:0:0:0:
256,192,55677,1,8,0:0:0:0:
256,192,55867,1,0,0:0:0:0:
256,192,56057,1,0,0:0:0:0:
256,192,56247,1,8,0:0:0:0:
256,192,56437,1,0,0:0:0:0:
256,192,56532,1,0,0:0:0:0:
256,192,56627,1,8,0:0:0:0:
256,192,56817,1,8,0:0:0:0:
256,192,57007,1,0,0:0:0:0:
256,192,57386,1,0,0:0:0:0:
256,192,57576,1,8,0:0:0:0:
256,192,57703,1,8,0:0:0:0:
256,192,57829,1,8,0:0:0:0:
256,192,57956,1,0,0:0:0:0:
256,192,58146,1,8,0:0:0:0:
256,192,58241,1,8,0:0:0:0:
256,192,58336,1,0,0:0:0:0:
256,192,58715,1,8,0:0:0:0:
256,192,58842,1,8,0:0:0:0:
256,192,58969,1,8,0:0:0:0:
256,192,59095,1,0,0:0:0:0:
256,192,59285,1,8,0:0:0:0:
256,192,59475,1,8,0:0:0:0:
256,192,59665,1,0,0:0:0:0:
256,192,59855,1,8,0:0:0:0:
256,192,60045,1,8,0:0:0:0:
256,192,60234,1,0,0:0:0:0:
256,192,60424,1,8,0:0:0:0:
256,192,60614,1,0,0:0:0:0:
256,192,60709,1,8,0:0:0:0:
256,192,60804,1,0,0:0:0:0:
256,192,60899,1,0,0:0:0:0:
256,192,60994,1,8,0:0:0:0:
256,192,61374,1,8,0:0:0:0:
256,192,61753,1,0,0:0:0:0:
256,192,61943,1,0,0:0:0:0:
256,192,62133,1,8,0:0:0:0:
256,192,62323,1,0,0:0:0:0:
256,192,62703,1,8,0:0:0:0:
256,192,62893,1,0,0:0:0:0:
256,192,63083,1,0,0:0:0:0:
256,192,63178,1,0,0:0:0:0:
256,192,63272,1,8,0:0:0:0:
256,192,63462,1,0,0:0:0:0:
256,192,63557,1,0,0:0:0:0:
256,192,63652,1,0,0:0:0:0:
256,192,63842,1,8,0:0:0:0:
256,192,64222,1,0,0:0:0:0:
256,192,64412,1,8,0:0:0:0:
256,192,64602,1,8,0:0:0:0:
256,192,64696,1,8,0:0:0:0:
256,192,64791,1,0,0:0:0:0:
256,192,64981,1,0,0:0:0:0:
256,192,65171,1,8,0:0:0:0:
256,192,65361,1,8,0:0:0:0:
256,192,65741,1,0,0:0:0:0:
256,192,65931,1,0,0:0:0:0:
256,192,66121,1,8,0:0:0:0:
256,192,66310,1,8,0:0:0:0:
256,192,66500,1,0,0:0:0:0:
256,192,66690,1,0,0:0:0:0:
256,192,66880,1,8,0:0:0:0:
256,192,67829,1,8,0:0:0:0:
256,192,68019,1,0,0:0:0:0:
256,192,68209,1,8,0:0:0:0:
256,192,68399,1,0,0:0:0:0:
256,192,68779,1,8,0:0:0:0:
256,192,68969,1,0,0:0:0:0:
256,192,69159,1,8,0:0:0:0:
256,192,69253,1,8,0:0:0:0:
256,192,69348,1,0,0:0:0:0:
256,192,69538,1,8,0:0:0:0:
256,192,69633,1,0,0:0:0:0:
256,192,69728,1,0,0:0:0:0:
256,192,69918,1,8,0:0:0:0:
256,192,70298,1,0,0:0:0:0:
256,192,70488,1,0,0:0:0:0:
256,192,70678,1,8,0:0:0:0:
256,192,70772,1,8,0:0:0:0:
256,192,70867,1,0,0:0:0:0:
256,192,71057,1,8,0:0:0:0:
256,192,71247,1,0,0:0:0:0:
256,192,71437,1,8,0:0:0:0:
256,192,71817,1,0,0:0:0:0:
256,192,72007,1,0,0:0:0:0:
256,192,72196,1,8,0:0:0:0:
256,192,72386,1,8,0:0:0:0:
256,192,72576,1,0,0:0:0:0:
256,192,72671,1,0,0:0:0:0:
256,192,72766,1,0,0:0:0:0:
256,192,72861,1,0,0:0:0:0:
256,192,72956,1,8,0:0:0:0:
256,192,73146,1,0,0:0:0:0:
256,192,73241,1,0,0:0:0:0:
256,192,73336,1,8,0:0:0:0:
256,192,73526,1,0,0:0:0:0:
256,192,73621,1,8,0:0:0:0:
256,192,73715,1,8,0:0:0:0:
256,192,73905,1,8,0:0:0:0:
256,192,74000,1,0,0:0:0:0:
256,192,74190,1,8,0:0:0:0:
256,192,74285,1,0,0:0:0:0:
256,192,74475,1,8,0:0:0:0:
256,192,74570,1,8,0:0:0:0:
256,192,74665,1,0,0:0:0:0:
256,192,74855,1,8,0:0:0:0:
256,192,74981,1,0,0:0:0:0:
256,192,75108,1,0,0:0:0:0:
256,192,75234,1,8,0:0:0:0:
256,192,75614,1,8,0:0:0:0:
256,192,75804,1,8,0:0:0:0:
256,192,76753,12,0,77893,0:0:0:0:
256,192,78088,5,0,0:0:0:0:
256,192,78277,1,8,0:0:0:0:
256,192,78467,1,8,0:0:0:0:
256,192,78657,1,8,0:0:0:0:
256,192,78847,1,8,0:0:0:0:
256,192,79037,1,8,0:0:0:0:
256,192,79227,1,8,0:0:0:0:
256,192,79417,1,8,0:0:0:0:
256,192,79606,1,0,0:0:0:0:
256,192,79796,1,0,0:0:0:0:
256,192,79986,1,8,0:0:0:0:
256,192,80176,1,0,0:0:0:0:
256,192,80366,1,8,0:0:0:0:
256,192,80556,1,0,0:0:0:0:
256,192,80745,1,12,0:0:0:0:
256,192,81314,1,0,0:0:0:0:
256,192,82074,1,0,0:0:0:0:
256,192,82833,1,8,0:0:0:0:
256,192,83593,1,8,0:0:0:0:
256,192,84352,1,0,0:0:0:0:
256,192,85112,1,8,0:0:0:0:
256,192,85871,1,0,0:0:0:0:
256,192,86631,1,8,0:0:0:0:
256,192,86726,1,8,0:0:0:0:
256,192,86820,1,0,0:0:0:0:
256,192,86915,1,0,0:0:0:0:
256,192,87010,1,8,0:0:0:0:
256,192,87200,1,8,0:0:0:0:
256,192,87295,1,0,0:0:0:0:
256,192,87390,1,8,0:0:0:0:
256,192,87580,1,0,0:0:0:0:
256,192,87675,1,0,0:0:0:0:
256,192,87770,1,8,0:0:0:0:
256,192,87865,1,8,0:0:0:0:
256,192,87960,1,0,0:0:0:0:
256,192,88150,1,8,0:0:0:0:
256,192,88529,1,8,0:0:0:0:
256,192,88624,1,0,0:0:0:0:
256,192,88719,1,8,0:0:0:0:
256,192,88814,1,8,0:0:0:0:
256,192,88909,1,0,0:0:0:0:
256,192,89099,1,0,0:0:0:0:
256,192,89194,1,0,0:0:0:0:
256,192,89289,1,8,0:0:0:0:
256,192,89479,1,0,0:0:0:0:
256,192,89669,1,8,0:0:0:0:
256,192,89858,1,8,0:0:0:0:
256,192,89953,1,0,0:0:0:0:
256,192,90048,1,8,0:0:0:0:
256,192,90238,1,8,0:0:0:0:
256,192,90428,1,8,0:0:0:0:
256,192,90618,1,0,0:0:0:0:
256,192,90713,1,0,0:0:0:0:
256,192,90808,1,8,0:0:0:0:
256,192,90998,1,8,0:0:0:0:
256,192,91093,1,8,0:0:0:0:
256,192,91188,1,0,0:0:0:0:
256,192,91472,1,8,0:0:0:0:
256,192,91567,1,0,0:0:0:0:
256,192,91757,1,0,0:0:0:0:
256,192,91947,1,8,0:0:0:0:
256,192,92327,1,8,0:0:0:0:
256,192,92612,1,8,0:0:0:0:
256,192,92896,1,0,0:0:0:0:
256,192,93085,1,0,0:0:0:0:
256,192,93275,1,8,0:0:0:0:
256,192,93465,1,0,0:0:0:0:
256,192,93655,1,8,0:0:0:0:
256,192,93845,1,8,0:0:0:0:
256,192,94035,1,0,0:0:0:0:
256,192,94225,1,0,0:0:0:0:
256,192,94414,1,0,0:0:0:0:
256,192,94509,1,0,0:0:0:0:
256,192,94604,1,0,0:0:0:0:
256,192,94699,1,0,0:0:0:0:
256,192,94794,1,8,0:0:0:0:
256,192,95047,1,0,0:0:0:0:
256,192,95174,1,8,0:0:0:0:
256,192,95458,1,8,0:0:0:0:
256,192,95743,1,8,0:0:0:0:
256,192,95996,1,8,0:0:0:0:
256,192,96249,1,8,0:0:0:0:
256,192,96503,1,8,0:0:0:0:
256,192,96692,1,8,0:0:0:0:
256,192,96882,1,8,0:0:0:0:
256,192,97009,1,8,0:0:0:0:
256,192,97136,1,8,0:0:0:0:
256,192,97452,1,8,0:0:0:0:
256,192,97579,1,8,0:0:0:0:
256,192,97705,1,8,0:0:0:0:
256,192,98211,12,0,98971,0:0:0:0:
256,192,99541,5,8,0:0:0:0:
256,192,99730,1,8,0:0:0:0:
256,192,99920,1,0,0:0:0:0:
256,192,100047,1,0,0:0:0:0:
256,192,100174,1,0,0:0:0:0:
256,192,100490,1,12,0:0:0:0:
