osu file format v14

[General]
AudioFilename: audio.mp3
AudioLeadIn: 0
PreviewTime: 26771
Countdown: 0
SampleSet: Normal
StackLeniency: 0.7
Mode: 1
LetterboxInBreaks: 0
WidescreenStoryboard: 1

[Editor]
Bookmarks: 41504
DistanceSpacing: 0.8
BeatDivisor: 4
GridSize: 32
TimelineZoom: 1.5

[Metadata]
Title:[@__@]
TitleUnicode:[@__@]
Artist:Chroma
ArtistUnicode:黒魔
Creator:-Dusk
Version:Kantan
Source:
Tags:@_@ Robot & and Human featured artist mappers' guild electronic instrumental osu! hivie fa mpg くろま CHRO-0006
BeatmapID:3330293
BeatmapSetID:1630622

[Difficulty]
HPDrainRate:8
CircleSize:5
OverallDifficulty:3
ApproachRate:9
SliderMultiplier:1.4
SliderTickRate:1

[Events]
//Background and Video events
0,0,"@_@.png",0,0
//Break Periods
//Storyboard Layer 0 (Background)
//Storyboard Layer 1 (Fail)
//Storyboard Layer 2 (Pass)
//Storyboard Layer 3 (Foreground)
//Storyboard Layer 4 (Overlay)
//Storyboard Sound Samples

[TimingPoints]
1000,379.746835443038,4,1,0,60,1,0
1000,-125,4,1,0,60,0,0
13151,379.746835443038,6,1,0,60,1,0
13151,-125,6,1,0,60,0,0
19226,379.746835443038,6,1,0,60,1,0
19226,-125,6,1,0,60,0,0
23782,379.746835443038,4,1,0,60,1,0
23782,-125,4,1,0,60,0,0
25490,-100,4,1,0,60,0,0
26819,379.746835443038,4,1,0,60,1,0
26819,-111.111111111111,4,1,0,60,0,0
38907,-100,4,1,0,60,0,0
38970,379.746835443038,6,1,0,60,1,8
38973,379.746835443038,6,1,0,60,1,0
43340,-100,6,1,0,60,0,8
45048,379.746835443038,6,1,0,60,1,0
45048,-100,6,1,0,60,0,0
49415,-95.2380952380952,6,1,0,60,0,8
49604,-100,6,1,0,60,0,8
50174,-95.2380952380952,6,1,0,60,0,8
50554,-100,6,1,0,60,0,8
50934,379.746835443038,4,1,0,60,1,0
50934,-95.2380952380952,4,1,0,60,0,0
53924,-125,4,1,0,30,0,0
55063,-100,4,1,0,60,0,0
55488,379.746835443038,4,1,0,60,1,8
55678,379.746835443038,4,1,0,60,1,0
61753,-111.111111111111,4,1,0,60,0,0
75804,-110.8707679242,4,1,0,20,0,0
75899,-124.695897879048,4,1,0,20,0,0
76943,-124.695897879048,4,1,0,25,0,0
77038,-110.8707679242,4,1,0,30,0,0
77133,-110.8707679242,4,1,0,35,0,0
77228,-110.8707679242,4,1,0,40,0,0
77323,-110.8707679242,4,1,0,45,0,0
77418,-110.8707679242,4,1,0,50,0,0
77513,-110.8707679242,4,1,0,55,0,0
77608,-110.8707679242,4,1,0,60,0,0
78088,379.746835443038,4,1,0,60,1,0
78088,-125,4,1,0,60,0,0
78467,-119.047619047619,4,1,0,60,0,0
78847,-113.636363636364,4,1,0,60,0,0
79037,-111.111111111111,4,1,0,60,0,0
79227,-108.695652173913,4,1,0,60,0,0
79417,-106.382978723404,4,1,0,60,0,0
79606,-104.166666666667,4,1,0,60,0,0
79986,-108.695652173913,4,1,0,60,0,0
80176,-111.111111111111,4,1,0,60,0,0
80556,-108.695652173913,4,1,0,60,0,0
80745,379.746835443038,4,1,0,60,1,0
80745,-104.166666666667,4,1,0,60,0,0
80839,-142.003700616438,4,1,0,20,0,0
86631,-104.166666666667,4,1,0,60,0,0
86820,-100,4,1,0,60,0,1
92327,-100,4,1,0,60,0,0
92896,379.746835443038,6,1,0,60,1,0
92896,-125,6,1,0,60,0,0
93655,-125,6,1,0,30,0,0
95174,379.746835443038,4,1,0,60,1,0
95174,-95.2380952380952,4,1,0,60,0,0
98164,-125,4,1,0,30,0,0
99446,-125,4,1,0,60,0,0
99730,-95.2380952380952,4,1,0,60,0,0
100490,-83.3333333333333,4,1,0,60,0,0

[HitObjects]
256,192,1000,5,0,0:0:0:0:
256,192,1569,1,0,0:0:0:0:
256,192,2329,1,8,0:0:0:0:
256,192,3088,1,0,0:0:0:0:
256,192,3848,1,0,0:0:0:0:
256,192,4607,1,8,0:0:0:0:
256,192,5367,1,8,0:0:0:0:
256,192,6126,1,0,0:0:0:0:
256,192,7075,1,8,0:0:0:0:
256,192,7645,1,8,0:0:0:0:
256,192,8405,1,0,0:0:0:0:
256,192,9164,1,8,0:0:0:0:
256,192,9924,1,8,0:0:0:0:
256,192,10683,1,0,0:0:0:0:
256,192,11443,1,0,0:0:0:0:
256,192,12202,1,8,0:0:0:0:
256,192,13151,1,0,0:0:0:0:
256,192,13720,1,8,0:0:0:0:
256,192,14290,1,0,0:0:0:0:
256,192,14859,1,8,0:0:0:0:
256,192,15429,1,0,0:0:0:0:
256,192,15809,1,0,0:0:0:0:
256,192,16188,1,8,0:0:0:0:
256,192,16758,1,0,0:0:0:0:
256,192,17518,1,8,0:0:0:0:
256,192,19226,1,8,0:0:0:0:
256,192,19795,1,0,0:0:0:0:
256,192,20365,1,8,0:0:0:0:
256,192,20934,1,0,0:0:0:0:
256,192,21504,1,8,0:0:0:0:
256,192,21884,1,8,0:0:0:0:
256,192,22263,1,0,0:0:0:0:
256,192,22833,1,8,0:0:0:0:
256,192,23593,1,0,0:0:0:0:
256,192,24351,1,8,0:0:0:0:
256,192,25111,1,8,0:0:0:0:
256,192,26819,1,0,0:0:0:0:
256,192,27388,1,8,0:0:0:0:
256,192,27768,1,0,0:0:0:0:
256,192,28148,1,8,0:0:0:0:
256,192,28527,1,8,0:0:0:0:
256,192,28907,1,0,0:0:0:0:
256,192,29667,1,0,0:0:0:0:
256,192,30046,1,8,0:0:0:0:
256,192,30426,1,0,0:0:0:0:
256,192,31186,1,8,0:0:0:0:
256,192,31565,1,0,0:0:0:0:
256,192,31945,1,8,0:0:0:0:
256,192,32894,1,8,0:0:0:0:
256,192,33464,1,0,0:0:0:0:
256,192,33844,1,8,0:0:0:0:
256,192,34224,1,0,0:0:0:0:
256,192,34603,1,0,0:0:0:0:
256,192,34983,1,8,0:0:0:0:
256,192,35743,1,8,0:0:0:0:
256,192,36122,1,8,0:0:0:0:
256,192,36502,1,0,0:0:0:0:
256,192,37262,1,0,0:0:0:0:
256,192,37641,1,0,0:0:0:0:
256,192,38021,1,8,0:0:0:0:
256,192,38973,1,0,0:0:0:0:
256,192,39542,1,8,0:0:0:0:
256,192,40112,1,0,0:0:0:0:
256,192,40681,1,8,0:0:0:0:
256,192,41251,1,0,0:0:0:0:
256,192,41631,1,0,0:0:0:0:
256,192,42010,1,8,0:0:0:0:
256,192,42580,1,0,0:0:0:0:
256,192,42960,1,8,0:0:0:0:
256,192,43340,1,8,0:0:0:0:
256,192,45048,1,8,0:0:0:0:
256,192,45617,1,0,0:0:0:0:
256,192,46187,1,8,0:0:0:0:
256,192,46756,1,0,0:0:0:0:
256,192,47326,1,8,0:0:0:0:
256,192,47706,1,8,0:0:0:0:
256,192,48085,1,0,0:0:0:0:
256,192,48655,1,8,0:0:0:0:
256,192,49035,1,0,0:0:0:0:
256,192,49415,1,8,0:0:0:0:
256,192,50174,1,8,0:0:0:0:
256,192,50934,12,0,53465,0:0:0:0:
256,192,53971,12,0,54731,0:0:0:0:
256,192,55678,5,8,0:0:0:0:
256,192,56247,1,8,0:0:0:0:
256,192,57007,1,0,0:0:0:0:
256,192,57956,1,8,0:0:0:0:
256,192,58336,1,8,0:0:0:0:
256,192,58715,1,0,0:0:0:0:
256,192,59285,1,8,0:0:0:0:
256,192,60045,1,0,0:0:0:0:
256,192,60994,1,8,0:0:0:0:
256,192,61374,1,8,0:0:0:0:
256,192,61753,1,0,0:0:0:0:
256,192,62323,1,0,0:0:0:0:
256,192,63272,1,8,0:0:0:0:
256,192,63842,1,8,0:0:0:0:
256,192,64412,1,8,0:0:0:0:
256,192,64791,1,0,0:0:0:0:
256,192,65361,1,0,0:0:0:0:
256,192,65931,1,0,0:0:0:0:
256,192,66310,1,8,0:0:0:0:
256,192,66880,1,8,0:0:0:0:
256,192,67829,1,0,0:0:0:0:
256,192,68399,1,8,0:0:0:0:
256,192,69348,1,8,0:0:0:0:
256,192,69918,1,0,0:0:0:0:
256,192,70488,1,0,0:0:0:0:
256,192,70867,1,8,0:0:0:0:
256,192,71437,1,8,0:0:0:0:
256,192,72007,1,0,0:0:0:0:
256,192,72386,1,8,0:0:0:0:
256,192,72956,1,8,0:0:0:0:
256,192,73336,1,8,0:0:0:0:
256,192,73715,1,8,0:0:0:0:
256,192,76564,12,0,77703,0:0:0:0:
256,192,78088,5,0,0:0:0:0:
256,192,78467,1,8,0:0:0:0:
256,192,78847,1,8,0:0:0:0:
256,192,79227,1,8,0:0:0:0:
256,192,79986,1,8,0:0:0:0:
256,192,80366,1,0,0:0:0:0:
256,192,80746,1,12,0:0:0:0:
256,192,81314,1,8,0:0:0:0:
256,192,82074,1,0,0:0:0:0:
256,192,82833,1,0,0:0:0:0:
256,192,83593,1,8,0:0:0:0:
256,192,84352,1,8,0:0:0:0:
256,192,85112,1,0,0:0:0:0:
256,192,85871,1,8,0:0:0:0:
256,192,86820,1,0,0:0:0:0:
256,192,87390,1,8,0:0:0:0:
256,192,87770,1,8,0:0:0:0:
256,192,88150,1,0,0:0:0:0:
256,192,88529,1,0,0:0:0:0:
256,192,88909,1,8,0:0:0:0:
256,192,89669,1,0,0:0:0:0:
256,192,90048,1,8,0:0:0:0:
256,192,90428,1,0,0:0:0:0:
256,192,91188,1,8,0:0:0:0:
256,192,91567,1,0,0:0:0:0:
256,192,91947,1,8,0:0:0:0:
256,192,92327,1,8,0:0:0:0:
256,192,92896,1,0,0:0:0:0:
256,192,95174,12,0,97705,0:0:0:0:
256,192,98211,12,0,98971,0:0:0:0:
256,192,100490,5,12,0:0:0:0:
