osu file format v14

[General]
AudioFilename: audio.mp3
AudioLeadIn: 0
PreviewTime: 8689
Countdown: 0
SampleSet: Soft
StackLeniency: 0.7
Mode: 0
LetterboxInBreaks: 0
WidescreenStoryboard: 1

[Editor]
DistanceSpacing: 0.8
BeatDivisor: 4
GridSize: 32
TimelineZoom: 1.6

[Metadata]
Title:Ice breaker (Cut Ver.)
TitleUnicode:Ice breaker (Cut Ver.)
Artist:ChroNoiR
ArtistUnicode:ChroNoiR
Creator:Mafumafu
Version:Easy
Source:
Tags:ねじ式 叶 葛葉 Kanae Kuzuha にじさんじ nijisanji virtual youtuber vtuber cover utaite vocaloid nejishiki pop japanese j pop j-pop Yuzuki Yukari IA BaAR_Vendel Addy2607 regraz BaAR Vendel
BeatmapID:2832711
BeatmapSetID:1286911

[Difficulty]
HPDrainRate:3
CircleSize:3
OverallDifficulty:3
ApproachRate:3
SliderMultiplier:1.3
SliderTickRate:1

[Events]
//Background and Video events
0,0,"bg (5).png",0,0
//Break Periods
2,41269,47249
//Storyboard Layer 0 (Background)
//Storyboard Layer 1 (Fail)
//Storyboard Layer 2 (Pass)
//Storyboard Layer 3 (Foreground)
//Storyboard Layer 4 (Overlay)
//Storyboard Sound Samples

[TimingPoints]
1070,476.190476190476,4,2,28,80,1,0
8689,-100,4,2,29,80,0,0
8927,-100,4,2,28,80,0,0
16308,-100,4,2,29,80,0,0
16546,-100,4,2,28,80,0,0
25831,-100,4,2,29,80,0,0
26069,-100,4,2,28,80,0,0
41069,-100,4,2,29,80,0,0
41308,-100,4,2,28,80,0,0
48689,-100,4,2,29,80,0,0
48927,-100,4,2,28,80,0,0
71546,-100,4,2,29,80,0,0
72022,-100,4,2,28,80,0,0
75355,-100,4,2,29,80,0,0
75752,-100,4,2,28,80,0,0
79165,-100,4,2,29,90,0,0
79403,-100,4,2,28,90,0,0
86784,-100,4,2,29,90,0,0
87022,-100,4,2,28,90,0,0
94403,-100,4,2,29,80,0,0
94800,-100,4,2,28,80,0,0
98212,-100,4,2,29,80,0,0
98609,-100,4,2,28,80,0,0
102022,-100,4,2,29,80,0,0
102419,-100,4,2,28,80,0,0

[Colours]
Combo1 : 208,98,177
Combo2 : 132,132,132

[HitObjects]
52,99,8689,6,0,P|102:101|162:50,1,130,6|10,0:2|0:2,0:0:0:0:
264,53,9641,2,0,L|400:49,1,130,6|8,0:3|0:2,0:0:0:0:
463,126,10593,1,6,0:3:0:0:
463,126,11069,1,10,0:2:0:0:
382,192,11546,2,0,L|252:195,1,130,6|10,0:3|0:2,0:0:0:0:
148,202,12498,6,0,P|128:266|163:325,2,130,6|10|4,0:3|0:2|0:3,0:0:0:0:
195,109,13927,1,10,0:2:0:0:
129,28,14403,2,0,L|-7:40,2,130,4|8|4,0:3|0:2|0:3,0:0:0:0:
195,109,15831,1,10,0:2:0:0:
285,56,16308,6,0,P|349:49|412:100,1,130,6|10,0:2|0:2,0:0:0:0:
368,182,17260,2,0,P|312:203|295:275,1,130,4|8,0:3|0:2,0:0:0:0:
380,322,18212,1,6,0:3:0:0:
380,322,18689,1,10,0:2:0:0:
462,259,19165,2,0,L|466:128,1,130,6|10,0:3|0:2,0:0:0:0:
378,72,20117,6,0,P|323:63|265:113,2,130,6|10|4,0:3|0:2|0:3,0:0:0:0:
465,129,21546,1,10,0:2:0:0:
404,213,22022,2,0,L|261:211,1,130,4|8,0:3|0:2,0:0:0:0:
170,213,22974,2,0,P|184:274|183:294,2,65,4|6|10,0:3|0:3|0:2,0:0:0:0:
222,123,23927,1,0,0:0:0:0:
50,124,25831,6,0,P|98:125|153:51,1,130,6|10,0:2|0:2,0:0:0:0:
248,31,26784,1,4,0:3:0:0:
282,129,27260,1,10,0:2:0:0:
189,176,27736,2,0,L|186:256,2,65,6|6|10,0:3|0:3|0:2,0:0:0:0:
282,129,28689,2,0,P|327:120|389:194,1,130,4|10,0:3|0:2,0:0:0:0:
384,275,29641,6,0,B|242:243|272:357|121:336,1,260,6|6,0:3|0:3,0:0:0:0:
52,285,31069,1,8,0:2:0:0:
107,197,31546,2,0,L|106:103,2,65,4|6|10,0:3|0:3|0:2,0:0:0:0:
196,250,32498,2,0,P|248:255|312:191,1,130,4|10,0:3|0:2,0:0:0:0:
402,168,33450,6,0,L|386:31,2,130,6|10|4,0:3|0:2|0:3,0:0:0:0:
386,270,34879,1,10,0:2:0:0:
305,208,35355,2,0,L|216:201,2,65,6|6|10,0:3|0:3|0:2,0:0:0:0:
285,310,36308,2,0,P|229:348|170:329,1,130,4|10,0:3|0:2,0:0:0:0:
101,256,37260,1,6,0:3:0:0:
87,152,37736,1,10,0:2:0:0:
152,71,38212,2,0,P|203:82|247:163,1,130,6|8,0:3|0:2,0:0:0:0:
346,168,39165,2,0,P|404:180|467:135,2,130,4|10|4,0:3|0:2|0:3,0:0:0:0:
283,251,40593,2,0,L|279:334,1,65,10|8,0:2|0:2,0:0:0:0:
321,346,41069,1,6,0:2:0:0:
74,61,48689,6,0,P|102:117|112:203,1,130,6|10,0:2|0:2,0:0:0:0:
114,286,49641,2,0,P|168:264|245:275,1,130,4|10,0:3|0:2,0:0:0:0:
282,298,50355,1,6,0:3:0:0:
282,298,50593,2,0,L|279:151,2,130,6|10|4,0:3|0:2|0:3,0:0:0:0:
376,342,52022,2,0,P|432:340|456:322,1,65,10|6,0:2|0:3,0:0:0:0:
468,293,52498,5,6,0:3:0:0:
421,200,52974,1,10,0:2:0:0:
328,246,53450,2,0,P|279:254|213:185,1,130,6|8,0:3|0:2,0:0:0:0:
205,156,54165,2,0,P|156:184|77:168,1,130,6|6,0:3|0:3,0:0:0:0:
57,129,54879,1,10,0:2:0:0:
122,48,55355,2,0,L|256:46,1,130,4|10,0:3|0:2,0:0:0:0:
356,46,56308,6,0,P|391:88|356:145,1,130,6|10,0:3|0:2,0:0:0:0:
252,149,57260,1,4,0:3:0:0:
252,149,57736,1,10,0:2:0:0:
148,154,58212,2,0,P|129:240|156:275,2,130,6|10|4,0:3|0:2|0:3,0:0:0:0:
252,149,59641,2,0,L|336:149,1,65,10|6,0:2|0:3,0:0:0:0:
364,127,60117,5,6,0:3:0:0:
437,200,60593,2,0,P|419:258|438:331,1,130,10|6,0:2|0:3,0:0:0:0:
334,354,61546,1,8,0:2:0:0:
240,307,62022,2,0,L|91:320,1,130,4|10,0:3|0:2,0:0:0:0:
52,231,62974,2,0,L|37:145,2,65,4|10|10,0:3|0:2|0:2,0:0:0:0:
135,292,63927,6,0,B|194:280|202:217|202:217|198:319|314:332,1,260,6|2,0:2|0:2,0:0:0:0:
312,226,65355,1,0,0:0:0:0:
415,234,65831,2,0,P|493:166|391:148,1,260,2|2,0:2|0:2,0:0:0:0:
312,226,67260,1,2,0:2:0:0:
218,180,67736,6,0,L|232:39,2,130,2|2|2,0:2|0:2|0:2,0:0:0:0:
120,142,69165,1,0,0:0:0:0:
40,209,69641,2,0,P|88:249|102:319,1,130,2|2,0:2|0:2,0:0:0:0:
197,354,70593,2,0,L|336:341,1,130,10|4,0:2|0:3,0:0:0:0:
360,302,71308,1,6,0:3:0:0:
323,265,71546,6,0,P|283:185|119:192,2,260,6|10|4,0:2|0:2|0:3,0:0:0:0:
427,260,73927,2,0,L|426:181,1,65,2|4,0:2|0:3,0:0:0:0:
432,143,74403,2,0,P|384:157|312:99,1,130,8|2,0:2|0:2,0:0:0:0:
215,121,75355,6,0,P|113:113|109:247,2,260,4|10|8,0:2|0:2|0:2,0:0:0:0:
316,95,77736,1,2,0:2:0:0:
413,130,78212,2,0,P|429:202|405:272,1,130,2|8,0:2|0:1,0:0:0:0:
325,309,79165,6,0,L|233:313,2,65,6|6|10,0:2|0:3|0:2,0:0:0:0:
325,205,80117,2,0,L|181:210,1,130,4|10,0:3|0:2,0:0:0:0:
107,153,81069,2,0,L|113:78,2,65,6|6|10,0:3|0:3|0:2,0:0:0:0:
50,240,82022,2,0,P|93:269|132:349,1,130,4|10,0:3|0:2,0:0:0:0:
221,287,82974,5,6,0:3:0:0:
308,343,83450,2,0,L|383:341,1,65,10|4,0:2|0:3,0:0:0:0:
425,338,83927,2,0,P|420:278|462:207,1,130,6|8,0:3|0:2,0:0:0:0:
443,165,84641,2,0,L|298:173,1,130,6|6,0:3|0:3,0:0:0:0:
285,128,85355,1,10,0:2:0:0:
187,164,85831,2,0,P|118:151|52:168,1,130,6|8,0:3|0:2,0:0:0:0:
34,264,86784,6,0,L|45:355,2,65,6|6|10,0:2|0:3|0:2,0:0:0:0:
60,164,87736,2,0,P|127:157|167:100,1,130,4|10,0:3|0:2,0:0:0:0:
244,44,88689,2,0,L|378:38,1,130,6|10,0:3|0:2,0:0:0:0:
417,66,89403,1,6,0:3:0:0:
417,66,89641,2,0,P|454:115|423:188,2,130,4|10|6,0:3|0:2|0:3,0:0:0:0:
313,56,91069,6,0,P|228:44|181:70,1,130,10|6,0:2|0:3,0:0:0:0:
138,152,92022,2,0,L|150:233,1,65,8|6,0:2|0:3,0:0:0:0:
158,267,92498,1,4,0:3:0:0:
56,289,92974,2,0,L|69:362,2,65,10|6|6,0:2|0:3|0:3,0:0:0:0:
37,186,93927,1,8,0:2:0:0:
144,201,94403,6,0,P|218:192|272:293,1,195,6|4,0:2|0:3,0:0:0:0:
238,323,95355,1,10,0:2:0:0:
445,335,96308,2,0,L|443:133,1,195,6|4,0:3|0:3,0:0:0:0:
443,88,97260,1,10,0:2:0:0:
345,122,97736,2,0,L|276:121,1,65,10|2,0:2|0:2,0:0:0:0:
237,90,98212,6,0,P|202:117|121:93,1,130,4|2,0:2|0:2,0:0:0:0:
65,181,99165,2,0,P|95:238|103:315,1,130,10|4,0:2|0:3,0:0:0:0:
198,345,100117,2,0,L|333:332,2,130,6|2|10,0:3|0:2|0:2,0:0:0:0:
198,240,101546,1,4,0:3:0:0:
298,213,102022,6,0,P|403:192|393:98,1,195,6|4,0:2|0:3,0:0:0:0:
388,71,102974,1,10,0:2:0:0:
182,38,103927,2,0,P|141:93|174:215,1,195,6|4,0:3|0:3,0:0:0:0:
213,233,104879,2,0,L|285:228,2,65,10|6|10,0:2|0:3|0:2,0:0:0:0:
136,302,105831,5,4,0:2:0:0:
