osu file format v14

[General]
AudioFilename: audio.mp3
AudioLeadIn: 0
PreviewTime: 8689
Countdown: 0
SampleSet: Soft
StackLeniency: 0.7
Mode: 0
LetterboxInBreaks: 0
WidescreenStoryboard: 1

[Editor]
Bookmarks: 48689,57022
DistanceSpacing: 1.2
BeatDivisor: 6
GridSize: 32
TimelineZoom: 1.6

[Metadata]
Title:Ice breaker (Cut Ver.)
TitleUnicode:Ice breaker (Cut Ver.)
Artist:ChroNoiR
ArtistUnicode:ChroNoiR
Creator:Mafumafu
Version:BaAR's Insane
Source:
Tags:ねじ式 叶 葛葉 Kanae Kuzuha にじさんじ nijisanji virtual youtuber vtuber cover utaite vocaloid nejishiki pop japanese j pop j-pop Yuzuki Yukari IA BaAR_Vendel Addy2607 regraz BaAR Vendel
BeatmapID:2671949
BeatmapSetID:1286911

[Difficulty]
HPDrainRate:5
CircleSize:4
OverallDifficulty:7
ApproachRate:8.4
SliderMultiplier:2.1
SliderTickRate:1

[Events]
//Background and Video events
0,0,"bg (2).png",0,0
//Break Periods
2,24047,25141
2,41269,47999
//Storyboard Layer 0 (Background)
//Storyboard Layer 1 (Fail)
//Storyboard Layer 2 (Pass)
//Storyboard Layer 3 (Foreground)
//Storyboard Layer 4 (Overlay)
//Storyboard Sound Samples

[TimingPoints]
1070,476.190476190476,4,2,28,70,1,0
1070,-133.333333333333,4,2,28,70,0,0
7736,-83.3333333333333,4,2,28,70,0,0
8689,-100,4,2,29,80,0,0
8927,-100,4,2,28,80,0,0
16308,-100,4,2,29,80,0,0
16546,-100,4,2,28,80,0,0
22895,-133.333333333333,4,2,28,80,0,0
23212,-83.3333333333333,4,2,28,80,0,0
25831,-100,4,2,29,80,0,0
26069,-100,4,2,28,80,0,0
29641,-133.333333333333,4,2,28,80,0,0
30117,-100,4,2,28,80,0,0
37260,-133.333333333333,4,2,28,80,0,0
37736,-100,4,2,28,80,0,0
39165,-83.3333333333333,4,2,28,80,0,0
39641,-133.333333333333,4,2,28,80,0,0
40117,-83.3333333333333,4,2,28,80,0,0
41069,-83.3333333333333,4,2,29,80,0,0
41308,-83.3333333333333,4,2,28,80,0,0
48689,-100,4,2,29,80,0,0
48927,-100,4,2,28,80,0,0
52498,-133.333333333333,4,2,28,80,0,0
52974,-100,4,2,28,80,0,0
60117,-133.333333333333,4,2,28,80,0,0
60593,-100,4,2,28,80,0,0
62974,-83.3333333333333,4,2,28,80,0,0
63450,-166.666666666667,4,2,28,80,0,0
64165,-133.333333333333,4,2,28,80,0,0
70593,-83.3333333333333,4,2,28,80,0,0
71546,-133.333333333333,4,2,29,80,0,0
72022,-133.333333333333,4,2,28,80,0,0
72498,-100,4,2,28,80,0,0
72974,-133.333333333333,4,2,28,80,0,0
75355,-133.333333333333,4,2,29,80,0,0
75752,-133.333333333333,4,2,28,80,0,0
76704,-200,4,2,28,80,0,0
79165,-83.3333333333333,4,2,29,90,0,1
79403,-83.3333333333333,4,2,28,90,0,1
82974,-133.333333333333,4,2,28,90,0,1
83450,-83.3333333333333,4,2,28,90,0,1
86784,-83.3333333333333,4,2,29,90,0,1
87022,-83.3333333333333,4,2,28,90,0,1
90593,-133.333333333333,4,2,28,90,0,1
91069,-83.3333333333333,4,2,28,90,0,1
91546,-133.333333333333,4,2,28,90,0,1
92260,-83.3333333333333,4,2,28,90,0,1
94403,-100,4,2,29,80,0,0
94800,-100,4,2,28,80,0,0
98212,-100,4,2,29,80,0,0
98609,-100,4,2,28,80,0,0
101069,-83.3333333333333,4,2,28,80,0,0
102022,-100,4,2,29,80,0,0
102419,-100,4,2,28,80,0,0
105355,-83.3333333333333,4,2,28,80,0,0

[Colours]
Combo1 : 208,98,177
Combo2 : 132,132,132

[HitObjects]
276,116,1070,5,6,0:2:0:0:
198,147,1308,1,2,0:2:0:0:
119,117,1546,2,0,P|111:65|121:29,1,78.7500030040742,2|2,0:2|0:2,0:0:0:0:
134,198,2022,2,0,P|76:214|36:226,1,78.7500030040742,2|0,0:2|0:0,0:0:0:0:
40,239,2419,2,0,P|80:297|75:342,1,105.000004005432,2|2,0:0|0:2,0:0:0:0:
231,362,2974,5,2,0:2:0:0:
294,302,3212,1,2,0:2:0:0:
366,350,3450,1,2,0:2:0:0:
429,290,3688,1,2,0:2:0:0:
449,301,3927,5,2,0:2:0:0:
386,361,4165,1,2,0:2:0:0:
314,313,4403,1,2,0:2:0:0:
251,373,4641,1,2,0:2:0:0:
197,223,4879,5,2,0:2:0:0:
283,217,5117,1,2,0:2:0:0:
349,161,5355,2,0,P|358:115|350:60,1,78.7500030040742,2|2,0:2|0:2,0:0:0:0:
366,245,5831,2,0,P|414:256|454:267,1,78.7500030040742,2|0,0:2|0:0,0:0:0:0:
468,262,6228,2,0,P|487:212|465:155,1,105.000004005432,2|2,0:0|0:2,0:0:0:0:
425,31,6784,5,2,0:2:0:0:
355,83,7022,1,2,0:2:0:0:
268,78,7260,2,0,P|237:78|209:78,2,39.3750015020371,2|0|2,0:2|0:0|0:2,0:0:0:0:
270,194,7736,6,0,P|205:211|186:212,1,83.9999974365235,2|0,0:2|0:0,0:0:0:0:
168,228,7974,2,0,P|120:180|110:164,1,83.9999974365235,2|0,0:2|0:0,0:0:0:0:
87,156,8212,2,0,P|104:91|113:74,1,83.9999974365235,2|0,0:2|0:0,0:0:0:0:
108,50,8451,2,0,P|173:33|192:32,1,83.9999974365235,2|0,0:2|0:0,0:0:0:0:
268,78,8689,6,0,P|338:49|357:26,1,70,6|0,0:2|0:0,0:0:0:0:
352,33,8927,1,6,0:3:0:0:
108,50,9165,2,0,P|38:21|19:-2,1,70,10|0,0:2|0:0,0:0:0:0:
24,5,9403,1,6,0:3:0:0:
87,156,9641,2,0,P|85:216|82:256,1,70,6|0,0:3|0:0,0:0:0:0:
71,254,9879,1,4,0:3:0:0:
62,336,10038,2,0,B|120:349|115:296|182:314,1,105,2|2,0:2|0:2,0:0:0:0:
296,365,10514,1,0,0:0:0:0:
286,338,10593,6,0,P|319:302|394:312,1,105,6|6,0:3|0:3,0:0:0:0:
396,313,10911,2,0,P|386:271|396:238,1,70,0|10,0:0|0:2,0:0:0:0:
478,86,11308,2,0,P|488:128|478:161,1,70,6|0,0:3|0:0,0:0:0:0:
466,176,11546,2,0,P|408:168|384:164,1,70,6|0,0:3|0:0,0:0:0:0:
369,160,11784,1,6,0:3:0:0:
238,96,12022,2,0,P|232:61|228:26,1,70,10|0,0:2|0:0,0:0:0:0:
238,0,12260,1,6,0:3:0:0:
253,185,12498,6,0,P|209:185|172:158,1,70,6|0,0:3|0:0,0:0:0:0:
165,154,12736,1,6,0:3:0:0:
27,31,12974,2,0,P|74:20|78:18,1,35,10|0,0:2|0:0,0:0:0:0:
87,15,13133,2,0,P|91:77|87:145,1,105,2|2,0:2|0:2,0:0:0:0:
78,145,13450,2,0,P|84:184|93:253,1,105,4|6,0:3|0:3,0:0:0:0:
253,185,13927,2,0,P|243:163|238:145,1,35,10|0,0:2|0:0,0:0:0:0:
245,125,14085,2,0,P|292:95|351:113,1,105,2|2,0:2|0:2,0:0:0:0:
360,120,14403,6,0,P|428:120|445:115,1,70,4|0,0:3|0:0,0:0:0:0:
454,106,14641,1,6,0:3:0:0:
495,211,14879,2,0,P|427:211|410:216,1,70,8|0,0:2|0:0,0:0:0:0:
401,225,15117,1,6,0:3:0:0:
323,276,15276,2,0,P|317:334|349:375,1,105,2|0,0:2|0:0,0:0:0:0:
367,382,15593,2,0,P|406:377|441:366,1,70,6|0,0:3|0:0,0:0:0:0:
459,353,15831,1,10,0:2:0:0:
323,276,16069,2,0,P|289:285|254:289,1,70,6|0,0:3|0:0,0:0:0:0:
228,301,16308,6,0,P|250:260|241:211,1,70,6|0,0:2|0:0,0:0:0:0:
236,212,16546,1,6,0:3:0:0:
179,138,16784,2,0,P|144:140|131:140,1,35,10|0,0:2|0:0,0:0:0:0:
116,145,16943,2,0,P|121:213|114:258,1,105,2|2,0:2|0:2,0:0:0:0:
101,272,17260,2,0,P|52:269|25:230,1,70,4|0,0:3|0:0,0:0:0:0:
21,233,17498,1,6,0:3:0:0:
0,99,17736,2,0,P|49:96|76:57,1,70,8|2,0:2|0:2,0:0:0:0:
80,60,17974,1,4,0:3:0:0:
272,122,18212,5,6,0:3:0:0:
253,20,18450,2,0,P|213:12|169:38,1,70,6|0,0:3|0:0,0:0:0:0:
167,42,18689,2,0,P|183:117|185:142,1,70,10|0,0:2|0:0,0:0:0:0:
179,138,18927,1,6,0:3:0:0:
126,257,19165,2,0,P|172:247|219:244,1,70,6|0,0:3|0:0,0:0:0:0:
221,252,19403,1,6,0:3:0:0:
299,339,19641,2,0,P|310:280|328:242,1,70,10|0,0:2|0:0,0:0:0:0:
331,249,19879,1,6,0:3:0:0:
261,85,20117,6,0,P|271:118|275:153,1,70,6|0,0:3|0:0,0:0:0:0:
273,181,20355,1,6,0:3:0:0:
405,196,20593,2,0,P|452:185|456:183,1,35,10|0,0:2|0:0,0:0:0:0:
465,180,20752,2,0,P|469:242|465:310,1,105,2|2,0:2|0:2,0:0:0:0:
468,312,21069,2,0,P|423:347|371:337,1,105,4|6,0:3|0:3,0:0:0:0:
257,293,21546,2,0,P|267:315|272:333,1,35,10|0,0:2|0:0,0:0:0:0:
278,351,21704,2,0,P|231:321|172:339,1,105,2|2,0:2|0:2,0:0:0:0:
166,350,22022,6,0,B|111:367|115:320|60:333,1,105,4|6,0:3|0:3,0:0:0:0:
39,337,22339,2,0,P|18:313|31:263,1,70,0|8,0:0|0:2,0:0:0:0:
116,142,22736,1,6,0:3:0:0:
175,194,22895,2,0,P|131:221|85:220,1,78.7500030040742,2|0,0:2|0:0,0:0:0:0:
81,216,23212,6,0,P|39:203|-8:195,1,83.9999974365235,6|0,0:3|0:0,0:0:0:0:
136,126,23450,2,0,P|178:113|225:105,1,83.9999974365235,10|0,0:2|0:0,0:0:0:0:
81,36,23689,2,0,P|39:23|-8:15,1,83.9999974365235,6|0,0:3|0:0,0:0:0:0:
431,64,25831,6,0,P|392:86|338:79,1,70,6|0,0:2|0:0,0:0:0:0:
343,102,26069,2,0,P|304:79|283:28,1,70,6|0,0:3|0:0,0:0:0:0:
286,30,26308,1,10,0:2:0:0:
241,139,26546,2,0,P|248:181|257:230,1,70,6|0,0:3|0:0,0:0:0:0:
267,231,26784,1,4,0:3:0:0:
351,301,27022,2,0,P|357:266|362:232,1,70,6|0,0:3|0:0,0:0:0:0:
368,204,27260,2,0,P|419:223|448:209,1,70,10|0,0:2|0:0,0:0:0:0:
512,248,27498,2,0,P|482:229|448:232,1,70,6|0,0:3|0:0,0:0:0:0:
432,249,27736,5,6,0:3:0:0:
334,322,27974,2,0,P|276:317|241:314,1,70,6|0,0:3|0:0,0:0:0:0:
236,321,28212,1,10,0:2:0:0:
138,381,28450,1,6,0:3:0:0:
36,252,28689,2,0,P|110:242|128:220,1,105,4|6,0:3|0:3,0:0:0:0:
133,82,29165,2,0,P|104:135|110:164,1,70,10|0,0:2|0:0,0:0:0:0:
89,166,29403,2,0,P|120:217|148:226,1,70,6|0,0:3|0:0,0:0:0:0:
161,229,29641,6,0,P|231:214|299:209,1,131.25000500679,6|0,0:3|0:0,0:0:0:0:
318,211,30117,2,0,P|325:140|238:109,1,175,10|0,0:2|0:0,0:0:0:0:
215,93,30593,2,0,P|214:57|239:19,1,70,6|0,0:3|0:0,0:0:0:0:
256,18,30831,1,4,0:3:0:0:
377,69,31069,1,8,0:2:0:0:
482,0,31308,2,0,P|495:37|501:80,1,70,6|0,0:3|0:0,0:0:0:0:
490,107,31546,6,0,P|483:158|490:198,1,70,4|0,0:3|0:0,0:0:0:0:
498,200,31784,1,6,0:3:0:0:
465,288,32022,2,0,P|433:266|390:271,1,70,10|0,0:2|0:0,0:0:0:0:
376,257,32260,2,0,P|340:273|323:313,1,70,6|0,0:3|0:0,0:0:0:0:
308,321,32498,2,0,P|309:258|301:232,1,70,4|0,0:3|0:0,0:0:0:0:
293,227,32736,1,6,0:3:0:0:
210,172,32974,2,0,P|209:109|217:83,1,70,10|0,0:2|0:0,0:0:0:0:
225,78,33212,1,6,0:3:0:0:
207,260,33450,6,0,P|142:269|112:268,1,70,6|0,0:3|0:0,0:0:0:0:
114,252,33689,2,0,P|78:239|43:245,1,70,6|0,0:3|0:0,0:0:0:0:
24,260,33928,1,10,0:2:0:0:
96,154,34165,2,0,P|97:91|89:65,1,70,4|0,0:3|0:0,0:0:0:0:
81,60,34403,1,4,0:3:0:0:
210,102,34641,2,0,P|206:137|210:172,1,70,4|0,0:3|0:0,0:0:0:0:
234,187,34880,2,0,P|268:189|297:171,1,70,10|0,0:2|0:0,0:0:0:0:
321,155,35118,2,0,P|355:152|384:171,1,70,4|0,0:3|0:0,0:0:0:0:
398,195,35356,5,6,0:3:0:0:
347,294,35594,2,0,P|289:289|254:286,1,70,6|0,0:3|0:0,0:0:0:0:
249,293,35832,1,10,0:2:0:0:
382,375,36070,1,6,0:3:0:0:
471,256,36308,2,0,P|420:237|397:190,1,105,4|6,0:3|0:3,0:0:0:0:
391,55,36785,2,0,P|420:108|414:137,1,70,10|0,0:2|0:0,0:0:0:0:
435,139,37023,2,0,P|404:190|376:199,1,70,6|0,0:3|0:0,0:0:0:0:
366,206,37261,6,0,B|289:215|314:148|229:166,1,131.25000500679,6|0,0:3|0:0,0:0:0:0:
226,174,37736,2,0,P|245:271|258:366,1,175,10|0,0:2|0:0,0:0:0:0:
243,368,38213,2,0,P|207:369|169:344,1,70,6|0,0:3|0:0,0:0:0:0:
168,327,38451,1,4,0:3:0:0:
275,261,38689,1,8,0:2:0:0:
151,227,38928,2,0,P|114:240|71:246,1,70,6|0,0:3|0:0,0:0:0:0:
59,228,39165,6,0,P|63:156|68:121,1,83.9999974365235,4|0,0:3|0:0,0:0:0:0:
81,120,39403,1,6,0:3:0:0:
194,75,39641,2,0,P|155:73|137:58,1,52.5000020027161,10|0,0:2|0:0,0:0:0:0:
79,34,39879,2,0,P|118:36|136:51,1,52.5000020027161,10|0,0:2|0:0,0:0:0:0:
235,141,40117,6,0,P|299:128|326:118,1,83.9999974365235,4|4,0:3|0:3,0:0:0:0:
352,56,40355,2,0,P|416:69|443:79,1,83.9999974365235,10|0,0:2|0:0,0:0:0:0:
495,122,40593,2,0,P|513:169|488:220,1,83.9999974365235,10|0,0:2|0:0,0:0:0:0:
444,247,40831,2,0,P|426:294|451:345,1,83.9999974365235,8|0,0:2|0:0,0:0:0:0:
485,379,41069,1,6,0:2:0:0:
340,115,48689,6,0,P|305:129|247:130,1,70,6|0,0:2|0:0,0:0:0:0:
252,152,48927,2,0,P|217:138|159:137,1,70,6|0,0:3|0:0,0:0:0:0:
158,145,49166,1,10,0:2:0:0:
98,213,49404,2,0,P|105:255|114:304,1,70,6|0,0:3|0:0,0:0:0:0:
105,309,49642,1,4,0:3:0:0:
13,184,49879,2,0,P|32:150|79:129,1,70,6|0,0:3|0:0,0:0:0:0:
70,108,50117,2,0,P|105:122|163:123,1,70,10|0,0:2|0:0,0:0:0:0:
158,145,50355,2,0,P|193:131|251:130,1,70,6|0,0:3|0:0,0:0:0:0:
252,152,50594,5,6,0:3:0:0:
370,98,50832,2,0,P|375:40|378:5,1,70,6|0,0:3|0:0,0:0:0:0:
371,0,51070,1,10,0:2:0:0:
257,50,51308,1,6,0:3:0:0:
348,176,51547,2,0,P|422:166|440:143,1,105,4|6,0:3|0:3,0:0:0:0:
512,231,52023,2,0,P|461:264|453:292,1,70,10|0,0:2|0:0,0:0:0:0:
433,285,52261,2,0,P|436:344|456:365,1,70,6|0,0:3|0:0,0:0:0:0:
468,373,52499,6,0,P|398:358|330:353,1,131.25000500679,6|0,0:3|0:0,0:0:0:0:
315,368,52974,2,0,B|224:380|258:302|150:313,1,175,10|0,0:2|0:0,0:0:0:0:
131,301,53450,2,0,P|181:288|206:252,1,70,6|0,0:3|0:0,0:0:0:0:
207,251,53689,1,4,0:3:0:0:
229,113,53927,1,8,0:2:0:0:
101,149,54165,2,0,P|38:141|17:149,1,70,6|0,0:3|0:0,0:0:0:0:
9,157,54404,6,0,P|2:106|9:66,1,70,4|0,0:3|0:0,0:0:0:0:
17,64,54642,1,6,0:3:0:0:
107,12,54880,2,0,P|144:0|183:19,1,70,10|0,0:2|0:0,0:0:0:0:
201,10,55118,2,0,P|230:36|234:79,1,70,6|0,0:3|0:0,0:0:0:0:
246,91,55356,2,0,P|264:30|280:8,1,70,4|0,0:3|0:0,0:0:0:0:
293,12,55594,1,6,0:3:0:0:
383,158,55831,2,0,P|364:97|348:75,1,70,10|0,0:2|0:0,0:0:0:0:
336,79,56069,1,6,0:3:0:0:
252,192,56308,6,0,P|187:183|157:184,1,70,6|0,0:3|0:0,0:0:0:0:
158,197,56546,2,0,P|152:241|170:278,1,70,6|0,0:3|0:0,0:0:0:0:
181,284,56784,1,10,0:2:0:0:
276,320,57022,2,0,P|341:311|371:312,1,70,6|0,0:3|0:0,0:0:0:0:
372,318,57260,1,4,0:3:0:0:
191,384,57498,2,0,P|126:375|96:376,1,70,4|0,0:3|0:0,0:0:0:0:
93,379,57736,2,0,P|67:350|63:310,1,70,10|0,0:2|0:0,0:0:0:0:
44,297,57974,2,0,P|56:259|88:236,1,70,6|0,0:3|0:0,0:0:0:0:
106,230,58212,5,6,0:3:0:0:
229,228,58450,2,0,P|234:170|237:135,1,70,6|0,0:3|0:0,0:0:0:0:
240,130,58690,1,10,0:2:0:0:
129,56,58928,1,6,0:3:0:0:
38,159,59165,2,0,P|99:145|150:142,1,105,4|6,0:3|0:3,0:0:0:0:
284,46,59641,2,0,P|255:99|261:128,1,70,10|0,0:2|0:0,0:0:0:0:
240,130,59879,2,0,P|271:181|299:190,1,70,6|0,0:3|0:0,0:0:0:0:
309,197,60117,6,0,B|386:206|361:139|446:157,1,131.25000500679,6|0,0:3|0:0,0:0:0:0:
450,169,60594,2,0,P|469:266|482:361,1,175,10|0,0:2|0:0,0:0:0:0:
462,363,61069,2,0,P|426:364|388:339,1,70,6|0,0:3|0:0,0:0:0:0:
380,324,61309,1,4,0:3:0:0:
295,376,61547,1,8,0:2:0:0:
206,320,61784,2,0,P|170:319|132:344,1,70,6|0,0:3|0:0,0:0:0:0:
120,355,62023,6,0,P|116:283|110:260,1,70,4|0,0:3|0:0,0:0:0:0:
104,259,62261,1,6,0:3:0:0:
225,224,62498,2,0,P|229:152|235:129,1,70,10|0,0:2|0:0,0:0:0:0:
241,128,62736,1,6,0:3:0:0:
67,161,62975,6,0,P|13:124|-7:104,1,83.9999974365235,4|4,0:3|0:3,0:0:0:0:
40,36,63212,2,0,P|98:7|126:0,1,83.9999974365235,10|0,0:2|0:0,0:0:0:0:
161,74,63450,2,0,P|155:139|149:167,1,83.9999974365235,10|0,0:2|0:0,0:0:0:0:
151,157,63847,5,0,0:0:0:0:
151,157,63927,1,6,0:2:0:0:
72,249,64165,6,0,P|117:247|165:257,1,78.7500030040742,0|2,0:0|0:2,0:0:0:0:
177,268,64522,1,0,0:0:0:0:
247,325,64760,2,0,P|271:260|239:202,1,118.125004506111
254,137,65355,1,0,0:0:0:0:
328,165,65593,2,0,P|390:154|421:147,1,78.7500030040742,2|2,0:2|0:2,0:0:0:0:
465,66,66069,6,0,P|426:58|387:51,2,78.7500030040742,0|2|0,0:0|0:2|0:0,0:0:0:0:
489,85,66665,2,0,P|503:127|482:177,1,78.7500030040742
476,185,67022,1,2,0:2:0:0:
405,239,67260,2,0,P|391:281|412:331,2,78.7500030040742,2|0|2,0:2|0:0|0:2,0:0:0:0:
328,165,67974,6,0,P|262:172|229:182,1,78.7500030040742,0|2,0:0|0:2,0:0:0:0:
174,224,68450,1,0,0:0:0:0:
174,224,68569,2,0,P|154:167|148:103,1,118.125004506111
144,31,69165,1,0,0:0:0:0:
212,70,69403,2,0,P|183:97|146:109,1,78.7500030040742,2|2,0:2|0:2,0:0:0:0:
36,64,69879,6,0,P|42:132|45:170,2,78.7500030040742,0|2|0,0:0|0:2|0:0,0:0:0:0:
115,193,70593,6,0,P|82:234|97:269,1,83.9999974365235,10|0,0:2|0:0,0:0:0:0:
54,323,70831,2,0,P|95:355|130:340,1,83.9999974365235,4|2,0:3|0:2,0:0:0:0:
184,384,71069,2,0,P|216:342|201:307,1,83.9999974365235,4|0,0:3|0:0,0:0:0:0:
245,253,71308,2,0,P|203:220|168:235,1,83.9999974365235,6|0,0:3|0:0,0:0:0:0:
245,253,71546,6,0,P|255:180|271:147,1,105.000004005432,6|0,0:2|0:0,0:0:0:0:
294,131,71943,2,0,P|338:133|378:183,1,105.000004005432
361,260,72498,2,0,B|452:274|423:189|514:195,1,175,10|2,0:2|0:2,0:0:0:0:
512,170,72974,2,0,P|509:130|502:89,1,78.7500030040742,0|2,0:0|0:2,0:0:0:0:
409,27,73450,6,0,P|370:53|306:34,1,105.000004005432,4|0,0:3|0:0,0:0:0:0:
290,25,73847,2,0,P|229:40|181:57,1,105.000004005432,4|4,0:3|0:3,0:0:0:0:
106,109,74403,1,8,0:2:0:0:
166,291,74800,1,0,0:0:0:0:
166,291,74879,2,0,P|157:251|167:204,1,78.7500030040742,2|2,0:2|0:2,0:0:0:0:
243,321,75355,6,0,P|211:363|141:366,1,105.000004005432,4|0,0:2|0:0,0:0:0:0:
131,368,75752,2,0,P|53:380|3:387,1,105.000004005432,4|4,0:3|0:3,0:0:0:0:
12,262,76308,2,0,P|62:256|90:195,1,105.000004005432,10|0,0:2|0:0,0:0:0:0:
91,180,76704,2,0,P|41:174|-4:129,1,105,10|0,0:2|0:0,0:0:0:0:
1,110,77260,5,8,0:2:0:0:
446,373,78689,1,8,0:1:0:0:
446,373,79165,6,0,P|450:326|466:278,1,83.9999974365235,6|0,0:2|0:0,0:0:0:0:
512,232,79403,2,0,P|489:190|475:142,1,83.9999974365235,6|0,0:3|0:0,0:0:0:0:
492,42,79641,2,0,P|486:96|390:136,1,167.999994873047,10|2,0:2|0:2,0:0:0:0:
332,82,80038,1,0,0:0:0:0:
332,82,80117,2,0,P|276:96|243:95,1,83.9999974365235,4|0,0:3|0:0,0:0:0:0:
173,120,80355,2,0,P|214:121|254:133,1,83.9999974365235,6|0,0:3|0:0,0:0:0:0:
319,181,80593,2,0,B|349:248|287:247|318:333,1,125.999996154785,10|4,0:2|0:3,0:0:0:0:
103,363,81069,6,0,P|135:328|193:316,1,83.9999974365235,6|0,0:3|0:0,0:0:0:0:
162,234,81308,2,0,P|208:244|247:288,1,83.9999974365235,6|0,0:3|0:0,0:0:0:0:
310,302,81546,2,0,P|375:296|411:290,1,83.9999974365235,10|0,0:2|0:0,0:0:0:0:
463,254,81784,1,6,0:3:0:0:
398,101,82022,2,0,P|361:169|296:176,1,125.999996154785,4|6,0:3|0:3,0:0:0:0:
143,124,82498,2,0,P|201:124|227:145,1,83.9999974365235,10|0,0:2|0:0,0:0:0:0:
291,106,82736,2,0,P|320:156|314:189,1,83.9999974365235,6|0,0:3|0:0,0:0:0:0:
368,260,82974,6,0,P|283:269|239:285,1,131.25000500679,6|0,0:3|0:0,0:0:0:0:
219,308,83450,2,0,P|151:326|97:237,1,167.999994873047,10|0,0:2|0:0,0:0:0:0:
47,190,83847,1,0,0:0:0:0:
47,190,83927,2,0,P|62:139|47:85,1,83.9999974365235,6|0,0:3|0:0,0:0:0:0:
16,39,84165,1,4,0:3:0:0:
138,180,84403,2,0,P|188:171|232:132,1,83.9999974365235,8|0,0:2|0:0,0:0:0:0:
268,92,84641,2,0,P|318:101|362:140,1,83.9999974365235,6|0,0:3|0:0,0:0:0:0:
429,186,84879,6,0,P|434:135|446:81,1,83.9999974365235,4|0,0:3|0:0,0:0:0:0:
352,235,85117,2,0,P|348:193|340:151,1,83.9999974365235,6|0,0:3|0:0,0:0:0:0:
440,269,85355,2,0,P|445:218|457:164,1,83.9999974365235,10|0,0:2|0:0,0:0:0:0:
363,318,85593,2,0,P|359:276|351:234,1,83.9999974365235,6|0,0:3|0:0,0:0:0:0:
279,211,85831,1,6,0:3:0:0:
214,312,85989,1,0,0:0:0:0:
214,312,86069,2,0,P|167:308|123:297,1,83.9999974365235,4|0,0:3|0:0,0:0:0:0:
74,246,86308,1,8,0:2:0:0:
163,142,86546,2,0,P|177:86|159:50,1,83.9999974365235,4|0,0:3|0:0,0:0:0:0:
68,57,86784,6,0,P|54:113|72:149,1,83.9999974365235,6|0,0:2|0:0,0:0:0:0:
21,200,87022,2,0,P|34:260|39:306,1,83.9999974365235,6|0,0:3|0:0,0:0:0:0:
0,349,87260,2,0,B|122:297|79:427|217:363,1,209.999993591309,10|0,0:2|0:0,0:0:0:0:
247,272,87736,2,0,P|205:271|168:290,1,83.9999974365235,4|0,0:3|0:0,0:0:0:0:
318,299,87974,2,0,P|283:250|238:236,1,83.9999974365235,6|0,0:3|0:0,0:0:0:0:
330,373,88212,2,0,P|354:318|344:273,1,83.9999974365235,10|0,0:2|0:0,0:0:0:0:
364,220,88450,1,4,0:3:0:0:
270,134,88689,6,0,P|267:67|271:35,1,83.9999974365235,6|0,0:3|0:0,0:0:0:0:
326,0,88927,2,0,P|388:12|426:-4,1,83.9999974365235,6|0,0:3|0:0,0:0:0:0:
477,34,89165,2,0,P|479:75|475:117,1,83.9999974365235,10|0,0:2|0:0,0:0:0:0:
428,177,89403,1,6,0:3:0:0:
270,134,89641,2,0,P|198:147|164:207,1,125.999996154785,4|6,0:3|0:3,0:0:0:0:
323,290,90117,2,0,P|328:224|320:201,1,83.9999974365235,10|0,0:2|0:0,0:0:0:0:
246,213,90355,2,0,P|241:279|249:302,1,83.9999974365235,6|0,0:3|0:0,0:0:0:0:
289,360,90593,6,0,P|363:366|428:353,1,131.25000500679,6|0,0:3|0:0,0:0:0:0:
445,340,91069,2,0,B|496:236|397:250|447:124,1,209.999993591309,10|0,0:2|0:0,0:0:0:0:
462,112,91546,2,0,P|489:68|469:20,1,105.000004005432,6|2,0:3|0:2,0:0:0:0:
470,21,91943,1,0,0:0:0:0:
470,21,92022,1,8,0:2:0:0:
358,133,92260,2,0,P|311:116|266:105,1,83.9999974365235,6|0,0:3|0:0,0:0:0:0:
200,87,92498,6,0,P|237:76|283:53,1,83.9999974365235,4|0,0:3|0:0,0:0:0:0:
330,0,92736,1,6,0:3:0:0:
131,34,92974,2,0,P|112:77|127:135,1,83.9999974365235,10|0,0:2|0:0,0:0:0:0:
81,180,93212,2,0,P|100:223|85:281,1,83.9999974365235,6|0,0:3|0:0,0:0:0:0:
18,353,93450,6,0,P|58:342|100:334,1,83.9999974365235,6|0,0:3|0:0,0:0:0:0:
166,294,93689,2,0,P|206:305|247:313,1,83.9999974365235,8|0,0:2|0:0,0:0:0:0:
277,383,93927,2,0,P|317:371|358:363,1,83.9999974365235,8|0,0:2|0:0,0:0:0:0:
425,324,94166,2,0,P|465:335|506:343,1,83.9999974365235,4|0,0:3|0:0,0:0:0:0:
358,363,94403,6,0,P|351:298|369:269,1,70,6|0,0:2|0:0,0:0:0:0:
375,260,94641,2,0,P|438:246|469:261,1,70,2|4,0:2|0:3,0:0:0:0:
480,263,94879,1,2,0:2:0:0:
512,173,95117,2,0,P|515:125|495:92,1,70,4|0,0:3|0:0,0:0:0:0:
471,82,95355,2,0,P|412:96|354:99,1,105,10|2,0:2|0:2,0:0:0:0:
267,51,95831,1,6,0:3:0:0:
202,126,96069,2,0,P|214:178|217:221,1,70
219,237,96308,6,0,P|181:259|130:250,1,70,6|0,0:3|0:0,0:0:0:0:
117,241,96546,2,0,P|88:221|53:218,1,70,2|4,0:2|0:3,0:0:0:0:
15,237,96784,1,2,0:2:0:0:
0,353,97022,2,0,P|46:346|75:340,1,70,4|0,0:3|0:0,0:0:0:0:
106,321,97260,2,0,P|170:338|233:349,1,105,10|2,0:2|0:2,0:0:0:0:
310,234,97736,1,10,0:2:0:0:
232,168,97895,1,0,0:0:0:0:
232,168,97974,2,0,P|220:220|217:263,1,70,2|0,0:2|0:0,0:0:0:0:
239,272,98212,5,4,0:2:0:0:
323,302,98450,2,0,P|318:267|309:233,1,70,2|4,0:2|0:3,0:0:0:0:
327,194,98689,2,0,P|381:170|414:182,1,70,2|0,0:2|0:0,0:0:0:0:
427,190,98927,1,6,0:3:0:0:
474,57,99165,2,0,P|424:72|372:83,1,105,10|0,0:2|0:0,0:0:0:0:
199,2,99641,2,0,P|250:12|287:22,1,70,4|0,0:3|0:0,0:0:0:0:
303,38,99879,1,2,0:2:0:0:
230,117,100117,5,6,0:3:0:0:
133,81,100355,2,0,P|92:86|61:99,1,70,2|4,0:2|0:3,0:0:0:0:
35,126,100593,2,0,P|46:175|46:205,1,70,2|0,0:2|0:0,0:0:0:0:
31,234,100831,1,6,0:3:0:0:
184,256,101069,6,0,P|238:228|285:226,1,83.9999974365235,10|0,0:2|0:0,0:0:0:0:
327,220,101308,2,0,P|286:210|250:188,1,83.9999974365235,8|4,0:2|0:3,0:0:0:0:
230,117,101546,1,4,0:3:0:0:
331,40,101704,1,0,0:0:0:0:
331,40,101784,2,0,P|386:46|421:18,1,83.9999974365235,6|0,0:3|0:0,0:0:0:0:
487,1,102022,6,0,P|479:50|470:94,1,70,6|0,0:2|0:0,0:0:0:0:
453,106,102260,2,0,P|461:155|470:199,1,70,2|4,0:2|0:3,0:0:0:0:
482,213,102498,1,2,0:2:0:0:
464,309,102736,2,0,P|426:317|382:321,1,70,4|0,0:3|0:0,0:0:0:0:
357,339,102974,2,0,P|316:308|251:338,1,105,10|2,0:2|0:2,0:0:0:0:
327,220,103450,1,6,0:3:0:0:
216,203,103689,2,0,P|181:199|147:191,1,70
115,163,103927,6,0,P|110:109|131:80,1,70,6|0,0:3|0:0,0:0:0:0:
99,57,104165,2,0,P|143:25|178:29,1,70,2|4,0:2|0:3,0:0:0:0:
197,11,104403,1,2,0:2:0:0:
226,133,104641,2,0,P|217:186|214:231,1,70,4|0,0:3|0:0,0:0:0:0:
235,239,104879,1,10,0:2:0:0:
163,315,105038,1,0,0:0:0:0:
163,315,105117,2,0,P|111:298|86:304,1,70,6|0,0:3|0:0,0:0:0:0:
26,340,105355,6,0,P|21:287|27:240,1,83.9999974365235,10|4,0:2|0:3,0:0:0:0:
50,173,105593,2,0,P|55:120|49:73,1,83.9999974365235,10|0,0:2|0:0,0:0:0:0:
18,14,105831,1,4,0:2:0:0:
