osu file format v14

[General]
AudioFilename: audio.mp3
AudioLeadIn: 0
PreviewTime: 137551
Countdown: 0
SampleSet: Soft
StackLeniency: 0.6
Mode: 0
LetterboxInBreaks: 0
WidescreenStoryboard: 0

[Editor]
Bookmarks: 2873,17291,103150,137641,181045,221771,259589,273137,319588
DistanceSpacing: 1.3
BeatDivisor: 4
GridSize: 8
TimelineZoom: 2.1

[Metadata]
Title:ChroNoiR HoneyWorks medley
TitleUnicode:ChroNoiR HoneyWorks medley
Artist:ChroNoiR
ArtistUnicode:ChroNoiR
Creator:Addy2607
Version:Sweet Sweet Chocolate
Source:
Tags:arronchu1207 reiSevia Roda_Totsuki Kanae 叶 Kuzuha 葛葉 Nijisanji にじさんじ Gamers Premium Live HoneyPre ハニワークスプレミアムライブ LIP×LIP LIPxLIP LIP x LIP リップリップ Aizo Aizou Aizō Shibasaki 柴崎愛蔵 Nobunaga Shimazaki 島﨑信長 Yujiro Yuujirou Yūjirō Someya 染谷勇次郎 Kōki Koki Kouki Uchiyama 内山昂輝 Chocokano Chokokano Choco Choko kano チョコカノ Sena Narumi 成海聖奈 Sora Amamiya 雨宮天 Mona 成海萌奈 Shiina Natsukawa 夏川椎菜 Sis×Love SisXLove Sis x Love Shisu×Rabu ShisuXRabu Shisu Rabu シス×ラブ Minami 南 Toshiyuki Toyonaga 豊永利行 Chiisana Little Lion 小さなライオン Y!mobile LOVE&KISS Love to and Kiss 10th Anniversary FILM×LIVE FILMxLIVE FILM x LIVE Kono Sekai no Tanoshimikata ~Secret Story Film~ この世界の楽しみ方~Secret Story Film~ How to enjoy this world anime opening intro theme やっぱ最強! Yappa Saikyou! Ken Shibasaki 柴崎健 Takuya Eguchi 江口拓也 Samishigari ya さみしがりや Lonely Person Docchi no kiss ka, Erabe yo. どっちのkissか、選べよ。 japanese pop j-pop jpop V-Tuber VTuber Virtual Youtuber
BeatmapID:2933101
BeatmapSetID:1424300

[Difficulty]
HPDrainRate:6
CircleSize:3.8
OverallDifficulty:9
ApproachRate:9.2
SliderMultiplier:1.8
SliderTickRate:1

[Events]
//Background and Video events
Video,0,"video.mp4"
0,0,"87826858_p0.jpg",0,0
//Break Periods
2,262692,265067
2,323174,326276
//Storyboard Layer 0 (Background)
//Storyboard Layer 1 (Fail)
//Storyboard Layer 2 (Pass)
//Storyboard Layer 3 (Foreground)
//Storyboard Layer 4 (Overlay)
//Storyboard Sound Samples

[TimingPoints]
2873,697.674418604651,4,2,1,40,1,0
2873,-133.333333333333,4,2,1,40,0,0
4268,705.882352941176,4,2,1,40,1,0
4268,-133.333333333333,4,2,1,40,0,0
5679,705.882352941176,4,2,1,40,1,0
5679,-133.333333333333,4,2,1,40,0,0
7090,697.674418604651,4,2,1,40,1,0
7090,-133.333333333333,4,2,1,40,0,0
8485,731.707317073171,4,2,1,40,1,0
8485,-130.718954248366,4,2,1,40,0,0
9216,689.655172413793,4,2,1,40,1,0
9216,-133.333333333333,4,2,1,40,0,0
9905,714.285714285714,4,2,1,40,1,0
9905,-135.135135135135,4,2,1,40,0,0
10619,740.74074074074,4,2,1,40,1,0
10619,-133.333333333333,4,2,1,40,0,0
11359,810.81081081081,4,2,1,40,1,0
11359,-135.869565217391,4,2,1,40,0,0
12169,857.142857142856,4,2,1,40,1,0
12169,-133.333333333333,4,2,1,40,0,0
13883,1008.40336134454,4,2,1,40,1,0
14891,600,4,2,1,50,1,0
16091,300,4,2,1,50,1,0
16691,-153.846153846154,4,2,1,50,0,0
17291,300,4,2,1,60,1,0
17291,-200,4,2,1,60,0,0
26291,-125,4,2,1,60,0,0
26891,-111.111111111111,4,2,1,70,0,0
35291,-200,4,2,1,70,0,0
36416,-200,4,2,1,5,0,0
36491,-142.857142857143,4,2,1,50,0,0
46091,-125,4,2,1,60,0,0
52916,-125,4,2,1,5,0,0
52991,-125,4,2,1,60,0,0
56891,300,3,2,1,50,1,0
56891,-166.666666666667,3,2,1,50,0,0
63191,300,4,2,1,50,1,0
63191,-142.857142857143,4,2,1,50,0,0
63266,-142.857142857143,4,2,1,5,0,0
63791,-142.857142857143,4,2,1,50,0,0
64016,-142.857142857143,4,2,1,5,0,0
64091,-142.857142857143,4,2,1,50,0,0
64316,-142.857142857143,4,2,1,5,0,0
64391,300,4,2,1,60,1,0
64391,-125,4,2,1,60,0,0
71591,-111.111111111111,4,2,1,70,0,0
73991,-100,4,2,1,80,0,1
91991,-100,4,2,1,90,0,1
93191,-111.111111111111,4,2,1,70,0,0
101591,-250,4,2,1,60,0,0
102791,359.281437125748,4,2,1,60,1,0
102791,-117.647058823529,4,2,1,60,0,0
103150,359.281437125748,4,2,1,70,1,0
103150,-100,4,2,1,70,0,1
113209,-100,4,2,1,80,0,1
114647,-100,4,2,1,70,0,1
124706,-100,4,2,1,80,0,1
126144,-111.111111111111,4,2,1,70,0,0
137551,-111.111111111111,4,2,1,5,0,0
137641,319.148936170212,4,2,1,60,1,0
137641,-166.666666666667,4,2,1,60,0,0
138199,-166.666666666667,4,2,1,5,0,0
138279,-166.666666666667,4,2,1,60,0,0
138837,-166.666666666667,4,2,1,5,0,0
138917,-133.333333333333,4,2,1,70,0,0
139156,-133.333333333333,4,2,1,5,0,0
139236,-133.333333333333,4,2,1,70,0,0
139476,-133.333333333333,4,2,1,5,0,0
139555,-117.647058823529,4,2,1,70,0,0
140194,319.148936170212,4,2,1,80,1,0
140194,-95.2380952380952,4,2,1,80,0,1
160619,-90.9090909090909,4,2,1,90,0,1
169555,-90.9090909090909,4,2,1,80,0,1
170832,-111.111111111111,4,2,1,70,0,0
172348,-111.111111111111,4,2,1,5,0,0
172428,-111.111111111111,4,2,1,70,0,0
172667,-111.111111111111,4,2,1,5,0,0
172747,-111.111111111111,4,2,1,70,0,0
172986,-111.111111111111,4,2,1,5,0,0
173066,-111.111111111111,4,2,1,70,0,0
173305,-111.111111111111,4,2,1,5,0,0
173385,-111.111111111111,4,2,1,70,0,0
177454,-111.111111111111,4,2,1,5,0,0
177534,-111.111111111111,4,2,1,70,0,0
177773,-111.111111111111,4,2,1,5,0,0
177853,-111.111111111111,4,2,1,70,0,0
178092,-111.111111111111,4,2,1,5,0,0
178172,-111.111111111111,4,2,1,70,0,0
178412,-111.111111111111,4,2,1,5,0,0
178491,-111.111111111111,4,2,1,70,0,0
179768,-95.2380952380952,4,2,1,70,0,0
180008,-95.2380952380952,4,2,1,5,0,0
180087,-95.2380952380952,4,2,1,70,0,0
180327,-95.2380952380952,4,2,1,5,0,0
180406,-111.111111111111,4,2,1,70,0,0
181045,350.877192982455,4,2,1,50,1,0
181045,-200,4,2,1,50,0,0
182448,-250,4,2,1,50,0,0
183852,-200,4,2,1,50,0,0
185255,-166.666666666667,4,2,1,50,0,0
186659,-200,4,2,1,60,0,0
189466,-166.666666666667,4,2,1,60,0,0
190869,-266.666666666667,4,2,1,60,0,0
193676,350.877192982455,4,2,1,80,1,0
193676,-100,4,2,1,80,0,1
203501,-90.9090909090909,4,2,1,90,0,1
204904,-111.111111111111,4,2,1,70,0,1
210518,-100,4,2,1,80,0,1
213325,-100,4,2,1,90,0,1
214729,-100,4,2,1,80,0,1
216132,-125,4,2,1,60,0,0
218939,-153.846153846154,4,2,1,60,0,0
221044,363.636363636362,4,2,1,70,1,0
221044,-166.666666666667,4,2,1,70,0,0
221680,-166.666666666667,4,2,1,5,0,0
221771,363.636363636362,4,2,1,80,1,0
221771,-100,4,2,1,80,0,1
237589,-90.9090909090909,4,2,1,90,0,1
239225,-100,4,2,1,80,0,1
244861,-125,4,2,1,60,0,0
247498,-125,4,2,1,60,0,0
247589,-125,4,2,1,60,0,0
247952,-111.111111111111,4,2,1,70,0,0
259043,-111.111111111111,4,2,1,80,0,0
259589,483.870967741935,4,2,1,50,1,0
259589,-100,4,2,1,50,0,0
260072,-100,4,2,1,40,0,0
260556,-100,4,2,1,25,0,0
261040,-100,4,2,1,10,0,0
261524,-100,4,2,1,5,0,0
265395,-153.846153846154,4,2,1,5,0,0
266363,-153.846153846154,4,2,1,10,0,0
267330,-153.846153846154,4,2,1,20,0,0
269266,-153.846153846154,4,2,1,30,0,0
270234,-153.846153846154,4,2,1,40,0,0
271201,-153.846153846154,4,2,1,50,0,0
272169,-153.846153846154,4,2,1,60,0,0
273137,483.870967741935,4,2,1,60,1,0
273137,-153.846153846154,4,2,1,60,0,0
280395,-153.846153846154,4,2,2,60,0,0
280878,-133.333333333333,4,2,1,60,0,0
286685,-125,4,2,1,60,0,0
288499,-125,4,2,1,5,0,0
288620,-100,4,2,1,70,0,1
304104,-90.9090909090909,4,2,1,80,0,1
319588,-133.333333333333,4,2,1,60,0,0
321040,-133.333333333333,4,2,1,5,0,0
321282,-133.333333333333,4,2,1,60,0,0
322975,-133.333333333333,4,2,1,5,0,0
326846,550.45871559633,4,2,1,40,1,0
326846,-133.333333333333,4,2,1,40,0,0
327396,545.454545454545,4,2,1,50,1,0
327396,-133.333333333333,4,2,1,50,0,0
329577,550.45871559633,4,2,1,50,1,0
329577,-133.333333333333,4,2,1,50,0,0
331778,545.454545454546,4,2,1,40,1,0
331778,-133.333333333333,4,2,1,40,0,0
333959,530.973451327434,4,2,1,50,1,0
333959,-133.333333333333,4,2,1,50,0,0
336082,508.474576271187,4,2,1,60,1,0
336082,-133.333333333333,4,2,1,60,0,0
342181,517.241379310345,4,2,1,60,1,0
342181,-133.333333333333,4,2,1,60,0,0
342698,535.714285714286,4,2,1,60,1,0
342698,-133.333333333333,4,2,1,60,0,0
343233,582.52427184466,4,2,1,60,1,0
343233,-133.333333333333,4,2,1,60,0,0
343815,612.244897959184,4,2,1,60,1,0
343815,-133.333333333333,4,2,1,60,0,0
344427,612.244897959184,4,2,1,50,1,0
344427,-133.333333333333,4,2,1,50,0,0
345039,-133.333333333333,4,2,1,40,0,0
345651,-133.333333333333,4,2,1,30,0,0
346263,-133.333333333333,4,2,1,20,0,0

[Colours]
Combo1 : 95,95,95
Combo2 : 0,242,242
Combo3 : 240,0,0
Combo4 : 183,166,134

[HitObjects]
477,49,2873,6,0,B|427:20|381:58|401:76|340:127|286:82,1,202.500007724762,2|2,0:0|0:0,0:0:0:0:
209,30,4268,2,0,P|255:80|162:81,1,202.500007724762,2|2,0:0|0:0,0:0:0:0:
99,14,5679,6,0,B|52:52|52:52|82:204,1,202.500007724762,2|2,0:0|0:0,0:0:0:0:
103,272,7090,2,0,L|37:285,1,67.5000025749208,2|0,0:0|0:0,0:0:0:0:
180,340,7787,2,0,L|246:327,1,67.5000025749208,2|2,0:0|0:0,0:0:0:0:
345,357,8485,6,0,B|347:282|347:282|312:245|312:245|314:159,1,202.500007724762,2|2,0:0|0:0,0:0:0:0:
281,71,9905,2,0,B|334:46|388:89|360:116|419:151|472:120,1,202.500007724762,2|2,0:0|0:0,0:0:0:0:
486,41,11359,6,0,B|517:73|517:73|501:238,1,202.500007724762,2|2,0:0|0:0,0:0:0:0:
491,319,13026,2,0,L|489:344,3,19.2857150214059,2|2|2|2,0:0|0:0|0:0|0:0,0:0:0:0:
256,192,14891,5,2,0:3:0:0:
256,192,15491,5,2,0:3:0:0:
314,114,16091,5,2,0:3:0:0:
314,114,16391,1,2,0:3:0:0:
245,25,16691,2,0,P|213:60|139:52,1,116.999994644165,2|2,0:0|0:0,0:0:0:0:
48,15,17291,6,0,B|12:51|12:51|39:192,1,180,6|2,3:2|0:0,0:0:0:0:
0,284,18191,1,2,0:0:0:0:
0,284,18491,6,0,B|48:264|90:297|72:308|115:355|175:320,1,180,2|2,0:0|0:0,0:0:0:0:
267,366,19391,1,2,0:0:0:0:
267,366,19691,6,0,P|198:339|263:296,1,180,2|2,0:0|0:0,0:0:0:0:
362,332,20591,1,2,0:0:0:0:
362,332,20891,6,0,L|352:144,1,180,2|2,0:0|0:0,0:0:0:0:
423,85,21791,1,2,0:0:0:0:
423,85,22091,6,0,P|385:53|268:101,1,180,6|2,3:2|0:0,0:0:0:0:
174,39,22991,1,2,0:0:0:0:
174,39,23291,6,0,L|190:223,1,180,6|2,3:2|0:0,0:0:0:0:
262,304,24191,1,2,0:0:0:0:
262,304,24491,6,0,B|200:301|200:301|165:327|165:327|84:324,1,180,6|2,3:2|0:0,0:0:0:0:
14,265,25391,1,2,0:0:0:0:
14,265,25691,2,0,L|14:125,1,135,2|0,0:0|3:0,0:0:0:0:
19,97,26216,1,0,3:0:0:0:
19,97,26291,6,0,L|101:97,1,72,8|0,0:0|3:0,0:0:0:0:
179,207,26591,2,0,L|96:207,1,72,8|8,0:0|0:0,0:0:0:0:
231,21,26891,6,0,P|271:7|314:29,1,80.9999975280763,4|0,3:2|0:0,0:0:0:0:
310,190,27191,2,0,P|277:162|275:114,1,80.9999975280763,10|0,0:0|0:0,0:0:0:0:
415,37,27491,2,0,P|407:78|366:104,1,80.9999975280763,10|0,0:0|3:0,0:0:0:0:
172,110,27791,1,10,0:0:0:0:
293,274,27941,1,0,3:0:0:0:
378,101,28091,6,0,L|471:100,1,80.9999975280763,10|0,0:0|0:0,0:0:0:0:
512,220,28391,2,0,L|419:221,1,80.9999975280763,10|0,0:0|0:0,0:0:0:0:
371,350,28691,2,0,L|464:349,1,80.9999975280763,10|0,0:0|3:0,0:0:0:0:
327,183,28991,1,10,0:0:0:0:
264,372,29141,1,2,3:2:0:0:
189,210,29291,6,0,B|103:198|126:284|21:254,1,161.999995056153,14|10,0:0|0:0,0:0:0:0:
181,307,29741,1,0,0:0:0:0:
52,163,29891,2,0,P|34:123|55:80,1,80.9999975280763,10|0,0:0|3:0,0:0:0:0:
260,166,30191,2,0,P|278:206|257:249,1,80.9999975280763,10|0,0:0|3:0,0:0:0:0:
110,22,30491,6,0,L|281:12,1,161.999995056153,10|12,0:0|0:0,0:0:0:0:
363,89,30941,1,0,0:0:0:0:
133,104,31091,2,0,L|218:99,1,80.9999975280763,8|0,0:0|0:0,0:0:0:0:
395,2,31391,1,14,0:0:0:0:
495,117,31541,1,2,3:2:0:0:
358,301,31691,6,0,P|338:262|348:218,1,80.9999975280763,14|0,0:0|0:0,0:0:0:0:
505,196,31991,2,0,P|481:232|438:246,1,80.9999975280763,10|0,0:0|0:0,0:0:0:0:
331,101,32291,2,0,P|374:103|407:133,1,80.9999975280763,10|0,0:0|3:0,0:0:0:0:
507,326,32591,1,10,0:0:0:0:
404,142,32741,1,0,3:0:0:0:
279,354,32891,6,0,L|188:352,1,80.9999975280763,10|0,0:0|0:0,0:0:0:0:
29,274,33191,2,0,L|120:272,1,80.9999975280763,10|0,0:0|0:0,0:0:0:0:
314,216,33491,2,0,L|223:214,1,80.9999975280763,10|0,0:0|3:0,0:0:0:0:
5,147,33791,1,10,0:0:0:0:
89,359,33941,1,2,3:2:0:0:
219,134,34091,6,0,P|175:151|156:185,1,80.9999975280763,14|0,0:0|0:0,0:0:0:0:
28,50,34391,2,0,P|72:67|91:101,1,80.9999975280763,10|0,0:0|3:0,0:0:0:0:
303,58,34691,2,0,P|257:19|158:39,1,161.999995056153,10|10,0:0|0:0,0:0:0:0:
233,214,35141,1,8,0:3:0:0:
398,77,35291,6,0,B|441:59|471:7|471:7|453:247,1,337.5,6|0,3:2|0:0,0:0:0:0:
502,320,36491,6,0,P|458:287|385:314,1,125.999996154785,6|2,3:2|3:2,0:0:0:0:
317,364,36941,1,0,0:0:0:0:
317,364,37091,2,0,L|246:363,1,62.9999980773926,2|0,3:2|0:0,0:0:0:0:
206,278,37391,2,0,L|277:279,1,62.9999980773926,2|0,3:2|0:0,0:0:0:0:
362,216,37691,6,0,B|336:187|336:187|232:187,1,125.999996154785,2|0,3:2|3:0,0:0:0:0:
0,171,38291,2,0,L|6:310,1,125.999996154785,0|2,3:0|3:2,0:0:0:0:
102,325,38741,1,0,0:0:0:0:
102,325,38891,6,0,L|96:186,1,125.999996154785,2|0,3:2|3:0,0:0:0:0:
3,75,39491,2,0,P|60:105|121:76,1,125.999996154785,2|2,3:2|3:2,0:0:0:0:
178,11,39941,1,2,0:0:0:0:
178,11,40091,6,0,L|257:8,2,62.9999980773926,0|0|0,3:0|0:0|3:0,0:0:0:0:
327,122,40691,2,0,L|188:127,1,125.999996154785,0|2,3:0|3:2,0:0:0:0:
131,194,41141,1,2,0:0:0:0:
202,281,41291,6,0,P|259:244|318:259,1,125.999996154785,2|2,3:2|3:2,0:0:0:0:
394,317,41741,1,0,0:0:0:0:
394,317,41891,2,0,P|357:260|372:201,1,125.999996154785,2|2,3:2|3:2,0:0:0:0:
512,113,42491,6,0,B|465:109|465:109|442:124|442:124|377:119,1,125.999996154785,2|0,3:2|3:0,0:0:0:0:
312,64,42941,1,0,0:0:0:0:
312,64,43091,2,0,L|317:-3,2,62.9999980773926,0|0|2,3:0|0:0|3:2,0:0:0:0:
238,149,43541,1,2,0:0:0:0:
238,149,43691,6,0,L|245:291,1,125.999996154785,2|2,3:2|3:2,0:0:0:0:
66,354,44291,2,0,P|124:374|179:347,1,125.999996154785,2|2,3:2|3:2,0:0:0:0:
116,224,44741,1,2,0:0:0:0:
116,224,44891,6,0,L|120:307,2,62.9999980773926,0|0|4,3:0|0:0|3:2,0:0:0:0:
5,135,45491,6,0,L|88:131,1,62.9999980773926,8|0,0:0|3:0,0:0:0:0:
151,126,45716,1,0,3:0:0:0:
151,126,45791,2,0,L|234:122,1,62.9999980773926,8|8,0:0|0:3,0:0:0:0:
279,51,46016,1,8,0:3:0:0:
279,51,46091,6,0,P|339:19|414:67,1,144,6|10,3:2|0:0,0:0:0:0:
344,182,46541,1,0,0:0:0:0:
344,182,46691,2,0,L|342:92,1,72,2|0,3:2|3:0,0:0:0:0:
463,146,46991,2,0,L|465:236,1,72,10|0,0:0|0:0,0:0:0:0:
507,316,47291,6,0,B|432:304|448:380|357:344,1,144,2|8,3:2|0:0,0:0:0:0:
266,293,47741,1,0,0:0:0:0:
266,293,47891,2,0,L|266:221,1,72,0|0,3:0|3:0,0:0:0:0:
268,110,48191,2,0,L|268:38,1,72,10|2,0:0|0:0,0:0:0:0:
154,109,48491,6,0,P|91:81|23:117,1,144,2|10,3:2|0:0,0:0:0:0:
0,205,48941,1,0,0:0:0:0:
0,205,49091,2,0,L|7:293,1,72,2|0,3:2|3:0,0:0:0:0:
173,221,49391,2,0,L|85:227,1,72,10|2,0:0|0:0,0:0:0:0:
16,374,49691,6,0,L|181:360,1,144,2|10,3:2|0:0,0:0:0:0:
238,283,50141,1,2,0:0:0:0:
322,368,50291,2,0,P|365:378|399:361,1,72,0|0,3:0|3:0,0:0:0:0:
385,211,50591,2,0,P|354:243|352:281,1,72,10|2,0:0|0:0,0:0:0:0:
493,298,50891,6,0,L|496:130,1,144,2|10,3:2|0:0,0:0:0:0:
503,42,51341,1,0,0:0:0:0:
323,122,51491,2,0,P|367:133|401:114,1,72,2|0,3:2|3:0,0:0:0:0:
390,2,51791,2,0,P|346:-9|312:10,1,72,10|0,0:0|0:0,0:0:0:0:
231,93,52091,6,0,B|241:148|241:148|226:177|226:177|239:246,1,144,2|8,3:2|0:0,0:0:0:0:
334,305,52541,1,0,0:0:0:0:
208,358,52691,2,0,P|166:335|108:352,1,108,0|0,3:0|0:0,0:0:0:0:
89,370,52991,1,10,0:0:0:0:
1,272,53141,1,2,0:0:0:0:
145,165,53291,6,0,L|141:250,1,72,2|0,3:2|0:0,0:0:0:0:
30,189,53591,2,0,L|33:117,1,72,10|0,0:0|0:0,0:0:0:0:
0,18,53891,2,0,P|48:8|79:24,1,72,2|0,3:2|3:0,0:0:0:0:
172,80,54191,2,0,P|220:90|251:74,1,72,10|0,0:0|0:0,0:0:0:0:
338,27,54491,6,0,B|368:-1|368:-1|358:119,1,144,6|8,3:2|0:0,0:0:0:0:
495,166,54941,1,8,0:0:0:0:
495,166,55016,1,8,0:0:0:0:
495,166,55091,2,0,L|503:80,1,72,0|0,3:0|3:0,0:0:0:0:
359,101,55391,2,0,L|351:187,1,72,10|0,0:0|0:0,0:0:0:0:
502,278,55691,6,0,B|451:272|451:272|414:295|414:295|350:288,1,144,2|8,3:2|0:0,0:0:0:0:
274,355,56141,1,0,3:0:0:0:
274,355,56216,1,0,3:0:0:0:
274,355,56291,1,10,0:0:0:0:
171,202,56441,1,8,0:0:0:0:
95,363,56591,1,10,0:0:0:0:
264,254,56741,1,8,0:3:0:0:
104,142,56891,6,0,B|55:166|55:166|1:145,2,107.999996704102,6|0|2,3:2|0:0|0:0,0:0:0:0:
99,29,57791,2,0,B|49:9|49:9|0:33,2,107.999996704102,2|2|2,0:0|0:0|3:2,0:0:0:0:
171,202,58691,6,0,L|168:313,2,107.999996704102,2|2|2,3:2|0:0|0:0,0:0:0:0:
327,130,59591,2,0,P|278:148|231:125,2,107.999996704102,2|0|2,0:0|0:0|3:2,0:0:0:0:
399,65,60341,1,2,0:0:0:0:
399,65,60491,6,0,B|445:19|445:19|440:177,1,215.999993408203,2|2,3:2|0:0,0:0:0:0:
394,239,61241,1,2,0:0:0:0:
394,239,61391,2,0,P|442:218|489:241,2,107.999996704102,2|0|2,0:0|0:0|3:2,0:0:0:0:
358,330,62141,1,2,0:0:0:0:
358,330,62291,6,0,B|257:291|251:406|150:354,1,215.999993408203,2|2,3:2|0:0,0:0:0:0:
199,245,63041,1,2,0:0:0:0:
199,245,63191,2,0,L|197:300,1,31.4999990386963,10|0,0:0|0:0,0:0:0:0:
18,346,63791,6,0,P|10:281|43:251,1,94.499997116089,6|0,3:2|0:0,0:0:0:0:
10,216,64091,6,0,P|17:151|-15:121,1,94.499997116089,6|0,3:2|0:0,0:0:0:0:
57,51,64391,6,0,L|205:42,1,144,6|8,3:2|0:0,0:0:0:0:
290,110,64841,1,0,0:0:0:0:
164,195,64991,2,0,L|236:191,1,72,2|0,3:2|3:0,0:0:0:0:
71,277,65291,2,0,L|-1:281,1,72,10|0,0:0|0:0,0:0:0:0:
174,365,65591,6,0,P|224:319|302:338,1,144,2|8,3:2|0:0,0:0:0:0:
384,366,66041,1,8,0:0:0:0:
384,366,66116,1,8,0:0:0:0:
384,366,66191,2,0,P|372:327|387:287,1,72,2|0,3:2|3:0,0:0:0:0:
507,296,66491,2,0,P|519:335|504:375,1,72,10|0,0:0|0:0,0:0:0:0:
404,201,66791,6,0,B|336:185|326:255|257:220,1,144,2|10,3:2|0:0,0:0:0:0:
278,48,67241,1,0,0:0:0:0:
278,48,67391,2,0,L|281:134,1,72,2|0,3:2|3:0,0:0:0:0:
184,201,67691,2,0,L|181:115,1,72,10|0,0:0|0:0,0:0:0:0:
58,45,67991,6,0,B|81:14|81:14|85:132,1,144,2|8,3:2|0:0,0:0:0:0:
21,210,68441,1,0,0:0:0:0:
119,289,68591,2,0,L|204:279,1,72,2|0,3:2|3:0,0:0:0:0:
263,346,68891,2,0,L|334:337,1,72,10|0,0:0|0:0,0:0:0:0:
468,363,69191,6,0,P|434:342|436:229,1,144,2|8,3:2|0:0,0:0:0:0:
512,179,69641,1,0,0:0:0:0:
319,239,69791,2,0,P|323:199|426:153,1,144,2|8,3:2|0:0,0:0:0:0:
512,179,70241,1,0,0:0:0:0:
412,55,70391,6,0,B|346:43|346:103|272:78,1,144,2|8,3:2|0:0,0:0:0:0:
189,8,70841,1,0,0:0:0:0:
88,68,70991,2,0,L|90:157,1,72,2|0,3:2|3:0,0:0:0:0:
196,195,71291,2,0,L|194:106,1,72,12|0,0:0|0:0,0:0:0:0:
13,201,71591,5,6,0:0:0:0:
63,285,71741,2,0,L|152:272,1,80.9999975280763,2|0,0:3|3:0,0:0:0:0:
361,281,72041,5,2,0:3:0:0:
296,369,72191,2,0,L|207:356,1,80.9999975280763,2|0,0:3|3:0,0:0:0:0:
0,170,72491,5,2,0:3:0:0:
55,274,72641,2,0,L|144:261,1,80.9999975280763,2|0,0:3|3:0,0:0:0:0:
326,155,72941,5,2,0:3:0:0:
399,365,73091,1,2,0:3:0:0:
399,365,73391,6,0,L|395:308,3,40.4999987640381,2|0|0|0,3:2|3:0|3:0|3:0,0:0:0:0:
510,268,73691,6,0,L|514:325,3,40.4999987640381,2|0|0|0,3:2|3:0|3:0|3:0,0:0:0:0:
509,124,73991,6,0,B|462:106|424:139|437:157|397:200|339:172,1,180,6|8,3:2|0:0,0:0:0:0:
294,1,74441,1,0,0:0:0:0:
294,1,74591,2,0,P|336:24|348:75,1,90,2|0,3:2|3:0,0:0:0:0:
205,193,74891,2,0,P|203:145|242:109,1,90,10|0,0:0|0:0,0:0:0:0:
403,315,75191,6,0,B|331:308|331:308|295:332|295:332|218:327,1,180,2|8,3:2|0:0,0:0:0:0:
57,384,75641,1,0,0:0:0:0:
5,165,75791,2,0,L|2:257,1,90,2|0,3:2|3:0,0:0:0:0:
140,362,76091,2,0,L|142:272,1,90,10|0,0:0|0:0,0:0:0:0:
0,55,76391,6,0,B|49:62|77:17|77:17|110:67|175:61,1,180,2|8,3:2|0:0,0:0:0:0:
300,0,76841,1,0,0:0:0:0:
397,133,76991,2,0,P|416:179|392:222,1,90,2|0,3:2|3:0,0:0:0:0:
204,212,77291,2,0,P|185:166|209:123,1,90,10|0,0:0|0:0,0:0:0:0:
476,17,77591,6,0,B|512:14|529:41|529:41|512:161,1,180,2|8,3:2|0:0,0:0:0:0:
501,343,78041,1,8,0:0:0:0:
501,343,78116,1,8,0:0:0:0:
501,343,78191,2,0,L|403:336,1,90,2|0,3:2|3:0,0:0:0:0:
301,186,78491,1,10,0:0:0:0:
188,384,78641,1,0,0:0:0:0:
20,223,78791,6,0,B|51:266|51:266|199:258,1,180,6|8,3:2|0:0,0:0:0:0:
301,186,79241,1,0,0:0:0:0:
131,89,79391,2,0,L|137:182,1,90,2|0,3:2|3:0,0:0:0:0:
313,357,79691,2,0,L|307:264,1,90,10|0,0:0|0:0,0:0:0:0:
402,87,79991,6,0,B|355:69|317:102|330:120|290:163|232:135,1,180,2|8,3:2|0:0,0:0:0:0:
19,54,80441,1,0,0:0:0:0:
95,261,80591,2,0,P|150:274|187:251,1,90,2|0,3:2|3:0,0:0:0:0:
19,54,80891,2,0,L|22:156,1,90,10|0,0:0|0:0,0:0:0:0:
17,362,81191,6,0,L|214:356,1,180,2|8,3:2|0:0,0:0:0:0:
310,176,81641,1,0,0:0:0:0:
512,371,81791,2,0,L|422:373,1,90,2|0,3:2|3:0,0:0:0:0:
263,269,82091,2,0,L|352:267,1,90,10|0,0:0|0:0,0:0:0:0:
475,107,82391,6,0,B|521:142|521:142|503:272,1,180,2|8,3:2|0:0,0:0:0:0:
310,176,82841,1,0,0:0:0:0:
417,32,82991,2,0,P|473:8|504:21,1,90,2|0,3:2|3:0,0:0:0:0:
310,176,83291,1,10,0:0:0:0:
208,0,83441,1,0,0:0:0:0:
40,64,83591,6,0,B|47:132|47:132|27:165|27:165|36:253,1,180,6|8,3:2|0:0,0:0:0:0:
252,255,84041,1,0,0:0:0:0:
131,90,84191,2,0,B|138:158|138:158|118:191|118:191|127:279,1,180,2|8,3:2|0:0,0:0:0:0:
2,380,84641,1,0,0:0:0:0:
185,337,84791,6,0,B|279:315|258:405|359:374,1,180,2|8,3:2|0:0,0:0:0:0:
492,289,85241,1,0,0:0:0:0:
388,135,85391,2,0,L|386:231,1,90,2|0,3:2|3:0,0:0:0:0:
491,379,85691,2,0,L|493:283,1,90,10|0,0:0|0:0,0:0:0:0:
471,89,85991,6,0,P|432:50|313:74,1,180,2|8,3:2|0:0,0:0:0:0:
256,205,86441,1,0,0:0:0:0:
141,4,86591,2,0,P|188:34|199:75,1,90,2|0,3:2|3:0,0:0:0:0:
65,205,86891,2,0,P|67:149|97:119,1,90,10|0,0:0|0:0,0:0:0:0:
239,302,87191,6,0,B|186:300|165:259|165:259|144:305|89:308,1,180,2|8,3:2|0:0,0:0:0:0:
256,205,87641,1,0,0:0:0:0:
87,124,87791,2,0,P|61:160|64:205,1,90,2|0,3:2|3:0,0:0:0:0:
198,64,88091,2,0,P|180:24|141:4,1,90,10|0,0:0|0:0,0:0:0:0:
256,205,88391,6,0,B|324:197|324:197|351:221|351:221|444:213,1,180,6|8,3:2|0:0,0:0:0:0:
493,93,88841,1,0,0:0:0:0:
386,317,88991,2,0,L|490:308,1,90,2|0,3:2|3:0,0:0:0:0:
493,93,89291,2,0,L|389:102,1,90,10|0,0:0|0:0,0:0:0:0:
283,305,89591,6,0,P|235:356|122:331,1,180,6|8,3:2|0:0,0:0:0:0:
7,260,90041,1,0,0:0:0:0:
186,164,90191,2,0,P|204:207|189:253,1,90,2|0,3:2|3:0,0:0:0:0:
7,260,90491,2,0,P|-11:217|4:171,1,90,10|0,0:0|0:0,0:0:0:0:
170,52,90791,6,0,B|217:34|255:67|242:85|282:128|340:100,1,180,6|8,3:2|0:0,0:0:0:0:
426,0,91241,1,0,0:0:0:0:
512,185,91391,2,0,P|524:145|504:99,1,90,2|0,3:2|3:0,0:0:0:0:
329,104,91691,2,0,P|317:144|337:190,1,90,10|0,0:0|0:0,0:0:0:0:
507,287,91991,5,6,3:2:0:0:
372,384,92141,1,8,0:0:0:0:
372,384,92216,1,8,0:0:0:0:
372,384,92291,1,8,0:0:0:0:
273,242,92441,1,8,0:0:0:0:
416,142,92591,5,0,3:0:0:0:
243,370,92741,1,8,0:3:0:0:
192,94,92891,5,0,3:0:0:0:
316,317,93041,1,8,0:3:0:0:
450,50,93191,6,0,B|389:44|389:44|354:71|354:71|273:64,1,161.999995056153,6|10,3:2|0:0,0:0:0:0:
152,0,93641,1,0,0:0:0:0:
49,180,93791,1,10,0:0:0:0:
151,13,93941,1,0,3:0:0:0:
167,234,94091,1,10,0:0:0:0:
83,71,94241,1,0,3:0:0:0:
22,286,94391,6,0,B|63:264|104:300|89:308|127:346|179:317,1,161.999995056153,10|10,0:0|0:0,0:0:0:0:
277,191,94841,1,2,0:0:0:0:
386,371,94991,2,0,P|335:375|370:302,1,161.999995056153,10|10,0:0|0:0,0:0:0:0:
502,339,95441,1,2,3:2:0:0:
496,119,95591,6,0,L|502:222,1,80.9999975280763,14|0,0:0|0:0,0:0:0:0:
360,300,95891,2,0,L|356:220,1,80.9999975280763,10|0,0:0|0:0,0:0:0:0:
344,20,96191,1,10,0:0:0:0:
265,221,96341,1,0,3:0:0:0:
205,9,96491,1,10,0:0:0:0:
413,87,96641,1,0,3:0:0:0:
261,246,96791,6,0,B|204:242|204:242|171:273|171:273|94:270,1,161.999995056153,10|14,0:0|0:0,0:0:0:0:
0,105,97241,2,0,P|34:138|28:197,1,80.9999975280763,2|8,3:2|0:0,0:0:0:0:
84,351,97541,1,0,3:0:0:0:
204,135,97691,1,14,0:0:0:0:
84,364,97841,1,2,3:2:0:0:
0,105,97991,6,0,B|41:127|82:91|67:83|105:45|157:74,1,161.999995056153,14|10,0:0|0:0,0:0:0:0:
272,196,98441,1,0,0:0:0:0:
389,13,98591,1,10,0:0:0:0:
146,69,98741,1,0,3:0:0:0:
366,226,98891,1,10,0:0:0:0:
240,0,99041,1,0,3:0:0:0:
135,262,99191,6,0,B|196:255|196:255|231:279|231:279|309:274,1,161.999995056153,10|10,0:0|0:0,0:0:0:0:
418,378,99641,1,2,0:0:0:0:
512,134,99791,2,0,P|464:168|458:267,1,161.999995056153,10|10,0:0|0:0,0:0:0:0:
469,0,100241,1,2,3:2:0:0:
338,94,100391,6,0,B|303:133|303:133|177:127,1,161.999995056153,14|10,0:0|0:0,0:0:0:0:
113,0,100841,1,0,3:0:0:0:
0,92,100991,2,0,L|4:190,1,80.9999975280763,10|0,0:0|0:0,0:0:0:0:
196,208,101291,2,0,L|192:110,1,80.9999975280763,10|8,0:0|0:3,0:0:0:0:
4,305,101591,6,0,B|71:264|134:313|103:339|176:376|233:339,1,252,6|0,3:2|0:0,0:0:0:0:
481,195,102791,5,8,0:0:0:0:
480,233,102880,1,8,0:0:0:0:
479,271,102970,1,10,0:0:0:0:
478,309,103060,1,8,0:0:0:0:
477,347,103150,6,0,L|372:339,1,90,6|2,3:2|0:0,0:0:0:0:
188,253,103509,2,0,L|292:245,1,90,10|2,0:0|0:0,0:0:0:0:
482,155,103868,2,0,L|377:147,1,90,2|0,3:2|0:0,0:0:0:0:
291,89,104227,1,8,0:0:0:0:
364,249,104407,1,2,0:0:0:0:
212,41,104587,6,0,P|252:2|306:5,1,90,2|2,3:2|0:0,0:0:0:0:
284,190,104946,2,0,P|230:173|206:125,1,90,10|2,0:0|0:0,0:0:0:0:
379,48,105305,2,0,P|391:102|361:146,1,90,2|0,3:2|0:0,0:0:0:0:
285,209,105664,1,8,0:0:0:0:
200,34,105844,1,2,0:0:0:0:
50,142,106024,6,0,L|56:245,1,90,2|2,3:2|0:0,0:0:0:0:
174,315,106383,2,0,L|168:212,1,90,10|2,0:0|0:0,0:0:0:0:
33,136,106742,2,0,L|39:239,1,90,2|0,3:2|0:0,0:0:0:0:
46,363,107102,1,8,0:0:0:0:
167,204,107281,1,2,0:0:0:0:
294,363,107461,6,0,B|354:351|354:351|396:373|396:373|484:358,1,180,2|10,3:2|0:0,0:0:0:0:
512,256,108000,1,0,0:0:0:0:
401,147,108179,2,0,L|419:260,1,90,2|0,3:2|0:0,0:0:0:0:
512,141,108539,1,10,0:0:0:0:
380,20,108718,1,2,0:0:0:0:
263,208,108898,6,0,P|221:226|163:206,1,90,2|2,3:2|0:0,0:0:0:0:
270,39,109257,2,0,P|307:65|318:126,1,90,10|2,0:0|0:0,0:0:0:0:
120,119,109617,2,0,P|124:73|171:33,1,90,2|0,3:2|0:0,0:0:0:0:
330,281,109976,1,8,0:0:0:0:
214,123,110155,1,2,0:0:0:0:
203,339,110335,6,0,P|168:365|117:357,1,90,2|2,3:2|0:0,0:0:0:0:
81,191,110694,2,0,P|121:208|139:256,1,90,10|2,0:0|0:0,0:0:0:0:
13,384,111054,2,0,P|7:340|40:300,1,90,2|0,3:2|0:0,0:0:0:0:
213,207,111413,1,8,0:0:0:0:
124,361,111593,1,2,0:0:0:0:
0,213,111772,6,0,L|0:113,1,90,2|2,3:2|0:0,0:0:0:0:
187,2,112132,2,0,L|187:102,1,90,10|2,0:0|0:0,0:0:0:0:
77,251,112491,2,0,L|77:151,1,90,2|0,3:2|0:0,0:0:0:0:
77,0,112850,1,8,0:0:0:0:
190,180,113030,1,2,0:0:0:0:
296,38,113209,6,0,B|343:20|381:53|368:71|408:114|466:86,1,180,6|14,3:2|0:0,0:0:0:0:
313,122,113748,1,8,0:0:0:0:
313,122,113838,1,8,0:0:0:0:
313,122,113928,2,0,L|318:226,1,90,6|8,3:2|0:0,0:0:0:0:
512,355,114287,1,10,0:0:0:0:
418,182,114467,1,10,0:0:0:0:
289,360,114647,6,0,P|244:377|202:354,1,90,6|2,3:2|0:0,0:0:0:0:
204,223,115006,2,0,P|248:205|290:228,1,90,10|2,0:0|0:0,0:0:0:0:
83,384,115365,2,0,B|46:359|46:359|51:217,1,180,2|8,3:2|0:0,0:0:0:0:
0,106,115904,1,2,0:0:0:0:
90,0,116084,6,0,P|134:-17|176:6,1,90,2|2,3:2|0:0,0:0:0:0:
172,139,116443,2,0,P|127:156|85:132,1,90,10|2,0:0|0:0,0:0:0:0:
264,37,116802,2,0,L|259:231,1,180,2|8,3:2|0:0,0:0:0:0:
218,344,117341,1,2,0:0:0:0:
475,281,117521,6,0,L|377:278,1,90,2|2,3:2|0:0,0:0:0:0:
218,344,117880,2,0,L|315:346,1,90,10|2,0:0|0:0,0:0:0:0:
512,203,118239,2,0,B|387:199|387:199|442:168,1,180,2|8,3:2|0:0,0:0:0:0:
512,62,118778,1,2,0:0:0:0:
353,28,118958,6,0,B|306:10|268:43|281:61|241:104|183:76,1,180,2|10,3:2|0:0,0:0:0:0:
98,0,119497,1,0,0:0:0:0:
0,114,119676,2,0,B|31:146|31:146|22:282,1,180,2|10,3:2|0:0,0:0:0:0:
73,384,120215,1,0,0:0:0:0:
163,225,120395,6,0,P|205:210|250:232,1,90,2|2,3:2|0:0,0:0:0:0:
238,361,120754,2,0,P|196:376|151:354,1,90,10|2,0:0|0:0,0:0:0:0:
335,186,121114,2,0,B|348:248|348:248|326:287|326:287|342:371,1,180,2|8,3:2|0:0,0:0:0:0:
245,226,121652,1,0,0:0:0:0:
430,117,121832,6,0,P|472:102|517:124,1,90,2|2,3:2|0:0,0:0:0:0:
509,259,122191,2,0,P|467:274|422:252,1,90,10|2,0:0|0:0,0:0:0:0:
327,88,122551,2,0,B|263:89|263:89|229:119|229:119|144:122,1,180,2|8,3:2|0:0,0:0:0:0:
54,25,123090,1,2,0:0:0:0:
3,187,123269,6,0,L|11:292,1,90,2|2,3:2|0:0,0:0:0:0:
165,211,123629,2,0,L|157:106,1,90,10|2,0:0|0:0,0:0:0:0:
0,370,123988,2,0,B|47:388|85:355|72:337|112:294|170:322,1,180,2|8,3:2|0:0,0:0:0:0:
285,384,124527,1,2,0:0:0:0:
258,194,124706,6,0,P|214:243|285:225,1,180,6|14,3:2|0:0,0:0:0:0:
238,83,125245,1,8,0:0:0:0:
238,83,125335,1,8,0:0:0:0:
238,83,125425,2,0,L|143:77,1,90,6|8,3:2|0:0,0:0:0:0:
366,0,125784,1,10,0:0:0:0:
512,97,125964,1,10,0:0:0:0:
512,97,126054,1,8,0:0:0:0:
512,97,126144,6,0,B|481:133|481:133|497:248,1,161.999995056153,6|8,3:2|0:0,0:0:0:0:
512,377,126682,1,0,0:0:0:0:
398,224,126862,2,0,P|358:211|311:235,1,80.9999975280763,0|0,3:0|0:0,0:0:0:0:
325,363,127221,2,0,P|365:376|412:352,1,80.9999975280763,10|0,0:0|0:0,0:0:0:0:
220,202,127581,6,0,L|226:301,1,80.9999975280763,2|2,3:2|0:0,0:0:0:0:
231,323,127850,1,2,0:0:0:0:
231,323,127940,1,10,0:0:0:0:
132,218,128120,1,2,0:0:0:0:
1,350,128299,2,0,L|100:344,1,80.9999975280763,2|2,3:2|0:0,0:0:0:0:
132,218,128658,2,0,L|33:224,1,80.9999975280763,10|2,0:0|0:0,0:0:0:0:
0,98,129018,6,0,L|169:87,1,161.999995056153,2|8,3:2|0:0,0:0:0:0:
243,0,129557,1,0,0:0:0:0:
340,66,129736,2,0,P|359:109|349:149,1,80.9999975280763,0|0,3:0|0:0,0:0:0:0:
174,162,130096,2,0,P|155:119|165:79,1,80.9999975280763,8|0,0:0|0:0,0:0:0:0:
263,260,130455,6,0,B|321:250|321:250|357:275|357:275|425:266,1,161.999995056153,0|8,3:0|0:0,0:0:0:0:
509,341,130994,1,2,0:0:0:0:
477,137,131173,2,0,L|491:241,1,80.9999975280763,2|2,3:2|0:0,0:0:0:0:
380,184,131533,1,10,0:0:0:0:
512,59,131712,1,2,0:0:0:0:
335,19,131892,6,0,B|294:-3|253:33|268:41|230:79|178:50,1,161.999995056153,2|8,3:2|0:0,0:0:0:0:
81,0,132431,2,0,B|88:58|88:58|70:89|70:89|80:171,1,161.999995056153,0|2,0:0|0:0,0:0:0:0:
223,226,132970,2,0,L|213:136,1,80.9999975280763,10|2,0:0|0:0,0:0:0:0:
48,252,133329,6,0,L|138:242,1,80.9999975280763,2|2,3:2|0:0,0:0:0:0:
78,156,133688,1,10,0:0:0:0:
19,352,133868,2,0,L|194:332,1,161.999995056153,2|2,0:0|0:0,0:0:0:0:
223,226,134407,1,10,0:0:0:0:
308,384,134587,1,0,0:0:0:0:
427,265,134766,6,0,B|390:303|390:303|263:289,1,161.999995056153,2|8,3:2|0:0,0:0:0:0:
438,182,135305,2,0,P|505:226|488:318,1,161.999995056153,2|0,0:0|0:0,0:0:0:0:
356,210,135844,2,0,P|353:158|374:126,1,80.9999975280763,10|0,0:0|0:0,0:0:0:0:
512,41,136203,6,0,B|470:37|442:80|442:80|419:39|368:35,1,161.999995056153,14|14,0:0|0:0,0:0:0:0:
263,125,136742,1,10,0:0:0:0:
263,125,136832,1,8,0:0:0:0:
263,125,136922,1,14,0:0:0:0:
162,6,137102,1,10,0:0:0:0:
46,80,137281,2,0,P|90:121|72:195,1,121.499996292114,10|0,0:0|0:0,0:0:0:0:
8,210,137641,6,0,B|60:192|99:225|86:243|126:286|186:255,1,188.999994232178,6|0,3:2|0:0,0:0:0:0:
177,259,138279,6,0,P|219:321|337:298,1,188.999994232178,6|0,3:2|0:0,0:0:0:0:
323,312,138917,6,0,P|374:291|418:309,1,101.250003862381,6|0,3:2|0:0,0:0:0:0:
442,330,139236,2,0,L|438:223,1,101.250003862381,6|0,3:2|0:0,0:0:0:0:
505,179,139555,1,10,0:0:0:0:
436,50,139715,1,8,0:0:0:0:
392,77,139794,1,8,0:0:0:0:
342,76,139874,1,10,0:0:0:0:
299,50,139954,1,8,0:0:0:0:
255,23,140034,1,8,0:0:0:0:
205,23,140114,1,8,0:0:0:0:
162,50,140194,6,0,L|167:147,1,94.499997116089,6|0,3:2|0:0,0:0:0:0:
346,170,140513,2,0,L|341:73,1,94.499997116089,10|0,0:0|0:0,0:0:0:0:
147,38,140832,2,0,L|152:135,1,94.499997116089,2|0,3:2|3:0,0:0:0:0:
331,158,141151,2,0,L|326:61,1,94.499997116089,10|0,0:0|0:0,0:0:0:0:
0,172,141470,6,0,B|52:150|98:195|77:201|117:245|176:219,1,188.999994232178,2|8,3:2|0:0,0:0:0:0:
151,132,141949,1,0,0:0:0:0:
14,264,142109,2,0,P|0:308|23:355,1,94.499997116089,2|0,3:2|3:0,0:0:0:0:
169,221,142428,2,0,P|183:177|160:130,1,94.499997116089,10|0,0:0|0:0,0:0:0:0:
18,350,142747,6,0,L|125:350,1,94.499997116089,2|0,3:2|0:0,0:0:0:0:
263,221,143066,2,0,L|156:221,1,94.499997116089,10|0,0:0|0:0,0:0:0:0:
268,353,143385,1,2,3:2:0:0:
373,152,143544,1,2,3:2:0:0:
469,351,143704,1,10,0:0:0:0:
263,221,143864,1,2,0:0:0:0:
451,53,144023,6,0,B|490:89|490:89|466:233,1,188.999994232178,2|8,3:2|0:0,0:0:0:0:
349,348,144502,1,2,0:0:0:0:
214,136,144662,2,0,B|162:118|123:151|136:169|96:212|36:181,1,188.999994232178,2|8,3:2|0:0,0:0:0:0:
154,24,145140,1,0,0:0:0:0:
263,221,145300,6,0,P|278:275|256:316,1,94.499997116089,2|0,3:2|0:0,0:0:0:0:
90,309,145619,2,0,P|74:254|96:214,1,94.499997116089,10|0,0:0|0:0,0:0:0:0:
279,220,145938,2,0,P|294:274|272:314,1,94.499997116089,2|0,3:2|3:0,0:0:0:0:
72,309,146258,2,0,P|56:254|78:214,1,94.499997116089,10|0,0:0|0:0,0:0:0:0:
219,384,146577,6,0,L|419:379,1,188.999994232178,2|8,3:2|0:0,0:0:0:0:
512,287,147055,1,0,0:0:0:0:
353,136,147215,2,0,L|355:254,1,94.499997116089,2|0,3:2|3:0,0:0:0:0:
512,287,147534,2,0,L|510:169,1,94.499997116089,10|0,0:0|0:0,0:0:0:0:
512,7,147853,6,0,P|471:-10|418:15,1,94.499997116089,2|0,3:2|0:0,0:0:0:0:
267,136,148172,2,0,P|308:153|361:128,1,94.499997116089,10|0,0:0|0:0,0:0:0:0:
197,27,148492,1,2,3:2:0:0:
97,186,148651,1,2,3:2:0:0:
0,17,148811,1,10,0:0:0:0:
173,123,148970,1,2,0:0:0:0:
0,282,149130,6,0,B|68:273|68:273|107:306|107:306|185:297,1,188.999994232178,2|8,3:2|0:0,0:0:0:0:
253,166,149609,1,2,0:0:0:0:
270,384,149768,2,0,L|262:272,1,94.499997116089,2|0,3:2|3:0,0:0:0:0:
242,45,150087,1,12,0:0:0:0:
401,274,150247,1,8,0:0:0:0:
485,13,150406,6,0,P|504:60|485:102,1,94.499997116089,6|0,3:2|0:0,0:0:0:0:
314,96,150726,2,0,P|294:48|313:6,1,94.499997116089,10|0,0:0|0:0,0:0:0:0:
508,12,151045,2,0,P|527:59|508:101,1,94.499997116089,2|0,3:2|3:0,0:0:0:0:
289,97,151364,2,0,P|270:50|289:8,1,94.499997116089,10|0,0:0|0:0,0:0:0:0:
512,229,151683,6,0,B|442:220|442:220|404:242|404:242|319:233,1,188.999994232178,2|8,3:2|0:0,0:0:0:0:
145,111,152162,1,0,0:0:0:0:
154,369,152321,2,0,L|256:364,1,94.499997116089,2|0,3:2|3:0,0:0:0:0:
329,234,152640,2,0,L|227:239,1,94.499997116089,10|0,0:0|0:0,0:0:0:0:
46,384,152960,6,0,P|63:338|42:289,1,94.499997116089,2|0,3:2|0:0,0:0:0:0:
3,114,153279,2,0,P|-14:160|7:209,1,94.499997116089,10|0,0:0|0:0,0:0:0:0:
233,142,153598,1,2,3:2:0:0:
25,18,153758,1,2,3:2:0:0:
169,244,153917,1,10,0:0:0:0:
288,11,154077,1,2,0:0:0:0:
88,165,154236,6,0,B|140:147|179:180|166:198|206:241|266:210,1,188.999994232178,2|8,3:2|0:0,0:0:0:0:
394,50,154715,1,2,0:0:0:0:
512,257,154875,2,0,B|508:384|508:384|463:333,1,188.999994232178,2|8,3:2|0:0,0:0:0:0:
358,237,155353,1,0,0:0:0:0:
512,96,155513,6,0,B|481:138|481:138|334:130,1,188.999994232178,2|8,3:2|0:0,0:0:0:0:
260,280,155992,1,0,0:0:0:0:
269,0,156151,2,0,L|265:110,1,94.499997116089,2|0,3:2|3:0,0:0:0:0:
143,223,156470,2,0,L|147:113,1,94.499997116089,10|0,0:0|0:0,0:0:0:0:
0,0,156789,6,0,B|29:28|29:28|21:185,1,188.999994232178,2|8,3:2|0:0,0:0:0:0:
14,374,157268,1,0,0:0:0:0:
143,223,157428,2,0,P|191:207|232:226,1,94.499997116089,2|0,3:2|3:0,0:0:0:0:
227,371,157747,2,0,P|179:387|138:368,1,94.499997116089,10|0,0:0|0:0,0:0:0:0:
292,131,158066,6,0,B|324:92|324:92|318:239,1,188.999994232178,2|10,3:2|0:0,0:0:0:0:
313,366,158545,1,0,0:0:0:0:
497,192,158704,1,2,3:2:0:0:
492,328,158863,1,2,3:2:0:0:
324,93,159023,1,10,0:0:0:0:
318,230,159182,1,2,0:0:0:0:
499,73,159343,6,0,B|430:67|430:67|399:99|399:99|308:92,1,188.999994232178,2|8,3:2|0:0,0:0:0:0:
205,8,159821,1,2,3:2:0:0:
205,8,159901,1,0,3:0:0:0:
205,8,159981,2,0,P|224:49|205:97,1,94.499997116089,14|0,0:0|3:0,0:0:0:0:
10,96,160300,2,0,P|-9:55|10:7,1,94.499997116089,12|0,0:0|0:0,0:0:0:0:
263,176,160619,5,14,0:0:0:0:
21,187,160778,1,0,3:0:0:0:
322,275,160938,5,10,0:0:0:0:
80,286,161098,1,0,3:0:0:0:
208,93,161258,5,10,0:0:0:0:
320,374,161417,1,0,3:0:0:0:
460,118,161577,5,10,0:0:0:0:
180,230,161736,1,0,3:0:0:0:
495,372,161896,6,0,B|449:349|449:349|455:201,1,198.000006042481,10|10,0:0|0:0,0:0:0:0:
467,18,162375,1,0,0:0:0:0:
260,193,162534,2,0,P|312:211|359:183,1,99.0000030212403,10|0,0:0|3:0,0:0:0:0:
353,10,162853,2,0,P|301:-8|254:20,1,99.0000030212403,10|0,0:0|3:0,0:0:0:0:
174,228,163172,5,14,0:0:0:0:
306,77,163332,1,0,3:0:0:0:
113,14,163492,2,0,L|122:138,1,99.0000030212403,10|0,0:0|3:0,0:0:0:0:
65,269,163811,5,10,0:0:0:0:
197,118,163971,1,0,3:0:0:0:
4,55,164131,2,0,L|13:179,1,99.0000030212403,10|0,0:0|3:0,0:0:0:0:
21,343,164449,6,0,P|77:358|118:332,1,99.0000030212403,10|0,0:0|0:0,0:0:0:0:
107,201,164768,2,0,P|51:186|10:212,1,99.0000030212403,10|0,0:0|3:0,0:0:0:0:
188,369,165087,2,0,P|243:386|285:362,1,99.0000030212403,10|0,0:0|0:0,0:0:0:0:
281,149,165406,2,0,P|225:132|183:156,1,99.0000030212403,14|0,0:0|3:0,0:0:0:0:
406,346,165726,5,14,0:0:0:0:
390,105,165885,1,0,3:0:0:0:
493,300,166045,5,10,0:0:0:0:
477,59,166204,1,0,3:0:0:0:
236,238,166364,5,10,0:0:0:0:
512,219,166523,1,0,3:0:0:0:
333,12,166683,5,10,0:0:0:0:
351,288,166842,1,0,3:0:0:0:
477,59,167002,6,0,B|434:37|382:81|403:90|358:131|296:102,1,198.000006042481,10|10,0:0|0:0,0:0:0:0:
205,8,167481,1,0,0:0:0:0:
122,198,167640,2,0,P|165:214|223:185,1,99.0000030212403,10|0,0:0|3:0,0:0:0:0:
205,8,167960,2,0,P|162:-8|104:21,1,99.0000030212403,10|0,0:0|3:0,0:0:0:0:
283,232,168279,5,14,0:0:0:0:
162,74,168438,1,0,3:0:0:0:
12,182,168598,2,0,L|19:287,1,99.0000030212403,10|0,0:0|3:0,0:0:0:0:
261,355,168917,5,14,0:0:0:0:
128,158,169077,1,0,3:0:0:0:
128,158,169156,1,0,3:0:0:0:
128,158,169236,1,10,0:0:0:0:
0,367,169396,1,8,0:3:0:0:
283,232,169555,6,0,P|330:213|390:243,1,99.0000030212403,6|0,3:2|0:0,0:0:0:0:
382,384,169875,2,0,P|342:352|338:285,1,99.0000030212403,2|0,0:0|0:0,0:0:0:0:
466,220,170194,2,0,P|458:270|402:307,1,99.0000030212403,2|8,3:2|0:3,0:0:0:0:
267,225,170513,1,2,3:2:0:0:
487,111,170672,1,8,0:0:0:0:
487,111,170752,1,8,0:0:0:0:
487,111,170832,6,0,B|525:141|525:141|412:134,1,161.999995056153,4|8,3:2|0:0,0:0:0:0:
316,0,171311,1,0,0:0:0:0:
160,51,171470,2,0,L|162:152,1,80.9999975280763,2|0,3:2|3:0,0:0:0:0:
322,225,171789,2,0,L|320:124,1,80.9999975280763,10|0,0:0|0:0,0:0:0:0:
60,22,172108,6,0,P|25:72|62:147,1,121.499996292114,2|0,3:2|0:0,0:0:0:0:
3,233,172428,6,0,P|55:207|117:239,1,121.499996292114,10|0,0:0|0:0,0:0:0:0:
171,307,172747,6,0,P|223:333|285:301,1,121.499996292114,2|0,3:2|0:0,0:0:0:0:
393,321,173066,6,0,P|365:287|384:207,1,121.499996292114,10|0,0:0|0:0,0:0:0:0:
488,178,173385,6,0,B|489:293|489:293|481:269|460:252,1,161.999995056153,2|10,3:2|0:0,0:0:0:0:
297,193,173864,1,0,0:0:0:0:
512,90,174023,2,0,L|411:87,1,80.9999975280763,2|2,3:2|3:2,0:0:0:0:
272,11,174342,2,0,L|373:14,1,80.9999975280763,10|2,0:0|0:0,0:0:0:0:
297,193,174661,6,0,L|300:92,1,80.9999975280763,2|0,3:2|0:0,0:0:0:0:
185,8,174980,2,0,L|182:109,1,80.9999975280763,10|0,0:0|0:0,0:0:0:0:
131,201,175300,1,2,3:2:0:0:
299,112,175459,1,2,3:2:0:0:
99,26,175619,2,0,L|96:127,1,80.9999975280763,10|0,0:0|0:0,0:0:0:0:
0,252,175938,6,0,B|34:227|82:259|67:269|106:312|158:277,1,161.999995056153,6|8,3:2|0:0,0:0:0:0:
226,167,176417,1,0,0:0:0:0:
323,290,176577,2,0,P|335:331|308:380,1,80.9999975280763,2|0,3:2|3:0,0:0:0:0:
147,359,176896,2,0,P|134:317|161:268,1,80.9999975280763,10|0,0:0|0:0,0:0:0:0:
403,121,177215,6,0,B|456:92|456:92|516:124,1,121.499996292114,2|0,3:2|0:0,0:0:0:0:
512,234,177534,6,0,B|459:263|459:263|399:231,1,121.499996292114,10|0,0:0|0:0,0:0:0:0:
326,177,177853,6,0,B|273:148|273:148|213:180,1,121.499996292114,2|0,3:2|0:0,0:0:0:0:
217,290,178172,6,0,B|270:319|270:319|330:287,1,121.499996292114,10|0,0:0|0:0,0:0:0:0:
403,121,178491,5,2,3:2:0:0:
323,290,178651,1,2,0:0:0:0:
278,43,178811,5,10,0:0:0:0:
247,16,178890,1,8,0:0:0:0:
208,7,178970,1,10,0:0:0:0:
169,16,179050,1,8,0:0:0:0:
139,42,179130,5,10,0:0:0:0:
108,68,179209,1,8,0:0:0:0:
69,77,179289,1,8,0:0:0:0:
30,68,179369,1,8,0:0:0:0:
0,42,179449,6,0,L|4:105,1,40.4999987640381,2|0,3:2|3:0,0:0:0:0:
208,140,179609,2,0,L|204:77,1,40.4999987640381,0|0,3:0|3:0,0:0:0:0:
0,222,179768,6,0,P|60:188|135:233,1,141.749995674133,6|0,3:2|0:0,0:0:0:0:
134,381,180087,6,0,P|74:346|76:258,1,141.749995674133,6|0,3:2|0:0,0:0:0:0:
199,300,180406,6,0,L|138:299,7,40.4999987640381,6|2|2|2|2|2|2|2,3:2|0:3|0:3|0:3|0:3|0:3|0:3|0:3,0:0:0:0:
229,289,181045,6,0,B|299:244|364:313|331:317|402:398|477:331,1,270,6|2,3:2|0:0,0:0:0:0:
450,166,182448,6,0,B|407:120|407:120|422:273,1,216,2|2,0:0|0:0,0:0:0:0:
399,31,183852,6,0,B|328:37|311:117|311:117|274:38|184:53,1,270,2|2,0:0|0:0,0:0:0:0:
70,17,185255,6,0,P|123:67|108:156,2,161.999995056153,2|2|2,0:0|0:0|0:0,0:0:0:0:
7,242,186659,6,0,B|74:199|144:270|102:273|176:358|252:296,1,270,2|2,0:0|0:0,0:0:0:0:
431,269,188062,6,0,P|370:255|437:342,1,270,2|2,0:0|0:0,0:0:0:0:
512,208,189466,6,0,P|530:151|508:107,1,107.999996704102,2|0,0:0|0:0,0:0:0:0:
430,47,190167,2,0,L|376:47,2,53.9999983520508,2|2|2,0:0|0:0|0:0,0:0:0:0:
287,126,190869,6,0,B|223:164|152:97|194:94|120:9|44:71,1,270.000010299683,2|0,0:0|0:0,0:0:0:0:
7,163,193676,6,0,L|10:270,1,90,6|0,3:2|0:0,0:0:0:0:
131,384,194027,2,0,L|129:295,1,90,8|0,0:0|0:0,0:0:0:0:
122,131,194378,1,2,3:2:0:0:
242,327,194553,1,2,3:2:0:0:
15,336,194729,1,10,0:0:0:0:
46,88,194904,6,0,B|114:77|114:77|155:104|155:104|244:89,1,180,6|0,3:2|3:0,0:0:0:0:
377,19,195430,2,0,P|333:4|284:31,1,90,10|0,0:0|0:0,0:0:0:0:
256,229,195781,1,2,3:2:0:0:
173,0,195957,1,2,3:2:0:0:
342,156,196132,1,10,0:0:0:0:
125,232,196308,1,0,0:0:0:0:
295,20,196483,6,0,P|336:4|377:19,1,90,2|0,3:2|0:0,0:0:0:0:
384,226,196834,2,0,P|349:198|342:155,1,90,10|0,0:0|0:0,0:0:0:0:
512,50,197185,2,0,P|505:93|471:121,1,90,2|0,3:2|0:0,0:0:0:0:
256,229,197536,1,10,0:0:0:0:
376,30,197711,1,0,0:0:0:0:
499,219,197887,6,0,B|491:345|491:345|464:295,1,180,2|10,3:2|0:0,0:0:0:0:
381,172,198413,1,0,0:0:0:0:
300,361,198588,2,0,P|354:378|388:358,1,90,2|0,3:2|3:0,0:0:0:0:
381,172,198939,2,0,P|327:155|293:175,1,90,10|0,0:0|0:0,0:0:0:0:
182,382,199290,6,0,L|182:280,1,90,6|0,3:2|0:0,0:0:0:0:
299,168,199641,2,0,L|299:270,1,90,10|0,0:0|0:0,0:0:0:0:
60,357,199991,1,2,3:2:0:0:
183,158,200167,1,2,3:2:0:0:
300,361,200342,1,10,0:0:0:0:
196,74,200518,6,0,B|149:56|111:89|124:107|84:150|26:122,1,180,6|0,3:2|3:2,0:0:0:0:
263,0,201044,2,0,P|296:38|294:93,1,90,10|0,0:0|0:0,0:0:0:0:
183,158,201395,1,2,3:2:0:0:
49,17,201571,1,2,3:2:0:0:
88,235,201746,1,10,0:0:0:0:
196,74,201922,1,0,0:0:0:0:
206,312,202097,6,0,B|146:304|146:304|109:326|109:326|21:319,1,180,2|8,3:2|0:0,0:0:0:0:
183,158,202623,1,0,0:0:0:0:
269,370,202799,1,2,3:2:0:0:
78,228,202974,1,2,0:0:0:0:
300,137,203150,2,0,L|289:247,1,90,10|0,0:0|0:0,0:0:0:0:
423,377,203501,5,2,3:2:0:0:
206,312,203676,1,8,0:0:0:0:
478,206,203852,2,0,L|489:316,1,99.0000030212403,10|8,0:0|0:3,0:0:0:0:
291,226,204202,5,2,3:2:0:0:
508,116,204378,1,0,3:0:0:0:
299,14,204553,1,10,0:0:0:0:
262,47,204640,1,8,0:0:0:0:
216,64,204728,1,8,0:0:0:0:
167,62,204816,1,8,0:0:0:0:
122,42,204904,6,0,B|81:15|81:15|99:143,1,161.999995056153,6|0,3:2|3:0,0:0:0:0:
28,247,205430,2,0,B|-13:274|-13:274|4:146,1,161.999995056153,12|0,0:0|0:0,0:0:0:0:
169,226,205957,1,10,0:0:0:0:
17,358,206132,1,8,0:3:0:0:
178,137,206308,6,0,P|241:168|242:271,1,161.999995056153,6|2,3:2|3:2,0:0:0:0:
107,349,206834,2,0,P|102:278|191:226,1,161.999995056153,12|0,0:0|0:0,0:0:0:0:
360,353,207360,1,10,0:0:0:0:
180,307,207536,1,8,0:3:0:0:
354,154,207711,6,0,B|417:147|417:147|451:166|451:166|533:159,1,161.999995056153,6|0,3:2|3:0,0:0:0:0:
333,254,208237,2,0,B|396:247|396:247|430:266|430:266|512:259,1,161.999995056153,12|0,0:0|0:0,0:0:0:0:
449,36,208764,1,10,0:0:0:0:
408,40,208851,1,8,0:0:0:0:
368,44,208939,1,8,0:3:0:0:
328,48,209027,1,8,0:3:0:0:
287,52,209115,6,0,P|223:19|140:69,1,161.999995056153,6|2,3:2|3:2,0:0:0:0:
155,228,209641,2,0,P|215:189|213:92,1,161.999995056153,12|0,0:0|0:0,0:0:0:0:
4,114,210167,1,10,0:0:0:0:
8,164,210254,1,8,0:0:0:0:
12,214,210342,1,8,0:0:0:0:
17,265,210430,1,8,0:0:0:0:
21,315,210518,6,0,B|88:308|88:308|121:334|121:334|211:324,1,180,6|8,3:2|0:0,0:0:0:0:
298,379,211044,1,0,0:0:0:0:
423,197,211220,2,0,L|433:303,1,90,2|0,3:2|3:0,0:0:0:0:
298,379,211571,2,0,L|288:273,1,90,10|0,0:0|0:0,0:0:0:0:
496,146,211922,6,0,L|515:351,1,180,2|10,3:2|0:0,0:0:0:0:
289,289,212448,1,0,0:0:0:0:
496,146,212623,1,2,3:2:0:0:
270,54,212799,1,0,3:0:0:0:
431,286,212974,1,10,0:0:0:0:
510,9,213150,1,0,0:0:0:0:
242,155,213325,6,0,B|117:144|117:144|183:115,1,180,6|8,3:2|0:0,0:0:0:0:
43,224,213852,2,0,P|1:150|46:72,1,180,6|0,3:2|3:0,0:0:0:0:
249,247,214378,2,0,L|150:239,1,90,14|0,0:0|0:0,0:0:0:0:
137,28,214729,6,0,B|202:31|202:31|231:62|231:62|311:66,1,180,6|0,3:2|3:0,0:0:0:0:
446,7,215255,1,2,3:2:0:0:
446,7,215343,1,0,3:0:0:0:
446,7,215430,5,8,0:0:0:0:
414,38,215517,1,8,0:0:0:0:
401,80,215605,1,8,0:0:0:0:
412,123,215693,1,8,0:0:0:0:
443,155,215780,1,10,0:0:0:0:
474,186,215869,1,8,0:0:0:0:
487,228,215957,1,8,0:0:0:0:
476,271,216045,1,8,0:0:0:0:
445,303,216132,6,0,P|386:274|314:310,1,144,2|2,3:2|0:0,0:0:0:0:
116,355,216834,2,0,P|175:384|247:348,1,144,2|2,0:0|0:0,0:0:0:0:
56,214,217536,6,0,B|21:189|21:189|34:302,1,144,2|2,0:0|0:0,0:0:0:0:
199,157,218237,2,0,B|234:132|234:132|221:245,1,144,2|2,0:0|0:0,0:0:0:0:
18,78,218939,6,0,B|66:118|138:71|110:49|172:-4|232:40,1,233.999989288331,2|2,0:0|0:0,0:0:0:0:
318,138,219992,1,2,0:0:0:0:
477,44,220343,1,2,0:0:0:0:
477,44,221044,6,0,B|429:4|429:4|444:146,1,188.999994232178,2|0,3:2|0:0,0:0:0:0:
512,207,221771,6,0,B|479:181|418:210|446:225|393:271|336:228,1,180,6|10,3:2|0:0,0:0:0:0:
313,56,222316,2,0,P|351:80|361:133,1,90,2|0,0:0|3:0,0:0:0:0:
216,224,222680,2,0,P|218:178|258:143,1,90,2|8,0:0|0:0,0:0:0:0:
339,341,223043,6,0,B|274:337|274:337|244:363|244:363|157:361,1,180,2|2,0:0|0:0,0:0:0:0:
0,355,223589,1,10,0:0:0:0:
93,193,223771,2,0,B|135:152|135:152|126:285,1,180,2|2,0:0|0:0,0:0:0:0:
0,169,224316,1,10,0:0:0:0:
139,56,224498,1,10,0:0:0:0:
139,56,224589,1,8,0:0:0:0:
139,56,224680,6,0,B|172:30|233:59|205:74|258:120|315:77,1,180,0|10,3:2|0:0,0:0:0:0:
433,2,225225,2,0,P|390:53|420:171,1,180,2|2,0:0|0:0,0:0:0:0:
511,98,225770,1,10,0:0:0:0:
302,84,225952,6,0,B|258:120|205:74|233:59|172:30|139:56,1,180,2|2,0:0|0:0,0:0:0:0:
98,215,226498,1,10,0:0:0:0:
30,30,226680,2,0,B|-15:-7|-15:-7|1:126,1,180,2|2,0:0|0:0,0:0:0:0:
34,281,227225,1,10,0:0:0:0:
161,142,227407,1,10,0:0:0:0:
309,329,227589,6,0,B|285:363|285:363|135:361,1,180,6|10,3:2|0:0,0:0:0:0:
357,233,228134,2,0,P|406:270|409:311,1,90,2|0,0:0|3:0,0:0:0:0:
245,245,228498,2,0,P|252:184|286:160,1,90,2|8,0:0|0:0,0:0:0:0:
512,81,228861,6,0,B|447:75|447:75|413:103|413:103|327:97,1,180,2|2,0:0|0:0,0:0:0:0:
224,26,229407,1,10,0:0:0:0:
119,208,229589,1,2,0:0:0:0:
65,2,229770,1,0,3:0:0:0:
65,2,229861,1,0,3:0:0:0:
65,2,229952,1,2,3:2:0:0:
245,118,230134,1,10,0:0:0:0:
0,181,230316,6,0,B|-10:59|-10:59|34:102,1,180,2|2,0:0|0:0,0:0:0:0:
119,208,230861,1,10,0:0:0:0:
0,325,231043,2,0,B|44:289|97:335|69:350|130:379|163:353,1,180,2|2,0:0|3:2,0:0:0:0:
220,292,231498,1,0,3:0:0:0:
220,292,231589,1,10,0:0:0:0:
331,384,231770,1,2,0:0:0:0:
341,196,231952,6,0,B|295:162|295:162|315:299,1,180,4|14,3:2|0:0,0:0:0:0:
451,149,232498,1,8,0:0:0:0:
451,149,232589,1,8,0:0:0:0:
451,149,232680,1,4,3:2:0:0:
312,283,232861,1,10,0:0:0:0:
512,324,233043,1,10,0:0:0:0:
262,192,233225,1,10,0:0:0:0:
481,57,233407,6,0,B|416:52|416:52|385:78|385:78|306:73,1,180,6|10,3:2|0:0,0:0:0:0:
163,17,233952,2,0,P|179:60|161:103,1,90,2|0,0:0|3:0,0:0:0:0:
6,105,234316,2,0,P|-11:61|7:18,1,90,2|8,0:0|0:0,0:0:0:0:
185,203,234680,6,0,B|152:177|91:206|119:221|66:267|9:224,1,180,2|2,0:0|0:0,0:0:0:0:
88,67,235225,1,10,0:0:0:0:
157,303,235407,2,0,B|190:277|251:306|223:321|276:367|333:324,1,180,2|2,0:0|0:0,0:0:0:0:
502,384,235952,1,10,0:0:0:0:
495,202,236134,1,10,0:0:0:0:
495,202,236225,1,8,0:0:0:0:
495,202,236316,6,0,L|500:313,2,90,0|2|10,3:2|0:0|0:0,0:0:0:0:
512,47,236861,2,0,B|471:20|427:52|442:56|390:105|337:64,1,180,2|2,0:0|0:0,0:0:0:0:
231,0,237407,1,10,0:0:0:0:
112,108,237589,6,0,L|124:317,1,198.000006042481,2|2,0:0|0:0,0:0:0:0:
22,159,238134,2,0,L|28:261,1,99.0000030212403,10|8,0:0|0:0,0:0:0:0:
35,348,238407,1,8,0:0:0:0:
35,348,238498,1,0,3:0:0:0:
219,250,238680,1,2,0:0:0:0:
22,159,238861,1,10,0:0:0:0:
131,384,239043,1,10,0:0:0:0:
294,208,239225,6,0,B|256:178|256:178|269:328,1,180,6|10,3:2|0:0,0:0:0:0:
478,130,239770,2,0,P|441:114|393:133,1,90,2|0,0:0|3:0,0:0:0:0:
402,289,240134,2,0,P|439:305|487:286,1,90,2|8,0:0|0:0,0:0:0:0:
363,51,240498,6,0,B|297:46|297:46|262:73|262:73|178:69,1,180,2|2,0:0|0:0,0:0:0:0:
87,0,241043,1,10,0:0:0:0:
0,131,241225,2,0,L|9:238,1,90,2|0,0:0|3:0,0:0:0:0:
24,374,241589,1,2,0:0:0:0:
144,173,241770,1,10,0:0:0:0:
353,346,241952,6,0,B|288:339|288:339|253:370|253:370|181:364,1,180,2|2,0:0|0:0,0:0:0:0:
50,289,242498,1,10,0:0:0:0:
254,165,242680,2,0,B|299:127|299:127|287:254,1,180,2|2,0:0|0:0,0:0:0:0:
149,79,243225,1,10,0:0:0:0:
384,136,243407,1,10,0:0:0:0:
384,136,243498,1,8,0:0:0:0:
384,136,243589,6,0,L|375:225,1,90,4|2,3:2|0:0,0:0:0:0:
504,358,243952,1,14,0:0:0:0:
287,247,244134,1,0,0:0:0:0:
499,133,244316,1,4,3:2:0:0:
369,359,244498,1,10,0:0:0:0:
308,87,244680,1,10,0:0:0:0:
504,263,244861,1,2,3:2:0:0:
483,276,247225,6,0,P|440:254|376:284,1,108,0|0,3:2|3:0,0:0:0:0:
329,361,247589,2,0,L|329:307,1,36,8|8,0:0|0:0,0:0:0:0:
323,369,247770,2,0,L|323:315,1,36,8|8,0:0|0:0,0:0:0:0:
320,192,247952,6,0,B|260:188|260:188|228:212|228:212|139:207,1,161.999995056153,6|10,3:2|0:0,0:0:0:0:
27,134,248498,2,0,P|55:122|104:139,1,80.9999975280763,2|0,0:0|3:0,0:0:0:0:
103,295,248861,2,0,P|78:276|68:225,1,80.9999975280763,2|8,0:0|0:0,0:0:0:0:
111,48,249225,6,0,B|151:21|197:58|184:63|220:103|267:69,1,161.999995056153,2|2,0:0|3:2,0:0:0:0:
321,16,249680,1,0,3:0:0:0:
321,16,249770,1,10,0:0:0:0:
459,79,249952,2,0,L|458:180,1,80.9999975280763,2|0,0:0|3:0,0:0:0:0:
358,182,250316,2,0,L|359:81,1,80.9999975280763,2|8,0:0|0:0,0:0:0:0:
509,251,250680,1,8,0:0:0:0:
509,251,250770,1,8,0:0:0:0:
509,251,250861,6,0,L|427:249,1,80.9999975280763,0|2,3:0|0:0,0:0:0:0:
360,350,251134,1,2,0:0:0:0:
360,350,251225,2,0,L|442:352,1,80.9999975280763,10|2,0:0|0:0,0:0:0:0:
357,182,251589,1,2,3:2:0:0:
440,351,251770,1,2,0:0:0:0:
350,172,251952,1,8,0:0:0:0:
257,351,252134,6,0,B|217:378|171:341|184:336|148:296|101:330,1,161.999995056153,2|2,0:0|0:0,0:0:0:0:
45,381,252589,1,2,0:0:0:0:
45,381,252680,1,10,0:0:0:0:
22,230,252861,1,10,0:0:0:0:
22,230,252952,1,8,0:0:0:0:
22,230,253043,2,0,L|29:299,1,40.4999987640381,2|0,3:2|3:0,0:0:0:0:
170,198,253225,2,0,L|163:267,1,40.4999987640381,2|0,3:2|3:0,0:0:0:0:
2,127,253407,1,10,0:0:0:0:
165,57,253589,1,8,0:0:0:0:
165,57,253680,1,8,0:0:0:0:
165,57,253770,6,0,B|205:30|251:67|238:72|274:112|321:78,1,161.999995056153,6|10,3:2|0:0,0:0:0:0:
472,15,254316,2,0,P|411:57|422:142,1,161.999995056153,2|2,0:0|0:0,0:0:0:0:
508,252,254861,1,10,0:0:0:0:
508,252,254952,1,2,0:0:0:0:
508,252,255043,6,0,B|447:246|447:246|415:271|415:271|338:263,1,161.999995056153,2|2,0:0|0:0,0:0:0:0:
270,324,255589,1,10,0:0:0:0:
279,128,255770,2,0,L|276:220,1,80.9999975280763,2|0,0:0|3:0,0:0:0:0:
270,324,256134,1,2,0:0:0:0:
167,260,256316,1,8,0:0:0:0:
132,239,256406,1,8,0:0:0:0:
92,235,256497,1,8,0:0:0:0:
54,248,256588,1,8,0:0:0:0:
26,277,256680,6,0,L|25:186,1,80.9999975280763,0|2,3:0|0:0,0:0:0:0:
0,95,257043,2,0,L|91:93,1,80.9999975280763,10|2,0:0|0:0,0:0:0:0:
286,14,257407,2,0,L|285:71,1,40.4999987640381,2|0,3:2|3:0,0:0:0:0:
195,170,257589,2,0,L|196:113,1,40.4999987640381,2|0,3:2|3:0,0:0:0:0:
136,6,257770,1,10,0:0:0:0:
314,154,257952,6,0,B|377:150|377:150|408:172|408:172|472:169,1,161.999995056153,6|10,3:2|0:0,0:0:0:0:
438,86,258407,1,8,0:0:0:0:
438,86,258498,1,2,3:2:0:0:
291,256,258680,2,0,L|379:251,1,80.9999975280763,6|0,3:2|0:0,0:0:0:0:
471,331,259043,5,14,0:0:0:0:
314,154,259225,1,14,0:0:0:0:
228,384,259407,1,14,0:0:0:0:
256,192,259589,12,0,262492,0:0:0:0:
256,192,265637,12,0,272169,0:0:0:0:
467,349,272653,5,2,0:0:0:0:
505,273,273137,6,0,B|456:234|386:277|408:301|350:361|282:306,1,233.999989288331,2|0,0:0|0:0,0:0:0:0:
329,181,274346,2,0,L|331:251,2,58.4999973220826,2|2|2,0:0|0:0|3:2,0:0:0:0:
403,91,275072,6,0,P|363:56|250:92,1,175.499991966248,2|0,3:2|0:0,0:0:0:0:
190,150,276040,2,0,P|225:110|189:-3,1,175.499991966248,2|0,0:0|0:0,0:0:0:0:
20,77,277007,6,0,B|145:75|145:75|98:46,1,175.499991966248,2|0,3:2|0:0,0:0:0:0:
13,168,277975,2,0,B|-29:233|21:289|21:289|23:262|41:242,1,175.499991966248,2|0,0:0|3:0,0:0:0:0:
198,330,278943,6,0,P|122:350|177:265,1,233.999989288331,2|2,3:2|0:0,0:0:0:0:
399,359,280395,5,2,3:2:0:0:
487,322,280637,1,8,0:3:0:0:
487,322,280757,1,8,0:3:0:0:
487,322,280878,6,0,P|443:270|461:194,1,135.000005149842,0|0,3:0|3:0,0:0:0:0:
510,137,281604,1,0,0:0:0:0:
460,60,281846,1,0,3:0:0:0:
460,60,282088,2,0,L|382:60,2,67.5000025749208,2|2|2,0:0|3:2|0:0,0:0:0:0:
323,0,282814,6,0,B|292:30|292:30|307:133,1,135.000005149842,2|0,3:2|3:0,0:0:0:0:
250,194,283540,1,2,0:0:0:0:
332,276,283782,2,0,L|193:286,1,135.000005149842,2|0,3:2|3:0,0:0:0:0:
131,348,284507,1,0,0:0:0:0:
28,296,284749,6,0,B|23:242|23:242|37:216|37:216|32:157,1,135.000005149842,2|2,3:2|3:2,0:0:0:0:
20,74,285475,1,0,0:0:0:0:
120,130,285717,2,0,L|202:125,1,67.5000025749208,2|0,3:2|0:0,0:0:0:0:
216,39,286201,2,0,L|134:44,1,67.5000025749208,2|0,3:2|0:0,0:0:0:0:
259,183,286685,5,0,3:0:0:0:
359,19,286927,1,2,3:2:0:0:
454,190,287169,1,2,3:2:0:0:
280,89,287411,1,2,3:2:0:0:
493,107,287653,6,0,B|540:167|489:233|477:215|428:282|483:342,1,252,2|0,0:0|0:0,0:0:0:0:
479,338,288620,6,0,B|411:331|411:331|380:363|380:363|310:356,1,180,6|10,3:2|0:0,0:0:0:0:
214,227,289346,1,2,0:0:0:0:
130,381,289588,1,2,3:2:0:0:
343,277,289830,1,2,3:2:0:0:
163,150,290072,1,10,0:0:0:0:
221,345,290314,1,2,0:0:0:0:
302,174,290556,6,0,P|346:158|392:179,1,90,2|2,3:2|0:0,0:0:0:0:
485,308,291040,2,0,P|449:277|444:227,1,90,10|2,0:0|0:0,0:0:0:0:
435,82,291524,2,0,B|484:41|484:41|468:164,1,180,2|8,3:2|0:0,0:0:0:0:
343,277,292249,1,2,0:0:0:0:
238,110,292491,6,0,B|172:105|172:105|141:133|141:133|51:127,1,180,2|10,3:2|0:0,0:0:0:0:
104,42,293217,1,2,0:0:0:0:
216,207,293459,1,2,3:2:0:0:
19,228,293701,1,2,3:2:0:0:
234,107,293943,1,10,0:0:0:0:
246,336,294185,1,10,0:0:0:0:
246,336,294306,1,8,0:0:0:0:
246,336,294427,5,2,3:2:0:0:
163,143,294669,1,2,0:0:0:0:
68,380,294911,1,10,0:0:0:0:
216,207,295153,1,2,0:0:0:0:
380,359,295395,2,0,B|443:408|506:350|506:350|477:357|459:342,1,180,2|8,3:2|0:0,0:0:0:0:
447,180,296120,1,8,0:0:0:0:
447,180,296241,1,8,0:0:0:0:
447,180,296362,6,0,B|492:141|492:141|484:269,1,180,6|10,3:2|0:0,0:0:0:0:
380,359,297088,1,0,0:0:0:0:
320,168,297330,1,2,3:2:0:0:
484,261,297572,1,2,3:2:0:0:
265,362,297814,1,10,0:0:0:0:
467,261,298056,1,2,0:0:0:0:
258,111,298298,6,0,P|233:161|246:201,1,90,2|2,3:2|0:0,0:0:0:0:
366,319,298782,2,0,P|335:272|294:263,1,90,10|2,0:0|0:0,0:0:0:0:
45,264,299266,2,0,B|114:258|114:258|151:289|151:289|224:283,1,180,2|8,3:2|0:0,0:0:0:0:
80,349,299991,1,2,0:0:0:0:
0,184,300233,6,0,B|-9:59|-9:59|36:98,1,180,2|10,3:2|0:0,0:0:0:0:
113,178,300959,1,2,0:0:0:0:
209,17,301201,1,2,3:2:0:0:
32,94,301443,1,2,3:2:0:0:
227,190,301685,1,10,0:0:0:0:
100,10,301927,1,2,0:0:0:0:
45,264,302169,5,2,3:2:0:0:
229,106,302411,1,2,0:0:0:0:
272,346,302653,1,14,0:0:0:0:
117,158,302895,1,2,0:0:0:0:
376,203,303136,1,2,3:2:0:0:
168,358,303378,1,2,3:2:0:0:
320,115,303620,1,14,0:0:0:0:
464,351,303862,1,8,0:0:0:0:
464,351,303983,1,8,0:0:0:0:
464,351,304104,6,0,L|350:352,1,99.0000030212403,6|2,3:2|0:0,0:0:0:0:
320,115,304588,2,0,L|434:114,1,99.0000030212403,10|2,0:0|0:0,0:0:0:0:
365,351,305072,1,2,3:2:0:0:
245,154,305314,1,2,3:2:0:0:
245,154,305435,1,0,3:0:0:0:
245,154,305556,1,10,0:0:0:0:
120,361,305798,1,2,0:0:0:0:
368,213,306040,5,2,3:2:0:0:
136,87,306282,1,2,0:0:0:0:
282,322,306524,1,10,0:0:0:0:
399,77,306766,1,2,0:0:0:0:
191,273,307007,2,0,B|143:242|90:276|103:291|44:346|-7:289,1,198.000006042481,2|8,3:2|0:0,0:0:0:0:
0,67,307733,1,10,0:0:0:0:
0,67,307854,1,8,0:0:0:0:
0,67,307975,6,0,L|0:182,1,99.0000030212403,2|2,3:2|0:0,0:0:0:0:
191,273,308459,2,0,L|191:158,1,99.0000030212403,10|2,0:0|0:0,0:0:0:0:
189,2,308943,1,2,3:2:0:0:
323,249,309185,1,2,3:2:0:0:
323,249,309306,1,0,3:0:0:0:
323,249,309427,1,10,0:0:0:0:
462,3,309669,1,0,0:0:0:0:
145,115,309911,6,0,P|190:97|249:128,1,99.0000030212403,2|0,3:2|0:0,0:0:0:0:
371,326,310395,2,0,P|332:296|330:229,1,99.0000030212403,10|0,0:0|0:0,0:0:0:0:
487,75,310878,2,0,B|529:120|529:120|377:118,1,198.000006042481,2|8,3:2|0:0,0:0:0:0:
330,53,311483,1,8,0:0:0:0:
330,53,311604,1,8,0:0:0:0:
192,172,311846,6,0,L|195:284,1,99.0000030212403,6|0,3:2|0:0,0:0:0:0:
471,343,312330,2,0,L|468:231,1,99.0000030212403,10|0,0:0|0:0,0:0:0:0:
204,371,312814,1,2,3:2:0:0:
204,371,312935,1,2,0:0:0:0:
204,371,313056,1,2,3:2:0:0:
311,127,313298,1,10,0:0:0:0:
471,343,313540,1,2,0:0:0:0:
193,172,313782,5,2,3:2:0:0:
438,81,314024,1,2,0:0:0:0:
438,81,314145,1,2,0:0:0:0:
438,81,314266,1,10,0:0:0:0:
319,330,314507,1,2,0:0:0:0:
319,330,314628,1,2,0:0:0:0:
319,330,314749,1,2,3:2:0:0:
161,91,314991,1,2,3:2:0:0:
161,91,315112,1,2,0:0:0:0:
161,91,315233,1,10,0:0:0:0:
384,210,315475,1,2,0:0:0:0:
153,334,315717,6,0,P|99:350|61:330,1,99.0000030212403,2|2,3:2|0:0,0:0:0:0:
67,194,316201,2,0,P|120:177|158:197,1,99.0000030212403,10|2,0:0|0:0,0:0:0:0:
251,383,316685,1,2,3:2:0:0:
112,268,316927,1,2,3:2:0:0:
310,174,317169,1,10,0:0:0:0:
112,268,317411,1,2,0:0:0:0:
355,374,317653,5,2,3:2:0:0:
234,136,317895,1,2,0:0:0:0:
475,248,318136,1,10,0:0:0:0:
251,383,318378,1,2,0:0:0:0:
370,91,318620,5,2,3:2:0:0:
508,345,318862,1,2,3:2:0:0:
368,76,319104,1,10,0:0:0:0:
253,366,319346,1,10,0:0:0:0:
341,291,319588,6,0,L|414:297,2,67.5000025749208,2|2|2,0:0|0:0|0:0,0:0:0:0:
260,226,320314,2,0,B|210:201|164:240|180:253|130:304|70:264,1,202.500007724762,2|0,0:0|0:0,0:0:0:0:
20,136,321282,1,2,0:0:0:0:
20,136,321524,6,0,L|20:207,2,67.5000025749208,2|2|2,0:0|0:0|0:0,0:0:0:0:
20,44,322249,2,0,B|73:38|103:90|103:90|130:30|195:40,1,202.500007724762,2|0,0:0|0:0,0:0:0:0:
464,44,326846,5,2,0:0:0:0:
464,44,327121,1,2,0:0:0:0:
403,116,327396,6,0,B|430:145|430:145|419:249,1,135.000005149842,2|2,0:0|0:0,0:0:0:0:
402,336,328214,1,2,0:0:0:0:
402,336,328486,2,0,P|354:299|279:316,1,135.000005149842,2|2,0:0|0:0,0:0:0:0:
221,382,329305,1,2,0:0:0:0:
122,312,329577,6,0,L|123:243,1,67.5000025749208,2|2,0:0|0:3,0:0:0:0:
34,213,330127,2,0,L|33:282,1,67.5000025749208,2|2,0:0|0:3,0:0:0:0:
124,149,330677,1,2,0:0:0:0:
44,47,331228,1,2,0:0:0:0:
199,53,331778,6,0,B|246:50|246:50|275:70|275:70|328:68,1,135.000005149842,2|2,0:0|0:0,0:0:0:0:
403,11,332596,1,2,0:3:0:0:
475,74,332868,2,0,P|437:113|447:197,1,135.000005149842,2|2,0:0|0:0,0:0:0:0:
493,268,333687,1,2,0:3:0:0:
392,335,333959,6,0,B|351:302|295:337|311:349|259:401|200:351,1,202.500007724762,2|2,0:0|0:0,0:0:0:0:
247,249,335020,1,2,0:3:0:0:
247,249,335286,2,0,L|247:293,2,33.7500012874604,2|2|2,0:3|0:3|0:3,0:0:0:0:
308,177,335817,1,2,0:0:0:0:
243,92,336082,6,0,L|168:92,1,67.5000025749208,2|2,0:0|0:0,0:0:0:0:
127,13,336463,1,0,0:0:0:0:
127,13,336590,2,0,L|202:13,1,67.5000025749208,2|2,0:0|0:0,0:0:0:0:
113,159,337098,1,2,0:0:0:0:
33,91,337353,1,2,0:0:0:0:
14,195,337607,2,0,L|21:266,1,67.5000025749208,2|2,0:0|0:3,0:0:0:0:
91,341,338115,6,0,B|143:334|143:334|171:350|171:350|229:343,1,135.000005149842,2|2,0:0|0:0,0:0:0:0:
299,295,338878,2,0,B|359:321|359:321|426:293,1,135.000005149842,2|2,0:0|0:0,0:0:0:0:
512,261,339641,1,2,0:3:0:0:
512,261,339895,1,2,0:0:0:0:
445,132,340149,6,0,L|447:202,2,67.5000025749208,2|2|2,0:3|0:0|0:0,0:0:0:0:
396,53,340912,1,2,0:0:0:0:
396,53,341166,2,0,P|436:34|490:51,2,101.250003862381,2|2|2,0:3|0:3|0:0,0:0:0:0:
333,137,342181,6,0,L|335:216,1,67.5000025749208,2|2,0:0|0:0,0:0:0:0:
273,341,342698,2,0,L|272:274,1,67.5000025749208,2|2,0:0|0:0,0:0:0:0:
181,195,343233,2,0,L|183:274,1,67.5000025749208,2|2,0:0|0:0,0:0:0:0:
97,332,343815,2,0,L|95:264,1,67.5000025749208,2|2,0:0|0:0,0:0:0:0:
39,204,344427,5,2,0:0:0:0:
256,192,344580,12,2,346875,0:0:0:0:
