osu file format v14

[General]
AudioFilename: audio.mp3
AudioLeadIn: 0
PreviewTime: 137551
Countdown: 0
SampleSet: Soft
StackLeniency: 0.2
Mode: 0
LetterboxInBreaks: 0
WidescreenStoryboard: 1

[Editor]
Bookmarks: 2873,14891,102791,137641,181045,221044,273137,326846
DistanceSpacing: 1.3
BeatDivisor: 4
GridSize: 4
TimelineZoom: 1.5

[Metadata]
Title:ChroNoiR HoneyWorks medley
TitleUnicode:ChroNoiR HoneyWorks medley
Artist:ChroNoiR
ArtistUnicode:ChroNoiR
Creator:Addy2607
Version:Collab Extra
Source:
Tags:arronchu1207 reiSevia Roda_Totsuki Kanae 叶 Kuzuha 葛葉 Nijisanji にじさんじ Gamers Premium Live HoneyPre ハニワークスプレミアムライブ LIP×LIP LIPxLIP LIP x LIP リップリップ Aizo Aizou Aizō Shibasaki 柴崎愛蔵 Nobunaga Shimazaki 島﨑信長 Yujiro Yuujirou Yūjirō Someya 染谷勇次郎 Kōki Koki Kouki Uchiyama 内山昂輝 Chocokano Chokokano Choco Choko kano チョコカノ Sena Narumi 成海聖奈 Sora Amamiya 雨宮天 Mona 成海萌奈 Shiina Natsukawa 夏川椎菜 Sis×Love SisXLove Sis x Love Shisu×Rabu ShisuXRabu Shisu Rabu シス×ラブ Minami 南 Toshiyuki Toyonaga 豊永利行 Chiisana Little Lion 小さなライオン Y!mobile LOVE&KISS Love to and Kiss 10th Anniversary FILM×LIVE FILMxLIVE FILM x LIVE Kono Sekai no Tanoshimikata ~Secret Story Film~ この世界の楽しみ方~Secret Story Film~ How to enjoy this world anime opening intro theme やっぱ最強! Yappa Saikyou! Ken Shibasaki 柴崎健 Takuya Eguchi 江口拓也 Samishigari ya さみしがりや Lonely Person Docchi no kiss ka, Erabe yo. どっちのkissか、選べよ。 japanese pop j-pop jpop V-Tuber VTuber Virtual Youtuber
BeatmapID:3003209
BeatmapSetID:1424300

[Difficulty]
HPDrainRate:5.5
CircleSize:3.8
OverallDifficulty:8
ApproachRate:9
SliderMultiplier:1.8
SliderTickRate:1

[Events]
//Background and Video events
Video,0,"video.mp4"
0,0,"88683128_p7.jpg",0,0
//Break Periods
2,262692,265037
2,322449,326246
//Storyboard Layer 0 (Background)
//Storyboard Layer 1 (Fail)
//Storyboard Layer 2 (Pass)
//Storyboard Layer 3 (Foreground)
//Storyboard Layer 4 (Overlay)
//Storyboard Sound Samples

[TimingPoints]
2873,697.674418604651,4,2,1,40,1,0
2873,-133.333333333333,4,2,1,40,0,0
4268,705.882352941176,4,2,1,40,1,0
4268,-133.333333333333,4,2,1,40,0,0
5679,705.882352941176,4,2,1,40,1,0
5679,-133.333333333333,4,2,1,40,0,0
7090,697.674418604651,4,2,1,40,1,0
7090,-133.333333333333,4,2,1,40,0,0
8485,731.707317073171,4,2,1,40,1,0
8485,-130.718954248366,4,2,1,40,0,0
9216,689.655172413793,4,2,1,40,1,0
9216,-133.333333333333,4,2,1,40,0,0
9905,714.285714285714,4,2,1,40,1,0
9905,-135.135135135135,4,2,1,40,0,0
10619,740.74074074074,4,2,1,40,1,0
10619,-133.333333333333,4,2,1,40,0,0
11359,810.81081081081,4,2,1,40,1,0
11359,-135.685210312076,4,2,1,40,0,0
12169,857.142857142856,4,2,1,40,1,0
12169,-133.333333333333,4,2,1,40,0,0
13883,1008.40336134454,4,2,1,40,1,0
14891,600,4,2,1,50,1,0
16091,300,4,2,1,50,1,0
17291,300,4,2,1,60,1,0
17291,-166.666666666667,4,2,1,60,0,0
26891,-105.263157894737,4,2,1,70,0,0
27116,-105.263157894737,4,2,1,5,0,0
27191,-105.263157894737,4,2,1,70,0,0
28316,-105.263157894737,4,2,1,5,0,0
28391,-105.263157894737,4,2,1,70,0,0
28616,-105.263157894737,4,2,1,5,0,0
28691,-105.263157894737,4,2,1,70,0,0
28916,-105.263157894737,4,2,1,5,0,0
28991,-105.263157894737,4,2,1,70,0,0
29516,-105.263157894737,4,2,1,5,0,0
29591,-105.263157894737,4,2,1,70,0,0
30716,-105.263157894737,4,2,1,5,0,0
30791,-76.9230769230769,4,2,1,70,0,0
30941,-105.263157894737,4,2,1,70,0,0
31316,-105.263157894737,4,2,1,5,0,0
31391,-76.9230769230769,4,2,1,70,0,0
31466,-76.9230769230769,4,2,1,5,0,0
31541,-76.9230769230769,4,2,1,70,0,0
31616,-76.9230769230769,4,2,1,5,0,0
31691,-105.263157894737,4,2,1,70,0,0
31916,-105.263157894737,4,2,1,5,0,0
31991,-105.263157894737,4,2,1,70,0,0
33116,-105.263157894737,4,2,1,5,0,0
33191,-105.263157894737,4,2,1,70,0,0
33416,-105.263157894737,4,2,1,5,0,0
33491,-105.263157894737,4,2,1,70,0,0
33716,-105.263157894737,4,2,1,5,0,0
33791,-105.263157894737,4,2,1,70,0,0
34316,-105.263157894737,4,2,1,5,0,0
34391,-125,4,2,1,70,0,0
34466,-125,4,2,1,5,0,0
34541,-125,4,2,1,70,0,0
34616,-125,4,2,1,5,0,0
34691,-125,4,2,1,70,0,0
34916,-125,4,2,1,5,0,0
34991,-142.857142857143,4,2,1,70,0,0
35066,-142.857142857143,4,2,1,5,0,0
35141,-142.857142857143,4,2,1,70,0,0
35216,-142.857142857143,4,2,1,5,0,0
35291,-250,4,2,1,70,0,0
36491,-200,4,2,1,50,0,0
45491,-166.666666666667,4,2,1,50,0,0
46091,-125,4,2,1,60,0,0
52916,-125,4,2,1,5,0,0
52991,-125,4,2,1,60,0,0
56891,300,3,2,1,50,1,0
56891,-200,3,2,1,50,0,0
63191,300,4,2,1,50,1,0
63228,-105.263157894737,4,2,1,5,0,0
63266,-105.263157894737,4,2,1,5,0,0
63791,-105.263157894737,4,2,1,50,0,0
64016,-105.263157894737,4,2,1,5,0,0
64091,-105.263157894737,4,2,1,50,0,0
64316,-105.263157894737,4,2,1,5,0,0
64391,300,4,2,1,60,1,0
64391,-125,4,2,1,60,0,0
71591,-125,4,2,1,70,0,0
73391,-166.666666666667,4,2,1,70,0,0
73991,-105.263157894737,4,2,1,80,0,0
75416,-105.263157894737,4,2,1,5,0,0
75491,-105.263157894737,4,2,1,80,0,0
91916,-105.263157894737,4,2,1,5,0,0
91991,-105.263157894737,4,2,1,90,0,0
93191,-105.263157894737,4,2,1,70,0,0
94616,-105.263157894737,4,2,1,70,0,0
94691,-105.263157894737,4,2,1,70,0,0
97016,-105.263157894737,4,2,1,5,0,0
97091,-105.263157894737,4,2,1,70,0,0
97616,-105.263157894737,4,2,1,5,0,0
97691,-105.263157894737,4,2,1,70,0,0
98216,-105.263157894737,4,2,1,5,0,0
98291,-105.263157894737,4,2,1,70,0,0
101591,-200,4,2,1,60,0,0
102791,359.281437125748,4,2,1,60,1,0
102791,-111.111111111111,4,2,1,60,0,0
103150,359.281437125748,4,2,1,70,1,0
103150,-100,4,2,1,70,0,0
113209,-95.2380952380952,4,2,1,80,0,0
114647,-100,4,2,1,70,0,0
124706,-95.2380952380952,4,2,1,80,0,0
126144,-111.111111111111,4,2,1,70,0,0
137551,-111.111111111111,4,2,1,5,0,0
137641,319.148936170212,4,2,1,60,1,0
137641,-166.666666666667,4,2,1,60,0,0
138199,-166.666666666667,4,2,1,5,0,0
138279,-166.666666666667,4,2,1,60,0,0
138837,-166.666666666667,4,2,1,5,0,0
138917,-166.666666666667,4,2,1,70,0,0
139156,-166.666666666667,4,2,1,5,0,0
139236,-125,4,2,1,70,0,0
139476,-125,4,2,1,5,0,0
139555,-125,4,2,1,70,0,0
140194,319.148936170212,4,2,1,80,1,0
140194,-100,4,2,1,80,0,0
142986,-100,4,2,1,5,0,0
143066,-100,4,2,1,80,0,0
145220,-100,4,2,1,5,0,0
145300,-100,4,2,1,80,0,0
148093,-100,4,2,1,5,0,0
148172,-100,4,2,1,80,0,0
150646,-100,4,2,1,5,0,0
150726,-100,4,2,1,80,0,0
153199,-100,4,2,1,5,0,0
153279,-100,4,2,1,80,0,0
158305,-100,4,2,1,5,0,0
158385,-100,4,2,1,80,0,0
160619,-66.6666666666667,4,2,1,90,0,0
160699,-66.6666666666667,4,2,1,5,0,0
160938,-66.6666666666667,4,2,1,90,0,0
161018,-66.6666666666667,4,2,1,5,0,0
161258,-66.6666666666667,4,2,1,90,0,0
161337,-66.6666666666667,4,2,1,5,0,0
161577,-66.6666666666667,4,2,1,90,0,0
161656,-66.6666666666667,4,2,1,5,0,0
161896,-100,4,2,1,90,0,0
163172,-125,4,2,1,90,0,0
163412,-125,4,2,1,5,0,0
163492,-66.6666666666667,4,2,1,90,0,0
163571,-66.6666666666667,4,2,1,5,0,0
163811,-125,4,2,1,90,0,0
164050,-125,4,2,1,5,0,0
164130,-66.6666666666667,4,2,1,90,0,0
164210,-66.6666666666667,4,2,1,5,0,0
164449,-100,4,2,1,90,0,0
165726,-66.6666666666667,4,2,1,90,0,0
165805,-125,4,2,1,5,0,0
166045,-66.6666666666667,4,2,1,90,0,0
166125,-125,4,2,1,5,0,0
166364,-66.6666666666667,4,2,1,90,0,0
166444,-125,4,2,1,5,0,0
166683,-66.6666666666667,4,2,1,90,0,0
166763,-125,4,2,1,5,0,0
167002,-100,4,2,1,90,0,0
168279,-125,4,2,1,90,0,0
168518,-100,4,2,1,5,0,0
168598,-66.6666666666667,4,2,1,90,0,0
168678,-66.6666666666667,4,2,1,5,0,0
168917,-125,4,2,1,90,0,0
169156,-125,4,2,1,5,0,0
169236,-66.6666666666667,4,2,1,90,0,0
169316,-66.6666666666667,4,2,1,5,0,0
169555,-100,4,2,1,80,0,0
170513,-76.9230769230769,4,2,1,80,0,0
170752,-100,4,2,1,80,0,0
170832,-100,4,2,1,70,0,0
172348,-100,4,2,1,5,0,0
172428,-100,4,2,1,70,0,0
172667,-100,4,2,1,5,0,0
172747,-100,4,2,1,70,0,0
172986,-100,4,2,1,5,0,0
173066,-100,4,2,1,70,0,0
173305,-100,4,2,1,5,0,0
173385,-100,4,2,1,70,0,0
173625,-100,4,2,1,5,0,0
173704,-100,4,2,1,70,0,0
177454,-100,4,2,1,5,0,0
177534,-100,4,2,1,70,0,0
177773,-100,4,2,1,5,0,0
177853,-100,4,2,1,70,0,0
178093,-100,4,2,1,5,0,0
178173,-100,4,2,1,70,0,0
178412,-100,4,2,1,5,0,0
178492,-100,4,2,1,70,0,0
180008,-100,4,2,1,5,0,0
180087,-100,4,2,1,70,0,0
180327,-100,4,2,1,5,0,0
180406,-100,4,2,1,70,0,0
181045,350.877192982455,4,2,1,50,1,0
181045,-285.714285714286,4,2,1,50,0,0
186659,-266.666666666667,4,2,1,60,0,0
193676,350.877192982455,4,2,1,80,1,0
193676,-100,4,2,1,80,0,0
203501,-100,4,2,1,90,0,0
204904,-111.111111111111,4,2,1,70,0,0
210518,-100,4,2,1,80,0,0
213325,-100,4,2,1,90,0,0
214729,-100,4,2,1,80,0,0
216132,-125,4,2,1,60,0,0
218939,-153.846153846154,4,2,1,60,0,0
221044,363.636363636362,4,2,1,70,1,0
221044,-133.333333333333,4,2,1,70,0,0
221680,-133.333333333333,4,2,1,5,0,0
221771,363.636363636362,4,2,1,80,1,0
222043,-100,4,2,1,5,0,0
222134,-100,4,2,1,80,0,0
233680,-100,4,2,1,5,0,0
233770,-100,4,2,1,80,0,0
237589,-100,4,2,1,90,0,0
239225,-100,4,2,1,80,0,0
244861,-100,4,2,1,60,0,0
247498,-100,4,2,1,60,0,0
247589,-100,4,2,1,60,0,0
247952,-100,4,2,1,70,0,0
259043,-100,4,2,1,80,0,0
259134,-100,4,2,1,5,0,0
259225,-100,4,2,1,80,0,0
259316,-100,4,2,1,5,0,0
259407,-100,4,2,1,80,0,0
259498,-100,4,2,1,5,0,0
259589,483.870967741935,4,2,1,50,1,0
260072,-100,4,2,1,40,0,0
260556,-100,4,2,1,25,0,0
261040,-100,4,2,1,10,0,0
261524,-100,4,2,1,5,0,0
266363,-100,4,2,1,10,0,0
267330,-100,4,2,1,20,0,0
269266,-100,4,2,1,30,0,0
270234,-100,4,2,1,40,0,0
271201,-100,4,2,1,50,0,0
272169,-100,4,2,1,60,0,0
273137,483.870967741935,4,2,1,60,1,0
273137,-200,4,2,1,60,0,0
280395,-200,4,2,2,60,0,0
280878,-142.857142857143,4,2,1,60,0,0
288499,-142.857142857143,4,2,1,5,0,0
288620,-100,4,2,1,70,0,0
304104,-100,4,2,1,80,0,0
319588,-200,4,2,1,60,0,0
321040,-200,4,2,1,5,0,0
321282,-200,4,2,1,60,0,0
322975,-200,4,2,1,5,0,0
326846,550.45871559633,4,2,1,40,1,0
326846,-133.333333333333,4,2,1,40,0,0
327396,545.454545454545,4,2,1,50,1,0
327396,-133.333333333333,4,2,1,50,0,0
329577,550.45871559633,4,2,1,50,1,0
329577,-133.333333333333,4,2,1,50,0,0
331778,545.454545454546,4,2,1,40,1,0
331778,-133.333333333333,4,2,1,40,0,0
333959,530.973451327434,4,2,1,50,1,0
333959,-133.333333333333,4,2,1,50,0,0
336082,508.474576271187,4,2,1,60,1,0
336082,-133.333333333333,4,2,1,60,0,0
342181,517.241379310345,4,2,1,60,1,0
342181,-133.333333333333,4,2,1,60,0,0
342698,535.714285714286,4,2,1,60,1,0
342698,-133.333333333333,4,2,1,60,0,0
343233,582.52427184466,4,2,1,60,1,0
343233,-133.333333333333,4,2,1,60,0,0
343815,612.244897959184,4,2,1,60,1,0
343815,-133.333333333333,4,2,1,60,0,0
344427,612.244897959184,4,2,1,50,1,0
344427,-133.333333333333,4,2,1,50,0,0
345039,-133.333333333333,4,2,1,40,0,0
345651,-133.333333333333,4,2,1,30,0,0
346263,-133.333333333333,4,2,1,20,0,0

[Colours]
Combo1 : 95,95,95
Combo2 : 0,242,242
Combo3 : 240,0,0
Combo4 : 183,166,134

[HitObjects]
509,305,2873,6,0,B|443:300|443:300|407:335|407:335|306:330,1,202.500007724762,2|2,0:0|0:0,0:0:0:0:
230,371,4268,2,0,B|235:231|235:231|190:286,1,202.500007724762,2|2,0:0|0:0,0:0:0:0:
123,349,5679,6,0,P|79:370|64:256,1,202.500007724762,2|2,0:0|0:0,0:0:0:0:
103,189,7090,2,0,L|103:116,1,67.5000025749208,2|0,0:0|0:0,0:0:0:0:
11,83,7787,2,0,L|11:156,1,67.5000025749208,2|2,0:0|0:0,0:0:0:0:
98,30,8485,6,0,B|155:24|184:73|184:73|207:13|279:19,1,202.500007724762,2|2,0:0|0:0,0:0:0:0:
348,69,9905,2,0,L|346:271,1,202.500007724762,2|2,0:0|0:0,0:0:0:0:
438,320,11359,6,0,B|409:362|409:362|258:361,1,202.500007724762,2|2,0:0|0:0,0:0:0:0:
173,330,13026,2,0,L|140:331,3,19.2857150214059,2|2|2|2,0:0|0:0|0:0|0:0,0:0:0:0:
81,194,14891,5,2,0:3:0:0:
87,181,15491,5,2,0:3:0:0:
53,90,16091,5,2,0:3:0:0:
49,77,16391,1,2,0:3:0:0:
50,65,16691,1,2,0:0:0:0:
54,54,16991,1,2,0:0:0:0:
148,15,17291,6,0,L|161:185,1,161.999995056153,6|0,3:2|0:0,0:0:0:0:
229,238,17891,1,2,0:0:0:0:
53,351,18191,1,2,0:0:0:0:
239,229,18491,6,0,B|269:209|306:209|334:230|334:230|353:267|328:300,1,161.999995056153,2|0,0:0|0:0,0:0:0:0:
253,322,19091,1,2,0:0:0:0:
278,116,19391,1,2,0:0:0:0:
241,333,19691,6,0,B|183:338|183:338|150:326|150:326|74:335,1,161.999995056153,2|0,0:0|0:0,0:0:0:0:
7,384,20291,1,2,0:0:0:0:
199,243,20591,1,2,0:0:0:0:
11,369,20891,6,0,B|31:316|8:251|8:251|21:274|46:276,1,161.999995056153,2|0,0:0|0:0,0:0:0:0:
112,207,21491,2,0,P|120:170|85:198,1,107.999996704102,2|2,0:0|0:0,0:0:0:0:
190,317,22091,6,0,B|278:340|264:268|366:296,1,161.999995056153,6|0,3:2|0:0,0:0:0:0:
420,347,22691,2,0,B|453:353|480:377|480:377|479:355|458:340,1,107.999996704102,2|2,0:0|0:0,0:0:0:0:
395,181,23291,6,0,P|382:144|430:28,1,161.999995056153,6|0,3:2|0:0,0:0:0:0:
497,116,23891,2,0,B|491:146|469:146|469:146|449:117|479:91,1,107.999996704102,2|2,0:0|0:0,0:0:0:0:
343,277,24491,6,0,B|279:271|279:271|261:250|261:250|183:244,1,161.999995056153,6|0,3:2|0:0,0:0:0:0:
105,297,25091,1,2,0:0:0:0:
108,309,25391,1,2,0:0:0:0:
112,320,25691,6,0,P|89:270|104:219,1,107.999996704102,2|0,0:0|0:0,0:0:0:0:
181,149,26141,1,0,3:0:0:0:
186,146,26216,1,0,3:0:0:0:
191,143,26291,2,0,P|220:150|243:153,1,53.9999983520508,8|0,0:0|3:0,0:0:0:0:
134,54,26591,2,0,P|105:61|82:64,1,53.9999983520508,8|8,0:0|0:0,0:0:0:0:
259,168,26891,6,0,P|295:146|380:177,1,128.249996575356,4|0,3:2|0:0,0:0:0:0:
407,247,27191,2,0,B|387:259|357:254|357:254|377:270|389:265,1,85.4999977169037,10|0,0:0|0:0,0:0:0:0:
276,376,27491,2,0,B|256:364|226:369|226:369|246:353|258:358,1,85.4999977169037,10|0,0:0|3:0,0:0:0:0:
132,243,27791,2,0,B|112:255|82:250|82:250|102:266|114:261,1,85.4999977169037,10|0,0:0|3:0,0:0:0:0:
205,127,28091,6,0,P|237:96|320:103,1,128.249996575356,10|0,0:0|0:0,0:0:0:0:
275,171,28391,2,0,P|307:140|390:147,1,128.249996575356,10|0,0:0|0:0,0:0:0:0:
345,215,28691,2,0,P|377:184|460:191,1,128.249996575356,10|0,0:0|0:0,0:0:0:0:
415,258,28991,1,10,0:0:0:0:
510,97,29141,1,2,3:2:0:0:
408,273,29291,6,0,B|404:295|404:316|404:316|412:339|413:358|413:358|395:347|368:349,1,128.249996575356,14|0,0:0|0:0,0:0:0:0:
291,379,29591,2,0,B|265:367|248:369|248:369|265:366|291:347,1,85.4999977169037,10|0,0:0|0:0,0:0:0:0:
87,314,29891,2,0,B|113:302|130:304|130:304|113:301|87:282,1,85.4999977169037,10|0,0:0|3:0,0:0:0:0:
271,226,30191,2,0,B|245:214|228:216|228:216|245:213|271:194,1,85.4999977169037,10|0,0:0|3:0,0:0:0:0:
320,20,30491,6,0,B|341:52|378:53|378:53|407:25|451:37,1,128.249996575356,10|0,0:0|0:0,0:0:0:0:
495,110,30791,2,0,B|481:145|426:148|426:148|438:128|437:115,1,116.999994644165,12|0,0:0|0:0,0:0:0:0:
264,198,31091,6,0,L|279:342,1,128.249996575356,8|0,0:0|0:0,0:0:0:0:
359,372,31391,6,0,P|364:341|365:313,1,58.4999973220826,14|0,0:0|0:0,0:0:0:0:
380,378,31541,2,0,P|385:347|386:319,1,58.4999973220826,2|0,3:2|0:0,0:0:0:0:
254,187,31691,6,0,P|203:181|144:230,1,128.249996575356,14|0,0:0|0:0,0:0:0:0:
63,266,31991,2,0,P|53:224|68:177,1,85.4999977169037,10|0,0:0|0:0,0:0:0:0:
95,71,32291,2,0,P|126:41|174:30,1,85.4999977169037,10|0,0:0|3:0,0:0:0:0:
288,0,32591,2,0,P|329:12|362:48,1,85.4999977169037,10|0,0:0|3:0,0:0:0:0:
508,150,32891,6,0,B|469:168|469:168|370:155,1,128.249996575356,10|0,0:0|0:0,0:0:0:0:
324,238,33191,2,0,B|363:256|363:256|462:243,1,128.249996575356,10|0,0:0|0:0,0:0:0:0:
508,326,33491,2,0,B|469:344|469:344|370:331,1,128.249996575356,10|0,0:0|0:0,0:0:0:0:
302,364,33791,1,10,0:0:0:0:
447,244,33941,1,2,3:2:0:0:
286,374,34091,6,0,P|226:355|152:343,1,128.249996575356,14|0,0:0|0:0,0:0:0:0:
74,326,34391,6,0,P|61:328|74:336,1,36,10|0,0:0|0:0,0:0:0:0:
136,259,34541,2,0,P|149:254|136:249,1,36,0|0,3:0|0:0,0:0:0:0:
57,197,34691,6,0,P|52:151|39:75,1,108,10|0,0:0|0:0,0:0:0:0:
116,31,34991,6,0,P|119:11|122:0,1,31.4999990386963,10|0,0:0|0:0,0:0:0:0:
199,47,35141,2,0,P|202:27|205:16,1,31.4999990386963,8|0,0:3|0:0,0:0:0:0:
261,114,35291,6,0,B|294:98|330:112|330:112|364:122|397:102|397:102|360:128|365:179,1,216,6|0,3:2|0:0,0:0:0:0:
459,173,36491,6,0,P|465:215|469:267,1,90,6|2,3:2|3:2,0:0:0:0:
373,295,37091,2,0,P|367:337|363:389,1,90,2|2,3:2|3:2,0:0:0:0:
265,320,37691,2,0,P|237:284|109:280,1,180,2|0,3:2|3:0,0:0:0:0:
171,365,38591,1,2,3:2:0:0:
322,207,38891,6,0,P|316:160|319:102,1,90,2|0,3:2|3:0,0:0:0:0:
439,165,39491,2,0,P|439:209|434:254,1,90,2|2,3:2|3:2,0:0:0:0:
381,329,39941,1,2,0:0:0:0:
381,329,40091,2,0,P|335:322|286:317,1,90,0|0,3:0|3:0,0:0:0:0:
216,231,40691,2,0,P|170:238|121:243,1,90,0|2,3:0|3:2,0:0:0:0:
52,193,41141,1,2,0:0:0:0:
52,193,41291,6,0,P|41:147|68:102,1,90,2|2,3:2|3:2,0:0:0:0:
172,9,41891,2,0,P|183:55|156:100,1,90,2|2,3:2|3:2,0:0:0:0:
228,173,42491,2,0,P|282:164|409:153,1,180,2|0,3:2|3:0,0:0:0:0:
500,222,43391,1,2,3:2:0:0:
500,222,43541,1,2,0:0:0:0:
500,222,43691,6,0,P|514:267|505:311,1,90,2|2,3:2|3:2,0:0:0:0:
372,321,44291,2,0,P|358:276|367:232,1,90,2|2,3:2|3:2,0:0:0:0:
406,153,44741,1,2,0:0:0:0:
406,153,44891,6,0,L|359:142,1,45,0|0,3:0|0:0,0:0:0:0:
380,53,45191,2,0,L|423:63,1,45,4|0,3:2|0:0,0:0:0:0:
292,80,45491,6,0,L|235:91,1,53.9999983520508,8|0,0:0|3:0,0:0:0:0:
170,136,45716,1,0,3:0:0:0:
167,141,45791,2,0,P|159:166|165:192,1,53.9999983520508,8|8,0:0|0:3,0:0:0:0:
230,244,46016,1,8,0:3:0:0:
229,251,46091,6,0,P|221:308|217:339,1,72,6|0,3:2|0:0,0:0:0:0:
354,384,46391,2,0,P|347:341|342:304,1,72,10|0,0:0|0:0,0:0:0:0:
482,246,46691,1,2,3:2:0:0:
442,339,46841,1,0,3:0:0:0:
417,178,46991,2,0,P|449:154|492:152,1,72,10|0,0:0|0:0,0:0:0:0:
339,0,47291,6,0,P|331:60|320:157,1,144,2|8,3:2|0:0,0:0:0:0:
206,125,47741,1,0,0:0:0:0:
206,125,47891,2,0,P|201:80|219:51,1,72,0|0,3:0|3:0,0:0:0:0:
255,213,48191,2,0,P|212:215|172:227,1,72,10|2,0:0|0:0,0:0:0:0:
285,333,48491,6,0,P|335:379|416:369,1,144,2|10,3:2|0:0,0:0:0:0:
499,303,48941,1,0,0:0:0:0:
356,215,49091,2,0,P|362:252|367:306,1,72,2|0,3:2|3:0,0:0:0:0:
499,303,49391,2,0,P|502:267|508:231,1,72,10|2,0:0|0:0,0:0:0:0:
379,121,49691,6,0,P|339:116|307:130,1,72,2|0,3:2|0:0,0:0:0:0:
203,18,49991,2,0,P|236:30|271:24,1,72,10|2,0:0|0:0,0:0:0:0:
127,108,50291,2,0,L|43:116,1,72,0|0,3:0|3:0,0:0:0:0:
135,267,50591,1,10,0:0:0:0:
189,185,50741,1,2,0:0:0:0:
33,242,50891,6,0,P|44:296|54:387,1,144,2|10,3:2|0:0,0:0:0:0:
230,336,51341,1,0,0:0:0:0:
230,336,51491,2,0,P|233:297|241:263,1,72,2|0,3:2|3:0,0:0:0:0:
124,196,51791,2,0,P|131:231|134:266,1,72,10|0,0:0|0:0,0:0:0:0:
199,141,52091,6,0,P|167:107|66:125,2,144,2|8|0,3:2|0:0|3:0,0:0:0:0:
426,20,52991,1,10,0:0:0:0:
338,38,53141,1,2,0:0:0:0:
473,163,53291,6,0,P|477:118|482:85,1,72,2|0,3:2|0:0,0:0:0:0:
372,135,53591,2,0,P|376:170|379:206,1,72,10|0,0:0|0:0,0:0:0:0:
453,337,53891,2,0,P|463:290|450:253,1,72,2|0,3:2|3:0,0:0:0:0:
343,304,54191,2,0,P|333:351|346:388,1,72,10|0,0:0|0:0,0:0:0:0:
133,241,54491,6,0,P|189:238|280:225,1,144,6|8,3:2|0:0,0:0:0:0:
365,129,54941,1,8,0:0:0:0:
369,123,55016,1,8,0:0:0:0:
373,117,55091,2,0,P|376:77|364:45,1,72,0|0,3:0|3:0,0:0:0:0:
203,82,55391,2,0,P|241:85|285:96,1,72,10|0,0:0|0:0,0:0:0:0:
401,215,55691,5,2,3:2:0:0:
370,308,55841,1,0,0:0:0:0:
309,233,55991,1,8,0:0:0:0:
459,291,56141,2,0,L|496:300,1,36,0|0,3:0|3:0,0:0:0:0:
506,315,56291,5,10,0:0:0:0:
506,315,56441,1,8,0:0:0:0:
440,384,56591,5,10,0:0:0:0:
440,384,56741,1,8,0:3:0:0:
492,205,56891,6,0,P|484:158|472:104,1,90,6|0,3:2|0:0,0:0:0:0:
475,116,57491,1,2,0:0:0:0:
364,24,57791,6,0,P|354:67|347:112,1,90,2|2,0:0|0:0,0:0:0:0:
347,112,58391,1,2,3:2:0:0:
262,252,58691,6,0,P|254:205|242:151,1,90,2|2,3:2|0:0,0:0:0:0:
245,163,59291,1,2,0:0:0:0:
134,71,59591,6,0,P|89:75|53:111,1,90,2|0,0:0|0:0,0:0:0:0:
36,217,60191,1,2,3:2:0:0:
36,217,60341,1,2,0:0:0:0:
36,217,60491,6,0,P|45:255|52:314,1,90,2|0,3:2|0:0,0:0:0:0:
187,370,61091,1,2,0:0:0:0:
187,370,61241,1,2,0:0:0:0:
187,370,61391,6,0,P|190:325|203:273,1,90,2|0,0:0|0:0,0:0:0:0:
318,197,61991,1,2,3:2:0:0:
318,197,62141,1,2,0:0:0:0:
318,197,62291,6,0,P|356:193|403:235,1,90,2|0,3:2|0:0,0:0:0:0:
460,84,62891,1,2,0:0:0:0:
460,84,63041,1,2,0:0:0:0:
460,84,63191,6,0,L|421:89,1,22.5,10|0,0:0|0:0,0:0:0:0:
437,86,63791,6,0,B|389:92|389:92|361:73|361:73|310:79,1,128.249996575356,6|0,3:2|0:0,0:0:0:0:
315,67,64091,2,0,B|360:61|360:61|388:80|388:80|436:74,1,128.249996575356,6|0,3:2|0:0,0:0:0:0:
503,153,64391,6,0,P|498:210|491:308,1,144,6|8,3:2|0:0,0:0:0:0:
391,329,64841,1,0,0:0:0:0:
391,329,64991,2,0,P|383:289|397:255,1,72,2|0,3:2|3:0,0:0:0:0:
281,162,65291,2,0,P|288:200|290:242,1,72,10|0,0:0|0:0,0:0:0:0:
425,94,65591,6,0,P|385:103|304:46,1,144,2|8,3:2|0:0,0:0:0:0:
182,3,66041,1,8,0:0:0:0:
182,3,66191,2,0,P|193:48|196:78,1,72,2|0,3:2|3:0,0:0:0:0:
79,136,66491,2,0,P|83:100|92:65,1,72,10|0,0:0|0:0,0:0:0:0:
239,256,66791,6,0,P|196:223|108:236,1,144,2|10,3:2|0:0,0:0:0:0:
214,353,67241,1,0,0:0:0:0:
214,353,67391,2,0,P|252:346|292:343,1,72,2|0,3:2|3:0,0:0:0:0:
409,269,67691,2,0,P|373:265|337:259,1,72,10|0,0:0|0:0,0:0:0:0:
473,333,67991,6,0,P|499:280|464:197,2,144,2|8|2,3:2|0:0|3:2,0:0:0:0:
331,382,68741,1,0,3:0:0:0:
310,282,68891,2,0,L|388:294,1,72,10|0,0:0|0:0,0:0:0:0:
225,333,69191,6,0,P|185:317|97:378,1,144,2|8,3:2|0:0,0:0:0:0:
2,243,69641,1,0,0:0:0:0:
2,243,69791,2,0,P|33:253|80:259,1,72,2|0,3:2|3:0,0:0:0:0:
94,159,70091,2,0,P|63:149|16:143,1,72,8|0,0:0|0:0,0:0:0:0:
179,213,70391,6,0,P|208:183|317:186,1,144,2|8,3:2|0:0,0:0:0:0:
270,340,70841,1,0,0:0:0:0:
270,340,70991,2,0,P|261:284|261:256,1,72,2|0,3:2|3:0,0:0:0:0:
372,258,71291,2,0,P|381:314|381:342,1,72,12|0,0:0|0:0,0:0:0:0:
492,202,71591,5,6,0:0:0:0:
400,164,71741,1,2,0:3:0:0:
386,150,72041,5,2,0:3:0:0:
503,95,72191,1,2,0:3:0:0:
510,81,72491,5,2,0:3:0:0:
350,31,72641,1,2,0:3:0:0:
337,20,72941,5,2,0:3:0:0:
139,89,73091,1,2,0:3:0:0:
139,89,73391,6,0,P|144:113|144:126,3,26.9999991760254,2|0|0|0,3:2|3:0|3:0|3:0,0:0:0:0:
207,171,73691,2,0,P|202:195|202:208,3,26.9999991760254,2|0|0|0,3:2|3:0|3:0|3:0,0:0:0:0:
105,249,73991,6,0,P|148:233|250:296,1,170.999995433807,6|8,3:2|0:0,0:0:0:0:
423,229,74441,1,0,0:0:0:0:
359,383,74591,2,0,P|352:332|336:286,1,85.4999977169037,2|0,3:2|3:0,0:0:0:0:
440,145,74891,2,0,P|428:186|423:229,1,85.4999977169037,10|0,0:0|0:0,0:0:0:0:
380,60,75191,6,0,P|431:35|510:67,1,128.249996575356,2|0,3:2|0:0,0:0:0:0:
384,73,75491,2,0,P|342:57|281:53,1,85.4999977169037,8|0,0:0|0:0,0:0:0:0:
245,201,75791,1,2,3:2:0:0:
321,148,75941,1,0,3:0:0:0:
167,150,76091,2,0,P|150:196|160:239,1,85.4999977169037,10|0,0:0|0:0,0:0:0:0:
265,370,76391,6,0,P|261:327|244:197,1,170.999995433807,2|8,3:2|0:0,0:0:0:0:
339,36,76841,1,0,0:0:0:0:
420,96,76991,2,0,P|434:143|423:178,1,85.4999977169037,2|0,3:2|3:0,0:0:0:0:
255,51,77291,2,0,P|292:48|342:34,1,85.4999977169037,10|0,0:0|0:0,0:0:0:0:
179,122,77591,6,0,P|139:106|39:184,1,170.999995433807,2|8,3:2|0:0,0:0:0:0:
233,276,78041,1,8,0:0:0:0:
240,272,78116,1,8,0:0:0:0:
247,268,78191,2,0,P|250:217|255:173,1,85.4999977169037,2|0,3:2|3:0,0:0:0:0:
133,269,78491,2,0,P|137:311|139:354,1,85.4999977169037,10|0,0:0|0:0,0:0:0:0:
352,273,78791,6,0,P|388:220|364:113,1,170.999995433807,6|8,3:2|0:0,0:0:0:0:
225,0,79241,1,0,0:0:0:0:
269,165,79391,2,0,P|272:114|282:76,1,85.4999977169037,2|0,3:2|3:0,0:0:0:0:
126,1,79691,2,0,P|135:42|137:85,1,85.4999977169037,10|0,0:0|0:0,0:0:0:0:
0,228,79991,6,0,P|31:185|141:191,1,170.999995433807,2|8,3:2|0:0,0:0:0:0:
263,333,80441,1,0,0:0:0:0:
162,369,80591,2,0,L|168:276,1,85.4999977169037,2|0,3:2|3:0,0:0:0:0:
255,150,80891,2,0,L|260:235,1,85.4999977169037,10|0,0:0|0:0,0:0:0:0:
362,357,81191,6,0,B|423:358|471:327|471:327|500:354|482:389,1,170.999995433807,2|8,3:2|0:0,0:0:0:0:
386,237,81641,1,0,0:0:0:0:
512,150,81791,2,0,P|497:207|494:243,1,85.4999977169037,2|0,3:2|3:0,0:0:0:0:
346,140,82091,2,0,P|340:97|328:56,1,85.4999977169037,10|0,0:0|0:0,0:0:0:0:
119,190,82391,6,0,P|208:204|302:224,1,170.999995433807,2|8,3:2|0:0,0:0:0:0:
287,220,82991,1,2,3:2:0:0:
255,381,83141,1,0,3:0:0:0:
118,306,83291,2,0,P|159:302|217:287,1,85.4999977169037,10|0,0:0|0:0,0:0:0:0:
377,177,83591,6,0,P|346:138|229:140,1,170.999995433807,6|8,3:2|0:0,0:0:0:0:
384,276,84041,1,0,0:0:0:0:
470,217,84191,2,0,L|475:132,1,85.4999977169037,2|0,3:2|3:0,0:0:0:0:
287,220,84491,2,0,L|292:305,1,85.4999977169037,8|0,0:0|0:0,0:0:0:0:
492,373,84791,6,0,B|465:336|394:338|394:338|386:375|344:390,1,170.999995433807,2|8,3:2|0:0,0:0:0:0:
195,344,85241,1,0,0:0:0:0:
287,220,85391,2,0,P|329:217|390:204,1,85.4999977169037,2|0,3:2|3:0,0:0:0:0:
195,344,85691,2,0,P|153:336|110:333,1,85.4999977169037,10|0,0:0|0:0,0:0:0:0:
29,177,85991,6,0,P|76:162|160:244,1,170.999995433807,2|8,3:2|0:0,0:0:0:0:
302,128,86441,1,0,0:0:0:0:
195,44,86591,2,0,L|211:139,1,85.4999977169037,2|0,3:2|3:0,0:0:0:0:
384,190,86891,2,0,L|398:105,1,85.4999977169037,10|0,0:0|0:0,0:0:0:0:
242,256,87191,6,0,B|329:235|318:311|409:287,1,170.999995433807,2|8,3:2|0:0,0:0:0:0:
512,226,87641,1,0,0:0:0:0:
364,107,87791,2,0,P|378:151|384:193,1,85.4999977169037,2|0,3:2|3:0,0:0:0:0:
507,24,88091,2,0,P|493:64|487:106,1,85.4999977169037,10|0,0:0|0:0,0:0:0:0:
290,180,88391,6,0,P|214:174|117:158,1,170.999995433807,6|8,3:2|0:0,0:0:0:0:
30,226,88841,1,0,0:0:0:0:
121,364,88991,2,0,P|129:317|146:275,1,85.4999977169037,2|0,3:2|3:0,0:0:0:0:
8,143,89291,2,0,P|22:183|29:225,1,85.4999977169037,10|0,0:0|0:0,0:0:0:0:
219,350,89591,6,0,P|258:342|402:323,1,170.999995433807,6|8,3:2|0:0,0:0:0:0:
502,182,90041,1,0,0:0:0:0:
397,142,90191,2,0,P|386:191|403:230,1,85.4999977169037,2|0,3:2|3:0,0:0:0:0:
484,369,90491,2,0,P|496:328|484:288,1,85.4999977169037,10|0,0:0|0:0,0:0:0:0:
397,142,90791,6,0,P|357:164|244:116,1,170.999995433807,6|8,3:2|0:0,0:0:0:0:
68,41,91241,1,0,0:0:0:0:
169,9,91391,2,0,P|160:56|155:97,1,85.4999977169037,2|0,3:2|3:0,0:0:0:0:
0,193,91691,2,0,P|54:180|122:224,1,128.249996575356,10|0,0:0|0:0,0:0:0:0:
148,293,91991,5,6,3:2:0:0:
293,184,92141,1,8,0:0:0:0:
291,175,92216,1,8,0:0:0:0:
289,166,92291,5,8,0:0:0:0:
315,301,92441,1,8,0:0:0:0:
438,78,92591,5,0,3:0:0:0:
412,213,92741,1,8,0:3:0:0:
263,31,92891,5,0,3:0:0:0:
289,166,93041,1,8,0:3:0:0:
116,108,93191,6,0,P|150:86|202:97,1,85.4999977169037,6|0,3:2|0:0,0:0:0:0:
77,200,93491,2,0,P|40:181|24:131,1,85.4999977169037,10|0,0:0|0:0,0:0:0:0:
176,187,93791,2,0,P|178:227|142:266,1,85.4999977169037,10|0,0:0|3:0,0:0:0:0:
283,377,94091,2,0,L|270:279,1,85.4999977169037,10|0,0:0|3:0,0:0:0:0:
332,145,94391,6,0,B|445:126|392:185|517:161,1,170.999995433807,10|10,0:0|0:0,0:0:0:0:
363,249,94841,1,2,0:0:0:0:
479,378,94991,2,0,P|482:335|494:294,1,85.4999977169037,10|0,0:0|3:0,0:0:0:0:
354,241,95291,2,0,P|365:282|369:324,1,85.4999977169037,10|2,0:0|3:2,0:0:0:0:
225,302,95591,6,0,P|155:318|72:253,1,170.999995433807,14|10,0:0|0:0,0:0:0:0:
271,191,96041,1,0,0:0:0:0:
185,130,96191,2,0,P|173:188|167:225,1,85.4999977169037,10|0,0:0|3:0,0:0:0:0:
33,146,96491,2,0,P|25:103|16:62,1,85.4999977169037,10|0,0:0|3:0,0:0:0:0:
204,29,96791,6,0,P|257:9|329:59,1,128.249996575356,10|0,0:0|0:0,0:0:0:0:
367,139,97091,2,0,L|278:126,1,85.4999977169037,14|2,0:0|3:2,0:0:0:0:
383,282,97391,2,0,B|410:259|445:260|445:260|472:286|519:277,1,128.249996575356,8|0,0:0|0:0,0:0:0:0:
501,191,97691,1,14,0:0:0:0:
434,374,97841,1,2,3:2:0:0:
273,230,97991,6,0,P|210:223|161:262,1,128.249996575356,14|0,0:0|0:0,0:0:0:0:
119,355,98291,2,0,L|212:361,1,85.4999977169037,10|0,0:0|0:0,0:0:0:0:
371,300,98591,2,0,L|355:130,1,170.999995433807,10|10,0:0|0:0,0:0:0:0:
436,0,99041,1,0,3:0:0:0:
277,50,99191,6,0,L|186:41,1,85.4999977169037,10|0,0:0|0:0,0:0:0:0:
354,129,99491,2,0,L|445:120,1,85.4999977169037,10|2,0:0|0:0,0:0:0:0:
268,284,99791,2,0,P|259:241|285:187,1,85.4999977169037,10|0,0:0|3:0,0:0:0:0:
368,247,100091,1,10,0:0:0:0:
289,384,100241,1,2,3:2:0:0:
379,236,100391,6,0,P|336:262|225:216,1,170.999995433807,14|10,0:0|0:0,0:0:0:0:
74,61,100841,1,0,3:0:0:0:
165,0,100991,6,0,L|146:175,1,170.999995433807,10|10,0:0|0:0,0:0:0:0:
58,363,101441,1,8,0:3:0:0:
8,271,101591,6,0,B|81:235|143:260|146:347|226:353|277:340|307:306,1,315,6|0,3:2|0:0,0:0:0:0:
470,333,102791,5,8,0:0:0:0:
433,315,102880,1,8,0:0:0:0:
409,283,102970,1,10,0:0:0:0:
402,244,103060,1,8,0:0:0:0:
414,205,103150,6,0,P|428:184|417:112,1,90,6|2,3:2|0:0,0:0:0:0:
276,101,103509,2,0,P|286:123|354:150,1,90,10|2,0:0|0:0,0:0:0:0:
432,28,103868,2,0,P|406:25|349:71,1,90,2|0,3:2|0:0,0:0:0:0:
330,235,104227,1,8,0:0:0:0:
424,122,104407,1,2,0:0:0:0:
260,16,104587,6,0,L|166:22,1,90,2|2,3:2|0:0,0:0:0:0:
0,70,104946,2,0,L|94:76,1,90,10|2,0:0|0:0,0:0:0:0:
276,101,105305,2,0,L|182:107,1,90,2|0,3:2|0:0,0:0:0:0:
80,178,105664,1,8,0:0:0:0:
170,21,105844,1,2,0:0:0:0:
269,190,106024,6,0,P|284:237|271:280,1,90,2|2,3:2|0:0,0:0:0:0:
122,281,106383,2,0,P|155:244|198:234,1,90,10|2,0:0|0:0,0:0:0:0:
277,365,106742,2,0,P|228:354|198:321,1,90,2|0,3:2|0:0,0:0:0:0:
80,178,107102,1,8,0:0:0:0:
125,373,107281,1,2,0:0:0:0:
269,190,107461,6,0,B|313:163|354:195|345:209|396:245|441:214,1,180,2|10,3:2|0:0,0:0:0:0:
296,268,108000,1,0,0:0:0:0:
410,136,108179,2,0,B|421:14|421:14|374:60,1,180,2|10,3:2|0:0,0:0:0:0:
269,190,108718,1,2,0:0:0:0:
190,37,108898,6,0,P|147:21|99:44,1,90,2|2,3:2|0:0,0:0:0:0:
105,187,109257,2,0,P|140:157|144:104,1,90,10|2,0:0|0:0,0:0:0:0:
16,36,109617,2,0,P|23:81|67:111,1,90,2|0,3:2|0:0,0:0:0:0:
205,199,109976,1,8,0:0:0:0:
107,35,110155,1,2,0:0:0:0:
4,190,110335,6,0,L|12:294,1,90,2|2,3:2|0:0,0:0:0:0:
114,378,110694,2,0,L|106:274,1,90,10|2,0:0|0:0,0:0:0:0:
205,199,111054,2,0,L|213:303,1,90,2|0,3:2|0:0,0:0:0:0:
100,186,111413,1,8,0:0:0:0:
220,374,111593,1,2,0:0:0:0:
326,216,111772,6,0,P|376:229|417:202,1,90,2|2,3:2|0:0,0:0:0:0:
317,52,112132,2,0,P|280:88|283:137,1,90,10|2,0:0|0:0,0:0:0:0:
463,122,112491,2,0,P|449:72|405:50,1,90,2|0,3:2|0:0,0:0:0:0:
219,32,112850,1,8,0:0:0:0:
367,150,113030,1,2,0:0:0:0:
187,237,113209,6,0,B|118:232|118:232|83:259|83:259|-10:256,1,188.999994232178,6|14,3:2|0:0,0:0:0:0:
156,352,113748,1,8,0:0:0:0:
156,352,113838,1,8,0:0:0:0:
156,352,113928,1,6,3:2:0:0:
288,226,114108,1,8,0:0:0:0:
147,141,114287,1,10,0:0:0:0:
238,314,114467,1,10,0:0:0:0:
349,145,114647,6,0,P|386:130|437:153,1,90,6|2,3:2|0:0,0:0:0:0:
388,309,115006,2,0,L|388:205,1,90,10|2,0:0|0:0,0:0:0:0:
318,55,115365,2,0,B|273:30|227:66|242:81|196:117|142:81,1,180,2|8,3:2|0:0,0:0:0:0:
77,0,115904,1,2,0:0:0:0:
0,164,116084,6,0,P|-17:123|8:78,1,90,2|2,3:2|0:0,0:0:0:0:
154,87,116443,2,0,P|171:127|145:172,1,90,10|2,0:0|0:0,0:0:0:0:
3,266,116802,2,0,P|70:226|164:283,1,180,2|8,3:2|0:0,0:0:0:0:
196,367,117341,1,2,0:0:0:0:
295,205,117521,6,0,L|295:317,1,90,2|2,3:2|0:0,0:0:0:0:
155,266,117880,2,0,L|155:154,1,90,10|2,0:0|0:0,0:0:0:0:
225,22,118239,2,0,P|259:79|374:69,1,180,2|8,3:2|0:0,0:0:0:0:
462,0,118778,1,2,0:0:0:0:
512,127,118958,6,0,B|470:86|470:86|482:210,1,180,2|10,3:2|0:0,0:0:0:0:
500,344,119497,1,0,0:0:0:0:
390,282,119676,2,0,B|352:254|302:276|313:302|263:334|218:297,1,180,2|10,3:2|0:0,0:0:0:0:
120,384,120215,1,0,0:0:0:0:
26,280,120395,6,0,L|27:169,1,90,2|2,3:2|0:0,0:0:0:0:
179,143,120754,2,0,L|178:254,1,90,10|2,0:0|0:0,0:0:0:0:
14,292,121114,2,0,L|15:80,1,180,2|8,3:2|0:0,0:0:0:0:
89,0,121652,1,0,0:0:0:0:
179,143,121832,6,0,P|214:160|267:137,1,90,2|2,3:2|0:0,0:0:0:0:
258,25,122191,2,0,P|222:7|169:30,1,90,10|2,0:0|0:0,0:0:0:0:
141,154,122551,2,0,P|208:187|305:145,1,180,2|8,3:2|0:0,0:0:0:0:
375,37,123090,1,2,0:0:0:0:
508,130,123269,6,0,L|506:235,1,90,2|2,3:2|0:0,0:0:0:0:
391,239,123629,2,0,L|393:134,1,90,10|2,0:0|0:0,0:0:0:0:
512,322,123988,2,0,B|448:308|448:308|408:332|408:332|319:320,1,180,2|8,3:2|0:0,0:0:0:0:
240,384,124527,1,2,0:0:0:0:
299,209,124706,6,0,B|259:158|259:158|251:292,1,188.999994232178,6|14,3:2|0:0,0:0:0:0:
299,85,125245,1,8,0:0:0:0:
299,85,125335,1,8,0:0:0:0:
299,85,125425,2,0,P|257:70|201:102,1,94.499997116089,6|8,3:2|0:0,0:0:0:0:
170,198,125784,1,10,0:0:0:0:
16,88,125964,1,10,0:0:0:0:
16,88,126054,1,8,0:0:0:0:
16,88,126144,6,0,L|26:255,1,161.999995056153,6|8,3:2|0:0,0:0:0:0:
0,364,126682,2,0,L|83:359,1,80.9999975280763,0|0,0:0|3:0,0:0:0:0:
106,244,127042,2,0,L|23:249,1,80.9999975280763,0|10,0:0|0:0,0:0:0:0:
182,354,127401,1,0,0:0:0:0:
261,171,127581,5,2,3:2:0:0:
377,342,127760,1,2,0:0:0:0:
377,342,127850,1,2,0:0:0:0:
377,342,127940,1,10,0:0:0:0:
200,253,128120,1,2,0:0:0:0:
352,128,128299,2,0,P|369:176|353:210,1,80.9999975280763,2|2,3:2|0:0,0:0:0:0:
187,73,128658,2,0,L|285:73,1,80.9999975280763,10|2,0:0|0:0,0:0:0:0:
86,72,129018,6,0,B|45:39|45:39|59:163,1,161.999995056153,2|8,3:2|0:0,0:0:0:0:
11,239,129557,2,0,P|49:225|94:250,1,80.9999975280763,0|0,0:0|3:0,0:0:0:0:
83,374,129916,2,0,P|51:348|51:296,1,80.9999975280763,0|8,0:0|0:0,0:0:0:0:
137,173,130275,1,0,0:0:0:0:
283,300,130455,6,0,B|225:292|225:292|191:314|191:314|115:306,1,161.999995056153,0|8,3:0|0:0,0:0:0:0:
249,378,130994,1,2,0:0:0:0:
336,227,131173,2,0,P|365:255|360:311,1,80.9999975280763,2|2,3:2|0:0,0:0:0:0:
244,206,131533,1,10,0:0:0:0:
378,97,131712,1,2,0:0:0:0:
175,21,131892,6,0,B|111:15|111:15|84:35|84:35|-1:28,1,161.999995056153,2|8,3:2|0:0,0:0:0:0:
143,118,132431,2,0,B|132:229|132:229|109:179,1,161.999995056153,0|2,0:0|0:0,0:0:0:0:
175,21,132970,1,10,0:0:0:0:
242,180,133149,1,2,0:0:0:0:
389,84,133329,6,0,L|298:80,2,80.9999975280763,2|2|10,3:2|0:0|0:0,0:0:0:0:
441,10,133868,2,0,L|255:1,1,161.999995056153,2|2,0:0|0:0,0:0:0:0:
512,151,134407,1,10,0:0:0:0:
441,10,134587,1,0,0:0:0:0:
343,166,134766,6,0,B|357:280|357:280|360:258|380:230,1,161.999995056153,2|8,3:2|0:0,0:0:0:0:
480,323,135305,2,0,B|446:305|403:331|419:346|366:389|317:344,1,161.999995056153,2|0,0:0|0:0,0:0:0:0:
255,265,135844,1,10,0:0:0:0:
156,357,136024,1,0,0:0:0:0:
139,175,136203,6,0,L|147:278,1,80.9999975280763,14|0,0:0|0:0,0:0:0:0:
28,319,136563,2,0,L|20:216,1,80.9999975280763,14|10,0:0|0:0,0:0:0:0:
21,209,136832,1,8,0:0:0:0:
21,209,136922,1,14,0:0:0:0:
89,16,137102,1,10,0:0:0:0:
219,164,137281,1,10,0:0:0:0:
28,98,137461,1,8,0:3:0:0:
241,17,137641,6,0,B|300:-1|340:40|340:40|311:96|331:153,1,215.999993408203,6|6,3:2|3:2,0:0:0:0:
328,145,138917,6,0,P|362:135|411:159,1,80.9999975280763,6|0,3:2|0:0,0:0:0:0:
418,175,139236,2,0,B|405:216|405:216|413:296,1,108,6|0,3:2|0:0,0:0:0:0:
416,302,139555,1,10,0:0:0:0:
248,361,139715,1,8,0:0:0:0:
254,368,139795,1,8,0:0:0:0:
260,375,139875,2,0,L|298:368,1,36,10|8,0:0|0:0,0:0:0:0:
204,284,140034,2,0,L|166:277,1,36,8|8,0:0|0:0,0:0:0:0:
96,183,140194,6,0,P|77:148|87:100,1,90,6|0,3:2|0:0,0:0:0:0:
209,0,140513,2,0,P|228:35|218:83,1,90,10|0,0:0|0:0,0:0:0:0:
96,183,140832,2,0,P|50:175|4:170,1,90,2|0,3:2|3:0,0:0:0:0:
209,0,141151,2,0,P|255:8|301:13,1,90,10|0,0:0|0:0,0:0:0:0:
479,126,141470,6,0,P|428:107|334:180,1,180,2|8,3:2|0:0,0:0:0:0:
439,244,141949,1,0,0:0:0:0:
283,384,142109,2,0,P|277:337|261:282,1,90,2|0,3:2|3:0,0:0:0:0:
439,244,142428,2,0,P|427:287|422:332,1,90,10|0,0:0|0:0,0:0:0:0:
335,175,142747,6,0,B|321:70|321:70|347:97,1,135,2|0,3:2|0:0,0:0:0:0:
322,194,143066,2,0,P|284:216|239:201,1,90,10|0,0:0|0:0,0:0:0:0:
163,18,143385,5,2,3:2:0:0:
186,109,143545,1,2,3:2:0:0:
11,212,143704,5,10,0:0:0:0:
34,121,143864,1,2,0:0:0:0:
214,291,144023,6,0,B|128:266|126:335|35:308,1,180,2|8,3:2|0:0,0:0:0:0:
179,384,144502,1,2,0:0:0:0:
291,229,144662,2,0,P|312:272|304:321,1,90,2|0,3:2|3:0,0:0:0:0:
206,184,144981,2,0,L|222:39,1,135,8|0,0:0|0:0,0:0:0:0:
301,12,145300,6,0,B|344:-2|344:-2|384:15,1,90,2|0,3:2|0:0,0:0:0:0:
494,194,145619,2,0,B|450:208|450:208|410:190,1,90,10|0,0:0|0:0,0:0:0:0:
301,12,145938,2,0,L|312:111,1,90,2|0,3:2|3:0,0:0:0:0:
494,194,146258,2,0,L|503:104,1,90,10|0,0:0|0:0,0:0:0:0:
325,278,146577,6,0,B|352:241|408:251|425:317|367:364,1,180,2|8,3:2|0:0,0:0:0:0:
216,299,147055,1,0,0:0:0:0:
316,182,147215,2,0,P|354:174|410:184,1,90,2|0,3:2|3:0,0:0:0:0:
216,299,147534,2,0,P|178:307|122:297,1,90,10|0,0:0|0:0,0:0:0:0:
13,181,147853,6,0,B|12:135|54:114|54:114|72:140|104:145,1,135,2|0,3:2|0:0,0:0:0:0:
125,62,148172,2,0,B|141:37|141:26|141:26|155:39|156:84,1,90,10|0,0:0|0:0,0:0:0:0:
282,202,148492,5,2,3:2:0:0:
306,114,148651,1,2,3:2:0:0:
210,268,148811,5,10,0:0:0:0:
186,180,148970,1,2,0:0:0:0:
285,349,149130,6,0,P|337:329|439:384,1,180,2|8,3:2|0:0,0:0:0:0:
512,197,149609,1,2,0:0:0:0:
407,165,149768,2,0,L|420:258,1,90,2|0,3:2|3:0,0:0:0:0:
505,82,150087,1,12,0:0:0:0:
355,0,150247,1,8,0:0:0:0:
500,75,150406,6,0,B|468:41|428:44|428:44|414:73|376:82,1,135,6|0,3:2|0:0,0:0:0:0:
355,0,150726,2,0,B|320:-3|299:16|299:16|311:34|313:65,1,90,10|0,0:0|0:0,0:0:0:0:
200,162,151045,2,0,L|216:63,1,90,2|0,3:2|3:0,0:0:0:0:
310,311,151364,2,0,L|294:212,1,90,10|0,0:0|0:0,0:0:0:0:
111,286,151683,6,0,B|75:299|77:334|74:364|141:387|197:333,1,180,2|8,3:2|0:0,0:0:0:0:
295,222,152162,1,0,0:0:0:0:
145,108,152321,2,0,P|158:155|164:205,1,90,2|0,3:2|3:0,0:0:0:0:
276,309,152640,2,0,P|282:264|294:221,1,90,10|0,0:0|0:0,0:0:0:0:
398,94,152960,6,0,P|450:87|510:140,1,135,2|0,3:2|0:0,0:0:0:0:
389,103,153279,2,0,P|342:96|286:80,1,90,10|0,0:0|0:0,0:0:0:0:
157,32,153598,5,2,3:2:0:0:
248,6,153758,1,2,3:2:0:0:
88,105,153917,5,10,0:0:0:0:
179,131,154077,1,2,0:0:0:0:
44,278,154236,6,0,B|12:260|5:210|23:173|23:173|46:198|86:200,1,180,2|8,3:2|0:0,0:0:0:0:
242,253,154715,1,2,0:0:0:0:
149,380,154875,2,0,L|136:288,1,90,2|0,3:2|3:0,0:0:0:0:
254,163,155194,2,0,L|241:252,1,90,8|0,0:0|0:0,0:0:0:0:
192,80,155513,6,0,P|241:59|348:122,1,180,2|8,3:2|0:0,0:0:0:0:
503,243,155992,1,0,0:0:0:0:
479,327,156151,2,0,P|480:288|508:239,1,90,2|0,3:2|3:0,0:0:0:0:
338,320,156470,2,0,P|371:340|399:389,1,90,10|0,0:0|0:0,0:0:0:0:
413,212,156789,6,0,L|233:235,1,180,2|8,3:2|0:0,0:0:0:0:
98,77,157268,1,0,0:0:0:0:
206,39,157428,2,0,L|196:131,1,90,2|0,3:2|3:0,0:0:0:0:
58,249,157747,2,0,B|41:208|41:208|65:153,1,90,10|0,0:0|0:0,0:0:0:0:
216,332,158066,6,0,P|138:339|73:350,1,135,2|0,3:2|0:0,0:0:0:0:
230,337,158385,2,0,P|257:288|237:243,1,90,10|0,0:0|0:0,0:0:0:0:
166,78,158704,5,2,3:2:0:0:
183,178,158864,1,2,3:2:0:0:
283,15,159023,5,10,0:0:0:0:
266,115,159183,1,2,0:0:0:0:
403,18,159343,6,0,B|440:4|488:13|488:13|507:52|488:107,1,180,2|8,3:2|0:0,0:0:0:0:
356,241,159821,1,2,3:2:0:0:
345,238,159901,1,0,3:0:0:0:
334,235,159981,1,14,0:0:0:0:
371,135,160140,1,0,3:0:0:0:
456,336,160300,1,12,0:0:0:0:
456,336,160619,6,0,P|468:315|460:339,1,67.5000025749208,14|0,0:0|0:0,0:0:0:0:
244,291,160938,2,0,P|232:270|240:294,1,67.5000025749208,10|0,0:0|0:0,0:0:0:0:
371,135,161258,2,0,P|383:114|375:138,1,67.5000025749208,10|0,0:0|0:0,0:0:0:0:
159,90,161577,2,0,P|147:69|155:93,1,67.5000025749208,10|0,0:0|0:0,0:0:0:0:
244,291,161896,6,0,L|253:191,1,90,10|0,0:0|0:0,0:0:0:0:
97,272,162215,2,0,L|105:361,1,90,10|0,0:0|0:0,0:0:0:0:
252,201,162534,5,10,0:0:0:0:
152,172,162694,1,0,3:0:0:0:
331,67,162853,5,10,0:0:0:0:
231,96,163013,1,0,3:0:0:0:
412,247,163172,6,0,P|414:188|422:136,1,108,14|0,0:0|0:0,0:0:0:0:
437,55,163492,2,0,B|443:35|461:34|461:34|473:48|463:66,1,67.5000025749208,10|0,0:0|0:0,0:0:0:0:
256,288,163811,2,0,P|253:229|246:177,1,108,10|0,0:0|0:0,0:0:0:0:
231,96,164131,2,0,B|224:76|207:75|207:75|195:89|205:107,1,67.5000025749208,10|0,0:0|0:0,0:0:0:0:
108,343,164449,6,0,L|10:326,1,90,10|0,0:0|0:0,0:0:0:0:
172,221,164768,2,0,L|83:236,1,90,10|0,0:0|3:0,0:0:0:0:
234,380,165087,5,10,0:0:0:0:
256,288,165247,1,0,0:0:0:0:
370,197,165406,5,14,0:0:0:0:
348,105,165566,1,0,3:0:0:0:
490,13,165726,6,0,B|487:48|487:48|465:20,1,67.5000025749208,14|0,0:0|0:0,0:0:0:0:
325,95,166045,2,0,B|328:130|328:130|350:102,1,67.5000025749208,10|0,0:0|0:0,0:0:0:0:
494,197,166364,2,0,B|491:232|491:232|469:204,1,67.5000025749208,10|0,0:0|0:0,0:0:0:0:
329,279,166683,2,0,B|332:314|332:314|354:286,1,67.5000025749208,10|0,0:0|0:0,0:0:0:0:
207,75,167002,6,0,P|158:63|117:82,1,90,10|0,0:0|0:0,0:0:0:0:
0,173,167321,2,0,P|41:158|84:170,1,90,10|0,0:0|0:0,0:0:0:0:
75,341,167640,5,10,0:0:0:0:
46,254,167800,1,0,3:0:0:0:
212,293,167960,5,10,0:0:0:0:
183,380,168120,1,0,3:0:0:0:
193,189,168279,6,0,P|238:197|308:200,1,108,14|0,0:0|0:0,0:0:0:0:
377,147,168598,2,0,P|392:127|366:136,1,67.5000025749208,10|0,0:0|0:0,0:0:0:0:
226,68,168917,2,0,P|181:76|111:79,1,108,14|0,0:0|0:0,0:0:0:0:
42,26,169236,2,0,P|27:6|53:15,1,67.5000025749208,10|0,0:0|0:0,0:0:0:0:
280,153,169555,6,0,L|269:253,1,90,6|0,3:2|0:0,0:0:0:0:
397,324,169875,2,0,P|399:270|357:227,1,90,2|0,0:0|0:0,0:0:0:0:
199,346,170194,1,2,3:2:0:0:
291,366,170353,1,8,0:3:0:0:
156,260,170513,6,0,B|176:225|231:231|244:273|233:319|184:359,1,175.499991966248,2|8,3:2|0:0,0:0:0:0:
106,338,170832,6,0,P|73:302|65:251,1,90,4|0,3:2|0:0,0:0:0:0:
200,186,171151,2,0,P|185:232|145:265,1,90,8|0,0:0|0:0,0:0:0:0:
155,97,171470,1,2,3:2:0:0:
251,100,171630,1,0,3:0:0:0:
107,179,171789,2,0,P|68:169|19:164,1,90,10|0,0:0|0:0,0:0:0:0:
251,100,172109,6,0,B|253:62|228:32|228:32|263:34|292:66,1,135,2|0,3:2|0:0,0:0:0:0:
371,78,172428,2,0,B|399:68|430:83|430:83|394:97|376:131,1,135,10|0,0:0|0:0,0:0:0:0:
395,217,172747,2,0,P|388:265|310:298,1,135,2|0,3:2|0:0,0:0:0:0:
230,282,173066,2,0,P|191:251|202:167,1,135,10|0,0:0|0:0,0:0:0:0:
251,100,173385,6,0,B|201:124|201:124|117:97,1,135,2|0,3:2|0:0,0:0:0:0:
37,73,173704,2,0,L|48:167,1,90,10|0,0:0|0:0,0:0:0:0:
145,308,174023,5,2,3:2:0:0:
161,215,174183,1,2,3:2:0:0:
16,367,174343,5,10,0:0:0:0:
0,274,174503,1,2,0:0:0:0:
152,321,174662,6,0,P|194:349|308:309,1,180,2|10,3:2|0:0,0:0:0:0:
224,248,175140,1,0,0:0:0:0:
414,182,175300,5,2,3:2:0:0:
403,273,175460,1,2,3:2:0:0:
392,364,175619,1,10,0:0:0:0:
392,364,175938,6,0,P|343:384|245:317,1,180,6|8,3:2|0:0,0:0:0:0:
337,284,176417,1,0,0:0:0:0:
190,132,176577,2,0,P|201:180|202:225,1,90,2|0,3:2|3:0,0:0:0:0:
336,283,176896,2,0,P|338:238|349:195,1,90,10|0,0:0|0:0,0:0:0:0:
195,79,177215,6,0,B|167:69|136:84|136:84|172:98|190:132,1,135,2|0,3:2|0:0,0:0:0:0:
171,218,177534,2,0,P|178:266|256:299,1,135,10|0,0:0|0:0,0:0:0:0:
336,283,177853,2,0,P|375:252|364:168,1,135,2|0,3:2|0:0,0:0:0:0:
315,101,178172,2,0,B|313:63|338:33|338:33|303:35|274:67,1,135,10|0,0:0|0:0,0:0:0:0:
195,79,178492,6,0,L|93:64,1,90,2|2,3:2|0:0,0:0:0:0:
8,277,178811,2,0,L|-2:228,1,45,10|8,0:0|0:0,0:0:0:0:
18,268,178970,2,0,L|8:219,1,45,10|8,0:0|0:0,0:0:0:0:
125,337,179130,6,0,L|135:288,1,45,10|8,0:0|0:0,0:0:0:0:
115,328,179289,2,0,L|125:279,1,45,8|8,0:0|0:0,0:0:0:0:
219,204,179449,5,2,3:2:0:0:
239,195,179528,1,0,3:0:0:0:
262,195,179608,1,0,3:0:0:0:
282,203,179688,1,0,3:0:0:0:
298,219,179768,6,0,P|368:211|446:206,1,135,6|0,3:2|0:0,0:0:0:0:
502,260,180087,1,6,3:2:0:0:
356,100,180247,1,8,0:0:0:0:
510,266,180406,6,0,B|520:356|459:385|395:408|344:332|396:290,1,270,6|2,3:2|0:3,0:0:0:0:
496,115,181045,6,0,P|521:48|437:65,1,188.999994232178,6|2,3:2|0:0,0:0:0:0:
438,60,182448,6,0,B|392:37|347:64|356:79|307:115|257:72,1,188.999994232178,2|2,0:0|0:0,0:0:0:0:
261,76,183852,6,0,B|209:35|209:35|220:168,1,188.999994232178,2|2,0:0|0:0,0:0:0:0:
219,157,185255,6,0,B|238:204|238:204|218:254,2,94.499997116089,2|2|2,0:0|0:0|0:0,0:0:0:0:
64,313,186659,6,0,B|110:281|166:309|151:334|201:371|256:332,1,202.500007724762,2|2,0:0|0:0,0:0:0:0:
249,336,188062,6,0,P|292:359|302:251,1,202.500007724762,2|2,0:0|0:0,0:0:0:0:
312,254,189466,6,0,L|314:178,1,67.5000025749208,2|0,0:0|0:0,0:0:0:0:
236,154,190167,2,0,L|235:192,2,33.7500012874604,2|2|2,0:0|0:0|0:0,0:0:0:0:
195,53,190869,6,0,B|244:1|325:47|306:81|372:137|437:78,1,270.000010299683,2|0,0:0|0:0,0:0:0:0:
434,80,193676,6,0,P|402:117|414:171,1,90,6|0,3:2|0:0,0:0:0:0:
512,299,194027,2,0,P|495:252|443:236,1,90,8|0,0:0|0:0,0:0:0:0:
294,368,194378,1,2,3:2:0:0:
311,223,194553,1,2,3:2:0:0:
432,313,194729,1,10,0:0:0:0:
321,139,194904,6,0,B|260:130|260:130|217:161|217:161|139:151,1,180,6|0,3:2|3:0,0:0:0:0:
46,0,195430,2,0,P|87:24|96:81,1,90,10|0,0:0|0:0,0:0:0:0:
68,220,195781,1,2,3:2:0:0:
202,66,195957,1,2,3:2:0:0:
1,108,196132,1,10,0:0:0:0:
177,246,196308,1,0,0:0:0:0:
177,246,196395,1,0,0:0:0:0:
177,246,196483,6,0,P|193:293|174:332,1,90,2|0,3:2|0:0,0:0:0:0:
39,326,196834,2,0,P|23:279|42:240,1,90,10|0,0:0|0:0,0:0:0:0:
168,247,197185,2,0,P|184:294|165:333,1,90,2|0,3:2|0:0,0:0:0:0:
30,327,197536,2,0,P|14:280|33:241,1,90,10|0,0:0|0:0,0:0:0:0:
268,318,197887,6,0,B|312:296|356:327|349:345|394:377|450:340,1,180,2|10,3:2|0:0,0:0:0:0:
512,283,198413,1,0,0:0:0:0:
387,135,198588,2,0,L|389:248,1,90,2|0,3:2|3:0,0:0:0:0:
512,283,198939,2,0,L|510:170,1,90,10|0,0:0|0:0,0:0:0:0:
430,41,199290,6,0,P|389:24|346:37,1,90,6|0,3:2|0:0,0:0:0:0:
250,196,199641,2,0,P|284:168|294:125,1,90,10|0,0:0|0:0,0:0:0:0:
166,12,199992,1,2,3:2:0:0:
100,122,200167,1,2,3:2:0:0:
219,124,200343,1,10,0:0:0:0:
44,38,200518,6,0,B|7:70|7:70|26:206,1,180,6|0,3:2|3:2,0:0:0:0:
92,296,201044,2,0,P|46:283|1:310,1,90,10|0,0:0|0:0,0:0:0:0:
169,368,201395,1,2,3:2:0:0:
260,205,201571,1,2,3:2:0:0:
169,380,201746,1,10,0:0:0:0:
100,165,201922,1,0,0:0:0:0:
251,322,202097,6,0,B|314:318|314:318|352:345|352:345|432:342,1,180,2|8,3:2|0:0,0:0:0:0:
512,269,202623,1,0,0:0:0:0:
384,133,202799,2,0,L|388:238,1,90,2|2,3:2|0:0,0:0:0:0:
512,269,203150,2,0,L|507:163,1,90,10|0,0:0|0:0,0:0:0:0:
498,45,203501,5,2,3:2:0:0:
387,222,203676,1,8,0:0:0:0:
291,33,203852,2,0,P|333:19|392:52,1,90,10|8,0:0|0:3,0:0:0:0:
246,211,204202,2,0,L|241:105,1,90,2|0,3:2|3:0,0:0:0:0:
344,313,204553,1,10,0:0:0:0:
299,315,204640,1,8,0:0:0:0:
254,317,204728,1,8,0:0:0:0:
209,319,204816,1,8,0:0:0:0:
164,321,204904,6,0,P|92:363|20:321,1,161.999995056153,6|0,3:2|3:0,0:0:0:0:
56,198,205430,2,0,B|78:185|91:162|91:162|94:286,1,161.999995056153,12|0,0:0|0:0,0:0:0:0:
7,117,205957,1,10,0:0:0:0:
92,6,206132,1,8,0:3:0:0:
203,107,206308,6,0,B|266:101|266:101|301:124|301:124|371:117,1,161.999995056153,6|2,3:2|3:2,0:0:0:0:
479,64,206834,2,0,B|441:32|441:32|455:156,1,161.999995056153,12|0,0:0|0:0,0:0:0:0:
471,278,207360,1,10,0:0:0:0:
357,118,207536,1,8,0:3:0:0:
272,318,207711,6,0,B|233:297|194:319|200:337|156:373|108:334,1,161.999995056153,6|0,3:2|3:0,0:0:0:0:
48,203,208237,2,0,P|77:241|-1:259,1,161.999995056153,12|0,0:0|0:0,0:0:0:0:
21,55,208764,1,10,0:0:0:0:
61,53,208851,1,8,0:0:0:0:
101,51,208939,1,8,0:3:0:0:
142,49,209027,1,8,0:3:0:0:
182,47,209115,6,0,B|229:13|229:13|219:143,1,161.999995056153,6|2,3:2|3:2,0:0:0:0:
340,206,209641,2,0,B|277:200|277:200|242:223|242:223|172:216,1,161.999995056153,12|0,0:0|0:0,0:0:0:0:
341,55,210168,1,10,0:0:0:0:
377,20,210255,1,8,0:0:0:0:
426,9,210343,1,8,0:0:0:0:
473,23,210431,1,8,0:0:0:0:
508,59,210518,6,0,L|505:256,1,180,6|8,3:2|0:0,0:0:0:0:
501,370,211044,1,0,0:0:0:0:
340,206,211220,2,0,P|385:190|434:215,1,90,2|0,3:2|3:0,0:0:0:0:
423,338,211571,2,0,P|378:354|329:329,1,90,10|0,0:0|0:0,0:0:0:0:
262,119,211922,6,0,B|219:97|175:130|186:148|135:179|94:147,1,180,2|10,3:2|0:0,0:0:0:0:
128,46,212448,1,0,0:0:0:0:
229,213,212623,1,2,3:2:0:0:
129,31,212799,1,0,3:0:0:0:
25,200,212974,2,0,P|8:156|35:100,1,90,10|0,0:0|0:0,0:0:0:0:
261,292,213325,6,0,B|199:297|199:297|160:265|160:265|74:271,1,180,6|8,3:2|0:0,0:0:0:0:
316,227,213852,2,0,B|361:190|361:190|349:335,1,180,6|0,3:2|3:0,0:0:0:0:
445,190,214378,2,0,L|436:280,1,90,14|0,0:0|0:0,0:0:0:0:
509,70,214729,6,0,B|475:40|422:65|437:87|383:120|334:79,1,180,6|0,3:2|3:0,0:0:0:0:
255,12,215255,1,2,3:2:0:0:
255,12,215343,1,0,3:0:0:0:
255,12,215430,5,8,0:0:0:0:
223,43,215517,1,8,0:0:0:0:
210,85,215605,1,8,0:0:0:0:
220,129,215693,1,8,0:0:0:0:
250,162,215780,1,10,0:0:0:0:
283,193,215869,1,8,0:0:0:0:
295,235,215957,1,8,0:0:0:0:
285,279,216045,1,8,0:0:0:0:
255,312,216132,6,0,P|194:345|124:305,1,144,2|2,3:2|0:0,0:0:0:0:
0,201,216834,2,0,P|61:234|131:194,1,144,2|2,0:0|0:0,0:0:0:0:
180,22,217536,6,0,B|216:-5|216:-5|204:105,1,144,2|2,0:0|0:0,0:0:0:0:
25,21,218237,2,0,B|-11:-6|-11:-6|1:104,1,144,2|2,0:0|0:0,0:0:0:0:
123,204,218939,6,0,B|171:164|232:205|220:227|282:272|339:225,1,233.999989288331,2|2,0:0|0:0,0:0:0:0:
422,148,219992,1,2,0:0:0:0:
493,319,220343,1,2,0:0:0:0:
493,319,221044,6,0,B|450:332|408:304|408:304|363:327|363:327|322:295|270:310,1,236.250009012223,2|0,3:2|0:0,0:0:0:0:
192,364,221771,6,0,B|180:301|180:301|187:284|187:284|173:218,1,135,6|0,3:2|0:0,0:0:0:0:
174,217,222134,1,10,0:0:0:0:
343,169,222316,2,0,L|244:148,1,90,2|0,0:0|3:0,0:0:0:0:
503,89,222680,2,0,P|459:80|413:103,1,90,2|8,0:0|0:0,0:0:0:0:
329,261,223043,6,0,P|394:305|406:225,1,180,2|2,0:0|0:0,0:0:0:0:
280,367,223589,1,10,0:0:0:0:
477,354,223771,2,0,P|505:295|471:164,1,180,2|2,0:0|0:0,0:0:0:0:
327,60,224316,1,10,0:0:0:0:
465,33,224498,1,10,0:0:0:0:
264,146,224680,5,0,3:2:0:0:
404,165,224861,1,2,0:0:0:0:
250,142,225043,1,10,0:0:0:0:
281,343,225225,2,0,L|290:243,1,90,2|0,0:0|3:0,0:0:0:0:
129,146,225589,1,2,0:0:0:0:
298,247,225770,1,10,0:0:0:0:
116,352,225952,6,0,P|94:310|190:295,1,180,2|2,0:0|0:0,0:0:0:0:
207,384,226498,1,10,0:0:0:0:
20,384,226680,2,0,P|1:304|40:212,1,180,2|2,0:0|0:0,0:0:0:0:
168,48,227225,1,10,0:0:0:0:
19,110,227407,1,10,0:0:0:0:
201,218,227589,6,0,P|218:180|209:126,1,90,6|0,3:2|0:0,0:0:0:0:
117,275,227952,1,10,0:0:0:0:
273,341,228134,2,0,L|169:358,1,90,2|0,0:0|3:0,0:0:0:0:
441,298,228498,2,0,L|352:283,1,90,2|8,0:0|0:0,0:0:0:0:
212,133,228861,6,0,P|246:89|283:178,1,180,2|2,0:0|0:0,0:0:0:0:
230,228,229407,2,0,P|182:226|143:197,1,90,10|2,0:0|0:0,0:0:0:0:
71,34,229770,1,0,3:0:0:0:
71,34,229861,1,0,3:0:0:0:
71,34,229952,1,2,3:2:0:0:
212,133,230134,1,10,0:0:0:0:
55,215,230316,6,0,P|11:184|93:139,1,180,2|2,0:0|0:0,0:0:0:0:
148,203,230861,1,10,0:0:0:0:
277,356,231043,6,0,P|321:325|239:280,1,180,2|2,0:0|3:2,0:0:0:0:
183,344,231589,1,10,0:0:0:0:
389,382,231770,6,0,P|409:322|372:215,1,180,2|2,0:0|0:0,0:0:0:0:
206,106,232316,1,14,0:0:0:0:
395,49,232498,1,8,0:0:0:0:
395,49,232589,1,8,0:0:0:0:
395,49,232680,5,4,3:2:0:0:
189,105,232861,1,10,0:0:0:0:
372,215,233043,1,10,0:0:0:0:
174,104,233225,1,10,0:0:0:0:
405,36,233407,6,0,B|416:7|473:3|473:3|445:19|436:53,1,135,6|0,3:2|0:0,0:0:0:0:
512,71,233770,1,10,0:0:0:0:
372,215,233952,2,0,P|358:168|385:118,1,90,2|0,0:0|3:0,0:0:0:0:
432,371,234316,2,0,L|441:281,1,90,2|8,0:0|0:0,0:0:0:0:
281,222,234680,6,0,P|245:274|331:297,1,180,2|2,0:0|0:0,0:0:0:0:
372,215,235225,1,10,0:0:0:0:
182,187,235407,2,0,P|155:268|189:358,1,180,2|2,0:0|0:0,0:0:0:0:
272,121,235952,1,10,0:0:0:0:
89,158,236134,1,10,0:0:0:0:
89,158,236225,1,8,0:0:0:0:
89,158,236316,6,0,L|-12:141,1,90,0|2,3:2|0:0,0:0:0:0:
258,112,236680,2,0,L|359:95,1,90,10|2,0:0|0:0,0:0:0:0:
496,194,237043,1,0,3:0:0:0:
350,85,237225,1,2,0:0:0:0:
512,4,237407,1,10,0:0:0:0:
312,184,237589,6,0,B|227:194|228:135|135:152,1,180,2|2,0:0|0:0,0:0:0:0:
2,298,238134,1,10,0:0:0:0:
173,264,238316,1,8,0:0:0:0:
173,264,238407,1,8,0:0:0:0:
173,264,238498,1,0,3:0:0:0:
46,108,238680,5,2,0:0:0:0:
97,358,238861,1,10,0:0:0:0:
42,93,239043,1,10,0:0:0:0:
262,276,239225,6,0,L|165:262,1,90,6|0,3:2|0:0,0:0:0:0:
332,198,239589,1,10,0:0:0:0:
363,382,239770,2,0,P|379:333|353:284,1,90,2|0,0:0|3:0,0:0:0:0:
328,114,240134,2,0,P|315:156|331:197,1,90,2|8,0:0|0:0,0:0:0:0:
466,317,240498,6,0,P|509:269|431:221,1,180,2|2,0:0|0:0,0:0:0:0:
366,298,241043,1,10,0:0:0:0:
398,120,241225,6,0,P|377:58|297:102,1,180,2|2,0:0|0:0,0:0:0:0:
331,197,241770,1,10,0:0:0:0:
497,136,241952,1,2,0:0:0:0:
316,205,242134,6,0,L|225:187,1,90,0|2,3:0|0:0,0:0:0:0:
89,72,242498,1,10,0:0:0:0:
161,8,242680,2,0,P|231:39|172:97,1,180,2|2,0:0|0:0,0:0:0:0:
26,303,243225,1,10,0:0:0:0:
3,202,243407,1,10,0:0:0:0:
3,202,243498,1,8,0:0:0:0:
3,202,243589,6,0,B|95:188|83:259|190:242,1,180,4|14,3:2|0:0,0:0:0:0:
380,164,244134,1,0,0:0:0:0:
380,164,244225,1,0,0:0:0:0:
380,164,244316,1,4,3:2:0:0:
184,49,244498,5,10,0:0:0:0:
364,265,244680,1,10,0:0:0:0:
478,164,244861,5,2,3:2:0:0:
478,164,247225,6,0,P|439:135|386:146,1,90,0|0,3:2|3:0,0:0:0:0:
325,90,247498,1,0,3:0:0:0:
320,85,247589,2,0,L|329:38,1,45,8|8,0:0|0:0,0:0:0:0:
252,191,247770,2,0,L|243:144,1,45,8|8,0:0|0:0,0:0:0:0:
321,258,247952,6,0,L|313:356,1,90,6|0,3:2|0:0,0:0:0:0:
215,380,248316,1,10,0:0:0:0:
426,234,248498,2,0,L|418:332,1,90,2|0,0:0|3:0,0:0:0:0:
433,144,248861,2,0,L|425:242,1,90,2|8,0:0|0:0,0:0:0:0:
492,56,249225,6,0,P|444:36|339:95,1,180,2|2,0:0|3:2,0:0:0:0:
272,258,249770,2,0,B|283:213|283:213|263:168,1,90,10|2,0:0|0:0,0:0:0:0:
70,120,250134,1,0,3:0:0:0:
180,224,250316,1,2,0:0:0:0:
59,114,250498,1,8,0:0:0:0:
94,314,250680,1,8,0:0:0:0:
94,314,250770,1,8,0:0:0:0:
94,314,250861,6,0,L|84:216,1,90,0|2,3:0|0:0,0:0:0:0:
137,152,251134,1,2,0:0:0:0:
141,148,251225,2,0,P|183:136|230:156,1,90,10|2,0:0|0:0,0:0:0:0:
351,320,251589,1,2,3:2:0:0:
180,224,251770,1,2,0:0:0:0:
366,152,251952,1,8,0:0:0:0:
245,322,252134,1,2,0:0:0:0:
376,142,252316,6,0,L|382:42,1,90,0|2,3:0|0:0,0:0:0:0:
461,5,252589,1,2,0:0:0:0:
467,5,252680,2,0,P|489:15|498:37,1,45,10|0,0:0|0:0,0:0:0:0:
479,118,252861,2,0,L|486:165,1,45,10|8,0:0|0:0,0:0:0:0:
441,240,253043,5,2,3:2:0:0:
275,208,253225,1,2,3:2:0:0:
452,242,253407,1,10,0:0:0:0:
334,384,253589,1,8,0:0:0:0:
334,384,253680,1,8,0:0:0:0:
334,384,253770,6,0,L|348:277,1,90,6|0,3:2|0:0,0:0:0:0:
370,136,254134,1,10,0:0:0:0:
185,215,254316,2,0,L|275:207,1,90,2|0,0:0|3:0,0:0:0:0:
95,222,254680,2,0,L|185:214,1,90,2|10,0:0|0:0,0:0:0:0:
255,34,255043,6,0,P|202:25|132:114,1,180,2|2,0:0|0:0,0:0:0:0:
274,207,255589,1,10,0:0:0:0:
362,0,255770,2,0,L|352:97,1,90,2|0,0:0|3:0,0:0:0:0:
468,215,256134,2,0,P|468:161|447:127,1,90,2|8,0:0|0:0,0:0:0:0:
323,315,256498,1,8,0:0:0:0:
323,315,256589,1,8,0:0:0:0:
323,315,256680,6,0,L|419:308,1,90,0|2,3:0|0:0,0:0:0:0:
184,200,257043,2,0,L|280:207,1,90,10|2,0:0|0:0,0:0:0:0:
136,297,257407,1,2,3:2:0:0:
90,129,257589,1,2,3:2:0:0:
140,310,257770,1,10,0:0:0:0:
85,118,257952,6,0,B|83:75|125:57|125:57|171:90|223:82,1,180,6|10,3:2|0:0,0:0:0:0:
301,49,258407,1,8,0:0:0:0:
306,45,258498,1,2,3:2:0:0:
182,200,258680,1,6,3:2:0:0:
182,200,259043,6,0,L|133:188,1,45,14|0,0:0|0:0,0:0:0:0:
342,350,259225,2,0,L|293:362,1,45,14|0,0:0|0:0,0:0:0:0:
492,188,259407,2,0,L|443:176,1,45,14|0,0:0|0:0,0:0:0:0:
256,192,259589,12,0,262492,0:0:0:0:
256,192,265637,12,2,272653,0:0:0:0:
52,88,273137,6,0,P|101:49|151:209,1,315,2|2,0:0|3:2,0:0:0:0:
336,376,275072,6,0,P|345:296|360:195,1,180,2|2,3:2|0:0,0:0:0:0:
328,112,277007,6,0,P|285:129|240:137,1,90,2|2,3:2|0:0,0:0:0:0:
392,244,277975,2,0,P|434:226|478:218,1,90,2|2,0:0|0:0,0:0:0:0:
267,230,278943,6,0,L|262:275,1,45,2|2,3:2|0:0,0:0:0:0:
419,138,279427,2,0,L|414:93,1,45,2|2,0:0|0:0,0:0:0:0:
347,183,279911,2,0,L|357:280,1,90,2|2,0:0|3:2,0:0:0:0:
356,272,280878,6,0,P|399:244|489:253,2,125.999996154785,0|0|0,3:0|3:0|3:0,0:0:0:0:
304,352,282088,1,2,0:0:0:0:
304,352,282330,2,0,P|264:357|237:360,1,62.9999980773926,2|2,3:2|0:0,0:0:0:0:
144,241,282814,6,0,L|156:115,1,125.999996154785,2|0,3:2|3:0,0:0:0:0:
74,153,283540,1,2,0:0:0:0:
69,158,283661,1,2,0:0:0:0:
64,163,283782,2,0,P|33:171|2:176,1,62.9999980773926,2|0,3:2|0:0,0:0:0:0:
234,227,284266,2,0,P|264:218|295:213,1,62.9999980773926,0|0,3:0|0:0,0:0:0:0:
115,343,284749,6,0,P|61:369|-25:338,2,125.999996154785,2|2|2,3:2|3:2|3:2,0:0:0:0:
211,245,285959,1,0,0:0:0:0:
211,245,286201,2,0,L|219:321,1,62.9999980773926,2|0,3:2|0:0,0:0:0:0:
230,226,286685,5,0,3:0:0:0:
246,327,286927,1,2,3:2:0:0:
302,166,287169,5,2,3:2:0:0:
334,368,287411,1,2,3:2:0:0:
334,368,288620,5,6,3:2:0:0:
445,211,288862,1,2,0:0:0:0:
259,231,289104,2,0,P|313:245|347:263,1,90,10|2,0:0|0:0,0:0:0:0:
334,147,289588,1,2,3:2:0:0:
269,334,289830,1,2,3:2:0:0:
428,192,290072,2,0,P|433:128|425:85,1,90,10|2,0:0|0:0,0:0:0:0:
174,36,290556,5,2,3:2:0:0:
287,197,290798,1,2,0:0:0:0:
321,1,291040,1,10,0:0:0:0:
148,175,291282,1,2,0:0:0:0:
409,275,291524,2,0,P|375:200|260:222,1,180,2|8,3:2|0:0,0:0:0:0:
129,353,292249,5,2,0:0:0:0:
124,347,292370,1,0,0:0:0:0:
119,342,292491,1,2,3:2:0:0:
197,191,292733,1,2,0:0:0:0:
9,269,292975,2,0,L|102:253,1,90,10|2,0:0|0:0,0:0:0:0:
247,85,293459,1,2,3:2:0:0:
98,163,293701,1,2,3:2:0:0:
280,304,293943,2,0,P|284:253|294:212,1,90,10|10,0:0|0:0,0:0:0:0:
368,163,294427,5,2,3:2:0:0:
208,243,294669,1,2,0:0:0:0:
368,322,294911,1,10,0:0:0:0:
286,183,295153,1,2,0:0:0:0:
159,351,295395,2,0,P|60:363|-15:286,1,180,2|8,3:2|0:0,0:0:0:0:
75,157,296120,5,8,0:0:0:0:
80,163,296241,1,8,0:0:0:0:
85,168,296362,2,0,P|94:220|95:268,1,90,6|0,3:2|0:0,0:0:0:0:
253,92,296846,2,0,P|244:40|243:-8,1,90,10|0,0:0|0:0,0:0:0:0:
159,37,297330,1,2,3:2:0:0:
342,106,297572,1,2,3:2:0:0:
165,195,297814,2,0,P|199:187|255:182,1,90,10|2,0:0|0:0,0:0:0:0:
440,3,298298,5,2,3:2:0:0:
426,170,298540,1,2,0:0:0:0:
339,26,298782,1,10,0:0:0:0:
493,91,299024,1,2,0:0:0:0:
330,129,299266,2,0,L|128:108,1,180,2|8,3:2|0:0,0:0:0:0:
33,50,299991,5,2,0:0:0:0:
28,44,300112,1,0,0:0:0:0:
23,39,300233,1,2,3:2:0:0:
56,126,300475,1,2,0:0:0:0:
119,204,300717,5,10,0:0:0:0:
83,311,300959,1,2,0:0:0:0:
233,186,301201,5,2,3:2:0:0:
182,54,301443,1,2,3:2:0:0:
244,217,301685,2,0,L|233:327,1,90,10|2,0:0|0:0,0:0:0:0:
396,112,302169,6,0,P|345:102|292:83,1,90,2|2,3:2|0:0,0:0:0:0:
116,272,302653,2,0,P|167:282|220:301,1,90,14|2,0:0|0:0,0:0:0:0:
339,181,303136,1,2,3:2:0:0:
228,209,303378,1,2,3:2:0:0:
398,279,303620,1,14,0:0:0:0:
345,91,303862,5,8,0:0:0:0:
350,85,303983,1,8,0:0:0:0:
355,80,304104,1,6,3:2:0:0:
501,209,304346,1,2,0:0:0:0:
326,363,304588,2,0,P|319:303|313:245,1,90,10|2,0:0|0:0,0:0:0:0:
436,107,305072,1,2,3:2:0:0:
238,230,305314,1,2,3:2:0:0:
502,299,305556,2,0,P|451:289|395:284,1,90,10|2,0:0|0:0,0:0:0:0:
211,216,306040,5,2,3:2:0:0:
413,284,306282,1,2,0:0:0:0:
201,362,306524,1,10,0:0:0:0:
344,146,306766,1,2,0:0:0:0:
201,362,307007,2,0,B|152:322|89:340|89:340|64:379|18:375,1,180,0|8,3:2|0:0,0:0:0:0:
295,268,307733,5,10,0:0:0:0:
300,274,307854,1,8,0:0:0:0:
305,279,307975,1,2,3:2:0:0:
102,207,308217,1,2,0:0:0:0:
201,362,308459,2,0,P|212:309|197:253,1,90,10|2,0:0|0:0,0:0:0:0:
104,124,308943,1,2,3:2:0:0:
293,203,309185,1,2,3:2:0:0:
115,311,309427,2,0,L|15:303,1,90,10|0,0:0|0:0,0:0:0:0:
225,121,309911,6,0,P|269:114|312:100,1,90,2|0,3:2|0:0,0:0:0:0:
512,275,310395,2,0,P|467:281|424:295,1,90,10|0,0:0|0:0,0:0:0:0:
258,233,310878,2,0,B|349:233|331:169|433:182,1,180,2|8,3:2|0:0,0:0:0:0:
359,299,311604,1,8,0:0:0:0:
179,123,311846,6,0,P|171:74|188:18,1,90,6|0,3:2|0:0,0:0:0:0:
0,199,312330,2,0,P|47:205|87:218,1,90,10|0,0:0|0:0,0:0:0:0:
261,78,312814,1,2,3:2:0:0:
88,118,313056,1,2,3:2:0:0:
240,280,313298,2,0,L|228:384,1,90,10|2,0:0|0:0,0:0:0:0:
173,153,313782,5,2,3:2:0:0:
347,317,314024,2,0,L|407:308,2,45,2|2|10,0:0|0:0|0:0,0:0:0:0:
381,101,314507,2,0,L|372:41,2,45,2|2|2,0:0|0:0|3:2,0:0:0:0:
165,67,314991,2,0,L|105:76,2,45,2|2|10,3:2|0:0|0:0,0:0:0:0:
131,283,315475,1,2,0:0:0:0:
216,207,315717,5,2,3:2:0:0:
42,268,315959,1,2,0:0:0:0:
235,362,316201,2,0,P|276:356|328:348,1,90,10|2,0:0|0:0,0:0:0:0:
151,279,316685,1,2,3:2:0:0:
342,243,316927,1,2,3:2:0:0:
212,120,317169,2,0,P|204:173|225:220,1,90,10|2,0:0|0:0,0:0:0:0:
293,54,317653,5,2,3:2:0:0:
111,170,317895,1,2,0:0:0:0:
323,235,318136,1,10,0:0:0:0:
187,47,318378,1,2,0:0:0:0:
73,277,318620,2,0,P|82:327|85:369,1,90,2|2,3:2|3:2,0:0:0:0:
203,233,319104,1,10,0:0:0:0:
4,187,319346,1,10,0:0:0:0:
168,367,319588,6,0,L|162:315,3,45,2|2|2|2,0:0|0:0|0:0|0:0,0:0:0:0:
290,250,321282,5,2,0:0:0:0:
290,250,321524,2,0,L|284:302,3,45,2|2|2|2,0:0|0:0|0:0|0:0,0:0:0:0:
35,35,326846,5,2,0:0:0:0:
35,43,327121,1,2,0:0:0:0:
95,114,327396,6,0,B|145:108|145:108|176:126|176:126|234:120,1,135.000005149842,2|2,0:0|0:0,0:0:0:0:
286,50,328214,1,2,0:0:0:0:
292,57,328486,2,0,P|332:86|425:55,1,135.000005149842,2|2,0:0|0:0,0:0:0:0:
488,16,329305,1,2,0:0:0:0:
482,136,329577,6,0,L|479:216,1,67.5000025749208,2|2,0:0|0:3,0:0:0:0:
389,226,330127,2,0,L|392:146,1,67.5000025749208,2|2,0:0|0:3,0:0:0:0:
478,298,330677,1,2,0:0:0:0:
385,373,331228,1,2,0:0:0:0:
265,290,331778,6,0,B|214:291|214:291|186:314|186:314|128:317,1,135.000005149842,2|2,0:0|0:0,0:0:0:0:
73,384,332596,1,2,0:3:0:0:
1,325,332868,2,0,L|7:180,1,135.000005149842,2|2,0:0|0:0,0:0:0:0:
14,96,333687,1,2,0:3:0:0:
119,152,333959,6,0,B|170:116|221:162|212:180|265:223|327:175,1,202.500007724762,2|2,0:0|0:0,0:0:0:0:
387,102,335020,1,2,0:3:0:0:
387,91,335286,2,0,L|385:38,2,33.7500012874604,2|2|2,0:3|0:3|0:3,0:0:0:0:
465,141,335817,1,2,0:0:0:0:
402,240,336082,6,0,L|404:316,1,67.5000025749208,2|2,0:0|0:0,0:0:0:0:
314,334,336463,1,0,0:0:0:0:
319,341,336590,2,0,L|316:264,1,67.5000025749208,2|2,0:0|0:0,0:0:0:0:
310,136,337098,1,2,0:0:0:0:
233,222,337353,1,2,0:0:0:0:
165,130,337607,2,0,L|168:53,1,67.5000025749208,2|2,0:0|0:3,0:0:0:0:
59,22,338115,6,0,L|53:167,1,135.000005149842,2|2,0:0|0:0,0:0:0:0:
8,264,338878,2,0,P|68:235|135:272,1,135.000005149842,2|2,0:0|0:0,0:0:0:0:
173,340,339641,1,2,0:3:0:0:
173,348,339895,1,2,0:0:0:0:
268,281,340149,6,0,L|265:196,1,67.5000025749208,2|2,0:3|0:0,0:0:0:0:
349,176,340658,2,0,L|352:261,1,67.5000025749208,2|2,0:0|0:0,0:0:0:0:
302,98,341166,2,0,P|337:80|401:106,2,101.250003862381,2|2|2,0:3|0:3|0:0,0:0:0:0:
208,32,342181,6,0,L|116:28,1,67.5000025749208,2|2,0:0|0:0,0:0:0:0:
1,86,342698,2,0,L|93:82,1,67.5000025749208,2|2,0:0|0:0,0:0:0:0:
180,157,343233,2,0,L|88:153,1,67.5000025749208,2|2,0:0|0:0,0:0:0:0:
49,240,343815,2,0,L|141:236,1,67.5000025749208,2|2,0:0|0:0,0:0:0:0:
172,298,344427,5,2,0:0:0:0:
256,192,344580,12,2,346875,0:0:0:0:
