osu file format v14

[General]
AudioFilename: Chrisye - Cintaku (REDSHiFT Remix).mp3
AudioLeadIn: 0
PreviewTime: 198151
Countdown: 0
SampleSet: Soft
StackLeniency: 0.7
Mode: 3
LetterboxInBreaks: 0
SpecialStyle: 0
WidescreenStoryboard: 1

[Editor]
DistanceSpacing: 0.5
BeatDivisor: 4
GridSize: 32
TimelineZoom: 1.8

[Metadata]
Title:Cintaku (REDSHiFT Remix)
TitleUnicode:Cintaku (REDSHiFT Remix)
Artist:Chrisye
ArtistUnicode:Chrisye
Creator:[ A v a l o n ]
Version:Normal
Source:
Tags:Hatsune Miku Megurine Luka Vocaloid Project Indonesia EDM Cover idoyklik rikuu-p Megu genese erlinadewi-
BeatmapID:945393
BeatmapSetID:419012

[Difficulty]
HPDrainRate:7
CircleSize:4
OverallDifficulty:7
ApproachRate:5
SliderMultiplier:1.4
SliderTickRate:1

[Events]
//Background and Video events
0,0,"Cintaku (REDSHiFT Remix).jpg",0,0
//Break Periods
//Storyboard Layer 0 (Background)
//Storyboard Layer 1 (Fail)
//Storyboard Layer 2 (Pass)
//Storyboard Layer 3 (Foreground)
//Storyboard Layer 4 (Overlay)
//Storyboard Sound Samples

[TimingPoints]
1788,454.545454545455,4,2,1,50,1,0
121788,-100,4,2,1,60,0,1
145424,-100,4,2,1,50,0,0
198151,-100,4,2,1,60,0,1
229060,-100,4,2,1,50,0,0

[HitObjects]
320,192,1788,5,0,0:0:0:0:
192,192,2015,1,0,0:0:0:0:
64,192,2242,1,0,0:0:0:0:
448,192,2469,1,0,0:0:0:0:
320,192,2697,1,0,0:0:0:0:
64,192,2924,1,0,0:0:0:0:
192,192,3151,1,0,0:0:0:0:
320,192,3378,1,0,0:0:0:0:
448,192,3606,1,0,0:0:0:0:
192,192,3833,1,0,0:0:0:0:
320,192,4060,1,0,0:0:0:0:
64,192,4288,1,0,0:0:0:0:
192,192,4515,1,0,0:0:0:0:
320,192,4742,1,0,0:0:0:0:
448,192,4969,1,0,0:0:0:0:
192,192,5197,1,0,0:0:0:0:
320,192,5424,1,0,0:0:0:0:
64,192,5651,1,0,0:0:0:0:
448,192,5878,1,0,0:0:0:0:
192,192,6106,1,0,0:0:0:0:
64,192,6333,1,0,0:0:0:0:
448,192,6560,1,0,0:0:0:0:
320,192,6788,1,0,0:0:0:0:
192,192,7015,1,0,0:0:0:0:
448,192,7242,1,0,0:0:0:0:
64,192,7469,1,0,0:0:0:0:
192,192,7697,1,0,0:0:0:0:
320,192,7924,1,0,0:0:0:0:
64,192,8151,1,0,0:0:0:0:
448,192,8378,1,0,0:0:0:0:
192,192,8606,1,0,0:0:0:0:
320,192,8833,1,0,0:0:0:0:
64,192,9060,1,0,0:0:0:0:
192,192,9288,1,0,0:0:0:0:
448,192,9515,1,0,0:0:0:0:
320,192,9742,1,0,0:0:0:0:
192,192,9969,1,0,0:0:0:0:
448,192,10197,1,0,0:0:0:0:
64,192,10424,1,0,0:0:0:0:
320,192,10651,1,0,0:0:0:0:
192,192,10878,1,0,0:0:0:0:
448,192,11106,1,0,0:0:0:0:
320,192,11333,1,0,0:0:0:0:
64,192,11560,1,0,0:0:0:0:
192,192,11788,1,0,0:0:0:0:
320,192,12015,1,0,0:0:0:0:
448,192,12242,1,0,0:0:0:0:
192,192,12469,1,0,0:0:0:0:
64,192,12697,1,0,0:0:0:0:
448,192,12924,1,0,0:0:0:0:
320,192,13151,1,0,0:0:0:0:
192,192,13378,1,0,0:0:0:0:
320,192,13606,1,0,0:0:0:0:
64,192,13833,1,0,0:0:0:0:
192,192,14060,1,0,0:0:0:0:
320,192,14288,1,0,0:0:0:0:
448,192,14515,1,0,0:0:0:0:
192,192,14742,1,0,0:0:0:0:
320,192,14969,1,0,0:0:0:0:
64,192,15197,1,0,0:0:0:0:
448,192,15424,1,0,0:0:0:0:
192,192,15651,1,0,0:0:0:0:
64,192,15878,1,0,0:0:0:0:
320,192,16106,1,0,0:0:0:0:
64,192,16333,1,0,0:0:0:0:
192,192,16333,1,0,0:0:0:0:
448,192,16560,1,0,0:0:0:0:
320,192,16788,1,0,0:0:0:0:
64,192,17015,1,0,0:0:0:0:
192,192,17015,1,0,0:0:0:0:
320,192,17242,1,0,0:0:0:0:
448,192,17469,1,0,0:0:0:0:
64,192,17697,1,0,0:0:0:0:
192,192,17924,1,0,0:0:0:0:
448,192,18151,1,0,0:0:0:0:
320,192,18151,1,0,0:0:0:0:
64,192,18378,1,0,0:0:0:0:
192,192,18606,1,0,0:0:0:0:
448,192,18833,1,0,0:0:0:0:
320,192,18833,1,0,0:0:0:0:
192,192,19060,1,0,0:0:0:0:
64,192,19288,1,0,0:0:0:0:
448,192,19515,1,0,0:0:0:0:
320,192,19742,1,0,0:0:0:0:
64,192,19969,1,0,0:0:0:0:
192,192,19969,1,0,0:0:0:0:
320,192,20197,1,0,0:0:0:0:
448,192,20424,1,0,0:0:0:0:
64,192,20651,1,0,0:0:0:0:
192,192,20651,1,0,0:0:0:0:
320,192,20878,1,0,0:0:0:0:
448,192,21106,1,0,0:0:0:0:
64,192,21333,1,0,0:0:0:0:
192,192,21560,1,0,0:0:0:0:
320,192,21788,1,0,0:0:0:0:
448,192,21788,1,0,0:0:0:0:
192,192,22015,1,0,0:0:0:0:
64,192,22242,1,0,0:0:0:0:
320,192,22469,1,0,0:0:0:0:
448,192,22469,1,0,0:0:0:0:
192,192,22697,1,0,0:0:0:0:
448,192,22924,1,0,0:0:0:0:
320,192,23151,1,0,0:0:0:0:
64,192,23151,128,0,23378:0:0:0:0:
192,192,23378,128,0,23606:0:0:0:0:
448,192,23606,1,0,0:0:0:0:
320,192,23606,1,0,0:0:0:0:
192,192,23833,1,0,0:0:0:0:
64,192,24060,1,0,0:0:0:0:
320,192,24288,1,0,0:0:0:0:
448,192,24288,1,0,0:0:0:0:
192,192,24515,1,0,0:0:0:0:
64,192,24742,1,0,0:0:0:0:
448,192,24969,1,0,0:0:0:0:
320,192,25197,1,0,0:0:0:0:
64,192,25424,1,0,0:0:0:0:
192,192,25424,1,0,0:0:0:0:
320,192,25651,1,0,0:0:0:0:
448,192,25878,1,0,0:0:0:0:
64,192,26106,1,0,0:0:0:0:
192,192,26106,1,0,0:0:0:0:
320,192,26333,1,0,0:0:0:0:
448,192,26560,1,0,0:0:0:0:
64,192,26788,1,0,0:0:0:0:
192,192,27015,1,0,0:0:0:0:
320,192,27242,1,0,0:0:0:0:
448,192,27242,1,0,0:0:0:0:
64,192,27469,128,0,27924:0:0:0:0:
192,192,27469,1,0,0:0:0:0:
448,192,27697,1,0,0:0:0:0:
320,192,27924,1,0,0:0:0:0:
64,192,28151,128,0,28606:0:0:0:0:
192,192,28151,1,0,0:0:0:0:
448,192,28378,1,0,0:0:0:0:
320,192,28606,1,0,0:0:0:0:
192,192,28833,1,0,0:0:0:0:
64,192,29060,1,0,0:0:0:0:
448,192,29288,1,0,0:0:0:0:
320,192,29288,128,0,29742:0:0:0:0:
64,192,29515,1,0,0:0:0:0:
192,192,29742,1,0,0:0:0:0:
320,192,29969,1,0,0:0:0:0:
448,192,29969,128,0,30197:0:0:0:0:
64,192,30197,128,0,30424:0:0:0:0:
448,192,30424,128,0,30651:0:0:0:0:
64,192,30651,128,0,30878:0:0:0:0:
448,192,30878,1,0,0:0:0:0:
320,192,30878,128,0,31560:0:0:0:0:
192,192,31560,1,0,0:0:0:0:
64,192,31788,1,0,0:0:0:0:
448,192,31788,1,0,0:0:0:0:
64,192,32242,128,0,32697:0:0:0:0:
192,192,32469,128,0,32697:0:0:0:0:
320,192,32697,1,0,0:0:0:0:
448,192,32697,1,0,0:0:0:0:
320,192,33038,1,0,0:0:0:0:
448,192,33038,1,0,0:0:0:0:
320,192,33378,1,0,0:0:0:0:
448,192,33378,1,0,0:0:0:0:
192,192,33606,1,0,0:0:0:0:
64,192,33606,1,0,0:0:0:0:
448,192,34060,128,0,34288:0:0:0:0:
320,192,34288,128,0,34515:0:0:0:0:
64,192,34515,128,0,35424:0:0:0:0:
192,192,34515,1,0,0:0:0:0:
448,192,35424,1,0,0:0:0:0:
320,192,35424,1,0,0:0:0:0:
320,192,35878,128,0,36333:0:0:0:0:
192,192,35878,1,0,0:0:0:0:
192,192,36560,128,0,37015:0:0:0:0:
320,192,36560,1,0,0:0:0:0:
320,192,37015,1,0,0:0:0:0:
448,192,37242,1,0,0:0:0:0:
64,192,37242,128,0,37697:0:0:0:0:
448,192,37697,128,0,38151:0:0:0:0:
320,192,38151,128,0,38606:0:0:0:0:
192,192,38151,1,0,0:0:0:0:
448,192,38606,1,0,0:0:0:0:
64,192,38606,1,0,0:0:0:0:
192,192,38833,128,0,39288:0:0:0:0:
320,192,38833,1,0,0:0:0:0:
64,192,39288,1,0,0:0:0:0:
448,192,39288,1,0,0:0:0:0:
320,192,39515,128,0,40424:0:0:0:0:
192,192,39515,1,0,0:0:0:0:
64,192,40424,128,0,40878:0:0:0:0:
192,192,40651,128,0,40878:0:0:0:0:
448,192,40878,1,0,0:0:0:0:
320,192,40878,1,0,0:0:0:0:
192,192,41106,1,0,0:0:0:0:
64,192,41106,1,0,0:0:0:0:
192,192,41447,1,0,0:0:0:0:
64,192,41447,1,0,0:0:0:0:
192,192,41788,1,0,0:0:0:0:
64,192,41788,128,0,42469:0:0:0:0:
448,192,42469,1,0,0:0:0:0:
320,192,42583,1,0,0:0:0:0:
192,192,42697,1,0,0:0:0:0:
448,192,42697,1,0,0:0:0:0:
192,192,43151,128,0,43378:0:0:0:0:
320,192,43378,128,0,43606:0:0:0:0:
448,192,43606,1,0,0:0:0:0:
64,192,43606,128,0,44060:0:0:0:0:
192,192,44060,1,0,0:0:0:0:
320,192,44060,1,0,0:0:0:0:
64,192,44288,1,0,0:0:0:0:
448,192,44288,128,0,44969:0:0:0:0:
320,192,44742,128,0,44969:0:0:0:0:
64,192,44969,1,0,0:0:0:0:
192,192,45083,1,0,0:0:0:0:
320,192,45197,1,0,0:0:0:0:
448,192,45310,1,0,0:0:0:0:
64,192,45424,1,0,0:0:0:0:
320,192,45765,1,0,0:0:0:0:
64,192,45878,1,0,0:0:0:0:
448,192,46106,1,0,0:0:0:0:
64,192,46333,1,0,0:0:0:0:
320,192,46560,1,0,0:0:0:0:
64,192,46788,1,0,0:0:0:0:
192,192,47015,1,0,0:0:0:0:
320,192,47242,1,0,0:0:0:0:
192,192,47583,1,0,0:0:0:0:
448,192,47697,1,0,0:0:0:0:
64,192,47924,1,0,0:0:0:0:
448,192,48151,1,0,0:0:0:0:
192,192,48378,1,0,0:0:0:0:
448,192,48606,1,0,0:0:0:0:
320,192,48833,1,0,0:0:0:0:
64,192,49060,1,0,0:0:0:0:
448,192,49401,1,0,0:0:0:0:
64,192,49515,1,0,0:0:0:0:
320,192,49742,1,0,0:0:0:0:
64,192,49969,1,0,0:0:0:0:
448,192,50197,1,0,0:0:0:0:
64,192,50424,1,0,0:0:0:0:
192,192,50651,1,0,0:0:0:0:
320,192,50878,1,0,0:0:0:0:
64,192,51219,1,0,0:0:0:0:
448,192,51333,1,0,0:0:0:0:
192,192,51560,1,0,0:0:0:0:
448,192,51788,1,0,0:0:0:0:
64,192,52015,1,0,0:0:0:0:
448,192,52242,1,0,0:0:0:0:
320,192,52469,1,0,0:0:0:0:
192,192,52697,1,0,0:0:0:0:
64,192,53038,1,0,0:0:0:0:
448,192,53151,1,0,0:0:0:0:
192,192,53378,1,0,0:0:0:0:
320,192,53606,1,0,0:0:0:0:
64,192,53833,1,0,0:0:0:0:
192,192,54060,1,0,0:0:0:0:
448,192,54288,1,0,0:0:0:0:
64,192,54515,1,0,0:0:0:0:
320,192,54742,1,0,0:0:0:0:
64,192,54969,1,0,0:0:0:0:
448,192,54969,1,0,0:0:0:0:
192,192,55197,1,0,0:0:0:0:
64,192,55310,1,0,0:0:0:0:
320,192,55424,1,0,0:0:0:0:
192,192,55651,1,0,0:0:0:0:
448,192,55878,1,0,0:0:0:0:
192,192,55878,1,0,0:0:0:0:
320,192,56106,1,0,0:0:0:0:
64,192,56333,1,0,0:0:0:0:
192,192,56560,1,0,0:0:0:0:
64,192,56788,1,0,0:0:0:0:
448,192,56788,1,0,0:0:0:0:
320,192,57015,1,0,0:0:0:0:
192,192,57128,1,0,0:0:0:0:
448,192,57242,1,0,0:0:0:0:
64,192,57469,1,0,0:0:0:0:
64,192,57697,1,0,0:0:0:0:
448,192,57697,1,0,0:0:0:0:
320,192,57924,1,0,0:0:0:0:
448,192,58151,1,0,0:0:0:0:
192,192,58151,1,0,0:0:0:0:
448,192,58378,1,0,0:0:0:0:
192,192,58606,1,0,0:0:0:0:
192,192,58833,1,0,0:0:0:0:
320,192,59060,1,0,0:0:0:0:
64,192,59060,1,0,0:0:0:0:
320,192,59288,1,0,0:0:0:0:
192,192,59515,1,0,0:0:0:0:
192,192,59742,1,0,0:0:0:0:
448,192,59969,128,0,60197:0:0:0:0:
64,192,59969,1,0,0:0:0:0:
192,192,60197,128,0,60424:0:0:0:0:
320,192,60424,128,0,60651:0:0:0:0:
448,192,60424,1,0,0:0:0:0:
64,192,60651,128,0,60878:0:0:0:0:
448,192,60878,128,0,61106:0:0:0:0:
192,192,60878,1,0,0:0:0:0:
320,192,61106,128,0,61333:0:0:0:0:
64,192,61333,128,0,61788:0:0:0:0:
448,192,61333,1,0,0:0:0:0:
192,192,61560,128,0,61788:0:0:0:0:
448,192,61788,128,0,63151:0:0:0:0:
64,192,63151,128,0,63606:0:0:0:0:
192,192,63151,1,0,0:0:0:0:
320,192,63606,128,0,64060:0:0:0:0:
448,192,63606,1,0,0:0:0:0:
192,192,64060,1,0,0:0:0:0:
64,192,64174,1,0,0:0:0:0:
192,192,64401,1,0,0:0:0:0:
320,192,64515,1,0,0:0:0:0:
64,192,64742,128,0,64969:0:0:0:0:
320,192,64969,1,0,0:0:0:0:
448,192,65197,128,0,65424:0:0:0:0:
64,192,65424,1,0,0:0:0:0:
320,192,65651,1,0,0:0:0:0:
192,192,65765,1,0,0:0:0:0:
320,192,65878,128,0,66106:0:0:0:0:
64,192,66106,128,0,66333:0:0:0:0:
448,192,66333,1,0,0:0:0:0:
192,192,66560,128,0,66788:0:0:0:0:
320,192,66788,1,0,0:0:0:0:
64,192,67015,1,0,0:0:0:0:
192,192,67128,1,0,0:0:0:0:
448,192,67242,128,0,67697:0:0:0:0:
64,192,67469,1,0,0:0:0:0:
320,192,67697,1,0,0:0:0:0:
192,192,68038,1,0,0:0:0:0:
320,192,68151,1,0,0:0:0:0:
64,192,68265,1,0,0:0:0:0:
448,192,68606,1,0,0:0:0:0:
192,192,68833,128,0,69060:0:0:0:0:
320,192,69060,1,0,0:0:0:0:
448,192,69288,1,0,0:0:0:0:
64,192,69515,128,0,69969:0:0:0:0:
192,192,69969,1,0,0:0:0:0:
320,192,70197,1,0,0:0:0:0:
448,192,70424,128,0,70878:0:0:0:0:
64,192,70878,128,0,71333:0:0:0:0:
192,192,71106,128,0,71333:0:0:0:0:
320,192,71333,1,0,0:0:0:0:
448,192,71447,1,0,0:0:0:0:
192,192,71674,1,0,0:0:0:0:
320,192,71788,1,0,0:0:0:0:
64,192,71901,1,0,0:0:0:0:
448,192,72128,1,0,0:0:0:0:
192,192,72242,1,0,0:0:0:0:
320,192,72469,128,0,72697:0:0:0:0:
64,192,72697,1,0,0:0:0:0:
192,192,72924,128,0,73151:0:0:0:0:
448,192,73151,1,0,0:0:0:0:
320,192,73265,1,0,0:0:0:0:
192,192,73378,1,0,0:0:0:0:
64,192,73492,1,0,0:0:0:0:
448,192,73606,128,0,73833:0:0:0:0:
64,192,74060,128,0,74515:0:0:0:0:
192,192,74288,128,0,74515:0:0:0:0:
320,192,74742,1,0,0:0:0:0:
448,192,74856,1,0,0:0:0:0:
192,192,74969,1,0,0:0:0:0:
320,192,75083,1,0,0:0:0:0:
64,192,75197,128,0,75424:0:0:0:0:
448,192,75424,1,0,0:0:0:0:
320,192,75538,1,0,0:0:0:0:
192,192,75651,1,0,0:0:0:0:
64,192,75765,1,0,0:0:0:0:
448,192,75878,128,0,76333:0:0:0:0:
320,192,76333,1,0,0:0:0:0:
64,192,76560,128,0,76788:0:0:0:0:
448,192,76788,128,0,77015:0:0:0:0:
192,192,77242,1,0,0:0:0:0:
320,192,77242,128,0,77697:0:0:0:0:
64,192,77697,128,0,78151:0:0:0:0:
448,192,77697,1,0,0:0:0:0:
320,192,78151,1,0,0:0:0:0:
192,192,78378,1,0,0:0:0:0:
448,192,78606,128,0,78833:0:0:0:0:
320,192,78833,1,0,0:0:0:0:
192,192,79060,1,0,0:0:0:0:
64,192,79288,128,0,79515:0:0:0:0:
320,192,79515,1,0,0:0:0:0:
192,192,79742,128,0,79969:0:0:0:0:
448,192,79969,1,0,0:0:0:0:
320,192,80197,128,0,80424:0:0:0:0:
64,192,80424,1,0,0:0:0:0:
448,192,80651,128,0,80878:0:0:0:0:
192,192,80878,128,0,81106:0:0:0:0:
320,192,81106,128,0,81333:0:0:0:0:
64,192,81333,128,0,81560:0:0:0:0:
448,192,81560,128,0,81788:0:0:0:0:
320,192,81788,1,0,0:0:0:0:
192,192,81788,128,0,82242:0:0:0:0:
64,192,82242,1,0,0:0:0:0:
448,192,82242,128,0,82469:0:0:0:0:
320,192,82469,1,0,0:0:0:0:
192,192,82697,1,0,0:0:0:0:
320,192,82924,128,0,83151:0:0:0:0:
64,192,83151,1,0,0:0:0:0:
192,192,83378,128,0,83606:0:0:0:0:
448,192,83606,1,0,0:0:0:0:
64,192,83833,128,0,84060:0:0:0:0:
320,192,84060,1,0,0:0:0:0:
448,192,84288,128,0,84515:0:0:0:0:
192,192,84515,128,0,84742:0:0:0:0:
320,192,84742,128,0,84969:0:0:0:0:
192,192,84969,1,0,0:0:0:0:
64,192,84969,128,0,85424:0:0:0:0:
448,192,85424,128,0,85878:0:0:0:0:
320,192,85424,1,0,0:0:0:0:
192,192,85878,1,0,0:0:0:0:
64,192,85878,128,0,86106:0:0:0:0:
320,192,86106,1,0,0:0:0:0:
448,192,86333,1,0,0:0:0:0:
192,192,86560,128,0,86788:0:0:0:0:
64,192,86788,1,0,0:0:0:0:
320,192,87015,128,0,87242:0:0:0:0:
192,192,87242,1,0,0:0:0:0:
448,192,87469,128,0,87697:0:0:0:0:
64,192,87697,1,0,0:0:0:0:
192,192,87924,128,0,88151:0:0:0:0:
320,192,88151,1,0,0:0:0:0:
64,192,88378,128,0,88606:0:0:0:0:
448,192,88606,1,0,0:0:0:0:
320,192,88833,1,0,0:0:0:0:
192,192,89060,1,0,0:0:0:0:
192,192,89288,1,0,0:0:0:0:
320,192,89515,1,0,0:0:0:0:
320,192,89742,1,0,0:0:0:0:
64,192,89969,1,0,0:0:0:0:
64,192,90197,1,0,0:0:0:0:
448,192,90424,1,0,0:0:0:0:
448,192,90651,1,0,0:0:0:0:
192,192,90878,128,0,91106:0:0:0:0:
320,192,91106,128,0,91333:0:0:0:0:
64,192,91333,128,0,91560:0:0:0:0:
192,192,91560,128,0,91788:0:0:0:0:
448,192,91788,128,0,92015:0:0:0:0:
320,192,92015,128,0,92242:0:0:0:0:
192,192,92242,128,0,92697:0:0:0:0:
64,192,92242,128,0,92697:0:0:0:0:
448,192,92697,1,0,0:0:0:0:
320,192,93151,1,0,0:0:0:0:
64,192,93378,1,0,0:0:0:0:
320,192,93833,1,0,0:0:0:0:
192,192,94060,1,0,0:0:0:0:
448,192,94288,128,0,94742:0:0:0:0:
320,192,94742,128,0,95197:0:0:0:0:
192,192,95197,128,0,95651:0:0:0:0:
64,192,95651,128,0,96106:0:0:0:0:
320,192,96106,1,0,0:0:0:0:
448,192,96333,1,0,0:0:0:0:
320,192,96788,1,0,0:0:0:0:
192,192,97015,1,0,0:0:0:0:
320,192,97469,1,0,0:0:0:0:
64,192,97697,1,0,0:0:0:0:
448,192,97924,128,0,98378:0:0:0:0:
192,192,98378,128,0,98833:0:0:0:0:
320,192,98833,128,0,99288:0:0:0:0:
64,192,99288,128,0,99742:0:0:0:0:
448,192,99742,1,0,0:0:0:0:
192,192,99969,1,0,0:0:0:0:
192,192,100424,1,0,0:0:0:0:
448,192,100651,128,0,100878:0:0:0:0:
64,192,100878,1,0,0:0:0:0:
320,192,101106,1,0,0:0:0:0:
192,192,101333,128,0,101560:0:0:0:0:
448,192,101560,128,0,101788:0:0:0:0:
64,192,101788,1,0,0:0:0:0:
320,192,102015,128,0,102242:0:0:0:0:
448,192,102242,1,0,0:0:0:0:
192,192,102469,128,0,102697:0:0:0:0:
320,192,102697,1,0,0:0:0:0:
64,192,102924,128,0,103151:0:0:0:0:
192,192,103151,1,0,0:0:0:0:
448,192,103378,128,0,103606:0:0:0:0:
64,192,103606,1,0,0:0:0:0:
320,192,104060,1,0,0:0:0:0:
192,192,104288,128,0,104515:0:0:0:0:
448,192,104515,1,0,0:0:0:0:
320,192,104742,1,0,0:0:0:0:
64,192,104969,128,0,105197:0:0:0:0:
448,192,105197,128,0,105424:0:0:0:0:
192,192,105424,1,0,0:0:0:0:
320,192,105651,128,0,105878:0:0:0:0:
64,192,105878,1,0,0:0:0:0:
192,192,106106,128,0,106333:0:0:0:0:
448,192,106333,128,0,106560:0:0:0:0:
64,192,106560,128,0,106788:0:0:0:0:
320,192,106788,128,0,107015:0:0:0:0:
64,192,107242,1,0,0:0:0:0:
192,192,107242,1,0,0:0:0:0:
448,192,107469,1,0,0:0:0:0:
192,192,107697,1,0,0:0:0:0:
320,192,107924,1,0,0:0:0:0:
64,192,108151,1,0,0:0:0:0:
320,192,108378,1,0,0:0:0:0:
192,192,108606,1,0,0:0:0:0:
448,192,108833,1,0,0:0:0:0:
64,192,109060,1,0,0:0:0:0:
192,192,109288,1,0,0:0:0:0:
320,192,109515,1,0,0:0:0:0:
448,192,109742,1,0,0:0:0:0:
192,192,109969,1,0,0:0:0:0:
320,192,110197,1,0,0:0:0:0:
64,192,110424,1,0,0:0:0:0:
448,192,110651,1,0,0:0:0:0:
64,192,110878,1,0,0:0:0:0:
320,192,111106,1,0,0:0:0:0:
192,192,111333,1,0,0:0:0:0:
448,192,111560,1,0,0:0:0:0:
64,192,111788,1,0,0:0:0:0:
192,192,112015,1,0,0:0:0:0:
320,192,112242,1,0,0:0:0:0:
448,192,112469,1,0,0:0:0:0:
192,192,112697,1,0,0:0:0:0:
320,192,112924,1,0,0:0:0:0:
64,192,113151,1,0,0:0:0:0:
192,192,113378,1,0,0:0:0:0:
448,192,113606,1,0,0:0:0:0:
320,192,113833,1,0,0:0:0:0:
192,192,114060,1,0,0:0:0:0:
64,192,114288,1,0,0:0:0:0:
320,192,114515,1,0,0:0:0:0:
192,192,114742,1,0,0:0:0:0:
448,192,114969,1,0,0:0:0:0:
64,192,115197,1,0,0:0:0:0:
448,192,115424,1,0,0:0:0:0:
192,192,115651,1,0,0:0:0:0:
320,192,115878,1,0,0:0:0:0:
64,192,116106,1,0,0:0:0:0:
320,192,116333,1,0,0:0:0:0:
192,192,116560,1,0,0:0:0:0:
448,192,116788,1,0,0:0:0:0:
320,192,117015,1,0,0:0:0:0:
64,192,117242,1,0,0:0:0:0:
192,192,117469,1,0,0:0:0:0:
320,192,117697,1,0,0:0:0:0:
448,192,117924,1,0,0:0:0:0:
64,192,118151,1,0,0:0:0:0:
64,192,118378,1,0,0:0:0:0:
320,192,118606,1,0,0:0:0:0:
320,192,118833,1,0,0:0:0:0:
192,192,119060,1,0,0:0:0:0:
192,192,119288,1,0,0:0:0:0:
448,192,119515,1,0,0:0:0:0:
448,192,119742,1,0,0:0:0:0:
64,192,119969,1,0,0:0:0:0:
320,192,120197,1,0,0:0:0:0:
192,192,120310,1,0,0:0:0:0:
64,192,120424,1,0,0:0:0:0:
320,192,120651,1,0,0:0:0:0:
448,192,120651,1,0,0:0:0:0:
192,192,120878,1,0,0:0:0:0:
64,192,120878,128,0,121106:0:0:0:0:
320,192,121106,1,0,0:0:0:0:
448,192,121106,128,0,121333:0:0:0:0:
192,192,121333,1,0,0:0:0:0:
64,192,121333,128,0,121560:0:0:0:0:
448,192,121560,128,0,121788:0:0:0:0:
192,192,121788,1,0,0:0:0:0:
320,192,122015,1,0,0:0:0:0:
192,192,122242,1,0,0:0:0:0:
64,192,122242,1,0,0:0:0:0:
448,192,122469,1,0,0:0:0:0:
192,192,122697,1,0,0:0:0:0:
320,192,122924,1,0,0:0:0:0:
448,192,123151,1,0,0:0:0:0:
64,192,123151,1,0,0:0:0:0:
192,192,123378,1,0,0:0:0:0:
320,192,123606,1,0,0:0:0:0:
192,192,123833,1,0,0:0:0:0:
320,192,124060,1,0,0:0:0:0:
64,192,124060,1,0,0:0:0:0:
448,192,124288,1,0,0:0:0:0:
192,192,124515,1,0,0:0:0:0:
320,192,124742,1,0,0:0:0:0:
448,192,124969,1,0,0:0:0:0:
64,192,124969,1,0,0:0:0:0:
192,192,125197,1,0,0:0:0:0:
320,192,125424,1,0,0:0:0:0:
64,192,125651,1,0,0:0:0:0:
448,192,125878,1,0,0:0:0:0:
320,192,125878,1,0,0:0:0:0:
192,192,126106,1,0,0:0:0:0:
448,192,126333,1,0,0:0:0:0:
64,192,126560,1,0,0:0:0:0:
320,192,126788,1,0,0:0:0:0:
192,192,126788,1,0,0:0:0:0:
448,192,127015,1,0,0:0:0:0:
64,192,127242,1,0,0:0:0:0:
192,192,127469,1,0,0:0:0:0:
320,192,127697,1,0,0:0:0:0:
448,192,127697,1,0,0:0:0:0:
64,192,127924,1,0,0:0:0:0:
320,192,128151,1,0,0:0:0:0:
192,192,128378,1,0,0:0:0:0:
320,192,128606,1,0,0:0:0:0:
64,192,128606,1,0,0:0:0:0:
448,192,128833,1,0,0:0:0:0:
192,192,129060,1,0,0:0:0:0:
320,192,129288,1,0,0:0:0:0:
64,192,129515,1,0,0:0:0:0:
192,192,129515,1,0,0:0:0:0:
448,192,129742,1,0,0:0:0:0:
320,192,129969,1,0,0:0:0:0:
192,192,130197,1,0,0:0:0:0:
448,192,130424,1,0,0:0:0:0:
64,192,130424,1,0,0:0:0:0:
320,192,130651,1,0,0:0:0:0:
192,192,130878,1,0,0:0:0:0:
448,192,131106,1,0,0:0:0:0:
320,192,131333,1,0,0:0:0:0:
64,192,131333,1,0,0:0:0:0:
192,192,131560,1,0,0:0:0:0:
320,192,131788,1,0,0:0:0:0:
64,192,132015,1,0,0:0:0:0:
448,192,132242,1,0,0:0:0:0:
192,192,132242,1,0,0:0:0:0:
320,192,132469,1,0,0:0:0:0:
64,192,132697,1,0,0:0:0:0:
192,192,132924,1,0,0:0:0:0:
320,192,133151,1,0,0:0:0:0:
64,192,133151,1,0,0:0:0:0:
448,192,133378,1,0,0:0:0:0:
192,192,133606,1,0,0:0:0:0:
320,192,133833,1,0,0:0:0:0:
64,192,134060,1,0,0:0:0:0:
192,192,134060,1,0,0:0:0:0:
448,192,134288,1,0,0:0:0:0:
64,192,134515,1,0,0:0:0:0:
192,192,134742,1,0,0:0:0:0:
448,192,134969,1,0,0:0:0:0:
320,192,134969,1,0,0:0:0:0:
64,192,135197,1,0,0:0:0:0:
320,192,135424,1,0,0:0:0:0:
192,192,135651,1,0,0:0:0:0:
320,192,135878,1,0,0:0:0:0:
448,192,135878,1,0,0:0:0:0:
64,192,136106,1,0,0:0:0:0:
192,192,136333,1,0,0:0:0:0:
448,192,136560,1,0,0:0:0:0:
320,192,136788,1,0,0:0:0:0:
64,192,136788,1,0,0:0:0:0:
192,192,137015,1,0,0:0:0:0:
448,192,137242,1,0,0:0:0:0:
320,192,137469,1,0,0:0:0:0:
64,192,137697,1,0,0:0:0:0:
192,192,137697,1,0,0:0:0:0:
320,192,137924,1,0,0:0:0:0:
64,192,138151,1,0,0:0:0:0:
192,192,138378,1,0,0:0:0:0:
320,192,138606,1,0,0:0:0:0:
448,192,138606,1,0,0:0:0:0:
64,192,138833,1,0,0:0:0:0:
448,192,139060,1,0,0:0:0:0:
192,192,139288,1,0,0:0:0:0:
448,192,139515,1,0,0:0:0:0:
320,192,139515,1,0,0:0:0:0:
64,192,139742,1,0,0:0:0:0:
320,192,139969,1,0,0:0:0:0:
192,192,140197,1,0,0:0:0:0:
448,192,140424,1,0,0:0:0:0:
64,192,140424,1,0,0:0:0:0:
320,192,140651,128,0,141333:0:0:0:0:
64,192,140878,1,0,0:0:0:0:
192,192,141106,1,0,0:0:0:0:
448,192,141333,128,0,141788:0:0:0:0:
64,192,141333,1,0,0:0:0:0:
192,192,141788,1,0,0:0:0:0:
320,192,142015,1,0,0:0:0:0:
64,192,142242,1,0,0:0:0:0:
448,192,142242,1,0,0:0:0:0:
192,192,142469,1,0,0:0:0:0:
320,192,142697,1,0,0:0:0:0:
64,192,142924,1,0,0:0:0:0:
320,192,143151,1,0,0:0:0:0:
448,192,143151,1,0,0:0:0:0:
192,192,143378,1,0,0:0:0:0:
448,192,143606,1,0,0:0:0:0:
448,192,143833,1,0,0:0:0:0:
64,192,144060,1,0,0:0:0:0:
192,192,144060,1,0,0:0:0:0:
448,192,144288,1,0,0:0:0:0:
320,192,144288,128,0,144742:0:0:0:0:
192,192,144742,128,0,145197:0:0:0:0:
448,192,144969,1,0,0:0:0:0:
64,192,145197,128,0,146333:0:0:0:0:
320,192,145424,1,0,0:0:0:0:
448,192,145424,1,0,0:0:0:0:
448,192,146333,1,0,0:0:0:0:
192,192,146333,1,0,0:0:0:0:
320,192,147015,1,0,0:0:0:0:
192,192,147015,128,0,147924:0:0:0:0:
448,192,147924,1,0,0:0:0:0:
320,192,147924,1,0,0:0:0:0:
192,192,148151,1,0,0:0:0:0:
64,192,148151,1,0,0:0:0:0:
448,192,148606,1,0,0:0:0:0:
320,192,148833,1,0,0:0:0:0:
64,192,149060,128,0,149742:0:0:0:0:
192,192,149060,1,0,0:0:0:0:
320,192,149742,1,0,0:0:0:0:
448,192,149742,1,0,0:0:0:0:
192,192,149969,1,0,0:0:0:0:
64,192,149969,1,0,0:0:0:0:
448,192,150651,128,0,151333:0:0:0:0:
320,192,150651,1,0,0:0:0:0:
64,192,151333,1,0,0:0:0:0:
320,192,151560,1,0,0:0:0:0:
192,192,151674,1,0,0:0:0:0:
64,192,151788,1,0,0:0:0:0:
448,192,151788,1,0,0:0:0:0:
320,192,152242,1,0,0:0:0:0:
448,192,152242,128,0,152697:0:0:0:0:
192,192,152697,1,0,0:0:0:0:
64,192,152697,128,0,153606:0:0:0:0:
320,192,153606,1,0,0:0:0:0:
448,192,153606,1,0,0:0:0:0:
192,192,154060,1,0,0:0:0:0:
448,192,154060,128,0,154742:0:0:0:0:
192,192,154742,1,0,0:0:0:0:
64,192,154742,1,0,0:0:0:0:
192,192,154969,1,0,0:0:0:0:
64,192,154969,128,0,155424:0:0:0:0:
320,192,155424,1,0,0:0:0:0:
448,192,155424,1,0,0:0:0:0:
192,192,155878,1,0,0:0:0:0:
320,192,156106,1,0,0:0:0:0:
448,192,156333,1,0,0:0:0:0:
64,192,156333,128,0,157015:0:0:0:0:
320,192,157015,1,0,0:0:0:0:
448,192,157015,1,0,0:0:0:0:
64,192,157242,1,0,0:0:0:0:
192,192,157242,1,0,0:0:0:0:
320,192,157924,1,0,0:0:0:0:
448,192,157924,128,0,158606:0:0:0:0:
64,192,158606,1,0,0:0:0:0:
320,192,158833,1,0,0:0:0:0:
192,192,158947,1,0,0:0:0:0:
448,192,159060,1,0,0:0:0:0:
64,192,159060,128,0,159969:0:0:0:0:
192,192,159515,128,0,159969:0:0:0:0:
448,192,159969,128,0,163606:0:0:0:0:
320,192,159969,1,0,0:0:0:0:
64,192,160878,1,0,0:0:0:0:
192,192,160878,1,0,0:0:0:0:
320,192,161333,1,0,0:0:0:0:
320,192,162015,1,0,0:0:0:0:
192,192,162469,1,0,0:0:0:0:
64,192,162697,1,0,0:0:0:0:
320,192,162697,1,0,0:0:0:0:
192,192,162924,1,0,0:0:0:0:
192,192,163606,1,0,0:0:0:0:
64,192,163606,128,0,164060:0:0:0:0:
448,192,164060,1,0,0:0:0:0:
320,192,164060,128,0,164515:0:0:0:0:
64,192,164515,1,0,0:0:0:0:
192,192,164515,1,0,0:0:0:0:
448,192,165197,128,0,165651:0:0:0:0:
192,192,165197,1,0,0:0:0:0:
64,192,165651,128,0,165878:0:0:0:0:
320,192,165651,1,0,0:0:0:0:
192,192,166106,1,0,0:0:0:0:
320,192,166106,1,0,0:0:0:0:
448,192,166333,1,0,0:0:0:0:
64,192,166333,1,0,0:0:0:0:
192,192,166560,1,0,0:0:0:0:
320,192,166788,1,0,0:0:0:0:
448,192,166788,128,0,167242:0:0:0:0:
192,192,167242,1,0,0:0:0:0:
64,192,167242,1,0,0:0:0:0:
64,192,167583,1,0,0:0:0:0:
192,192,167583,1,0,0:0:0:0:
64,192,167924,1,0,0:0:0:0:
192,192,167924,1,0,0:0:0:0:
448,192,168151,1,0,0:0:0:0:
320,192,168151,1,0,0:0:0:0:
64,192,168378,1,0,0:0:0:0:
320,192,168606,1,0,0:0:0:0:
448,192,168606,1,0,0:0:0:0:
320,192,168947,1,0,0:0:0:0:
448,192,168947,1,0,0:0:0:0:
320,192,169288,1,0,0:0:0:0:
448,192,169288,1,0,0:0:0:0:
192,192,169515,1,0,0:0:0:0:
64,192,169515,1,0,0:0:0:0:
320,192,169742,1,0,0:0:0:0:
64,192,169969,1,0,0:0:0:0:
448,192,169969,1,0,0:0:0:0:
192,192,170197,1,0,0:0:0:0:
448,192,170424,1,0,0:0:0:0:
320,192,170424,1,0,0:0:0:0:
64,192,170651,1,0,0:0:0:0:
320,192,170878,128,0,171333:0:0:0:0:
192,192,170878,1,0,0:0:0:0:
64,192,171333,1,0,0:0:0:0:
448,192,171333,1,0,0:0:0:0:
192,192,171560,128,0,172015:0:0:0:0:
320,192,171560,1,0,0:0:0:0:
64,192,172015,1,0,0:0:0:0:
448,192,172015,1,0,0:0:0:0:
448,192,172469,1,0,0:0:0:0:
320,192,172469,128,0,172924:0:0:0:0:
64,192,172924,1,0,0:0:0:0:
192,192,172924,1,0,0:0:0:0:
320,192,173151,1,0,0:0:0:0:
448,192,173151,1,0,0:0:0:0:
192,192,173378,1,0,0:0:0:0:
320,192,173492,1,0,0:0:0:0:
448,192,173606,1,0,0:0:0:0:
64,192,173606,1,0,0:0:0:0:
192,192,173833,1,0,0:0:0:0:
64,192,174060,128,0,174515:0:0:0:0:
448,192,174060,1,0,0:0:0:0:
320,192,174515,5,0,0:0:0:0:
448,192,174515,1,0,0:0:0:0:
192,192,176333,1,0,0:0:0:0:
448,192,176333,1,0,0:0:0:0:
320,192,178151,1,0,0:0:0:0:
64,192,178151,1,0,0:0:0:0:
64,192,179969,1,0,0:0:0:0:
192,192,179969,128,0,180197:0:0:0:0:
320,192,180197,128,0,180424:0:0:0:0:
448,192,180424,128,0,180651:0:0:0:0:
192,192,180651,128,0,180878:0:0:0:0:
320,192,180878,128,0,181106:0:0:0:0:
64,192,181106,128,0,181333:0:0:0:0:
192,192,181333,128,0,181560:0:0:0:0:
64,192,181788,1,0,0:0:0:0:
448,192,181788,1,0,0:0:0:0:
320,192,182015,1,0,0:0:0:0:
64,192,182242,1,0,0:0:0:0:
448,192,182469,1,0,0:0:0:0:
64,192,182697,1,0,0:0:0:0:
320,192,182924,1,0,0:0:0:0:
64,192,183151,1,0,0:0:0:0:
192,192,183378,1,0,0:0:0:0:
320,192,183606,1,0,0:0:0:0:
448,192,183606,1,0,0:0:0:0:
64,192,183833,1,0,0:0:0:0:
448,192,184060,1,0,0:0:0:0:
192,192,184288,1,0,0:0:0:0:
448,192,184515,1,0,0:0:0:0:
64,192,184742,1,0,0:0:0:0:
448,192,184969,1,0,0:0:0:0:
320,192,185197,1,0,0:0:0:0:
64,192,185424,1,0,0:0:0:0:
192,192,185424,1,0,0:0:0:0:
448,192,185651,1,0,0:0:0:0:
64,192,185878,1,0,0:0:0:0:
320,192,186106,1,0,0:0:0:0:
64,192,186333,1,0,0:0:0:0:
448,192,186560,1,0,0:0:0:0:
64,192,186788,1,0,0:0:0:0:
192,192,187015,1,0,0:0:0:0:
320,192,187242,1,0,0:0:0:0:
448,192,187242,1,0,0:0:0:0:
64,192,187469,1,0,0:0:0:0:
448,192,187697,1,0,0:0:0:0:
192,192,187924,1,0,0:0:0:0:
448,192,188151,1,0,0:0:0:0:
64,192,188378,1,0,0:0:0:0:
448,192,188606,1,0,0:0:0:0:
320,192,188833,1,0,0:0:0:0:
192,192,189060,1,0,0:0:0:0:
64,192,189060,128,0,190878:0:0:0:0:
192,192,189515,1,0,0:0:0:0:
448,192,189515,1,0,0:0:0:0:
320,192,189969,1,0,0:0:0:0:
448,192,190424,1,0,0:0:0:0:
192,192,190424,1,0,0:0:0:0:
320,192,190878,1,0,0:0:0:0:
192,192,190878,128,0,192697:0:0:0:0:
448,192,191333,1,0,0:0:0:0:
64,192,191333,1,0,0:0:0:0:
320,192,191788,1,0,0:0:0:0:
448,192,192242,1,0,0:0:0:0:
64,192,192242,1,0,0:0:0:0:
320,192,192697,128,0,194515:0:0:0:0:
448,192,192697,1,0,0:0:0:0:
192,192,193151,1,0,0:0:0:0:
64,192,193151,1,0,0:0:0:0:
448,192,193606,1,0,0:0:0:0:
64,192,194060,1,0,0:0:0:0:
192,192,194060,1,0,0:0:0:0:
448,192,194515,128,0,195197:0:0:0:0:
64,192,194515,1,0,0:0:0:0:
192,192,194969,1,0,0:0:0:0:
64,192,195197,128,0,196333:0:0:0:0:
320,192,195651,1,0,0:0:0:0:
192,192,195878,1,0,0:0:0:0:
448,192,195878,1,0,0:0:0:0:
192,192,196106,1,0,0:0:0:0:
320,192,196333,1,0,0:0:0:0:
448,192,196333,1,0,0:0:0:0:
320,192,196560,1,0,0:0:0:0:
448,192,196560,1,0,0:0:0:0:
192,192,197015,128,0,197469:0:0:0:0:
320,192,197469,128,0,197924:0:0:0:0:
448,192,197924,128,0,199515:0:0:0:0:
64,192,198151,1,0,0:0:0:0:
320,192,198378,1,0,0:0:0:0:
64,192,198606,1,0,0:0:0:0:
192,192,198606,1,0,0:0:0:0:
320,192,198833,1,0,0:0:0:0:
64,192,199060,1,0,0:0:0:0:
192,192,199288,1,0,0:0:0:0:
320,192,199515,1,0,0:0:0:0:
64,192,199515,1,0,0:0:0:0:
192,192,199742,1,0,0:0:0:0:
448,192,199969,1,0,0:0:0:0:
320,192,200197,1,0,0:0:0:0:
192,192,200424,1,0,0:0:0:0:
64,192,200424,1,0,0:0:0:0:
448,192,200651,1,0,0:0:0:0:
192,192,200878,1,0,0:0:0:0:
320,192,201106,1,0,0:0:0:0:
448,192,201333,1,0,0:0:0:0:
64,192,201333,1,0,0:0:0:0:
192,192,201560,1,0,0:0:0:0:
320,192,201788,1,0,0:0:0:0:
64,192,202015,1,0,0:0:0:0:
320,192,202242,1,0,0:0:0:0:
448,192,202242,1,0,0:0:0:0:
192,192,202469,1,0,0:0:0:0:
320,192,202697,1,0,0:0:0:0:
64,192,202924,1,0,0:0:0:0:
192,192,203151,1,0,0:0:0:0:
448,192,203151,1,0,0:0:0:0:
320,192,203378,1,0,0:0:0:0:
448,192,203606,1,0,0:0:0:0:
192,192,203833,1,0,0:0:0:0:
320,192,204060,1,0,0:0:0:0:
64,192,204060,1,0,0:0:0:0:
192,192,204288,1,0,0:0:0:0:
448,192,204515,1,0,0:0:0:0:
320,192,204742,1,0,0:0:0:0:
192,192,204969,1,0,0:0:0:0:
448,192,204969,1,0,0:0:0:0:
64,192,205197,1,0,0:0:0:0:
320,192,205424,1,0,0:0:0:0:
192,192,205651,1,0,0:0:0:0:
64,192,205878,1,0,0:0:0:0:
320,192,205878,1,0,0:0:0:0:
448,192,206106,1,0,0:0:0:0:
192,192,206333,1,0,0:0:0:0:
320,192,206560,1,0,0:0:0:0:
448,192,206788,1,0,0:0:0:0:
64,192,206788,1,0,0:0:0:0:
192,192,207015,1,0,0:0:0:0:
320,192,207242,1,0,0:0:0:0:
192,192,207469,1,0,0:0:0:0:
448,192,207697,1,0,0:0:0:0:
320,192,207697,1,0,0:0:0:0:
64,192,207924,1,0,0:0:0:0:
448,192,208151,1,0,0:0:0:0:
320,192,208378,1,0,0:0:0:0:
192,192,208606,1,0,0:0:0:0:
64,192,208606,1,0,0:0:0:0:
448,192,208833,1,0,0:0:0:0:
320,192,209060,1,0,0:0:0:0:
64,192,209288,1,0,0:0:0:0:
448,192,209515,1,0,0:0:0:0:
192,192,209515,1,0,0:0:0:0:
320,192,209742,1,0,0:0:0:0:
64,192,209969,1,0,0:0:0:0:
192,192,210197,1,0,0:0:0:0:
320,192,210424,1,0,0:0:0:0:
448,192,210424,1,0,0:0:0:0:
64,192,210651,1,0,0:0:0:0:
448,192,210878,1,0,0:0:0:0:
320,192,211106,1,0,0:0:0:0:
192,192,211333,1,0,0:0:0:0:
64,192,211333,1,0,0:0:0:0:
320,192,211560,1,0,0:0:0:0:
448,192,211788,1,0,0:0:0:0:
192,192,212015,1,0,0:0:0:0:
320,192,212242,1,0,0:0:0:0:
64,192,212242,1,0,0:0:0:0:
448,192,212469,1,0,0:0:0:0:
64,192,212697,1,0,0:0:0:0:
192,192,212697,1,0,0:0:0:0:
320,192,212924,1,0,0:0:0:0:
192,192,213151,1,0,0:0:0:0:
448,192,213151,1,0,0:0:0:0:
320,192,213378,1,0,0:0:0:0:
64,192,213606,1,0,0:0:0:0:
192,192,213833,1,0,0:0:0:0:
448,192,214060,1,0,0:0:0:0:
320,192,214060,1,0,0:0:0:0:
64,192,214288,1,0,0:0:0:0:
320,192,214515,1,0,0:0:0:0:
192,192,214742,1,0,0:0:0:0:
64,192,214969,1,0,0:0:0:0:
448,192,214969,1,0,0:0:0:0:
320,192,215197,128,0,215424:0:0:0:0:
192,192,215424,128,0,215651:0:0:0:0:
448,192,215651,128,0,215878:0:0:0:0:
64,192,215878,1,0,0:0:0:0:
320,192,215878,128,0,216106:0:0:0:0:
192,192,216106,1,0,0:0:0:0:
448,192,216333,1,0,0:0:0:0:
64,192,216560,1,0,0:0:0:0:
320,192,216788,1,0,0:0:0:0:
192,192,216788,1,0,0:0:0:0:
448,192,217015,1,0,0:0:0:0:
64,192,217242,1,0,0:0:0:0:
192,192,217469,1,0,0:0:0:0:
448,192,217697,128,0,218151:0:0:0:0:
320,192,217697,1,0,0:0:0:0:
192,192,218151,1,0,0:0:0:0:
64,192,218151,1,0,0:0:0:0:
320,192,218378,1,0,0:0:0:0:
192,192,218606,1,0,0:0:0:0:
64,192,218606,1,0,0:0:0:0:
448,192,218833,1,0,0:0:0:0:
320,192,219060,1,0,0:0:0:0:
192,192,219060,1,0,0:0:0:0:
64,192,219288,1,0,0:0:0:0:
448,192,219515,1,0,0:0:0:0:
320,192,219515,1,0,0:0:0:0:
192,192,219742,1,0,0:0:0:0:
320,192,219969,1,0,0:0:0:0:
64,192,219969,1,0,0:0:0:0:
448,192,220197,1,0,0:0:0:0:
192,192,220424,1,0,0:0:0:0:
64,192,220424,1,0,0:0:0:0:
320,192,220651,1,0,0:0:0:0:
448,192,220878,1,0,0:0:0:0:
64,192,220878,1,0,0:0:0:0:
192,192,221106,1,0,0:0:0:0:
448,192,221333,1,0,0:0:0:0:
320,192,221447,1,0,0:0:0:0:
192,192,221560,1,0,0:0:0:0:
64,192,221674,1,0,0:0:0:0:
448,192,221788,1,0,0:0:0:0:
448,192,222015,1,0,0:0:0:0:
192,192,222242,1,0,0:0:0:0:
64,192,222242,1,0,0:0:0:0:
320,192,222469,1,0,0:0:0:0:
192,192,222583,1,0,0:0:0:0:
64,192,222697,1,0,0:0:0:0:
192,192,222924,1,0,0:0:0:0:
448,192,222924,1,0,0:0:0:0:
320,192,223151,1,0,0:0:0:0:
320,192,223378,1,0,0:0:0:0:
448,192,223606,1,0,0:0:0:0:
64,192,223833,1,0,0:0:0:0:
192,192,223833,1,0,0:0:0:0:
320,192,224060,1,0,0:0:0:0:
320,192,224288,1,0,0:0:0:0:
448,192,224288,128,0,224742:0:0:0:0:
64,192,224742,1,0,0:0:0:0:
192,192,224742,1,0,0:0:0:0:
448,192,224969,1,0,0:0:0:0:
320,192,224969,128,0,225197:0:0:0:0:
64,192,225197,128,0,225424:0:0:0:0:
320,192,225424,1,0,0:0:0:0:
320,192,225765,1,0,0:0:0:0:
192,192,226106,1,0,0:0:0:0:
64,192,226106,1,0,0:0:0:0:
320,192,226219,1,0,0:0:0:0:
448,192,226333,1,0,0:0:0:0:
192,192,226560,1,0,0:0:0:0:
64,192,226788,1,0,0:0:0:0:
448,192,226788,1,0,0:0:0:0:
320,192,227015,128,0,227469:0:0:0:0:
192,192,227015,1,0,0:0:0:0:
192,192,227469,1,0,0:0:0:0:
320,192,227697,1,0,0:0:0:0:
448,192,227697,1,0,0:0:0:0:
192,192,227924,1,0,0:0:0:0:
64,192,227924,128,0,228378:0:0:0:0:
448,192,228378,1,0,0:0:0:0:
320,192,228378,1,0,0:0:0:0:
64,192,228606,1,0,0:0:0:0:
192,192,228606,1,0,0:0:0:0:
320,192,228833,1,0,0:0:0:0:
64,192,229060,1,0,0:0:0:0:
448,192,229060,128,0,232697:0:0:0:0:
