osu file format v14

[General]
AudioFilename: Chrisye - Cintaku (REDSHiFT Remix).mp3
AudioLeadIn: 0
PreviewTime: 198151
Countdown: 0
SampleSet: Soft
StackLeniency: 0.7
Mode: 3
LetterboxInBreaks: 0
SpecialStyle: 0
WidescreenStoryboard: 1

[Editor]
DistanceSpacing: 0.5
BeatDivisor: 4
GridSize: 32
TimelineZoom: 1.8

[Metadata]
Title:Cintaku (REDSHiFT Remix)
TitleUnicode:Cintaku (REDSHiFT Remix)
Artist:Chrisye
ArtistUnicode:Chrisye
Creator:[ A v a l o n ]
Version:Hard
Source:
Tags:Hatsune Miku Megurine Luka Vocaloid Project Indonesia EDM Cover idoyklik rikuu-p Megu genese erlinadewi-
BeatmapID:917322
BeatmapSetID:419012

[Difficulty]
HPDrainRate:7.5
CircleSize:4
OverallDifficulty:7.5
ApproachRate:5
SliderMultiplier:1.4
SliderTickRate:1

[Events]
//Background and Video events
0,0,"Cintaku (REDSHiFT Remix).jpg",0,0
//Break Periods
//Storyboard Layer 0 (Background)
//Storyboard Layer 1 (Fail)
//Storyboard Layer 2 (Pass)
//Storyboard Layer 3 (Foreground)
//Storyboard Layer 4 (Overlay)
//Storyboard Sound Samples

[TimingPoints]
1788,454.545454545455,4,2,1,50,1,0
121788,-100,4,2,1,60,0,1
145424,-100,4,2,1,50,0,0
198151,-100,4,2,1,60,0,1
229060,-100,4,2,1,50,0,0

[HitObjects]
64,192,1788,5,0,0:0:0:0:
192,192,2015,1,0,0:0:0:0:
320,192,2242,1,0,0:0:0:0:
448,192,2469,1,0,0:0:0:0:
64,192,2469,1,0,0:0:0:0:
192,192,2697,1,0,0:0:0:0:
320,192,2924,1,0,0:0:0:0:
448,192,2924,1,0,0:0:0:0:
192,192,3151,1,0,0:0:0:0:
320,192,3378,1,0,0:0:0:0:
64,192,3606,1,0,0:0:0:0:
448,192,3606,1,0,0:0:0:0:
192,192,3833,1,0,0:0:0:0:
320,192,4060,1,0,0:0:0:0:
64,192,4288,1,0,0:0:0:0:
192,192,4288,1,0,0:0:0:0:
448,192,4515,1,0,0:0:0:0:
320,192,4742,1,0,0:0:0:0:
192,192,4969,1,0,0:0:0:0:
64,192,5197,1,0,0:0:0:0:
448,192,5424,1,0,0:0:0:0:
320,192,5424,1,0,0:0:0:0:
192,192,5651,1,0,0:0:0:0:
320,192,5878,1,0,0:0:0:0:
448,192,6106,1,0,0:0:0:0:
64,192,6106,1,0,0:0:0:0:
192,192,6333,1,0,0:0:0:0:
64,192,6560,1,0,0:0:0:0:
320,192,6560,1,0,0:0:0:0:
192,192,6788,1,0,0:0:0:0:
320,192,7015,1,0,0:0:0:0:
64,192,7242,1,0,0:0:0:0:
448,192,7242,1,0,0:0:0:0:
192,192,7469,1,0,0:0:0:0:
320,192,7697,1,0,0:0:0:0:
64,192,7697,1,0,0:0:0:0:
448,192,7924,1,0,0:0:0:0:
192,192,7924,1,0,0:0:0:0:
320,192,8151,1,0,0:0:0:0:
64,192,8378,1,0,0:0:0:0:
192,192,8378,1,0,0:0:0:0:
320,192,8606,1,0,0:0:0:0:
192,192,8833,1,0,0:0:0:0:
448,192,9060,1,0,0:0:0:0:
64,192,9060,1,0,0:0:0:0:
320,192,9288,1,0,0:0:0:0:
192,192,9515,1,0,0:0:0:0:
320,192,9742,1,0,0:0:0:0:
64,192,9742,1,0,0:0:0:0:
448,192,9969,1,0,0:0:0:0:
192,192,10197,1,0,0:0:0:0:
64,192,10197,1,0,0:0:0:0:
320,192,10424,1,0,0:0:0:0:
192,192,10651,1,0,0:0:0:0:
448,192,10878,1,0,0:0:0:0:
64,192,11106,1,0,0:0:0:0:
320,192,11106,1,0,0:0:0:0:
192,192,11333,1,0,0:0:0:0:
64,192,11560,1,0,0:0:0:0:
448,192,11560,1,0,0:0:0:0:
320,192,11788,1,0,0:0:0:0:
192,192,12015,1,0,0:0:0:0:
448,192,12015,1,0,0:0:0:0:
320,192,12242,1,0,0:0:0:0:
64,192,12469,1,0,0:0:0:0:
192,192,12697,1,0,0:0:0:0:
448,192,12697,128,0,14060:0:0:0:0:
320,192,12924,1,0,0:0:0:0:
64,192,13151,1,0,0:0:0:0:
192,192,13378,1,0,0:0:0:0:
320,192,13606,1,0,0:0:0:0:
64,192,13833,1,0,0:0:0:0:
192,192,14060,1,0,0:0:0:0:
320,192,14288,1,0,0:0:0:0:
64,192,14515,1,0,0:0:0:0:
448,192,14515,1,0,0:0:0:0:
192,192,14742,1,0,0:0:0:0:
320,192,14969,1,0,0:0:0:0:
192,192,15197,1,0,0:0:0:0:
64,192,15197,1,0,0:0:0:0:
448,192,15424,1,0,0:0:0:0:
320,192,15651,1,0,0:0:0:0:
192,192,15651,1,0,0:0:0:0:
64,192,15878,1,0,0:0:0:0:
448,192,16106,128,0,16333:0:0:0:0:
192,192,16333,1,0,0:0:0:0:
64,192,16333,1,0,0:0:0:0:
320,192,16560,1,0,0:0:0:0:
192,192,16674,1,0,0:0:0:0:
448,192,16788,1,0,0:0:0:0:
64,192,16788,1,0,0:0:0:0:
320,192,16901,1,0,0:0:0:0:
192,192,17015,1,0,0:0:0:0:
448,192,17242,1,0,0:0:0:0:
64,192,17242,1,0,0:0:0:0:
192,192,17356,1,0,0:0:0:0:
320,192,17469,1,0,0:0:0:0:
192,192,17583,1,0,0:0:0:0:
64,192,17697,1,0,0:0:0:0:
448,192,17697,1,0,0:0:0:0:
320,192,17810,1,0,0:0:0:0:
192,192,17924,1,0,0:0:0:0:
448,192,18151,1,0,0:0:0:0:
320,192,18151,1,0,0:0:0:0:
192,192,18378,1,0,0:0:0:0:
320,192,18492,1,0,0:0:0:0:
448,192,18606,1,0,0:0:0:0:
64,192,18606,1,0,0:0:0:0:
192,192,18719,1,0,0:0:0:0:
320,192,18833,1,0,0:0:0:0:
448,192,19060,1,0,0:0:0:0:
64,192,19060,1,0,0:0:0:0:
320,192,19174,1,0,0:0:0:0:
192,192,19288,1,0,0:0:0:0:
320,192,19401,1,0,0:0:0:0:
64,192,19515,1,0,0:0:0:0:
448,192,19515,1,0,0:0:0:0:
192,192,19742,1,0,0:0:0:0:
320,192,19856,1,0,0:0:0:0:
448,192,19969,1,0,0:0:0:0:
64,192,19969,1,0,0:0:0:0:
192,192,20197,1,0,0:0:0:0:
64,192,20310,1,0,0:0:0:0:
320,192,20424,1,0,0:0:0:0:
448,192,20424,1,0,0:0:0:0:
192,192,20538,1,0,0:0:0:0:
64,192,20651,1,0,0:0:0:0:
448,192,20878,1,0,0:0:0:0:
320,192,20878,1,0,0:0:0:0:
192,192,20992,1,0,0:0:0:0:
320,192,21106,1,0,0:0:0:0:
192,192,21219,1,0,0:0:0:0:
448,192,21333,1,0,0:0:0:0:
64,192,21333,1,0,0:0:0:0:
320,192,21560,1,0,0:0:0:0:
192,192,21674,1,0,0:0:0:0:
448,192,21788,1,0,0:0:0:0:
64,192,21788,1,0,0:0:0:0:
320,192,22015,1,0,0:0:0:0:
448,192,22128,1,0,0:0:0:0:
64,192,22242,1,0,0:0:0:0:
192,192,22242,1,0,0:0:0:0:
320,192,22356,1,0,0:0:0:0:
448,192,22469,1,0,0:0:0:0:
192,192,22697,1,0,0:0:0:0:
64,192,22697,1,0,0:0:0:0:
320,192,22810,1,0,0:0:0:0:
192,192,22924,1,0,0:0:0:0:
320,192,23038,1,0,0:0:0:0:
448,192,23151,1,0,0:0:0:0:
64,192,23151,128,0,23265:0:0:0:0:
192,192,23265,128,0,23378:0:0:0:0:
320,192,23378,128,0,23492:0:0:0:0:
448,192,23492,128,0,23606:0:0:0:0:
64,192,23606,1,0,0:0:0:0:
192,192,23606,1,0,0:0:0:0:
320,192,23833,1,0,0:0:0:0:
192,192,23947,1,0,0:0:0:0:
448,192,24060,1,0,0:0:0:0:
64,192,24060,1,0,0:0:0:0:
320,192,24174,1,0,0:0:0:0:
192,192,24288,1,0,0:0:0:0:
320,192,24515,1,0,0:0:0:0:
448,192,24515,1,0,0:0:0:0:
64,192,24628,1,0,0:0:0:0:
192,192,24742,1,0,0:0:0:0:
320,192,24856,1,0,0:0:0:0:
64,192,24969,1,0,0:0:0:0:
448,192,24969,1,0,0:0:0:0:
192,192,25083,1,0,0:0:0:0:
320,192,25197,1,0,0:0:0:0:
448,192,25310,1,0,0:0:0:0:
64,192,25424,1,0,0:0:0:0:
192,192,25424,1,0,0:0:0:0:
320,192,25651,1,0,0:0:0:0:
192,192,25765,1,0,0:0:0:0:
448,192,25878,1,0,0:0:0:0:
64,192,25878,1,0,0:0:0:0:
320,192,25992,1,0,0:0:0:0:
192,192,26106,1,0,0:0:0:0:
448,192,26333,1,0,0:0:0:0:
320,192,26333,1,0,0:0:0:0:
64,192,26447,1,0,0:0:0:0:
192,192,26560,1,0,0:0:0:0:
320,192,26674,1,0,0:0:0:0:
448,192,26788,1,0,0:0:0:0:
64,192,26788,1,0,0:0:0:0:
192,192,26901,1,0,0:0:0:0:
320,192,27015,1,0,0:0:0:0:
448,192,27128,1,0,0:0:0:0:
192,192,27242,1,0,0:0:0:0:
64,192,27242,1,0,0:0:0:0:
448,192,27469,1,0,0:0:0:0:
64,192,27469,128,0,27924:0:0:0:0:
320,192,27583,1,0,0:0:0:0:
192,192,27697,1,0,0:0:0:0:
448,192,27810,1,0,0:0:0:0:
320,192,27924,1,0,0:0:0:0:
448,192,28151,1,0,0:0:0:0:
64,192,28151,128,0,28606:0:0:0:0:
320,192,28265,1,0,0:0:0:0:
192,192,28378,1,0,0:0:0:0:
448,192,28492,1,0,0:0:0:0:
320,192,28606,1,0,0:0:0:0:
64,192,28833,1,0,0:0:0:0:
192,192,28947,1,0,0:0:0:0:
320,192,29060,1,0,0:0:0:0:
448,192,29060,1,0,0:0:0:0:
448,192,29288,128,0,29742:0:0:0:0:
64,192,29288,1,0,0:0:0:0:
192,192,29401,1,0,0:0:0:0:
320,192,29515,1,0,0:0:0:0:
64,192,29628,1,0,0:0:0:0:
192,192,29742,1,0,0:0:0:0:
320,192,29969,1,0,0:0:0:0:
192,192,30083,1,0,0:0:0:0:
448,192,30197,1,0,0:0:0:0:
320,192,30310,1,0,0:0:0:0:
64,192,30424,1,0,0:0:0:0:
192,192,30424,1,0,0:0:0:0:
320,192,30538,1,0,0:0:0:0:
448,192,30538,1,0,0:0:0:0:
64,192,30651,1,0,0:0:0:0:
192,192,30651,1,0,0:0:0:0:
448,192,30765,1,0,0:0:0:0:
320,192,30765,1,0,0:0:0:0:
64,192,30878,128,0,31560:0:0:0:0:
192,192,30878,128,0,31560:0:0:0:0:
448,192,31560,1,0,0:0:0:0:
320,192,31560,1,0,0:0:0:0:
192,192,31788,1,0,0:0:0:0:
64,192,31788,1,0,0:0:0:0:
448,192,32242,128,0,32356:0:0:0:0:
320,192,32356,128,0,32469:0:0:0:0:
192,192,32469,128,0,32583:0:0:0:0:
64,192,32583,128,0,32697:0:0:0:0:
320,192,32697,128,0,32924:0:0:0:0:
448,192,32697,128,0,32924:0:0:0:0:
320,192,33038,128,0,33265:0:0:0:0:
448,192,33038,128,0,33265:0:0:0:0:
320,192,33378,128,0,33606:0:0:0:0:
448,192,33378,128,0,33606:0:0:0:0:
64,192,33606,1,0,0:0:0:0:
192,192,33606,1,0,0:0:0:0:
64,192,34060,1,0,0:0:0:0:
448,192,34060,1,0,0:0:0:0:
320,192,34174,1,0,0:0:0:0:
192,192,34288,1,0,0:0:0:0:
64,192,34401,1,0,0:0:0:0:
448,192,34515,128,0,35424:0:0:0:0:
320,192,34515,128,0,35197:0:0:0:0:
64,192,35424,1,0,0:0:0:0:
192,192,35424,1,0,0:0:0:0:
320,192,35878,128,0,36333:0:0:0:0:
448,192,35878,1,0,0:0:0:0:
64,192,36106,128,0,36333:0:0:0:0:
192,192,36333,128,0,36560:0:0:0:0:
448,192,36560,128,0,37015:0:0:0:0:
320,192,36560,128,0,36788:0:0:0:0:
64,192,36788,128,0,37015:0:0:0:0:
192,192,37015,128,0,37128:0:0:0:0:
320,192,37128,128,0,37242:0:0:0:0:
64,192,37242,1,0,0:0:0:0:
448,192,37242,128,0,37469:0:0:0:0:
64,192,37697,128,0,38151:0:0:0:0:
192,192,37697,128,0,37924:0:0:0:0:
320,192,38151,1,0,0:0:0:0:
448,192,38151,128,0,38606:0:0:0:0:
64,192,38606,1,0,0:0:0:0:
192,192,38606,1,0,0:0:0:0:
448,192,38833,1,0,0:0:0:0:
320,192,38833,1,0,0:0:0:0:
192,192,38947,1,0,0:0:0:0:
64,192,39060,1,0,0:0:0:0:
320,192,39174,1,0,0:0:0:0:
192,192,39288,1,0,0:0:0:0:
64,192,39288,1,0,0:0:0:0:
320,192,39515,128,0,40424:0:0:0:0:
448,192,39515,1,0,0:0:0:0:
64,192,40424,1,0,0:0:0:0:
448,192,40424,1,0,0:0:0:0:
192,192,40538,1,0,0:0:0:0:
320,192,40651,1,0,0:0:0:0:
448,192,40765,1,0,0:0:0:0:
192,192,40878,1,0,0:0:0:0:
64,192,40878,1,0,0:0:0:0:
320,192,41106,128,0,41333:0:0:0:0:
448,192,41106,128,0,41333:0:0:0:0:
320,192,41447,128,0,41674:0:0:0:0:
448,192,41447,128,0,41674:0:0:0:0:
448,192,41788,128,0,42469:0:0:0:0:
320,192,41788,128,0,42242:0:0:0:0:
192,192,42469,1,0,0:0:0:0:
320,192,42583,1,0,0:0:0:0:
64,192,42697,128,0,43151:0:0:0:0:
448,192,42697,1,0,0:0:0:0:
448,192,43151,1,0,0:0:0:0:
320,192,43151,128,0,43378:0:0:0:0:
192,192,43378,128,0,43606:0:0:0:0:
448,192,43606,128,0,44060:0:0:0:0:
64,192,43606,1,0,0:0:0:0:
64,192,44060,1,0,0:0:0:0:
192,192,44060,1,0,0:0:0:0:
448,192,44288,1,0,0:0:0:0:
320,192,44288,128,0,44969:0:0:0:0:
192,192,44742,128,0,44969:0:0:0:0:
64,192,44969,1,0,0:0:0:0:
448,192,44969,1,0,0:0:0:0:
192,192,45083,1,0,0:0:0:0:
320,192,45197,1,0,0:0:0:0:
448,192,45310,1,0,0:0:0:0:
64,192,45424,1,0,0:0:0:0:
192,192,45424,1,0,0:0:0:0:
320,192,45651,1,0,0:0:0:0:
192,192,45765,1,0,0:0:0:0:
448,192,45878,1,0,0:0:0:0:
64,192,45878,1,0,0:0:0:0:
320,192,46106,1,0,0:0:0:0:
448,192,46333,1,0,0:0:0:0:
192,192,46333,1,0,0:0:0:0:
320,192,46560,1,0,0:0:0:0:
64,192,46788,1,0,0:0:0:0:
448,192,46788,1,0,0:0:0:0:
192,192,47015,1,0,0:0:0:0:
64,192,47242,1,0,0:0:0:0:
320,192,47242,1,0,0:0:0:0:
448,192,47469,1,0,0:0:0:0:
320,192,47583,1,0,0:0:0:0:
64,192,47697,1,0,0:0:0:0:
192,192,47697,1,0,0:0:0:0:
448,192,47924,1,0,0:0:0:0:
320,192,48151,1,0,0:0:0:0:
64,192,48151,1,0,0:0:0:0:
192,192,48378,1,0,0:0:0:0:
320,192,48492,1,0,0:0:0:0:
448,192,48606,1,0,0:0:0:0:
64,192,48606,1,0,0:0:0:0:
192,192,48833,128,0,49060:0:0:0:0:
448,192,49060,1,0,0:0:0:0:
320,192,49060,1,0,0:0:0:0:
64,192,49288,1,0,0:0:0:0:
192,192,49401,1,0,0:0:0:0:
320,192,49515,1,0,0:0:0:0:
448,192,49515,1,0,0:0:0:0:
192,192,49742,1,0,0:0:0:0:
64,192,49969,1,0,0:0:0:0:
448,192,49969,1,0,0:0:0:0:
320,192,50197,1,0,0:0:0:0:
192,192,50310,1,0,0:0:0:0:
448,192,50424,1,0,0:0:0:0:
320,192,50424,1,0,0:0:0:0:
64,192,50651,1,0,0:0:0:0:
192,192,50878,1,0,0:0:0:0:
448,192,50878,1,0,0:0:0:0:
320,192,51106,1,0,0:0:0:0:
448,192,51219,1,0,0:0:0:0:
64,192,51333,1,0,0:0:0:0:
192,192,51333,1,0,0:0:0:0:
320,192,51560,1,0,0:0:0:0:
448,192,51788,1,0,0:0:0:0:
64,192,51788,1,0,0:0:0:0:
192,192,52015,1,0,0:0:0:0:
320,192,52128,1,0,0:0:0:0:
64,192,52242,1,0,0:0:0:0:
448,192,52242,1,0,0:0:0:0:
192,192,52469,1,0,0:0:0:0:
448,192,52697,1,0,0:0:0:0:
320,192,52697,1,0,0:0:0:0:
192,192,52924,1,0,0:0:0:0:
64,192,53038,1,0,0:0:0:0:
448,192,53151,1,0,0:0:0:0:
320,192,53151,1,0,0:0:0:0:
192,192,53378,1,0,0:0:0:0:
320,192,53606,1,0,0:0:0:0:
64,192,53606,1,0,0:0:0:0:
448,192,53833,1,0,0:0:0:0:
320,192,53947,1,0,0:0:0:0:
192,192,54060,1,0,0:0:0:0:
64,192,54060,1,0,0:0:0:0:
320,192,54288,1,0,0:0:0:0:
448,192,54515,1,0,0:0:0:0:
64,192,54515,1,0,0:0:0:0:
320,192,54742,1,0,0:0:0:0:
192,192,54742,1,0,0:0:0:0:
448,192,54969,1,0,0:0:0:0:
64,192,54969,1,0,0:0:0:0:
192,192,55197,1,0,0:0:0:0:
64,192,55310,1,0,0:0:0:0:
448,192,55424,1,0,0:0:0:0:
320,192,55424,1,0,0:0:0:0:
192,192,55651,1,0,0:0:0:0:
64,192,55651,1,0,0:0:0:0:
64,192,55878,1,0,0:0:0:0:
192,192,55878,1,0,0:0:0:0:
448,192,56106,1,0,0:0:0:0:
320,192,56106,1,0,0:0:0:0:
192,192,56333,1,0,0:0:0:0:
448,192,56333,1,0,0:0:0:0:
320,192,56560,1,0,0:0:0:0:
64,192,56560,1,0,0:0:0:0:
192,192,56788,1,0,0:0:0:0:
64,192,56788,1,0,0:0:0:0:
320,192,57015,1,0,0:0:0:0:
192,192,57128,1,0,0:0:0:0:
320,192,57242,1,0,0:0:0:0:
448,192,57242,1,0,0:0:0:0:
192,192,57469,1,0,0:0:0:0:
64,192,57469,1,0,0:0:0:0:
64,192,57697,1,0,0:0:0:0:
320,192,57697,1,0,0:0:0:0:
192,192,57924,1,0,0:0:0:0:
448,192,57924,1,0,0:0:0:0:
320,192,58151,1,0,0:0:0:0:
448,192,58151,1,0,0:0:0:0:
64,192,58265,1,0,0:0:0:0:
192,192,58378,1,0,0:0:0:0:
320,192,58492,1,0,0:0:0:0:
64,192,58606,1,0,0:0:0:0:
448,192,58606,1,0,0:0:0:0:
192,192,58719,1,0,0:0:0:0:
320,192,58833,1,0,0:0:0:0:
192,192,58947,1,0,0:0:0:0:
64,192,59060,1,0,0:0:0:0:
448,192,59060,1,0,0:0:0:0:
320,192,59174,1,0,0:0:0:0:
192,192,59288,1,0,0:0:0:0:
64,192,59401,1,0,0:0:0:0:
448,192,59515,1,0,0:0:0:0:
320,192,59515,1,0,0:0:0:0:
192,192,59628,1,0,0:0:0:0:
64,192,59742,1,0,0:0:0:0:
320,192,59856,1,0,0:0:0:0:
448,192,59969,1,0,0:0:0:0:
192,192,59969,1,0,0:0:0:0:
320,192,60083,1,0,0:0:0:0:
64,192,60197,1,0,0:0:0:0:
192,192,60310,1,0,0:0:0:0:
64,192,60424,1,0,0:0:0:0:
320,192,60424,1,0,0:0:0:0:
192,192,60538,1,0,0:0:0:0:
448,192,60651,1,0,0:0:0:0:
320,192,60765,1,0,0:0:0:0:
448,192,60878,1,0,0:0:0:0:
192,192,60878,1,0,0:0:0:0:
320,192,60992,1,0,0:0:0:0:
64,192,61106,1,0,0:0:0:0:
192,192,61219,1,0,0:0:0:0:
64,192,61333,128,0,61788:0:0:0:0:
320,192,61333,1,0,0:0:0:0:
448,192,61560,128,0,63151:0:0:0:0:
320,192,61788,128,0,63151:0:0:0:0:
64,192,63151,128,0,63606:0:0:0:0:
192,192,63151,128,0,63606:0:0:0:0:
320,192,63606,1,0,0:0:0:0:
448,192,63606,128,0,64060:0:0:0:0:
64,192,64060,1,0,0:0:0:0:
192,192,64060,1,0,0:0:0:0:
320,192,64174,1,0,0:0:0:0:
192,192,64401,1,0,0:0:0:0:
320,192,64515,1,0,0:0:0:0:
448,192,64515,1,0,0:0:0:0:
64,192,64628,1,0,0:0:0:0:
320,192,64742,128,0,64969:0:0:0:0:
64,192,64969,1,0,0:0:0:0:
192,192,64969,1,0,0:0:0:0:
192,192,65197,128,0,65424:0:0:0:0:
448,192,65424,1,0,0:0:0:0:
320,192,65424,1,0,0:0:0:0:
64,192,65651,1,0,0:0:0:0:
192,192,65765,1,0,0:0:0:0:
448,192,65878,1,0,0:0:0:0:
320,192,65878,128,0,66333:0:0:0:0:
192,192,66106,128,0,66333:0:0:0:0:
64,192,66333,1,0,0:0:0:0:
448,192,66333,1,0,0:0:0:0:
192,192,66560,128,0,66788:0:0:0:0:
320,192,66788,1,0,0:0:0:0:
448,192,66788,1,0,0:0:0:0:
64,192,66901,1,0,0:0:0:0:
192,192,67015,1,0,0:0:0:0:
192,192,67128,1,0,0:0:0:0:
448,192,67242,128,0,67697:0:0:0:0:
320,192,67242,1,0,0:0:0:0:
64,192,67469,1,0,0:0:0:0:
192,192,67697,1,0,0:0:0:0:
320,192,67697,1,0,0:0:0:0:
64,192,67810,1,0,0:0:0:0:
448,192,67924,1,0,0:0:0:0:
192,192,68038,1,0,0:0:0:0:
320,192,68151,1,0,0:0:0:0:
448,192,68151,1,0,0:0:0:0:
192,192,68265,1,0,0:0:0:0:
320,192,68492,1,0,0:0:0:0:
64,192,68606,1,0,0:0:0:0:
448,192,68606,1,0,0:0:0:0:
192,192,68833,128,0,69060:0:0:0:0:
64,192,69060,1,0,0:0:0:0:
448,192,69060,1,0,0:0:0:0:
320,192,69288,1,0,0:0:0:0:
192,192,69401,1,0,0:0:0:0:
64,192,69515,1,0,0:0:0:0:
448,192,69515,128,0,69969:0:0:0:0:
64,192,69969,1,0,0:0:0:0:
192,192,69969,1,0,0:0:0:0:
320,192,70083,1,0,0:0:0:0:
448,192,70197,1,0,0:0:0:0:
192,192,70310,1,0,0:0:0:0:
448,192,70424,1,0,0:0:0:0:
320,192,70424,128,0,70878:0:0:0:0:
64,192,70651,1,0,0:0:0:0:
192,192,70765,1,0,0:0:0:0:
448,192,70878,1,0,0:0:0:0:
64,192,70878,128,0,71333:0:0:0:0:
192,192,71106,128,0,71333:0:0:0:0:
320,192,71333,1,0,0:0:0:0:
448,192,71333,1,0,0:0:0:0:
64,192,71447,1,0,0:0:0:0:
192,192,71674,1,0,0:0:0:0:
320,192,71788,1,0,0:0:0:0:
448,192,71788,1,0,0:0:0:0:
64,192,71901,1,0,0:0:0:0:
448,192,72128,1,0,0:0:0:0:
192,192,72242,1,0,0:0:0:0:
64,192,72242,1,0,0:0:0:0:
320,192,72356,1,0,0:0:0:0:
448,192,72469,128,0,72697:0:0:0:0:
64,192,72583,1,0,0:0:0:0:
192,192,72697,1,0,0:0:0:0:
320,192,72697,1,0,0:0:0:0:
448,192,72924,128,0,73151:0:0:0:0:
192,192,73151,1,0,0:0:0:0:
64,192,73151,1,0,0:0:0:0:
320,192,73265,1,0,0:0:0:0:
64,192,73378,1,0,0:0:0:0:
64,192,73492,1,0,0:0:0:0:
448,192,73606,128,0,74060:0:0:0:0:
320,192,73606,1,0,0:0:0:0:
192,192,73833,1,0,0:0:0:0:
64,192,74060,128,0,74515:0:0:0:0:
320,192,74060,1,0,0:0:0:0:
192,192,74288,128,0,74515:0:0:0:0:
320,192,74515,1,0,0:0:0:0:
448,192,74515,1,0,0:0:0:0:
64,192,74742,1,0,0:0:0:0:
192,192,74856,1,0,0:0:0:0:
448,192,74969,1,0,0:0:0:0:
320,192,74969,1,0,0:0:0:0:
192,192,75083,1,0,0:0:0:0:
64,192,75197,128,0,75424:0:0:0:0:
448,192,75424,1,0,0:0:0:0:
320,192,75424,1,0,0:0:0:0:
192,192,75538,1,0,0:0:0:0:
320,192,75651,1,0,0:0:0:0:
64,192,75765,1,0,0:0:0:0:
192,192,75878,128,0,76333:0:0:0:0:
448,192,75878,1,0,0:0:0:0:
320,192,76106,1,0,0:0:0:0:
64,192,76333,1,0,0:0:0:0:
448,192,76333,1,0,0:0:0:0:
320,192,76560,128,0,77015:0:0:0:0:
192,192,76788,128,0,77015:0:0:0:0:
64,192,76788,1,0,0:0:0:0:
448,192,77015,1,0,0:0:0:0:
320,192,77242,1,0,0:0:0:0:
448,192,77242,128,0,77697:0:0:0:0:
64,192,77697,128,0,78151:0:0:0:0:
192,192,77697,128,0,78151:0:0:0:0:
320,192,78151,1,0,0:0:0:0:
448,192,78151,1,0,0:0:0:0:
64,192,78378,1,0,0:0:0:0:
320,192,78606,1,0,0:0:0:0:
448,192,78606,128,0,78833:0:0:0:0:
192,192,78947,1,0,0:0:0:0:
448,192,79060,1,0,0:0:0:0:
64,192,79060,1,0,0:0:0:0:
320,192,79288,128,0,79515:0:0:0:0:
64,192,79515,1,0,0:0:0:0:
448,192,79515,1,0,0:0:0:0:
192,192,79742,128,0,79969:0:0:0:0:
320,192,79969,1,0,0:0:0:0:
448,192,79969,1,0,0:0:0:0:
64,192,80197,128,0,80424:0:0:0:0:
320,192,80424,1,0,0:0:0:0:
448,192,80424,1,0,0:0:0:0:
192,192,80538,1,0,0:0:0:0:
64,192,80651,1,0,0:0:0:0:
192,192,80765,1,0,0:0:0:0:
320,192,80878,1,0,0:0:0:0:
448,192,80878,1,0,0:0:0:0:
64,192,80992,1,0,0:0:0:0:
192,192,81106,128,0,81333:0:0:0:0:
64,192,81333,1,0,0:0:0:0:
448,192,81333,1,0,0:0:0:0:
320,192,81409,1,0,0:0:0:0:
192,192,81484,1,0,0:0:0:0:
448,192,81560,1,0,0:0:0:0:
320,192,81674,1,0,0:0:0:0:
64,192,81788,1,0,0:0:0:0:
192,192,81788,1,0,0:0:0:0:
320,192,82015,1,0,0:0:0:0:
448,192,82015,128,0,82242:0:0:0:0:
192,192,82242,1,0,0:0:0:0:
64,192,82242,128,0,82469:0:0:0:0:
192,192,82583,1,0,0:0:0:0:
64,192,82697,1,0,0:0:0:0:
448,192,82697,1,0,0:0:0:0:
320,192,82810,1,0,0:0:0:0:
192,192,82924,128,0,83151:0:0:0:0:
64,192,83151,1,0,0:0:0:0:
448,192,83151,1,0,0:0:0:0:
320,192,83378,128,0,83606:0:0:0:0:
64,192,83606,1,0,0:0:0:0:
192,192,83606,1,0,0:0:0:0:
448,192,83833,128,0,84060:0:0:0:0:
192,192,84060,1,0,0:0:0:0:
64,192,84060,1,0,0:0:0:0:
320,192,84174,1,0,0:0:0:0:
448,192,84288,1,0,0:0:0:0:
192,192,84401,1,0,0:0:0:0:
320,192,84515,1,0,0:0:0:0:
448,192,84515,1,0,0:0:0:0:
64,192,84742,128,0,84969:0:0:0:0:
192,192,84969,1,0,0:0:0:0:
448,192,84969,128,0,85424:0:0:0:0:
64,192,85424,1,0,0:0:0:0:
192,192,85424,1,0,0:0:0:0:
320,192,85651,1,0,0:0:0:0:
448,192,85878,128,0,86106:0:0:0:0:
192,192,85878,1,0,0:0:0:0:
64,192,86106,1,0,0:0:0:0:
320,192,86219,1,0,0:0:0:0:
192,192,86333,1,0,0:0:0:0:
64,192,86333,1,0,0:0:0:0:
448,192,86447,1,0,0:0:0:0:
192,192,86674,1,0,0:0:0:0:
320,192,86788,1,0,0:0:0:0:
448,192,86788,1,0,0:0:0:0:
64,192,87015,128,0,87242:0:0:0:0:
320,192,87242,1,0,0:0:0:0:
448,192,87242,1,0,0:0:0:0:
192,192,87356,1,0,0:0:0:0:
320,192,87469,1,0,0:0:0:0:
64,192,87583,1,0,0:0:0:0:
320,192,87697,1,0,0:0:0:0:
448,192,87697,1,0,0:0:0:0:
192,192,87810,1,0,0:0:0:0:
448,192,87924,1,0,0:0:0:0:
320,192,88038,1,0,0:0:0:0:
192,192,88151,1,0,0:0:0:0:
64,192,88151,1,0,0:0:0:0:
448,192,88378,128,0,88606:0:0:0:0:
64,192,88606,1,0,0:0:0:0:
192,192,88606,1,0,0:0:0:0:
320,192,88833,1,0,0:0:0:0:
64,192,89060,1,0,0:0:0:0:
192,192,89060,1,0,0:0:0:0:
448,192,89288,1,0,0:0:0:0:
320,192,89401,1,0,0:0:0:0:
64,192,89515,1,0,0:0:0:0:
192,192,89515,1,0,0:0:0:0:
320,192,89742,1,0,0:0:0:0:
448,192,89742,1,0,0:0:0:0:
64,192,89969,1,0,0:0:0:0:
192,192,89969,1,0,0:0:0:0:
448,192,90197,1,0,0:0:0:0:
320,192,90310,1,0,0:0:0:0:
64,192,90424,1,0,0:0:0:0:
192,192,90424,1,0,0:0:0:0:
320,192,90651,1,0,0:0:0:0:
448,192,90651,1,0,0:0:0:0:
64,192,90878,1,0,0:0:0:0:
192,192,90878,1,0,0:0:0:0:
320,192,90992,1,0,0:0:0:0:
448,192,91106,1,0,0:0:0:0:
192,192,91219,1,0,0:0:0:0:
320,192,91333,1,0,0:0:0:0:
448,192,91333,1,0,0:0:0:0:
64,192,91447,1,0,0:0:0:0:
192,192,91560,1,0,0:0:0:0:
320,192,91674,1,0,0:0:0:0:
64,192,91788,1,0,0:0:0:0:
192,192,91788,1,0,0:0:0:0:
448,192,91901,1,0,0:0:0:0:
320,192,92015,1,0,0:0:0:0:
192,192,92128,1,0,0:0:0:0:
448,192,92242,1,0,0:0:0:0:
64,192,92242,128,0,92697:0:0:0:0:
320,192,92697,128,0,92924:0:0:0:0:
320,192,93151,128,0,93378:0:0:0:0:
192,192,93378,1,0,0:0:0:0:
320,192,93833,128,0,94060:0:0:0:0:
64,192,94060,1,0,0:0:0:0:
448,192,94288,128,0,95197:0:0:0:0:
192,192,94288,1,0,0:0:0:0:
320,192,94742,1,0,0:0:0:0:
64,192,95197,1,0,0:0:0:0:
192,192,95651,128,0,95878:0:0:0:0:
320,192,95878,1,0,0:0:0:0:
64,192,96106,1,0,0:0:0:0:
448,192,96333,128,0,96560:0:0:0:0:
448,192,96788,128,0,97242:0:0:0:0:
192,192,97015,1,0,0:0:0:0:
320,192,97469,1,0,0:0:0:0:
64,192,97697,1,0,0:0:0:0:
448,192,97924,128,0,98833:0:0:0:0:
192,192,97924,1,0,0:0:0:0:
320,192,98378,1,0,0:0:0:0:
192,192,98833,128,0,99060:0:0:0:0:
192,192,99288,128,0,99742:0:0:0:0:
320,192,99742,1,0,0:0:0:0:
448,192,99969,1,0,0:0:0:0:
64,192,99969,128,0,100878:0:0:0:0:
320,192,100424,1,0,0:0:0:0:
192,192,100651,1,0,0:0:0:0:
448,192,100878,1,0,0:0:0:0:
64,192,101106,128,0,101333:0:0:0:0:
320,192,101106,1,0,0:0:0:0:
448,192,101333,1,0,0:0:0:0:
192,192,101560,128,0,102697:0:0:0:0:
64,192,101560,1,0,0:0:0:0:
448,192,101788,1,0,0:0:0:0:
320,192,102015,1,0,0:0:0:0:
64,192,102242,1,0,0:0:0:0:
448,192,102469,1,0,0:0:0:0:
320,192,102697,1,0,0:0:0:0:
64,192,102924,1,0,0:0:0:0:
320,192,103151,128,0,103606:0:0:0:0:
448,192,103151,1,0,0:0:0:0:
192,192,103378,1,0,0:0:0:0:
64,192,103606,1,0,0:0:0:0:
448,192,104060,128,0,104288:0:0:0:0:
320,192,104060,1,0,0:0:0:0:
64,192,104288,1,0,0:0:0:0:
192,192,104515,1,0,0:0:0:0:
448,192,104742,128,0,104969:0:0:0:0:
320,192,104742,1,0,0:0:0:0:
192,192,104969,1,0,0:0:0:0:
448,192,105197,128,0,105878:0:0:0:0:
64,192,105197,1,0,0:0:0:0:
320,192,105424,1,0,0:0:0:0:
192,192,105651,1,0,0:0:0:0:
320,192,105878,1,0,0:0:0:0:
64,192,106106,128,0,106788:0:0:0:0:
192,192,106106,1,0,0:0:0:0:
448,192,106333,1,0,0:0:0:0:
192,192,106560,1,0,0:0:0:0:
320,192,106788,1,0,0:0:0:0:
448,192,107242,1,0,0:0:0:0:
64,192,107242,1,0,0:0:0:0:
192,192,107356,1,0,0:0:0:0:
320,192,107469,1,0,0:0:0:0:
192,192,107583,1,0,0:0:0:0:
448,192,107697,128,0,107810:0:0:0:0:
64,192,107697,1,0,0:0:0:0:
320,192,107810,128,0,107924:0:0:0:0:
192,192,107924,128,0,108038:0:0:0:0:
64,192,108038,128,0,108151:0:0:0:0:
448,192,108151,128,0,108378:0:0:0:0:
320,192,108151,1,0,0:0:0:0:
192,192,108378,1,0,0:0:0:0:
448,192,108606,1,0,0:0:0:0:
320,192,108606,1,0,0:0:0:0:
192,192,108719,1,0,0:0:0:0:
64,192,108833,128,0,109060:0:0:0:0:
448,192,109060,1,0,0:0:0:0:
320,192,109060,1,0,0:0:0:0:
64,192,109174,128,0,109401:0:0:0:0:
320,192,109288,1,0,0:0:0:0:
448,192,109401,1,0,0:0:0:0:
64,192,109515,128,0,109628:0:0:0:0:
192,192,109515,1,0,0:0:0:0:
320,192,109742,1,0,0:0:0:0:
192,192,109856,1,0,0:0:0:0:
320,192,109969,1,0,0:0:0:0:
448,192,109969,1,0,0:0:0:0:
64,192,110197,1,0,0:0:0:0:
192,192,110424,1,0,0:0:0:0:
320,192,110424,1,0,0:0:0:0:
448,192,110651,1,0,0:0:0:0:
320,192,110765,1,0,0:0:0:0:
192,192,110878,1,0,0:0:0:0:
64,192,110878,1,0,0:0:0:0:
320,192,111106,1,0,0:0:0:0:
192,192,111219,1,0,0:0:0:0:
64,192,111333,1,0,0:0:0:0:
448,192,111333,128,0,111560:0:0:0:0:
192,192,111560,1,0,0:0:0:0:
448,192,111788,128,0,112015:0:0:0:0:
320,192,111788,1,0,0:0:0:0:
64,192,112015,1,0,0:0:0:0:
192,192,112128,1,0,0:0:0:0:
448,192,112242,1,0,0:0:0:0:
320,192,112242,1,0,0:0:0:0:
192,192,112356,1,0,0:0:0:0:
64,192,112469,128,0,112697:0:0:0:0:
448,192,112697,1,0,0:0:0:0:
320,192,112697,1,0,0:0:0:0:
64,192,112810,128,0,113038:0:0:0:0:
320,192,112924,1,0,0:0:0:0:
448,192,113038,1,0,0:0:0:0:
192,192,113151,1,0,0:0:0:0:
64,192,113151,128,0,113378:0:0:0:0:
320,192,113378,1,0,0:0:0:0:
192,192,113492,1,0,0:0:0:0:
320,192,113606,1,0,0:0:0:0:
448,192,113606,1,0,0:0:0:0:
64,192,113833,1,0,0:0:0:0:
192,192,114060,1,0,0:0:0:0:
320,192,114060,1,0,0:0:0:0:
448,192,114288,1,0,0:0:0:0:
64,192,114401,1,0,0:0:0:0:
320,192,114515,1,0,0:0:0:0:
448,192,114515,1,0,0:0:0:0:
192,192,114628,1,0,0:0:0:0:
320,192,114742,1,0,0:0:0:0:
64,192,114856,1,0,0:0:0:0:
192,192,114969,1,0,0:0:0:0:
448,192,114969,128,0,115197:0:0:0:0:
320,192,115197,1,0,0:0:0:0:
192,192,115310,1,0,0:0:0:0:
64,192,115424,1,0,0:0:0:0:
448,192,115424,128,0,115651:0:0:0:0:
192,192,115651,1,0,0:0:0:0:
320,192,115765,1,0,0:0:0:0:
64,192,115878,1,0,0:0:0:0:
192,192,115878,1,0,0:0:0:0:
64,192,116106,128,0,116333:0:0:0:0:
448,192,116219,1,0,0:0:0:0:
192,192,116333,1,0,0:0:0:0:
320,192,116333,1,0,0:0:0:0:
448,192,116447,1,0,0:0:0:0:
320,192,116560,1,0,0:0:0:0:
192,192,116674,1,0,0:0:0:0:
448,192,116788,1,0,0:0:0:0:
64,192,116788,128,0,117015:0:0:0:0:
320,192,117015,1,0,0:0:0:0:
448,192,117242,1,0,0:0:0:0:
192,192,117242,128,0,117356:0:0:0:0:
64,192,117356,128,0,117583:0:0:0:0:
320,192,117469,1,0,0:0:0:0:
192,192,117583,128,0,117810:0:0:0:0:
448,192,117697,1,0,0:0:0:0:
64,192,117697,128,0,117810:0:0:0:0:
320,192,117924,1,0,0:0:0:0:
192,192,118151,1,0,0:0:0:0:
448,192,118151,1,0,0:0:0:0:
192,192,118378,1,0,0:0:0:0:
448,192,118378,1,0,0:0:0:0:
64,192,118606,1,0,0:0:0:0:
320,192,118606,1,0,0:0:0:0:
64,192,118833,1,0,0:0:0:0:
320,192,118833,1,0,0:0:0:0:
192,192,119060,1,0,0:0:0:0:
448,192,119060,1,0,0:0:0:0:
192,192,119288,1,0,0:0:0:0:
448,192,119288,1,0,0:0:0:0:
320,192,119515,1,0,0:0:0:0:
64,192,119515,1,0,0:0:0:0:
64,192,119742,1,0,0:0:0:0:
320,192,119742,1,0,0:0:0:0:
448,192,119969,1,0,0:0:0:0:
192,192,119969,1,0,0:0:0:0:
320,192,120197,1,0,0:0:0:0:
64,192,120197,1,0,0:0:0:0:
320,192,120310,1,0,0:0:0:0:
448,192,120424,1,0,0:0:0:0:
192,192,120424,1,0,0:0:0:0:
320,192,120651,1,0,0:0:0:0:
64,192,120651,1,0,0:0:0:0:
192,192,120878,1,0,0:0:0:0:
448,192,120878,128,0,121106:0:0:0:0:
320,192,121106,1,0,0:0:0:0:
64,192,121106,128,0,121333:0:0:0:0:
192,192,121333,1,0,0:0:0:0:
448,192,121333,128,0,121560:0:0:0:0:
64,192,121560,128,0,121788:0:0:0:0:
320,192,121788,1,0,0:0:0:0:
448,192,121788,128,0,123606:0:0:0:0:
192,192,122015,1,0,0:0:0:0:
64,192,122242,1,0,0:0:0:0:
320,192,122242,1,0,0:0:0:0:
320,192,122469,1,0,0:0:0:0:
192,192,122697,1,0,0:0:0:0:
64,192,122697,1,0,0:0:0:0:
320,192,122924,1,0,0:0:0:0:
192,192,123038,1,0,0:0:0:0:
64,192,123151,1,0,0:0:0:0:
320,192,123151,1,0,0:0:0:0:
192,192,123378,1,0,0:0:0:0:
64,192,123606,1,0,0:0:0:0:
320,192,123606,128,0,125424:0:0:0:0:
192,192,123833,1,0,0:0:0:0:
192,192,124060,1,0,0:0:0:0:
448,192,124060,1,0,0:0:0:0:
64,192,124288,1,0,0:0:0:0:
192,192,124515,1,0,0:0:0:0:
448,192,124515,1,0,0:0:0:0:
64,192,124742,1,0,0:0:0:0:
192,192,124856,1,0,0:0:0:0:
64,192,124969,1,0,0:0:0:0:
448,192,124969,1,0,0:0:0:0:
448,192,125197,1,0,0:0:0:0:
192,192,125424,128,0,127242:0:0:0:0:
64,192,125424,1,0,0:0:0:0:
448,192,125651,1,0,0:0:0:0:
320,192,125878,1,0,0:0:0:0:
64,192,125878,1,0,0:0:0:0:
448,192,126106,1,0,0:0:0:0:
320,192,126333,1,0,0:0:0:0:
64,192,126333,1,0,0:0:0:0:
448,192,126560,1,0,0:0:0:0:
320,192,126674,1,0,0:0:0:0:
448,192,126788,1,0,0:0:0:0:
64,192,126788,1,0,0:0:0:0:
320,192,127015,1,0,0:0:0:0:
64,192,127242,128,0,129060:0:0:0:0:
448,192,127242,1,0,0:0:0:0:
320,192,127469,1,0,0:0:0:0:
192,192,127697,1,0,0:0:0:0:
448,192,127697,1,0,0:0:0:0:
320,192,127924,1,0,0:0:0:0:
448,192,128151,1,0,0:0:0:0:
192,192,128151,1,0,0:0:0:0:
320,192,128378,1,0,0:0:0:0:
192,192,128492,1,0,0:0:0:0:
320,192,128606,1,0,0:0:0:0:
448,192,128606,1,0,0:0:0:0:
448,192,128833,1,0,0:0:0:0:
192,192,129060,1,0,0:0:0:0:
320,192,129060,1,0,0:0:0:0:
64,192,129288,1,0,0:0:0:0:
320,192,129515,1,0,0:0:0:0:
448,192,129515,1,0,0:0:0:0:
192,192,129742,1,0,0:0:0:0:
320,192,129969,1,0,0:0:0:0:
64,192,129969,1,0,0:0:0:0:
448,192,130197,1,0,0:0:0:0:
320,192,130310,1,0,0:0:0:0:
64,192,130424,1,0,0:0:0:0:
192,192,130424,1,0,0:0:0:0:
320,192,130651,1,0,0:0:0:0:
192,192,130765,1,0,0:0:0:0:
64,192,130878,1,0,0:0:0:0:
448,192,130878,128,0,130992:0:0:0:0:
320,192,130992,128,0,131106:0:0:0:0:
192,192,131106,128,0,131219:0:0:0:0:
64,192,131219,128,0,131333:0:0:0:0:
448,192,131333,1,0,0:0:0:0:
320,192,131333,1,0,0:0:0:0:
192,192,131560,1,0,0:0:0:0:
64,192,131788,1,0,0:0:0:0:
448,192,131788,1,0,0:0:0:0:
320,192,132015,1,0,0:0:0:0:
448,192,132128,1,0,0:0:0:0:
64,192,132242,1,0,0:0:0:0:
192,192,132242,1,0,0:0:0:0:
320,192,132469,1,0,0:0:0:0:
448,192,132697,1,0,0:0:0:0:
64,192,132697,128,0,132810:0:0:0:0:
192,192,132810,128,0,132924:0:0:0:0:
320,192,132924,128,0,133038:0:0:0:0:
448,192,133038,128,0,133151:0:0:0:0:
192,192,133151,1,0,0:0:0:0:
64,192,133151,1,0,0:0:0:0:
320,192,133378,1,0,0:0:0:0:
192,192,133606,1,0,0:0:0:0:
448,192,133606,1,0,0:0:0:0:
64,192,133833,1,0,0:0:0:0:
192,192,133947,1,0,0:0:0:0:
320,192,134060,1,0,0:0:0:0:
448,192,134060,1,0,0:0:0:0:
192,192,134288,1,0,0:0:0:0:
320,192,134401,1,0,0:0:0:0:
64,192,134515,1,0,0:0:0:0:
448,192,134515,1,0,0:0:0:0:
320,192,134742,1,0,0:0:0:0:
192,192,134856,1,0,0:0:0:0:
448,192,134969,1,0,0:0:0:0:
64,192,134969,1,0,0:0:0:0:
320,192,135083,1,0,0:0:0:0:
192,192,135197,1,0,0:0:0:0:
64,192,135424,1,0,0:0:0:0:
448,192,135424,128,0,135538:0:0:0:0:
320,192,135538,128,0,135651:0:0:0:0:
192,192,135651,128,0,135765:0:0:0:0:
64,192,135765,128,0,135878:0:0:0:0:
320,192,135878,1,0,0:0:0:0:
448,192,135878,1,0,0:0:0:0:
192,192,136106,1,0,0:0:0:0:
320,192,136333,1,0,0:0:0:0:
448,192,136333,128,0,137242:0:0:0:0:
64,192,136560,1,0,0:0:0:0:
320,192,136788,1,0,0:0:0:0:
192,192,136788,1,0,0:0:0:0:
64,192,137015,1,0,0:0:0:0:
192,192,137242,1,0,0:0:0:0:
320,192,137242,1,0,0:0:0:0:
448,192,137469,1,0,0:0:0:0:
320,192,137583,1,0,0:0:0:0:
64,192,137697,1,0,0:0:0:0:
192,192,137697,1,0,0:0:0:0:
320,192,137924,1,0,0:0:0:0:
192,192,138038,1,0,0:0:0:0:
64,192,138151,128,0,138833:0:0:0:0:
448,192,138151,1,0,0:0:0:0:
192,192,138378,1,0,0:0:0:0:
448,192,138606,1,0,0:0:0:0:
320,192,138606,1,0,0:0:0:0:
192,192,138833,128,0,139060:0:0:0:0:
320,192,139060,128,0,139742:0:0:0:0:
448,192,139060,1,0,0:0:0:0:
64,192,139288,1,0,0:0:0:0:
192,192,139515,1,0,0:0:0:0:
448,192,139515,1,0,0:0:0:0:
64,192,139742,128,0,139969:0:0:0:0:
320,192,139969,1,0,0:0:0:0:
448,192,139969,128,0,140651:0:0:0:0:
64,192,140197,1,0,0:0:0:0:
192,192,140310,1,0,0:0:0:0:
320,192,140424,1,0,0:0:0:0:
64,192,140424,1,0,0:0:0:0:
192,192,140651,128,0,141788:0:0:0:0:
320,192,140878,1,0,0:0:0:0:
448,192,140878,1,0,0:0:0:0:
64,192,141106,1,0,0:0:0:0:
448,192,141333,1,0,0:0:0:0:
320,192,141333,128,0,141788:0:0:0:0:
64,192,141788,1,0,0:0:0:0:
448,192,141788,1,0,0:0:0:0:
320,192,142015,1,0,0:0:0:0:
448,192,142242,1,0,0:0:0:0:
64,192,142242,1,0,0:0:0:0:
192,192,142356,1,0,0:0:0:0:
320,192,142469,1,0,0:0:0:0:
64,192,142697,1,0,0:0:0:0:
192,192,142697,1,0,0:0:0:0:
320,192,142924,1,0,0:0:0:0:
64,192,143151,1,0,0:0:0:0:
448,192,143151,1,0,0:0:0:0:
192,192,143378,1,0,0:0:0:0:
320,192,143606,1,0,0:0:0:0:
448,192,143606,1,0,0:0:0:0:
320,192,143833,1,0,0:0:0:0:
448,192,143833,1,0,0:0:0:0:
64,192,144060,1,0,0:0:0:0:
192,192,144060,1,0,0:0:0:0:
320,192,144288,128,0,144742:0:0:0:0:
448,192,144288,1,0,0:0:0:0:
192,192,144742,128,0,145197:0:0:0:0:
320,192,144969,1,0,0:0:0:0:
448,192,144969,1,0,0:0:0:0:
64,192,145197,128,0,146788:0:0:0:0:
320,192,145424,1,0,0:0:0:0:
192,192,145424,1,0,0:0:0:0:
448,192,145651,1,0,0:0:0:0:
320,192,145878,1,0,0:0:0:0:
448,192,145992,1,0,0:0:0:0:
192,192,146219,1,0,0:0:0:0:
448,192,146333,1,0,0:0:0:0:
320,192,146333,1,0,0:0:0:0:
192,192,146560,1,0,0:0:0:0:
448,192,146788,1,0,0:0:0:0:
64,192,147015,1,0,0:0:0:0:
192,192,147015,1,0,0:0:0:0:
320,192,147128,1,0,0:0:0:0:
448,192,147242,1,0,0:0:0:0:
64,192,147469,1,0,0:0:0:0:
320,192,147583,1,0,0:0:0:0:
192,192,147810,1,0,0:0:0:0:
320,192,147924,1,0,0:0:0:0:
448,192,147924,1,0,0:0:0:0:
64,192,148038,1,0,0:0:0:0:
192,192,148151,1,0,0:0:0:0:
448,192,148151,1,0,0:0:0:0:
320,192,148265,1,0,0:0:0:0:
64,192,148492,1,0,0:0:0:0:
320,192,148606,1,0,0:0:0:0:
192,192,148833,128,0,149060:0:0:0:0:
64,192,149060,1,0,0:0:0:0:
448,192,149060,1,0,0:0:0:0:
320,192,149288,1,0,0:0:0:0:
64,192,149401,1,0,0:0:0:0:
192,192,149628,1,0,0:0:0:0:
320,192,149742,1,0,0:0:0:0:
448,192,149742,1,0,0:0:0:0:
64,192,149856,1,0,0:0:0:0:
192,192,149969,1,0,0:0:0:0:
448,192,149969,1,0,0:0:0:0:
320,192,150083,1,0,0:0:0:0:
64,192,150310,1,0,0:0:0:0:
320,192,150424,1,0,0:0:0:0:
192,192,150651,1,0,0:0:0:0:
448,192,150651,1,0,0:0:0:0:
64,192,150878,1,0,0:0:0:0:
320,192,151106,1,0,0:0:0:0:
192,192,151333,1,0,0:0:0:0:
64,192,151333,1,0,0:0:0:0:
448,192,151447,1,0,0:0:0:0:
192,192,151560,1,0,0:0:0:0:
320,192,151674,1,0,0:0:0:0:
448,192,151788,1,0,0:0:0:0:
64,192,151788,1,0,0:0:0:0:
192,192,151901,1,0,0:0:0:0:
320,192,152128,1,0,0:0:0:0:
192,192,152242,1,0,0:0:0:0:
64,192,152242,1,0,0:0:0:0:
448,192,152469,128,0,152697:0:0:0:0:
192,192,152697,1,0,0:0:0:0:
64,192,152697,1,0,0:0:0:0:
320,192,152924,1,0,0:0:0:0:
64,192,153038,1,0,0:0:0:0:
448,192,153265,1,0,0:0:0:0:
320,192,153492,1,0,0:0:0:0:
192,192,153606,1,0,0:0:0:0:
64,192,153606,1,0,0:0:0:0:
448,192,153719,1,0,0:0:0:0:
192,192,153947,1,0,0:0:0:0:
320,192,154060,1,0,0:0:0:0:
448,192,154060,1,0,0:0:0:0:
64,192,154288,1,0,0:0:0:0:
320,192,154515,1,0,0:0:0:0:
192,192,154742,1,0,0:0:0:0:
448,192,154742,1,0,0:0:0:0:
64,192,154856,1,0,0:0:0:0:
320,192,154969,1,0,0:0:0:0:
448,192,154969,1,0,0:0:0:0:
192,192,155083,1,0,0:0:0:0:
64,192,155310,1,0,0:0:0:0:
320,192,155424,1,0,0:0:0:0:
192,192,155424,1,0,0:0:0:0:
448,192,155538,1,0,0:0:0:0:
64,192,155765,1,0,0:0:0:0:
320,192,155878,1,0,0:0:0:0:
320,192,156106,1,0,0:0:0:0:
192,192,156333,1,0,0:0:0:0:
448,192,156333,1,0,0:0:0:0:
64,192,156560,1,0,0:0:0:0:
320,192,156674,1,0,0:0:0:0:
192,192,156901,1,0,0:0:0:0:
64,192,157015,1,0,0:0:0:0:
448,192,157015,1,0,0:0:0:0:
320,192,157128,1,0,0:0:0:0:
192,192,157242,1,0,0:0:0:0:
64,192,157242,1,0,0:0:0:0:
448,192,157356,1,0,0:0:0:0:
192,192,157583,1,0,0:0:0:0:
320,192,157697,1,0,0:0:0:0:
64,192,157924,1,0,0:0:0:0:
192,192,157924,1,0,0:0:0:0:
448,192,158151,1,0,0:0:0:0:
64,192,158378,1,0,0:0:0:0:
320,192,158492,1,0,0:0:0:0:
192,192,158606,1,0,0:0:0:0:
448,192,158606,1,0,0:0:0:0:
64,192,158719,1,0,0:0:0:0:
320,192,158833,1,0,0:0:0:0:
320,192,158947,1,0,0:0:0:0:
192,192,159060,1,0,0:0:0:0:
64,192,159060,1,0,0:0:0:0:
448,192,159174,1,0,0:0:0:0:
192,192,159401,1,0,0:0:0:0:
320,192,159515,1,0,0:0:0:0:
64,192,159742,128,0,160878:0:0:0:0:
448,192,159969,1,0,0:0:0:0:
320,192,159969,1,0,0:0:0:0:
192,192,160878,1,0,0:0:0:0:
320,192,160878,1,0,0:0:0:0:
448,192,161106,128,0,161333:0:0:0:0:
192,192,161333,1,0,0:0:0:0:
64,192,161333,1,0,0:0:0:0:
320,192,161560,128,0,161788:0:0:0:0:
448,192,161788,1,0,0:0:0:0:
64,192,161788,1,0,0:0:0:0:
192,192,162015,128,0,162242:0:0:0:0:
64,192,162015,1,0,0:0:0:0:
448,192,162242,1,0,0:0:0:0:
192,192,162469,1,0,0:0:0:0:
320,192,162469,128,0,162697:0:0:0:0:
64,192,162697,1,0,0:0:0:0:
448,192,162697,128,0,162924:0:0:0:0:
320,192,162924,1,0,0:0:0:0:
192,192,162924,128,0,163151:0:0:0:0:
448,192,163151,1,0,0:0:0:0:
64,192,163151,128,0,163378:0:0:0:0:
320,192,163378,128,0,163606:0:0:0:0:
192,192,163606,1,0,0:0:0:0:
64,192,163606,1,0,0:0:0:0:
448,192,163833,1,0,0:0:0:0:
192,192,164060,1,0,0:0:0:0:
64,192,164060,1,0,0:0:0:0:
320,192,164288,1,0,0:0:0:0:
448,192,164515,1,0,0:0:0:0:
64,192,164515,1,0,0:0:0:0:
192,192,164742,128,0,164969:0:0:0:0:
320,192,164969,1,0,0:0:0:0:
192,192,165197,1,0,0:0:0:0:
64,192,165197,128,0,165424:0:0:0:0:
320,192,165424,1,0,0:0:0:0:
192,192,165651,1,0,0:0:0:0:
448,192,165651,128,0,165878:0:0:0:0:
64,192,165878,1,0,0:0:0:0:
448,192,166106,1,0,0:0:0:0:
320,192,166106,128,0,166333:0:0:0:0:
64,192,166333,1,0,0:0:0:0:
192,192,166333,128,0,166560:0:0:0:0:
448,192,166560,128,0,166788:0:0:0:0:
320,192,166788,128,0,167242:0:0:0:0:
64,192,166788,1,0,0:0:0:0:
448,192,167242,1,0,0:0:0:0:
192,192,167242,1,0,0:0:0:0:
448,192,167583,1,0,0:0:0:0:
192,192,167583,1,0,0:0:0:0:
448,192,167924,1,0,0:0:0:0:
192,192,167924,1,0,0:0:0:0:
64,192,168151,1,0,0:0:0:0:
320,192,168151,1,0,0:0:0:0:
192,192,168378,1,0,0:0:0:0:
320,192,168606,1,0,0:0:0:0:
448,192,168606,1,0,0:0:0:0:
320,192,168947,1,0,0:0:0:0:
448,192,168947,1,0,0:0:0:0:
320,192,169288,1,0,0:0:0:0:
448,192,169288,1,0,0:0:0:0:
448,192,169515,1,0,0:0:0:0:
192,192,169515,1,0,0:0:0:0:
320,192,169742,1,0,0:0:0:0:
64,192,169969,1,0,0:0:0:0:
192,192,169969,1,0,0:0:0:0:
448,192,170197,1,0,0:0:0:0:
64,192,170424,1,0,0:0:0:0:
320,192,170424,1,0,0:0:0:0:
192,192,170651,1,0,0:0:0:0:
320,192,170878,1,0,0:0:0:0:
448,192,170878,128,0,171333:0:0:0:0:
64,192,171333,1,0,0:0:0:0:
192,192,171333,1,0,0:0:0:0:
320,192,171560,1,0,0:0:0:0:
448,192,171560,128,0,172015:0:0:0:0:
64,192,172015,1,0,0:0:0:0:
192,192,172015,1,0,0:0:0:0:
448,192,172469,1,0,0:0:0:0:
320,192,172469,128,0,172924:0:0:0:0:
192,192,172924,1,0,0:0:0:0:
64,192,172924,1,0,0:0:0:0:
320,192,173151,1,0,0:0:0:0:
448,192,173151,1,0,0:0:0:0:
448,192,173378,1,0,0:0:0:0:
448,192,173492,1,0,0:0:0:0:
192,192,173606,1,0,0:0:0:0:
64,192,173606,1,0,0:0:0:0:
320,192,173833,1,0,0:0:0:0:
448,192,173833,1,0,0:0:0:0:
192,192,174060,1,0,0:0:0:0:
64,192,174060,128,0,174515:0:0:0:0:
320,192,174515,1,0,0:0:0:0:
448,192,174515,1,0,0:0:0:0:
192,192,174742,1,0,0:0:0:0:
64,192,174969,1,0,0:0:0:0:
320,192,175197,1,0,0:0:0:0:
192,192,175424,1,0,0:0:0:0:
448,192,175651,1,0,0:0:0:0:
320,192,175878,1,0,0:0:0:0:
192,192,176106,1,0,0:0:0:0:
64,192,176333,1,0,0:0:0:0:
320,192,176333,1,0,0:0:0:0:
448,192,176560,1,0,0:0:0:0:
192,192,176788,1,0,0:0:0:0:
320,192,177015,1,0,0:0:0:0:
64,192,177242,1,0,0:0:0:0:
192,192,177469,1,0,0:0:0:0:
320,192,177697,1,0,0:0:0:0:
448,192,177924,1,0,0:0:0:0:
192,192,178151,1,0,0:0:0:0:
64,192,178151,1,0,0:0:0:0:
320,192,178378,1,0,0:0:0:0:
64,192,178606,1,0,0:0:0:0:
192,192,178833,1,0,0:0:0:0:
448,192,179060,1,0,0:0:0:0:
320,192,179288,1,0,0:0:0:0:
192,192,179515,1,0,0:0:0:0:
64,192,179742,1,0,0:0:0:0:
448,192,179969,1,0,0:0:0:0:
320,192,179969,128,0,180197:0:0:0:0:
192,192,180197,128,0,180424:0:0:0:0:
64,192,180424,1,0,0:0:0:0:
448,192,180424,128,0,180651:0:0:0:0:
320,192,180651,128,0,180878:0:0:0:0:
448,192,180878,1,0,0:0:0:0:
64,192,180878,128,0,181106:0:0:0:0:
192,192,181106,128,0,181333:0:0:0:0:
320,192,181333,128,0,181560:0:0:0:0:
448,192,181333,1,0,0:0:0:0:
64,192,181788,1,0,0:0:0:0:
448,192,181788,1,0,0:0:0:0:
192,192,182015,1,0,0:0:0:0:
64,192,182128,1,0,0:0:0:0:
320,192,182242,1,0,0:0:0:0:
448,192,182242,1,0,0:0:0:0:
64,192,182469,1,0,0:0:0:0:
192,192,182583,1,0,0:0:0:0:
320,192,182697,1,0,0:0:0:0:
448,192,182697,1,0,0:0:0:0:
192,192,182924,1,0,0:0:0:0:
64,192,183038,1,0,0:0:0:0:
320,192,183151,1,0,0:0:0:0:
448,192,183151,1,0,0:0:0:0:
64,192,183378,1,0,0:0:0:0:
192,192,183492,1,0,0:0:0:0:
320,192,183606,1,0,0:0:0:0:
448,192,183606,1,0,0:0:0:0:
192,192,183833,1,0,0:0:0:0:
320,192,183947,1,0,0:0:0:0:
192,192,184060,1,0,0:0:0:0:
64,192,184060,1,0,0:0:0:0:
320,192,184288,1,0,0:0:0:0:
192,192,184401,1,0,0:0:0:0:
448,192,184515,1,0,0:0:0:0:
320,192,184515,1,0,0:0:0:0:
192,192,184742,1,0,0:0:0:0:
320,192,184856,1,0,0:0:0:0:
192,192,184969,1,0,0:0:0:0:
64,192,184969,1,0,0:0:0:0:
320,192,185197,1,0,0:0:0:0:
192,192,185310,1,0,0:0:0:0:
448,192,185424,1,0,0:0:0:0:
320,192,185424,1,0,0:0:0:0:
64,192,185651,1,0,0:0:0:0:
192,192,185765,1,0,0:0:0:0:
448,192,185878,1,0,0:0:0:0:
320,192,185878,1,0,0:0:0:0:
192,192,186106,1,0,0:0:0:0:
64,192,186219,1,0,0:0:0:0:
448,192,186333,1,0,0:0:0:0:
320,192,186333,1,0,0:0:0:0:
64,192,186560,1,0,0:0:0:0:
192,192,186674,1,0,0:0:0:0:
448,192,186788,1,0,0:0:0:0:
320,192,186788,1,0,0:0:0:0:
192,192,187015,1,0,0:0:0:0:
64,192,187128,1,0,0:0:0:0:
448,192,187242,1,0,0:0:0:0:
320,192,187242,1,0,0:0:0:0:
192,192,187469,1,0,0:0:0:0:
320,192,187583,1,0,0:0:0:0:
64,192,187697,1,0,0:0:0:0:
448,192,187697,128,0,188833:0:0:0:0:
192,192,187924,1,0,0:0:0:0:
64,192,188151,1,0,0:0:0:0:
320,192,188151,1,0,0:0:0:0:
192,192,188378,1,0,0:0:0:0:
320,192,188492,1,0,0:0:0:0:
192,192,188606,1,0,0:0:0:0:
64,192,188606,1,0,0:0:0:0:
320,192,188833,1,0,0:0:0:0:
448,192,189060,1,0,0:0:0:0:
64,192,189060,128,0,190878:0:0:0:0:
192,192,189288,1,0,0:0:0:0:
320,192,189401,1,0,0:0:0:0:
448,192,189515,1,0,0:0:0:0:
192,192,189515,1,0,0:0:0:0:
320,192,189742,1,0,0:0:0:0:
192,192,189969,1,0,0:0:0:0:
448,192,189969,1,0,0:0:0:0:
320,192,190197,1,0,0:0:0:0:
192,192,190310,1,0,0:0:0:0:
448,192,190424,1,0,0:0:0:0:
320,192,190424,1,0,0:0:0:0:
448,192,190651,1,0,0:0:0:0:
192,192,190878,128,0,192697:0:0:0:0:
320,192,190878,1,0,0:0:0:0:
448,192,191106,1,0,0:0:0:0:
320,192,191219,1,0,0:0:0:0:
448,192,191333,1,0,0:0:0:0:
64,192,191333,1,0,0:0:0:0:
320,192,191560,1,0,0:0:0:0:
64,192,191788,1,0,0:0:0:0:
448,192,191788,1,0,0:0:0:0:
320,192,192015,1,0,0:0:0:0:
64,192,192128,1,0,0:0:0:0:
448,192,192242,1,0,0:0:0:0:
320,192,192242,1,0,0:0:0:0:
64,192,192469,1,0,0:0:0:0:
320,192,192697,128,0,194515:0:0:0:0:
448,192,192697,1,0,0:0:0:0:
64,192,192924,1,0,0:0:0:0:
192,192,193038,1,0,0:0:0:0:
64,192,193151,1,0,0:0:0:0:
448,192,193151,1,0,0:0:0:0:
192,192,193378,1,0,0:0:0:0:
64,192,193606,1,0,0:0:0:0:
448,192,193606,1,0,0:0:0:0:
192,192,193833,1,0,0:0:0:0:
448,192,193947,1,0,0:0:0:0:
192,192,194060,1,0,0:0:0:0:
64,192,194060,1,0,0:0:0:0:
448,192,194288,1,0,0:0:0:0:
448,192,194515,128,0,195197:0:0:0:0:
64,192,194515,1,0,0:0:0:0:
192,192,194742,1,0,0:0:0:0:
320,192,194856,1,0,0:0:0:0:
64,192,194969,1,0,0:0:0:0:
192,192,195083,1,0,0:0:0:0:
64,192,195197,128,0,196333:0:0:0:0:
320,192,195197,1,0,0:0:0:0:
192,192,195424,1,0,0:0:0:0:
320,192,195651,1,0,0:0:0:0:
448,192,195651,1,0,0:0:0:0:
192,192,195878,1,0,0:0:0:0:
448,192,195878,1,0,0:0:0:0:
320,192,195992,1,0,0:0:0:0:
192,192,196106,1,0,0:0:0:0:
320,192,196333,1,0,0:0:0:0:
448,192,196333,1,0,0:0:0:0:
64,192,196560,1,0,0:0:0:0:
192,192,196560,1,0,0:0:0:0:
448,192,197242,128,0,198151:0:0:0:0:
320,192,197697,128,0,198151:0:0:0:0:
64,192,197697,1,0,0:0:0:0:
64,192,198151,1,0,0:0:0:0:
192,192,198151,1,0,0:0:0:0:
320,192,198378,1,0,0:0:0:0:
192,192,198492,1,0,0:0:0:0:
448,192,198606,1,0,0:0:0:0:
64,192,198606,1,0,0:0:0:0:
192,192,198833,1,0,0:0:0:0:
320,192,199060,1,0,0:0:0:0:
448,192,199060,1,0,0:0:0:0:
64,192,199288,1,0,0:0:0:0:
192,192,199401,1,0,0:0:0:0:
320,192,199515,1,0,0:0:0:0:
64,192,199515,1,0,0:0:0:0:
448,192,199742,1,0,0:0:0:0:
64,192,199969,1,0,0:0:0:0:
192,192,199969,1,0,0:0:0:0:
320,192,200197,1,0,0:0:0:0:
192,192,200310,1,0,0:0:0:0:
448,192,200424,1,0,0:0:0:0:
64,192,200424,1,0,0:0:0:0:
320,192,200651,1,0,0:0:0:0:
448,192,200878,128,0,201788:0:0:0:0:
192,192,200878,1,0,0:0:0:0:
64,192,201106,1,0,0:0:0:0:
320,192,201219,1,0,0:0:0:0:
192,192,201333,1,0,0:0:0:0:
64,192,201333,1,0,0:0:0:0:
320,192,201560,1,0,0:0:0:0:
64,192,201788,1,0,0:0:0:0:
192,192,201788,128,0,201901:0:0:0:0:
320,192,201901,128,0,202015:0:0:0:0:
448,192,202015,128,0,202128:0:0:0:0:
192,192,202128,128,0,202242:0:0:0:0:
448,192,202242,1,0,0:0:0:0:
320,192,202242,128,0,202356:0:0:0:0:
64,192,202356,128,0,202469:0:0:0:0:
192,192,202469,128,0,202583:0:0:0:0:
320,192,202583,128,0,202697:0:0:0:0:
192,192,202697,1,0,0:0:0:0:
64,192,202697,1,0,0:0:0:0:
448,192,202924,1,0,0:0:0:0:
192,192,203038,1,0,0:0:0:0:
320,192,203151,1,0,0:0:0:0:
448,192,203151,1,0,0:0:0:0:
64,192,203378,1,0,0:0:0:0:
192,192,203606,1,0,0:0:0:0:
320,192,203606,1,0,0:0:0:0:
448,192,203833,1,0,0:0:0:0:
320,192,203947,1,0,0:0:0:0:
192,192,204060,1,0,0:0:0:0:
64,192,204060,1,0,0:0:0:0:
448,192,204288,128,0,204401:0:0:0:0:
192,192,204401,128,0,204515:0:0:0:0:
448,192,204515,1,0,0:0:0:0:
320,192,204515,128,0,204628:0:0:0:0:
64,192,204628,128,0,204742:0:0:0:0:
192,192,204742,128,0,204856:0:0:0:0:
64,192,204969,1,0,0:0:0:0:
448,192,204969,1,0,0:0:0:0:
320,192,205197,1,0,0:0:0:0:
192,192,205310,1,0,0:0:0:0:
64,192,205424,1,0,0:0:0:0:
320,192,205424,1,0,0:0:0:0:
448,192,205651,1,0,0:0:0:0:
192,192,205878,1,0,0:0:0:0:
64,192,205878,1,0,0:0:0:0:
320,192,206106,1,0,0:0:0:0:
192,192,206219,1,0,0:0:0:0:
64,192,206333,1,0,0:0:0:0:
448,192,206333,1,0,0:0:0:0:
320,192,206560,1,0,0:0:0:0:
448,192,206674,1,0,0:0:0:0:
64,192,206788,1,0,0:0:0:0:
192,192,206788,1,0,0:0:0:0:
320,192,207015,128,0,207128:0:0:0:0:
192,192,207128,128,0,207242:0:0:0:0:
64,192,207242,128,0,207356:0:0:0:0:
448,192,207242,1,0,0:0:0:0:
320,192,207469,1,0,0:0:0:0:
192,192,207697,1,0,0:0:0:0:
448,192,207697,1,0,0:0:0:0:
64,192,207924,1,0,0:0:0:0:
192,192,208038,1,0,0:0:0:0:
64,192,208151,1,0,0:0:0:0:
320,192,208151,1,0,0:0:0:0:
448,192,208378,1,0,0:0:0:0:
320,192,208492,1,0,0:0:0:0:
64,192,208606,1,0,0:0:0:0:
192,192,208606,1,0,0:0:0:0:
320,192,208833,1,0,0:0:0:0:
64,192,209060,1,0,0:0:0:0:
448,192,209060,128,0,209174:0:0:0:0:
320,192,209174,128,0,209288:0:0:0:0:
192,192,209288,128,0,209401:0:0:0:0:
64,192,209401,128,0,209515:0:0:0:0:
448,192,209515,1,0,0:0:0:0:
320,192,209515,1,0,0:0:0:0:
192,192,209742,1,0,0:0:0:0:
64,192,209969,1,0,0:0:0:0:
320,192,209969,1,0,0:0:0:0:
448,192,210197,1,0,0:0:0:0:
320,192,210310,1,0,0:0:0:0:
192,192,210424,1,0,0:0:0:0:
448,192,210424,1,0,0:0:0:0:
64,192,210651,1,0,0:0:0:0:
320,192,210878,1,0,0:0:0:0:
448,192,210878,1,0,0:0:0:0:
192,192,211106,128,0,211219:0:0:0:0:
320,192,211219,128,0,211333:0:0:0:0:
64,192,211333,1,0,0:0:0:0:
448,192,211333,128,0,211447:0:0:0:0:
192,192,211447,1,0,0:0:0:0:
320,192,211560,1,0,0:0:0:0:
64,192,211788,1,0,0:0:0:0:
448,192,211788,1,0,0:0:0:0:
320,192,212015,1,0,0:0:0:0:
192,192,212242,1,0,0:0:0:0:
448,192,212242,1,0,0:0:0:0:
64,192,212469,1,0,0:0:0:0:
192,192,212583,1,0,0:0:0:0:
448,192,212697,1,0,0:0:0:0:
320,192,212697,128,0,212924:0:0:0:0:
64,192,212924,128,0,213378:0:0:0:0:
320,192,213151,1,0,0:0:0:0:
192,192,213151,1,0,0:0:0:0:
448,192,213378,128,0,213719:0:0:0:0:
64,192,213606,1,0,0:0:0:0:
192,192,213606,1,0,0:0:0:0:
320,192,213833,128,0,214060:0:0:0:0:
64,192,214060,128,0,214288:0:0:0:0:
448,192,214060,1,0,0:0:0:0:
448,192,214288,128,0,214515:0:0:0:0:
320,192,214515,128,0,214742:0:0:0:0:
192,192,214515,1,0,0:0:0:0:
64,192,214742,128,0,215197:0:0:0:0:
448,192,214969,1,0,0:0:0:0:
320,192,214969,1,0,0:0:0:0:
448,192,215197,128,0,215424:0:0:0:0:
192,192,215197,1,0,0:0:0:0:
64,192,215424,1,0,0:0:0:0:
320,192,215424,128,0,215651:0:0:0:0:
448,192,215651,1,0,0:0:0:0:
192,192,215651,128,0,215878:0:0:0:0:
64,192,215878,128,0,216106:0:0:0:0:
320,192,215878,1,0,0:0:0:0:
448,192,216106,128,0,216333:0:0:0:0:
64,192,216333,1,0,0:0:0:0:
192,192,216333,128,0,216560:0:0:0:0:
320,192,216560,128,0,217015:0:0:0:0:
64,192,216788,1,0,0:0:0:0:
448,192,216788,1,0,0:0:0:0:
192,192,216901,1,0,0:0:0:0:
448,192,217015,128,0,217242:0:0:0:0:
64,192,217128,1,0,0:0:0:0:
320,192,217242,1,0,0:0:0:0:
192,192,217242,1,0,0:0:0:0:
448,192,217469,1,0,0:0:0:0:
192,192,217697,1,0,0:0:0:0:
64,192,217697,128,0,218151:0:0:0:0:
320,192,217924,1,0,0:0:0:0:
448,192,218151,1,0,0:0:0:0:
192,192,218151,1,0,0:0:0:0:
320,192,218265,1,0,0:0:0:0:
64,192,218378,1,0,0:0:0:0:
192,192,218492,1,0,0:0:0:0:
448,192,218606,1,0,0:0:0:0:
320,192,218606,1,0,0:0:0:0:
64,192,218833,1,0,0:0:0:0:
192,192,218947,1,0,0:0:0:0:
320,192,219060,1,0,0:0:0:0:
64,192,219060,1,0,0:0:0:0:
448,192,219174,1,0,0:0:0:0:
320,192,219288,1,0,0:0:0:0:
192,192,219401,1,0,0:0:0:0:
448,192,219515,1,0,0:0:0:0:
64,192,219515,1,0,0:0:0:0:
320,192,219628,1,0,0:0:0:0:
192,192,219742,1,0,0:0:0:0:
320,192,219856,1,0,0:0:0:0:
64,192,219969,1,0,0:0:0:0:
448,192,219969,1,0,0:0:0:0:
192,192,220083,1,0,0:0:0:0:
320,192,220197,1,0,0:0:0:0:
192,192,220310,1,0,0:0:0:0:
320,192,220424,1,0,0:0:0:0:
64,192,220424,1,0,0:0:0:0:
448,192,220538,1,0,0:0:0:0:
192,192,220651,1,0,0:0:0:0:
320,192,220765,1,0,0:0:0:0:
64,192,220878,1,0,0:0:0:0:
448,192,220878,1,0,0:0:0:0:
320,192,221106,1,0,0:0:0:0:
64,192,221333,1,0,0:0:0:0:
192,192,221333,1,0,0:0:0:0:
320,192,221447,1,0,0:0:0:0:
448,192,221447,1,0,0:0:0:0:
64,192,221560,1,0,0:0:0:0:
192,192,221560,1,0,0:0:0:0:
320,192,221674,1,0,0:0:0:0:
448,192,221674,1,0,0:0:0:0:
64,192,221788,1,0,0:0:0:0:
192,192,221788,1,0,0:0:0:0:
320,192,222015,1,0,0:0:0:0:
192,192,222015,1,0,0:0:0:0:
448,192,222242,1,0,0:0:0:0:
64,192,222242,1,0,0:0:0:0:
320,192,222469,1,0,0:0:0:0:
448,192,222469,1,0,0:0:0:0:
192,192,222583,1,0,0:0:0:0:
64,192,222697,1,0,0:0:0:0:
320,192,222810,1,0,0:0:0:0:
192,192,222924,1,0,0:0:0:0:
64,192,222924,1,0,0:0:0:0:
320,192,223151,1,0,0:0:0:0:
448,192,223151,1,0,0:0:0:0:
192,192,223378,1,0,0:0:0:0:
320,192,223378,1,0,0:0:0:0:
64,192,223492,1,0,0:0:0:0:
448,192,223606,1,0,0:0:0:0:
320,192,223719,1,0,0:0:0:0:
64,192,223833,1,0,0:0:0:0:
192,192,223833,1,0,0:0:0:0:
320,192,224060,1,0,0:0:0:0:
192,192,224060,1,0,0:0:0:0:
320,192,224288,1,0,0:0:0:0:
448,192,224288,128,0,224742:0:0:0:0:
192,192,224742,1,0,0:0:0:0:
64,192,224742,1,0,0:0:0:0:
320,192,224969,1,0,0:0:0:0:
448,192,224969,1,0,0:0:0:0:
448,192,225197,128,0,225424:0:0:0:0:
64,192,225197,1,0,0:0:0:0:
320,192,225424,1,0,0:0:0:0:
192,192,225424,1,0,0:0:0:0:
320,192,225765,1,0,0:0:0:0:
192,192,225765,1,0,0:0:0:0:
64,192,226106,1,0,0:0:0:0:
192,192,226106,1,0,0:0:0:0:
320,192,226219,1,0,0:0:0:0:
448,192,226333,1,0,0:0:0:0:
192,192,226447,1,0,0:0:0:0:
320,192,226560,1,0,0:0:0:0:
448,192,226560,1,0,0:0:0:0:
64,192,226674,1,0,0:0:0:0:
192,192,226788,1,0,0:0:0:0:
320,192,226788,1,0,0:0:0:0:
448,192,226901,1,0,0:0:0:0:
64,192,227015,128,0,227469:0:0:0:0:
192,192,227015,1,0,0:0:0:0:
448,192,227469,1,0,0:0:0:0:
320,192,227469,1,0,0:0:0:0:
192,192,227697,1,0,0:0:0:0:
448,192,227697,1,0,0:0:0:0:
64,192,227924,1,0,0:0:0:0:
320,192,227924,1,0,0:0:0:0:
192,192,228038,1,0,0:0:0:0:
448,192,228151,1,0,0:0:0:0:
320,192,228265,1,0,0:0:0:0:
448,192,228378,1,0,0:0:0:0:
192,192,228378,1,0,0:0:0:0:
64,192,228492,1,0,0:0:0:0:
192,192,228606,1,0,0:0:0:0:
320,192,228606,128,0,229060:0:0:0:0:
448,192,228833,128,0,229060:0:0:0:0:
192,192,229060,1,0,0:0:0:0:
64,192,229060,128,0,232697:0:0:0:0:
320,192,231560,1,0,0:0:0:0:
192,192,231674,1,0,0:0:0:0:
448,192,231788,1,0,0:0:0:0:
320,192,231901,1,0,0:0:0:0:
448,192,232015,1,0,0:0:0:0:
192,192,232128,1,0,0:0:0:0:
320,192,232242,128,0,232697:0:0:0:0:
448,192,232242,128,0,232697:0:0:0:0:
