osu file format v14

[General]
AudioFilename: audio.mp3
AudioLeadIn: 0
PreviewTime: 99980
Countdown: 0
SampleSet: Soft
StackLeniency: 0.7
Mode: 0
LetterboxInBreaks: 0
WidescreenStoryboard: 0

[Editor]
DistanceSpacing: 0.8
BeatDivisor: 4
GridSize: 32
TimelineZoom: 0.8

[Metadata]
Title:Baba Yetu (feat. Soweto Gospel Choir)
TitleUnicode:Baba Yetu (feat. Soweto Gospel Choir)
Artist:Christopher Tin
ArtistUnicode:Christopher Tin
Creator:TehTotalPwnage
Version:Normal
Source:Civilization IV
Tags:civilization 4 iv game soundtrack christopher tin orchestral soweto gospel choir
BeatmapID:927343
BeatmapSetID:429819

[Difficulty]
HPDrainRate:3
CircleSize:3
OverallDifficulty:4
ApproachRate:4
SliderMultiplier:1.4
SliderTickRate:1

[Events]
//Background and Video events
0,0,"civ4main1280x1024logo_original.jpg",0,0
Video,0,"untitled.avi"
//Break Periods
2,7533,15144
2,79272,96013
2,120999,137739
//Storyboard Layer 0 (Background)
//Storyboard Layer 1 (Fail)
//Storyboard Layer 2 (Pass)
//Storyboard Layer 3 (Foreground)
//Storyboard Sound Samples

[TimingPoints]
812,652.173913043478,4,2,1,40,1,0
58203,652.173913043478,4,2,1,70,1,1
79172,652.173913043478,4,2,0,70,1,0
99930,652.173913043478,4,1,0,60,1,1
120799,652.173913043478,4,2,1,70,1,0

[Colours]
Combo1 : 141,97,22
Combo2 : 33,49,83
Combo3 : 74,94,147
Combo4 : 224,206,134

[HitObjects]
256,192,4725,12,0,7333,2:2:0:0:
416,160,16464,6,0,P|320:128|288:160,1,140
256,192,17442,1,0,0:0:0:0:
256,256,17768,2,0,P|160:288|128:256,1,140,8|8,0:0|0:0,0:0:0:0:
96,224,18746,1,0,0:0:0:0:
96,160,19072,2,0,L|256:160,1,140
192,128,20051,1,0,0:0:0:0:
128,96,20377,2,8,L|288:96,1,140
320,96,21355,1,0,0:0:0:0:
320,64,21518,1,0,0:0:0:0:
384,64,21681,6,0,B|384:192|384:192|384:192,2,70
448,160,22985,2,0,P|448:192|416:224,1,70,8|0,0:0|0:0,0:0:0:0:
384,256,23638,1,8,0:0:0:0:
352,288,23964,1,0,0:0:0:0:
320,288,24127,1,0,0:0:0:0:
288,288,24290,2,0,B|224:224|224:224|224:160,1,140
160,160,25268,1,0,0:0:0:0:
160,96,25594,2,8,B|192:32|192:32|288:32,1,140
320,32,26572,1,0,0:0:0:0:
352,32,26735,1,0,0:0:0:0:
384,32,26898,6,0,P|416:96|352:160,1,140
320,160,27877,2,0,P|320:256|352:288,1,140
424,311,28855,1,8,0:0:0:0:
424,311,29181,1,0,0:0:0:0:
424,311,29507,2,0,L|360:247,1,70
320,224,30159,1,0,0:0:0:0:
256,192,30485,2,0,L|128:96,1,140
144,108,31464,1,8,0:0:0:0:
144,108,31790,1,0,0:0:0:0:
144,108,32116,6,0,L|288:96,1,140
283,96,33094,2,0,L|425:96,1,140
423,96,34072,1,8,0:0:0:0:
423,96,34398,1,0,0:0:0:0:
423,96,34725,2,0,L|329:288,1,210
288,288,36029,1,8,0:0:0:0:
224,288,36355,2,0,L|320:96,1,210
352,64,37659,6,0,P|416:32|480:64,1,140
480,96,38638,1,8,0:0:0:0:
448,160,38964,2,0,P|384:256|352:256,1,140
320,288,39942,2,0,P|224:160|224:160,3,140,0|0|8|8,0:0|0:0|0:0|0:0,0:0:0:0:
288,128,42225,2,0,L|352:160,1,70
256,192,43203,2,0,L|96:192,1,140,0|8,0:0|0:0,0:0:0:0:
96,288,44507,1,8,0:0:0:0:
160,320,44833,1,0,0:0:0:0:
192,320,44996,1,0,0:0:0:0:
224,320,45159,2,0,L|224:160,1,140
320,192,46464,2,8,P|384:224|448:192,1,140
480,128,47442,1,0,0:0:0:0:
480,64,47768,6,0,P|416:32|352:64,1,140
320,96,48746,2,0,L|256:128,3,70,0|8|0|8,0:0|0:0|0:0|0:0,0:0:0:0:
224,160,50051,2,0,L|446:187,1,210
480,192,51355,2,0,P|448:320|352:352,1,210,0|8,0:0|0:0,0:0:0:0:
320,352,52659,2,0,L|217:237,1,140
192,192,53638,6,0,L|192:128,2,35
128,192,54290,1,8,0:0:0:0:
128,256,54616,1,0,0:0:0:0:
64,256,54942,2,0,L|64:192,2,35,8|0|0,0:0|0:0|0:0,0:0:0:0:
64,320,55594,1,0,0:0:0:0:
128,320,55920,1,0,0:0:0:0:
192,320,56246,2,0,L|192:256,2,35
256,320,56898,1,8,0:0:0:0:
256,256,57225,1,0,0:0:0:0:
256,192,57551,2,0,L|192:192,2,35,8|0|0,0:0|0:0|0:0,0:0:0:0:
192,192,58203,6,0,P|160:192|128:160,1,70
128,128,58855,2,0,P|160:96|192:96,1,70
224,128,59507,1,8,0:0:0:0:
256,224,60159,2,0,L|480:160,1,210,8|0,0:0|0:0,0:0:0:0:
448,96,61464,1,0,0:0:0:0:
448,32,61790,1,0,0:0:0:0:
416,32,61953,1,0,0:0:0:0:
384,32,62116,2,0,L|96:96,1,280,8|0,0:0|0:0,0:0:0:0:
128,160,63746,1,0,0:0:0:0:
128,192,63909,1,0,0:0:0:0:
128,224,64072,6,0,P|224:288|320:256,1,210
352,224,65377,1,8,0:0:0:0:
384,192,65703,1,0,0:0:0:0:
384,160,65866,1,0,0:0:0:0:
352,128,66029,2,0,P|224:160|128:64,1,280,0|8,0:0|0:0,0:0:0:0:
96,96,67659,2,0,P|128:64|192:96,1,70,0|8,0:0|0:0,0:0:0:0:
128,128,68311,1,0,0:0:0:0:
128,128,68475,1,0,0:0:0:0:
128,128,68638,6,0,L|256:192,1,140
258,190,69616,2,0,L|261:32,1,140
320,32,70594,1,8,0:0:0:0:
352,64,70920,1,0,0:0:0:0:
384,96,71083,1,0,0:0:0:0:
384,128,71246,2,0,L|256:192,1,140
258,190,72224,2,0,P|224:256|256:320,1,140
320,320,73203,6,0,L|320:96,1,210,8|0,0:0|0:0,0:0:0:0:
320,64,74507,2,0,P|256:32|192:64,1,140,0|8,0:0|0:0,0:0:0:0:
128,96,75485,1,0,0:0:0:0:
96,160,75811,2,0,B|128:192|128:192|160:192,1,70,8|0,0:0|0:0,0:0:0:0:
224,192,76464,1,0,0:0:0:0:
288,192,76790,1,0,0:0:0:0:
288,256,77116,1,0,0:0:0:0:
288,320,77442,1,0,0:0:0:0:
352,320,77768,2,0,L|352:160,2,140,8|8|0,0:0|0:0|0:0,0:0:0:0:
256,192,97333,12,0,99290,0:0:0:0:
256,192,99930,5,0,1:1:0:0:
192,96,100582,2,2,P|256:64|320:96,1,140
320,192,101886,1,0,0:0:0:0:
320,256,102212,1,0,0:0:0:0:
320,288,102375,1,0,0:0:0:0:
320,320,102538,2,2,P|256:352|192:320,1,140
192,256,103516,5,0,0:0:0:0:
256,192,103843,1,0,0:0:0:0:
320,256,104169,1,0,0:0:0:0:
352,288,104332,1,0,0:0:0:0:
384,256,104495,2,2,P|320:128|288:128,1,140
288,128,105473,1,0,0:0:0:0:
224,128,105799,2,2,P|96:256|96:288,1,210
160,288,107103,2,2,L|320:288,1,140
352,288,108082,1,0,0:0:0:0:
448,288,108734,6,2,L|352:288,1,70
416,224,109386,2,2,L|320:224,1,70
384,160,110038,2,0,L|288:160,1,70,2|0,0:0|0:0,0:0:0:0:
256,160,110690,2,0,L|256:0,1,140
352,96,111995,2,2,L|256:96,1,70
224,96,112647,1,0,0:0:0:0:
192,96,112810,1,0,0:0:0:0:
160,96,112973,1,0,0:0:0:0:
64,96,113625,5,0,0:0:0:0:
32,192,114277,1,0,0:0:0:0:
96,192,114603,1,0,0:0:0:0:
160,192,114930,2,2,P|224:64|352:32,1,280
384,64,116560,1,0,0:0:0:0:
416,96,116886,2,2,P|352:224|224:256,1,280
128,256,118843,1,0,0:0:0:0:
160,160,119495,1,0,0:0:0:0:
256,224,120147,1,0,0:0:0:0:
320,224,120473,1,0,0:0:0:0:
320,192,120636,1,0,0:0:0:0:
320,160,120799,1,0,0:0:0:0:
256,192,139059,12,0,141016,0:0:0:0:
128,288,141668,6,0,L|128:64,1,210
160,32,142972,2,8,B|224:96|224:96|224:160,1,140
256,192,143951,1,0,0:0:0:0:
288,192,144114,1,0,0:0:0:0:
320,160,144277,2,0,B|320:96|320:96|384:32,1,140
404,48,145255,2,0,L|448:256,1,210,0|8,0:0|0:0,0:0:0:0:
416,192,146559,1,0,0:0:0:0:
416,160,146722,1,0,0:0:0:0:
416,128,146885,6,0,P|256:96|128:128,1,280,0|8,0:0|0:0,0:0:0:0:
128,160,148516,2,0,L|128:256,2,70,0|8|0,0:0|0:0|0:0,0:0:0:0:
192,192,149494,1,0,0:0:0:0:
256,160,149820,2,0,L|256:256,2,70
320,192,150799,1,8,0:0:0:0:
256,96,151451,1,8,0:0:0:0:
192,0,152103,6,0,P|96:64|96:128,1,140
64,128,153081,1,0,0:0:0:0:
64,192,153407,2,8,P|128:288|192:288,1,140
192,320,154385,1,0,0:0:0:0:
256,320,154712,2,0,P|256:32|224:32,1,420,0|8,0:0|0:0,0:0:0:0:
224,32,156994,1,0,0:0:0:0:
192,32,157157,1,0,0:0:0:0:
192,96,157320,6,0,L|192:224,4,70,0|0|0|0|8,0:0|0:0|0:0|0:0|0:0,0:0:0:0:
320,96,159277,1,8,0:0:0:0:
192,96,159929,1,0,0:0:0:0:
192,256,160907,1,0,0:0:0:0:
192,256,161070,1,0,0:0:0:0:
352,192,161885,1,8,0:0:0:0:
288,288,162538,6,0,L|288:128,1,140
352,128,163516,2,0,B|288:96|288:96|224:160,2,140
288,160,165146,2,0,P|416:256|448:384,1,280,0|8,0:0|0:0,0:0:0:0:
384,352,166777,2,0,L|480:224,1,140
416,192,167755,1,0,0:0:0:0:
352,96,168407,1,0,0:0:0:0:
256,32,169059,2,8,P|128:96|128:128,1,140
128,128,170038,1,0,0:0:0:0:
128,160,170201,1,0,0:0:0:0:
128,192,170364,2,0,P|256:352|288:352,1,210
288,352,171668,2,0,P|224:32|192:32,1,420,8|0,0:0|0:0,0:0:0:0:
128,32,174277,6,8,P|64:96|64:160,1,140
64,192,175255,2,0,P|128:288|288:288,1,280
320,256,176885,1,8,0:0:0:0:
224,224,177538,2,0,L|320:96,1,140,8|0,0:0|0:0,0:0:0:0:
224,32,178842,5,0,0:0:0:0:
288,32,179168,1,0,0:0:0:0:
288,96,179494,1,8,0:0:0:0:
288,192,180146,5,8,0:0:0:0:
288,256,180472,1,0,0:0:0:0:
224,256,180798,1,0,0:0:0:0:
192,160,181451,5,0,0:0:0:0:
192,96,181777,1,0,0:0:0:0:
256,96,182103,1,8,0:0:0:0:
352,96,182755,1,8,0:0:0:0:
352,160,183081,1,0,0:0:0:0:
352,224,183407,6,0,L|192:224,1,140
160,192,184385,1,0,0:0:0:0:
192,160,184712,2,8,L|352:160,1,140
288,192,185690,1,0,0:0:0:0:
256,192,186016,12,0,187972,0:0:0:0:
192,224,188625,6,0,P|256:256|320:192,1,140
352,192,189603,1,0,0:0:0:0:
320,160,189929,2,8,P|256:128|192:160,1,140
256,192,191233,12,0,193190,0:0:0:0:
64,32,193842,6,0,L|160:32,1,70
96,96,194494,2,0,L|192:96,1,70
128,160,195146,2,0,L|224:160,1,70,8|0,0:0|0:0,0:0:0:0:
160,224,195798,2,0,L|256:224,1,70,8|0,0:0|0:0,0:0:0:0:
256,192,196451,12,0,198407,0:0:0:0:
160,224,199059,6,0,L|256:224,1,70
256,192,199712,1,0,0:0:0:0:
288,160,200038,1,0,0:0:0:0:
320,96,200364,2,0,L|224:96,1,70,8|0,0:0|0:0,0:0:0:0:
224,128,201016,1,8,0:0:0:0:
192,160,201342,1,0,0:0:0:0:
256,192,201668,12,8,203625,0:0:0:0:
256,192,204277,5,0,0:1:0:0:
