osu file format v14

[General]
AudioFilename: audio.mp3
AudioLeadIn: 0
PreviewTime: 99980
Countdown: 0
SampleSet: Soft
StackLeniency: 0.7
Mode: 0
LetterboxInBreaks: 0
WidescreenStoryboard: 1

[Editor]
DistanceSpacing: 0.8
BeatDivisor: 2
GridSize: 32
TimelineZoom: 0.6999999

[Metadata]
Title:Baba Yetu (feat. Soweto Gospel Choir)
TitleUnicode:Baba Yetu (feat. Soweto Gospel Choir)
Artist:Christopher Tin
ArtistUnicode:Christopher Tin
Creator:TehTotalPwnage
Version:Easy
Source:Civilization IV
Tags:civilization 4 iv game soundtrack christopher tin orchestral soweto gospel choir
BeatmapID:927953
BeatmapSetID:429819

[Difficulty]
HPDrainRate:2
CircleSize:2
OverallDifficulty:2
ApproachRate:2
SliderMultiplier:1.4
SliderTickRate:1

[Events]
//Background and Video events
0,0,"civ4main1280x1024logo_original.jpg",0,0
Video,0,"untitled.avi"
//Break Periods
2,7533,14904
2,79272,95773
2,120999,137499
//Storyboard Layer 0 (Background)
//Storyboard Layer 1 (Fail)
//Storyboard Layer 2 (Pass)
//Storyboard Layer 3 (Foreground)
//Storyboard Sound Samples

[TimingPoints]
812,652.173913043478,4,2,1,40,1,0
58203,652.173913043478,4,2,1,70,1,1
79072,652.173913043478,4,2,0,70,1,0
99930,652.173913043478,4,1,0,60,1,1
120799,652.173913043478,4,2,1,70,1,0

[Colours]
Combo1 : 141,97,22
Combo2 : 33,49,83
Combo3 : 74,94,147
Combo4 : 224,206,134

[HitObjects]
256,192,4725,12,0,7333,2:2:0:0:
320,160,16464,6,0,P|224:160|224:192,1,140
256,256,17768,2,0,L|96:256,1,140,8|0,0:0|0:0,0:0:0:0:
96,160,19072,1,0,0:0:0:0:
224,160,19725,1,0,0:0:0:0:
160,64,20377,2,0,L|320:64,1,140,8|0,0:0|0:0,0:0:0:0:
416,32,21681,6,0,P|416:128|384:192,2,140,0|0|8,0:0|0:0|0:0,0:0:0:0:
288,32,23638,1,0,0:0:0:0:
224,160,24290,2,0,B|160:256|160:256|128:256,1,140
64,160,25594,2,0,B|128:64|128:64|160:64,1,140,8|0,0:0|0:0,0:0:0:0:
256,64,26898,6,0,P|352:128|352:160,1,140
384,256,28203,2,0,B|384:320|384:320|288:320,1,140,8|0,0:0|0:0,0:0:0:0:
192,320,29507,1,0,0:0:0:0:
96,256,30159,1,0,0:0:0:0:
64,128,30811,2,0,P|64:32|128:32,1,140,8|0,0:0|0:0,0:0:0:0:
192,32,32116,6,0,L|345:27,1,140
448,32,33420,1,8,0:0:0:0:
416,128,34072,1,0,0:0:0:0:
320,96,34725,2,0,L|256:256,1,140
160,192,36029,2,0,L|224:32,1,140,8|0,0:0|0:0,0:0:0:0:
288,160,37333,1,0,0:0:0:0:
320,32,37985,6,0,P|480:64|480:64,1,140,0|8,0:0|0:0,0:0:0:0:
448,160,39290,2,0,P|384:256|352:256,1,140
256,288,40594,2,0,P|160:160|160:160,3,140,0|8|0|0,0:0|0:0|0:0|0:0,0:0:0:0:
192,64,43203,1,0,0:0:0:0:
64,32,43855,1,8,0:0:0:0:
32,160,44507,1,0,0:0:0:0:
128,192,45159,2,0,L|128:32,1,140
224,64,46464,2,8,L|384:64,1,140
384,160,47768,6,0,B|192:160|192:160|96:192,1,280,0|8,0:0|0:0,0:0:0:0:
64,288,49725,2,0,L|224:288,1,140
288,224,51029,2,0,B|256:320|256:320|192:320,1,140,0|8,0:0|0:0,0:0:0:0:
96,288,52333,1,0,0:0:0:0:
32,192,52985,1,0,0:0:0:0:
96,96,53638,6,0,L|96:0,2,70,0|0|8,0:0|0:0|0:0,0:0:0:0:
192,96,54942,2,0,L|192:0,2,70
288,96,56246,2,0,L|288:0,2,70,0|0|8,0:0|0:0|0:0,0:0:0:0:
192,32,57551,1,0,0:0:0:0:
128,128,58203,6,0,L|64:192,2,70
224,192,59507,1,8,0:0:0:0:
224,96,60159,2,0,L|384:32,1,140
448,64,61464,1,0,0:0:0:0:
512,160,62116,2,0,P|320:288|288:256,1,280
224,320,64072,6,0,L|224:160,1,140,0|8,0:0|0:0,0:0:0:0:
224,64,65377,1,0,0:0:0:0:
285,158,66029,2,0,L|-3:158,1,280,0|8,0:0|0:0,0:0:0:0:
64,64,67985,1,0,0:0:0:0:
160,64,68637,6,0,P|224:128|288:128,1,140
384,160,69942,1,8,0:0:0:0:
384,64,70594,1,0,0:0:0:0:
288,64,71246,2,0,P|192:96|192:128,1,140
256,192,72551,2,0,L|254:354,1,140,8|0,0:0|0:0,0:0:0:0:
352,288,73855,6,0,L|352:-9,1,280,0|8,0:0|0:0,0:0:0:0:
256,64,75811,2,0,L|352:64,2,70
160,128,77116,1,0,0:0:0:0:
256,192,77768,2,0,L|256:32,2,140,8|0|0,0:0|0:0|0:0,0:0:0:0:
256,192,97333,12,0,99290,0:0:0:0:
256,192,99930,5,0,1:1:0:0:
192,96,100582,2,2,P|256:64|320:96,1,140
352,192,101886,1,0,0:0:0:0:
320,288,102538,2,2,P|224:320|192:256,1,140
256,192,103843,1,0,0:0:0:0:
352,192,104495,6,2,P|288:64|256:64,1,140
192,64,105799,2,2,P|96:128|96:160,1,140
160,224,107103,1,0,0:0:0:0:
288,224,107756,1,2,0:0:0:0:
448,320,108734,6,2,L|352:320,1,70
384,224,109712,2,2,L|224:224,1,140
256,160,111016,2,2,L|256:0,1,140
320,128,112321,2,2,L|160:128,1,140
64,96,113625,5,0,0:0:0:0:
32,192,114277,1,2,0:0:0:0:
160,192,114930,2,2,L|384:0,1,280,0|0,0:0|0:0,0:0:0:0:
448,96,116886,2,2,L|224:288,1,280
192,160,118843,5,0,0:0:0:0:
288,160,119495,1,0,0:0:0:0:
288,256,120147,1,0,0:0:0:0:
192,256,120799,1,0,0:0:0:0:
256,192,139059,12,0,141016,0:0:0:0:
96,288,141668,6,0,L|96:128,1,140
128,32,142972,2,0,P|192:128|224:128,1,140,8|0,0:0|0:0,0:0:0:0:
320,128,144277,1,0,0:0:0:0:
384,32,144929,1,0,0:0:0:0:
448,128,145581,2,0,L|448:288,1,140,8|0,0:0|0:0,0:0:0:0:
384,192,146885,6,0,P|128:192|96:224,1,280,0|8,0:0|0:0,0:0:0:0:
128,256,148842,2,0,L|128:352,2,70
224,224,150146,2,0,L|224:320,2,70,0|0|8,0:0|0:0|0:0,0:0:0:0:
256,128,151451,1,0,0:0:0:0:
192,64,152103,6,0,P|96:128|96:192,1,140
96,256,153407,2,0,P|160:352|224:352,1,140,8|0,0:0|0:0,0:0:0:0:
288,352,154712,2,0,P|288:64|256:64,1,420
192,96,157320,6,0,L|192:224,2,70
128,0,158625,1,8,0:0:0:0:
224,0,159277,1,0,0:0:0:0:
192,96,159929,1,0,0:0:0:0:
160,192,160581,1,0,0:0:0:0:
256,160,161233,1,8,0:0:0:0:
352,192,161885,1,0,0:0:0:0:
288,288,162538,6,0,L|288:128,1,140
352,64,163842,2,0,B|288:32|288:32|224:96,2,140,8|0|0,0:0|0:0|0:0,0:0:0:0:
288,160,165799,2,0,L|416:256,1,140,0|8,0:0|0:0,0:0:0:0:
320,320,167103,1,0,0:0:0:0:
224,256,167755,1,0,0:0:0:0:
288,160,168407,5,0,0:0:0:0:
256,64,169059,2,0,P|128:128|128:160,1,140,8|0,0:0|0:0,0:0:0:0:
96,224,170364,2,0,P|128:320|160:320,1,140
256,320,171668,2,0,P|192:0|160:0,1,420,8|0,0:0|0:0,0:0:0:0:
192,128,174277,6,0,L|160:320,1,140,8|0,0:0|0:0,0:0:0:0:
288,192,175581,2,0,L|256:384,1,140
160,352,176885,1,8,0:0:0:0:
64,288,177538,2,0,L|160:160,1,140
256,128,178842,5,0,0:0:0:0:
352,192,179494,1,8,0:0:0:0:
320,288,180146,5,0,0:0:0:0:
224,288,180798,1,0,0:0:0:0:
160,192,181451,5,0,0:0:0:0:
224,96,182103,1,8,0:0:0:0:
320,128,182755,1,0,0:0:0:0:
320,224,183407,6,0,L|160:224,1,140
160,128,184712,2,0,L|320:128,1,140,8|0,0:0|0:0,0:0:0:0:
384,192,186016,2,0,P|128:160|128:224,1,420
192,288,188625,6,0,L|352:288,1,140
320,192,189929,2,0,L|160:192,1,140,8|0,0:0|0:0,0:0:0:0:
256,192,191233,12,0,193190,0:0:0:0:
64,64,193842,6,0,L|160:64,2,70
128,160,195146,2,0,L|224:160,2,70,8|0|0,0:0|0:0|0:0,0:0:0:0:
128,288,196451,1,0,0:0:0:0:
224,288,197103,1,0,0:0:0:0:
320,288,197755,1,8,0:0:0:0:
320,192,198407,1,0,0:0:0:0:
224,128,199059,6,0,L|384:128,1,140
288,32,200364,2,0,L|192:32,2,70,8|0|0,0:0|0:0|0:0,0:0:0:0:
256,192,201668,12,0,204277,0:0:0:0:
